  0
SECTION
  2
HEADER
  9
$ACADVER
  1
AC1027
  9
$ACADMAINTVER
 70
     8
  9
$DWGCODEPAGE
  3
ANSI_1252
  9
$REQUIREDVERSIONS
160
                 0
  9
$INSBASE
 10
0.0
 20
0.0
 30
0.0
  9
$EXTMIN
 10
0.0
 20
0.0
 30
0.0
  9
$EXTMAX
 10
210.0
 20
297.0
 30
0.0
  9
$LIMMIN
 10
0.0
 20
0.0
  9
$LIMMAX
 10
210.0
 20
297.0
  9
$ORTHOMODE
 70
     0
  9
$REGENMODE
 70
     1
  9
$FILLMODE
 70
     1
  9
$QTEXTMODE
 70
     0
  9
$MIRRTEXT
 70
     1
  9
$LTSCALE
 40
1.0
  9
$ATTMODE
 70
     1
  9
$TEXTSIZE
 40
2.5
  9
$TRACEWID
 40
1.0
  9
$TEXTSTYLE
  7
Standard
  9
$CLAYER
  8
Dimension
  9
$CELTYPE
  6
ByLayer
  9
$CECOLOR
 62
   256
  9
$CELTSCALE
 40
1.0
  9
$DISPSILH
 70
     0
  9
$DIMSCALE
 40
1.0
  9
$DIMASZ
 40
2.5
  9
$DIMEXO
 40
0.625
  9
$DIMDLI
 40
3.75
  9
$DIMRND
 40
0.0
  9
$DIMDLE
 40
0.0
  9
$DIMEXE
 40
1.25
  9
$DIMTP
 40
0.0
  9
$DIMTM
 40
0.0
  9
$DIMTXT
 40
2.5
  9
$DIMCEN
 40
2.5
  9
$DIMTSZ
 40
0.0
  9
$DIMTOL
 70
     0
  9
$DIMLIM
 70
     0
  9
$DIMTIH
 70
     0
  9
$DIMTOH
 70
     0
  9
$DIMSE1
 70
     0
  9
$DIMSE2
 70
     0
  9
$DIMTAD
 70
     1
  9
$DIMZIN
 70
     8
  9
$DIMBLK
  1

  9
$DIMASO
 70
     1
  9
$DIMSHO
 70
     1
  9
$DIMPOST
  1

  9
$DIMAPOST
  1

  9
$DIMALT
 70
     0
  9
$DIMALTD
 70
     3
  9
$DIMALTF
 40
0.03937007874016
  9
$DIMLFAC
 40
1.0
  9
$DIMTOFL
 70
     1
  9
$DIMTVP
 40
0.0
  9
$DIMTIX
 70
     0
  9
$DIMSOXD
 70
     0
  9
$DIMSAH
 70
     0
  9
$DIMBLK1
  1

  9
$DIMBLK2
  1

  9
$DIMSTYLE
  2
ISO-25
  9
$DIMCLRD
 70
     0
  9
$DIMCLRE
 70
     0
  9
$DIMCLRT
 70
     0
  9
$DIMTFAC
 40
1.0
  9
$DIMGAP
 40
0.625
  9
$DIMJUST
 70
     0
  9
$DIMSD1
 70
     0
  9
$DIMSD2
 70
     0
  9
$DIMTOLJ
 70
     0
  9
$DIMTZIN
 70
     8
  9
$DIMALTZ
 70
     0
  9
$DIMALTTZ
 70
     0
  9
$DIMUPT
 70
     0
  9
$DIMDEC
 70
     2
  9
$DIMTDEC
 70
     2
  9
$DIMALTU
 70
     2
  9
$DIMALTTD
 70
     3
  9
$DIMTXSTY
  7
Standard
  9
$DIMAUNIT
 70
     0
  9
$DIMADEC
 70
     0
  9
$DIMALTRND
 40
0.0
  9
$DIMAZIN
 70
     0
  9
$DIMDSEP
 70
    44
  9
$DIMATFIT
 70
     3
  9
$DIMFRAC
 70
     0
  9
$DIMLDRBLK
  1

  9
$DIMLUNIT
 70
     2
  9
$DIMLWD
 70
    -2
  9
$DIMLWE
 70
    -2
  9
$DIMTMOVE
 70
     0
  9
$DIMFXL
 40
1.0
  9
$DIMFXLON
 70
     0
  9
$DIMJOGANG
 40
0.7853981633974483
  9
$DIMTFILL
 70
     0
  9
$DIMTFILLCLR
 70
     0
  9
$DIMARCSYM
 70
     0
  9
$DIMLTYPE
  6

  9
$DIMLTEX1
  6

  9
$DIMLTEX2
  6

  9
$DIMTXTDIRECTION
 70
     0
  9
$LUNITS
 70
     2
  9
$LUPREC
 70
     4
  9
$SKETCHINC
 40
1.0
  9
$FILLETRAD
 40
10.0
  9
$AUNITS
 70
     0
  9
$AUPREC
 70
     0
  9
$MENU
  1
.
  9
$ELEVATION
 40
0.0
  9
$PELEVATION
 40
0.0
  9
$THICKNESS
 40
0.0
  9
$LIMCHECK
 70
     0
  9
$CHAMFERA
 40
0.0
  9
$CHAMFERB
 40
0.0
  9
$CHAMFERC
 40
0.0
  9
$CHAMFERD
 40
0.0
  9
$SKPOLY
 70
     0
  9
$TDCREATE
 40
2457203.777719907
  9
$TDUCREATE
 40
2457204.069386574
  9
$TDUPDATE
 40
2457203.777719907
  9
$TDUUPDATE
 40
2457204.069386574
  9
$TDINDWG
 40
0.0000000116
  9
$TDUSRTIMER
 40
0.0000000116
  9
$USRTIMER
 70
     1
  9
$ANGBASE
 50
0.0
  9
$ANGDIR
 70
     0
  9
$PDMODE
 70
     0
  9
$PDSIZE
 40
0.0
  9
$PLINEWID
 40
0.0
  9
$SPLFRAME
 70
     0
  9
$SPLINETYPE
 70
     6
  9
$SPLINESEGS
 70
     8
  9
$HANDSEED
  5
23F
  9
$SURFTAB1
 70
     6
  9
$SURFTAB2
 70
     6
  9
$SURFTYPE
 70
     6
  9
$SURFU
 70
     6
  9
$SURFV
 70
     6
  9
$UCSBASE
  2

  9
$UCSNAME
  2

  9
$UCSORG
 10
0.0
 20
0.0
 30
0.0
  9
$UCSXDIR
 10
1.0
 20
0.0
 30
0.0
  9
$UCSYDIR
 10
0.0
 20
1.0
 30
0.0
  9
$UCSORTHOREF
  2

  9
$UCSORTHOVIEW
 70
     0
  9
$UCSORGTOP
 10
0.0
 20
0.0
 30
0.0
  9
$UCSORGBOTTOM
 10
0.0
 20
0.0
 30
0.0
  9
$UCSORGLEFT
 10
0.0
 20
0.0
 30
0.0
  9
$UCSORGRIGHT
 10
0.0
 20
0.0
 30
0.0
  9
$UCSORGFRONT
 10
0.0
 20
0.0
 30
0.0
  9
$UCSORGBACK
 10
0.0
 20
0.0
 30
0.0
  9
$PUCSBASE
  2

  9
$PUCSNAME
  2

  9
$PUCSORG
 10
0.0
 20
0.0
 30
0.0
  9
$PUCSXDIR
 10
1.0
 20
0.0
 30
0.0
  9
$PUCSYDIR
 10
0.0
 20
1.0
 30
0.0
  9
$PUCSORTHOREF
  2

  9
$PUCSORTHOVIEW
 70
     0
  9
$PUCSORGTOP
 10
0.0
 20
0.0
 30
0.0
  9
$PUCSORGBOTTOM
 10
0.0
 20
0.0
 30
0.0
  9
$PUCSORGLEFT
 10
0.0
 20
0.0
 30
0.0
  9
$PUCSORGRIGHT
 10
0.0
 20
0.0
 30
0.0
  9
$PUCSORGFRONT
 10
0.0
 20
0.0
 30
0.0
  9
$PUCSORGBACK
 10
0.0
 20
0.0
 30
0.0
  9
$USERI1
 70
     0
  9
$USERI2
 70
     0
  9
$USERI3
 70
     0
  9
$USERI4
 70
     0
  9
$USERI5
 70
     0
  9
$USERR1
 40
0.0
  9
$USERR2
 40
0.0
  9
$USERR3
 40
0.0
  9
$USERR4
 40
0.0
  9
$USERR5
 40
0.0
  9
$WORLDVIEW
 70
     1
  9
$SHADEDGE
 70
     3
  9
$SHADEDIF
 70
    70
  9
$TILEMODE
 70
     1
  9
$MAXACTVP
 70
    64
  9
$PINSBASE
 10
0.0
 20
0.0
 30
0.0
  9
$PLIMCHECK
 70
     0
  9
$PEXTMIN
 10
1.000000000000000E+20
 20
1.000000000000000E+20
 30
1.000000000000000E+20
  9
$PEXTMAX
 10
-1.000000000000000E+20
 20
-1.000000000000000E+20
 30
-1.000000000000000E+20
  9
$PLIMMIN
 10
0.0
 20
0.0
  9
$PLIMMAX
 10
420.0
 20
297.0
  9
$UNITMODE
 70
     0
  9
$VISRETAIN
 70
     1
  9
$PLINEGEN
 70
     0
  9
$PSLTSCALE
 70
     1
  9
$TREEDEPTH
 70
  3020
  9
$CMLSTYLE
  2
Standard
  9
$CMLJUST
 70
     0
  9
$CMLSCALE
 40
20.0
  9
$PROXYGRAPHICS
 70
     1
  9
$MEASUREMENT
 70
     1
  9
$CELWEIGHT
370
    -1
  9
$ENDCAPS
280
     0
  9
$JOINSTYLE
280
     0
  9
$LWDISPLAY
290
     0
  9
$INSUNITS
 70
     4
  9
$HYPERLINKBASE
  1

  9
$STYLESHEET
  1

  9
$XEDIT
290
     1
  9
$CEPSNTYPE
380
     0
  9
$PSTYLEMODE
290
     1
  9
$FINGERPRINTGUID
  2
{7dd57350-0a1e-404c-be87-a7005cec08b4}
  9
$VERSIONGUID
  2
{FAEB1C32-E019-11D5-929B-00C0DF256EC4}
  9
$EXTNAMES
290
     1
  9
$PSVPSCALE
 40
0.0
  9
$OLESTARTUP
290
     0
  9
$SORTENTS
280
   127
  9
$INDEXCTL
280
     0
  9
$HIDETEXT
280
     1
  9
$XCLIPFRAME
280
     2
  9
$HALOGAP
280
     0
  9
$OBSCOLOR
 70
   257
  9
$OBSLTYPE
280
     0
  9
$INTERSECTIONDISPLAY
280
     0
  9
$INTERSECTIONCOLOR
 70
   257
  9
$DIMASSOC
280
     2
  9
$PROJECTNAME
  1

  9
$CAMERADISPLAY
290
     0
  9
$LENSLENGTH
 40
50.0
  9
$CAMERAHEIGHT
 40
0.0
  9
$STEPSPERSEC
 40
2.0
  9
$STEPSIZE
 40
6.0
  9
$3DDWFPREC
 40
2.0
  9
$PSOLWIDTH
 40
5.0
  9
$PSOLHEIGHT
 40
80.0
  9
$LOFTANG1
 40
1.570796326794897
  9
$LOFTANG2
 40
1.570796326794897
  9
$LOFTMAG1
 40
0.0
  9
$LOFTMAG2
 40
0.0
  9
$LOFTPARAM
 70
     7
  9
$LOFTNORMALS
280
     1
  9
$LATITUDE
 40
37.795
  9
$LONGITUDE
 40
-122.394
  9
$NORTHDIRECTION
 40
0.0
  9
$TIMEZONE
 70
 -8000
  9
$LIGHTGLYPHDISPLAY
280
     1
  9
$TILEMODELIGHTSYNCH
280
     1
  9
$CMATERIAL
347
44
  9
$SOLIDHIST
280
     0
  9
$SHOWHIST
280
     1
  9
$DWFFRAME
280
     2
  9
$DGNFRAME
280
     2
  9
$REALWORLDSCALE
290
     1
  9
$INTERFERECOLOR
 62
   256
  9
$CSHADOW
280
     0
  9
$SHADOWPLANELOCATION
 40
0.0
  0
ENDSEC
  0
SECTION
  2
CLASSES
  0
CLASS
  1
ACDBDICTIONARYWDFLT
  2
AcDbDictionaryWithDefault
  3
ObjectDBX Classes
 90
        0
 91
        4
280
     0
281
     0
  0
CLASS
  1
VISUALSTYLE
  2
AcDbVisualStyle
  3
ObjectDBX Classes
 90
     4095
 91
        4
280
     0
281
     0
  0
CLASS
  1
MATERIAL
  2
AcDbMaterial
  3
ObjectDBX Classes
 90
     1153
 91
        4
280
     0
281
     0
  0
CLASS
  1
SCALE
  2
AcDbScale
  3
ObjectDBX Classes
 90
     1153
 91
        4
280
     0
281
     0
  0
CLASS
  1
TABLESTYLE
  2
AcDbTableStyle
  3
ObjectDBX Classes
 90
     4095
 91
        4
280
     0
281
     0
  0
CLASS
  1
MLEADERSTYLE
  2
AcDbMLeaderStyle
  3
ACDB_MLEADERSTYLE_CLASS
 90
     4095
 91
        4
280
     0
281
     0
  0
CLASS
  1
SUN
  2
AcDbSun
  3
SCENEOE
 90
     1153
 91
        4
280
     0
281
     0
  0
CLASS
  1
DICTIONARYVAR
  2
AcDbDictionaryVar
  3
ObjectDBX Classes
 90
        0
 91
        4
280
     0
281
     0
  0
CLASS
  1
CELLSTYLEMAP
  2
AcDbCellStyleMap
  3
ObjectDBX Classes
 90
     1152
 91
        4
280
     0
281
     0
  0
ENDSEC
  0
SECTION
  2
TABLES
  0
TABLE
  2
VPORT
  5
8
330
0
100
AcDbSymbolTable
 70
     1
  0
VPORT
  5
29
330
8
100
AcDbSymbolTableRecord
100
AcDbViewportTableRecord
  2
*Active
 70
     0
 10
0.0
 20
0.0
 11
1.0
 21
1.0
 12
114.7550654395181
 22
171.6005203523199
 13
0.0
 23
0.0
 14
10.0
 24
10.0
 15
10.0
 25
10.0
 16
0.0
 26
0.0
 36
1.0
 17
0.0
 27
0.0
 37
0.0
 40
287.7579329573467
 41
1.861723446893788
 42
50.0
 43
0.0
 44
0.0
 50
0.0
 51
0.0
 71
     0
 72
   100
 73
     1
 74
     3
 75
     0
 76
     0
 77
     0
 78
     0
281
     0
 65
     1
110
0.0
120
0.0
130
0.0
111
1.0
121
0.0
131
0.0
112
0.0
122
1.0
132
0.0
 79
     0
146
0.0
348
2F
 60
     3
 61
     5
292
     1
282
     1
141
0.0
142
0.0
 63
   250
361
6D
  0
ENDTAB
  0
TABLE
  2
LTYPE
  5
5
330
0
100
AcDbSymbolTable
 70
     7
  0
LTYPE
  5
14
330
5
100
AcDbSymbolTableRecord
100
AcDbLinetypeTableRecord
  2
ByBlock
 70
     0
  3

 72
    65
 73
     0
 40
0.0
  0
LTYPE
  5
15
330
5
100
AcDbSymbolTableRecord
100
AcDbLinetypeTableRecord
  2
ByLayer
 70
     0
  3

 72
    65
 73
     0
 40
0.0
  0
LTYPE
  5
16
330
5
100
AcDbSymbolTableRecord
100
AcDbLinetypeTableRecord
  2
Continuous
 70
     0
  3
Solid line
 72
    65
 73
     0
 40
0.0
  0
LTYPE
  5
6E
330
5
100
AcDbSymbolTableRecord
100
AcDbLinetypeTableRecord
  2
DOT
 70
     0
  3
Dot . . . . . . . . . . . . . . . . . . . . . . . .
 72
    65
 73
     2
 40
2.032
 49
1.016
 74
     0
 49
-1.016
 74
     0
  0
LTYPE
  5
6F
330
5
100
AcDbSymbolTableRecord
100
AcDbLinetypeTableRecord
  2
CENTER
 70
     0
  3
Center ____ _ ____ _ ____ _ ____ _ ____ _ ____
 72
    65
 73
     4
 40
13.208
 49
8.128
 74
     0
 49
-1.524
 74
     0
 49
2.032
 74
     0
 49
-1.524
 74
     0
  0
LTYPE
  5
70
330
5
100
AcDbSymbolTableRecord
100
AcDbLinetypeTableRecord
  2
HIDDEN2
 70
     0
  3
Hidden (.5x) _ _ _ _ _ _ _ _ _ _ _ _ _ _ _ _ _
 72
    65
 73
     2
 40
4.762499999999999
 49
3.175
 74
     0
 49
-1.5875
 74
     0
  0
LTYPE
  5
71
330
5
100
AcDbSymbolTableRecord
100
AcDbLinetypeTableRecord
  2
DASHED
 70
     0
  3
Dashed __ __ __ __ __ __ __ __ __ __ __ __ __ _
 72
    65
 73
     2
 40
9.652
 49
8.128
 74
     0
 49
-1.524
 74
     0
  0
LTYPE
  5
72
330
5
100
AcDbSymbolTableRecord
100
AcDbLinetypeTableRecord
  2
PHANTOM2
 70
     0
  3
Phantom (.5x) ___ _ _ ___ _ _ ___ _ _ ___ _ _
 72
    65
 73
     6
 40
14.732
 49
8.128
 74
     0
 49
-1.524
 74
     0
 49
1.016
 74
     0
 49
-1.524
 74
     0
 49
1.016
 74
     0
 49
-1.524
 74
     0
  0
LTYPE
  5
73
330
5
100
AcDbSymbolTableRecord
100
AcDbLinetypeTableRecord
  2
DASHDOT
 70
     0
  3
Dash dot __ . __ . __ . __ . __ . __ . __ . __
 72
    65
 73
     4
 40
11.176
 49
8.128
 74
     0
 49
-1.524
 74
     0
 49
0.0
 74
     0
 49
-1.524
 74
     0
  0
ENDTAB
  0
TABLE
  2
LAYER
  5
2
330
0
100
AcDbSymbolTable
 70
     8
  0
LAYER
  5
10
330
2
100
AcDbSymbolTableRecord
100
AcDbLayerTableRecord
  2
0
 70
     0
 62
     7
  6
Continuous
370
    -3
390
F
347
46
348
0
  0
LAYER
  5
74
330
2
100
AcDbSymbolTableRecord
100
AcDbLayerTableRecord
  2
Outline
 70
     0
 62
     7
  6
Continuous
370
    -3
390
F
347
46
348
0
  0
LAYER
  5
75
330
2
100
AcDbSymbolTableRecord
100
AcDbLayerTableRecord
  2
Axis
 70
     0
 62
     5
  6
DASHDOT
370
    -3
390
F
347
46
348
0
  0
LAYER
  5
76
330
2
100
AcDbSymbolTableRecord
100
AcDbLayerTableRecord
  2
Dimension
 70
     0
 62
     7
  6
Continuous
370
    -3
390
F
347
46
348
0
  0
LAYER
  5
77
330
2
100
AcDbSymbolTableRecord
100
AcDbLayerTableRecord
  2
Hatch
 70
     0
 62
     5
  6
Continuous
370
    -3
390
F
347
46
348
0
  0
LAYER
  5
78
330
2
100
AcDbSymbolTableRecord
100
AcDbLayerTableRecord
  2
Auxiliary
 70
     0
 62
     1
  6
DOT
370
    -3
390
F
347
46
348
0
  0
LAYER
  5
79
330
2
100
AcDbSymbolTableRecord
100
AcDbLayerTableRecord
  2
Invisible
 70
     0
 62
     6
  6
DOT
370
    -3
390
F
347
46
348
0
  0
LAYER
  5
102
330
2
100
AcDbSymbolTableRecord
100
AcDbLayerTableRecord
  2
Defpoints
 70
     0
 62
     7
  6
Continuous
290
     0
370
    -3
390
F
347
46
348
0
  0
ENDTAB
  0
TABLE
  2
STYLE
  5
3
330
0
100
AcDbSymbolTable
 70
    33
  0
STYLE
  5
11
330
3
100
AcDbSymbolTableRecord
100
AcDbTextStyleTableRecord
  2
Standard
 70
     0
 40
0.0
 41
1.0
 50
0.0
 71
     0
 42
2.5
  3
txt
  4

  0
STYLE
  5
7A
330
3
100
AcDbSymbolTableRecord
100
AcDbTextStyleTableRecord
  2
VCDSTYLE01
 70
     0
 40
0.0
 41
1.0
 50
0.0
 71
     0
 42
2.5
  3
txt
  4

  0
STYLE
  5
7B
330
3
100
AcDbSymbolTableRecord
100
AcDbTextStyleTableRecord
  2
VCDSTYLE02
 70
     0
 40
0.0
 41
1.0
 50
0.0
 71
     0
 42
2.5
  3
txt
  4

  0
STYLE
  5
7C
330
3
100
AcDbSymbolTableRecord
100
AcDbTextStyleTableRecord
  2
VCDSTYLE03
 70
     0
 40
0.0
 41
1.0
 50
0.0
 71
     0
 42
2.5
  3
txt
  4

  0
STYLE
  5
7D
330
3
100
AcDbSymbolTableRecord
100
AcDbTextStyleTableRecord
  2
VCDSTYLE04
 70
     0
 40
0.0
 41
1.0
 50
0.0
 71
     0
 42
2.5
  3
txt
  4

  0
STYLE
  5
7E
330
3
100
AcDbSymbolTableRecord
100
AcDbTextStyleTableRecord
  2
VCDSTYLE05
 70
     0
 40
0.0
 41
1.0
 50
0.0
 71
     0
 42
2.5
  3
txt
  4

  0
STYLE
  5
7F
330
3
100
AcDbSymbolTableRecord
100
AcDbTextStyleTableRecord
  2
VCDSTYLE06
 70
     0
 40
0.0
 41
1.0
 50
0.0
 71
     0
 42
2.5
  3
txt
  4

  0
STYLE
  5
80
330
3
100
AcDbSymbolTableRecord
100
AcDbTextStyleTableRecord
  2
VCDSTYLE07
 70
     0
 40
0.0
 41
1.0
 50
0.0
 71
     0
 42
2.5
  3
txt
  4

  0
STYLE
  5
81
330
3
100
AcDbSymbolTableRecord
100
AcDbTextStyleTableRecord
  2
VCDSTYLE08
 70
     0
 40
0.0
 41
1.0
 50
0.0
 71
     0
 42
2.5
  3
txt
  4

  0
STYLE
  5
82
330
3
100
AcDbSymbolTableRecord
100
AcDbTextStyleTableRecord
  2
VCDSTYLE09
 70
     0
 40
0.0
 41
1.0
 50
0.0
 71
     0
 42
2.5
  3
txt
  4

  0
STYLE
  5
83
330
3
100
AcDbSymbolTableRecord
100
AcDbTextStyleTableRecord
  2
VCDSTYLE10
 70
     0
 40
0.0
 41
1.0
 50
0.0
 71
     0
 42
2.5
  3
Sans Serif.ttf
  4

1001
ACAD
1000
Sans Serif
1071
        0
  0
STYLE
  5
84
330
3
100
AcDbSymbolTableRecord
100
AcDbTextStyleTableRecord
  2
VCDSTYLE11
 70
     0
 40
0.0
 41
1.0
 50
0.0
 71
     0
 42
2.5
  3
Sans Serif.ttf
  4

1001
ACAD
1000
Sans Serif
1071
 16777216
  0
STYLE
  5
85
330
3
100
AcDbSymbolTableRecord
100
AcDbTextStyleTableRecord
  2
VCDSTYLE12
 70
     0
 40
0.0
 41
1.0
 50
0.0
 71
     0
 42
2.5
  3
DejaVu Sans.ttf
  4

1001
ACAD
1000
DejaVu Sans
1071
        0
  0
STYLE
  5
86
330
3
100
AcDbSymbolTableRecord
100
AcDbTextStyleTableRecord
  2
VCDSTYLE13
 70
     0
 40
0.0
 41
1.0
 50
0.0
 71
     0
 42
2.5
  3
DejaVu Sans.ttf
  4

1001
ACAD
1000
DejaVu Sans
1071
 16777216
  0
STYLE
  5
87
330
3
100
AcDbSymbolTableRecord
100
AcDbTextStyleTableRecord
  2
VCDSTYLE14
 70
     0
 40
0.0
 41
1.0
 50
0.0
 71
     0
 42
2.5
  3
DejaVu Sans Mono.ttf
  4

1001
ACAD
1000
DejaVu Sans Mono
1071
        0
  0
STYLE
  5
88
330
3
100
AcDbSymbolTableRecord
100
AcDbTextStyleTableRecord
  2
VCDSTYLE15
 70
     0
 40
0.0
 41
1.0
 50
0.0
 71
     0
 42
2.5
  3
DejaVu Sans Mono.ttf
  4

1001
ACAD
1000
DejaVu Sans Mono
1071
 16777216
  0
STYLE
  5
89
330
3
100
AcDbSymbolTableRecord
100
AcDbTextStyleTableRecord
  2
VCDSTYLE16
 70
     0
 40
0.0
 41
1.0
 50
0.0
 71
     0
 42
2.5
  3
UnDotum.ttf
  4

1001
ACAD
1000
UnDotum
1071
        0
  0
STYLE
  5
8A
330
3
100
AcDbSymbolTableRecord
100
AcDbTextStyleTableRecord
  2
VCDSTYLE17
 70
     0
 40
0.0
 41
1.0
 50
0.0
 71
     0
 42
2.5
  3
UnDotum.ttf
  4

1001
ACAD
1000
UnDotum
1071
 16777216
  0
STYLE
  5
8B
330
3
100
AcDbSymbolTableRecord
100
AcDbTextStyleTableRecord
  2
VCDSTYLE18
 70
     0
 40
0.0
 41
1.0
 50
0.0
 71
     0
 42
2.5
  3
Sans Serif.ttf
  4

1001
ACAD
1000
Sans Serif
1071
        0
  0
STYLE
  5
8C
330
3
100
AcDbSymbolTableRecord
100
AcDbTextStyleTableRecord
  2
VCDSTYLE19
 70
     0
 40
0.0
 41
1.0
 50
0.0
 71
     0
 42
2.5
  3
Sans Serif.ttf
  4

1001
ACAD
1000
Sans Serif
1071
 16777216
  0
STYLE
  5
8D
330
3
100
AcDbSymbolTableRecord
100
AcDbTextStyleTableRecord
  2
VCDSTYLE20
 70
     0
 40
0.0
 41
1.0
 50
0.0
 71
     0
 42
2.5
  3
Sans Serif.ttf
  4

1001
ACAD
1000
Sans Serif
1071
        0
  0
STYLE
  5
8E
330
3
100
AcDbSymbolTableRecord
100
AcDbTextStyleTableRecord
  2
VCDSTYLE21
 70
     0
 40
0.0
 41
1.0
 50
0.0
 71
     0
 42
2.5
  3
Sans Serif.ttf
  4

1001
ACAD
1000
Sans Serif
1071
 16777216
  0
STYLE
  5
8F
330
3
100
AcDbSymbolTableRecord
100
AcDbTextStyleTableRecord
  2
VCDSTYLE22
 70
     0
 40
0.0
 41
1.0
 50
0.0
 71
     0
 42
2.5
  3
Monospace.ttf
  4

1001
ACAD
1000
Monospace
1071
        0
  0
STYLE
  5
90
330
3
100
AcDbSymbolTableRecord
100
AcDbTextStyleTableRecord
  2
VCDSTYLE23
 70
     0
 40
0.0
 41
1.0
 50
0.0
 71
     0
 42
2.5
  3
Monospace.ttf
  4

1001
ACAD
1000
Monospace
1071
 16777216
  0
STYLE
  5
91
330
3
100
AcDbSymbolTableRecord
100
AcDbTextStyleTableRecord
  2
VCDSTYLE24
 70
     0
 40
0.0
 41
1.0
 50
0.0
 71
     0
 42
2.5
  3
URW Gothic L.ttf
  4

1001
ACAD
1000
URW Gothic L
1071
        0
  0
STYLE
  5
92
330
3
100
AcDbSymbolTableRecord
100
AcDbTextStyleTableRecord
  2
VCDSTYLE25
 70
     0
 40
0.0
 41
1.0
 50
0.0
 71
     0
 42
2.5
  3
URW Gothic L.ttf
  4

1001
ACAD
1000
URW Gothic L
1071
 16777216
  0
STYLE
  5
93
330
3
100
AcDbSymbolTableRecord
100
AcDbTextStyleTableRecord
  2
VCDSTYLE26
 70
     0
 40
0.0
 41
1.0
 50
0.0
 71
     0
 42
2.5
  3
Waree.ttf
  4

1001
ACAD
1000
Waree
1071
        0
  0
STYLE
  5
94
330
3
100
AcDbSymbolTableRecord
100
AcDbTextStyleTableRecord
  2
VCDSTYLE27
 70
     0
 40
0.0
 41
1.0
 50
0.0
 71
     0
 42
2.5
  3
Waree.ttf
  4

1001
ACAD
1000
Waree
1071
 16777216
  0
STYLE
  5
95
330
3
100
AcDbSymbolTableRecord
100
AcDbTextStyleTableRecord
  2
VCDSTYLE28
 70
     0
 40
0.0
 41
1.0
 50
0.0
 71
     0
 42
2.5
  3
Nimbus Mono L.ttf
  4

1001
ACAD
1000
Nimbus Mono L
1071
        0
  0
STYLE
  5
96
330
3
100
AcDbSymbolTableRecord
100
AcDbTextStyleTableRecord
  2
VCDSTYLE29
 70
     0
 40
0.0
 41
1.0
 50
0.0
 71
     0
 42
2.5
  3
Nimbus Sans L.ttf
  4

1001
ACAD
1000
Nimbus Sans L
1071
        0
  0
STYLE
  5
97
330
3
100
AcDbSymbolTableRecord
100
AcDbTextStyleTableRecord
  2
VCDSTYLE30
 70
     0
 40
0.0
 41
1.0
 50
0.0
 71
     0
 42
2.5
  3
Nimbus Sans L.ttf
  4

1001
ACAD
1000
Nimbus Sans L
1071
 16777216
  0
STYLE
  5
98
330
3
100
AcDbSymbolTableRecord
100
AcDbTextStyleTableRecord
  2
VCDSTYLE31
 70
     0
 40
0.0
 41
1.0
 50
0.0
 71
     0
 42
2.5
  3
Serif.ttf
  4

1001
ACAD
1000
Serif
1071
        0
  0
STYLE
  5
99
330
3
100
AcDbSymbolTableRecord
100
AcDbTextStyleTableRecord
  2
VCDSTYLE32
 70
     0
 40
0.0
 41
1.0
 50
0.0
 71
     0
 42
2.5
  3
Serif.ttf
  4

1001
ACAD
1000
Serif
1071
 16777216
  0
ENDTAB
  0
TABLE
  2
VIEW
  5
6
330
0
100
AcDbSymbolTable
 70
     0
  0
ENDTAB
  0
TABLE
  2
UCS
  5
7
330
0
100
AcDbSymbolTable
 70
     0
  0
ENDTAB
  0
TABLE
  2
APPID
  5
9
330
0
100
AcDbSymbolTable
 70
     2
  0
APPID
  5
12
330
9
100
AcDbSymbolTableRecord
100
AcDbRegAppTableRecord
  2
ACAD
 70
     0
  0
APPID
  5
FF
330
9
100
AcDbSymbolTableRecord
100
AcDbRegAppTableRecord
  2
ACAD_DSTYLE_DIMRADIAL_EXTENSION
 70
     0
  0
ENDTAB
  0
TABLE
  2
DIMSTYLE
  5
A
330
0
100
AcDbSymbolTable
 70
     2
100
AcDbDimStyleTable
  0
DIMSTYLE
105
27
330
A
100
AcDbSymbolTableRecord
100
AcDbDimStyleTableRecord
  2
ISO-25
 70
     0
 41
2.5
 42
0.625
 43
3.75
 44
1.25
 73
     0
 74
     0
 77
     1
 78
     8
140
2.5
141
2.5
143
0.03937007874016
147
0.625
171
     3
172
     1
178
     0
271
     2
272
     2
274
     3
278
    44
283
     0
284
     8
340
11
  0
DIMSTYLE
105
100
102
{ACAD_REACTORS
330
101
330
10E
330
11C
330
12A
330
138
102
}
330
A
100
AcDbSymbolTableRecord
100
AcDbDimStyleTableRecord
  2
VCDDIMSTYLE01
 70
     0
 41
6.8
 42
0.0
 43
7.0
 44
1.0
 78
     8
 79
     2
140
4.0
147
1.0
172
     1
173
     1
178
     0
179
     5
271
     5
288
     1
289
     0
340
7B
  0
ENDTAB
  0
TABLE
  2
BLOCK_RECORD
  5
1
330
0
100
AcDbSymbolTable
 70
    17
  0
BLOCK_RECORD
  5
1F
330
1
100
AcDbSymbolTableRecord
100
AcDbBlockTableRecord
  2
*Model_Space
340
22
 70
     0
280
     1
281
     0
  0
BLOCK_RECORD
  5
1B
330
1
100
AcDbSymbolTableRecord
100
AcDbBlockTableRecord
  2
*Paper_Space
340
1E
 70
     0
280
     1
281
     0
  0
BLOCK_RECORD
  5
23
330
1
100
AcDbSymbolTableRecord
100
AcDbBlockTableRecord
  2
*Paper_Space0
340
26
 70
     0
280
     1
281
     0
  0
BLOCK_RECORD
  5
9A
330
1
100
AcDbSymbolTableRecord
100
AcDbBlockTableRecord
  2
$AttrValue elphel_parts
340
0
102
{BLKREFS
331
9C
102
}
 70
     0
280
     1
281
     0
  0
BLOCK_RECORD
  5
9F
330
1
100
AcDbSymbolTableRecord
100
AcDbBlockTableRecord
  2
$AttrValue elphel_parts(1)
340
0
102
{BLKREFS
331
A1
102
}
 70
     0
280
     1
281
     0
  0
BLOCK_RECORD
  5
A4
330
1
100
AcDbSymbolTableRecord
100
AcDbBlockTableRecord
  2
$AttrValue elphel_parts(2)
340
0
102
{BLKREFS
331
A6
102
}
 70
     0
280
     1
281
     0
  0
BLOCK_RECORD
  5
A9
330
1
100
AcDbSymbolTableRecord
100
AcDbBlockTableRecord
  2
$AttrValue elphel_parts(3)
340
0
102
{BLKREFS
331
AB
102
}
 70
     0
280
     1
281
     0
  0
BLOCK_RECORD
  5
AE
330
1
100
AcDbSymbolTableRecord
100
AcDbBlockTableRecord
  2
$AttrValue elphel_parts(4)
340
0
102
{BLKREFS
331
B0
102
}
 70
     0
280
     1
281
     0
  0
BLOCK_RECORD
  5
B3
330
1
100
AcDbSymbolTableRecord
100
AcDbBlockTableRecord
  2
$AttrValue elphel_parts(5)
340
0
102
{BLKREFS
331
B5
102
}
 70
     0
280
     1
281
     0
  0
BLOCK_RECORD
  5
B8
330
1
100
AcDbSymbolTableRecord
100
AcDbBlockTableRecord
  2
$AttrValue elphel_parts(6)
340
0
102
{BLKREFS
331
BA
102
}
 70
     0
280
     1
281
     0
  0
BLOCK_RECORD
  5
BD
330
1
100
AcDbSymbolTableRecord
100
AcDbBlockTableRecord
  2
$AttrValue elphel_parts(7)
340
0
102
{BLKREFS
331
BF
102
}
 70
     0
280
     1
281
     0
  0
BLOCK_RECORD
  5
C2
330
1
100
AcDbSymbolTableRecord
100
AcDbBlockTableRecord
  2
$AttrValue elphel_parts(8)
340
0
102
{BLKREFS
331
C4
102
}
 70
     0
280
     1
281
     0
  0
BLOCK_RECORD
  5
C7
330
1
100
AcDbSymbolTableRecord
100
AcDbBlockTableRecord
  2
$TitleBlock elphel_parts
340
0
102
{BLKREFS
331
F5
102
}
 70
     0
280
     1
281
     0
  0
BLOCK_RECORD
  5
F8
330
1
100
AcDbSymbolTableRecord
100
AcDbBlockTableRecord
  2
*D11
340
0
 70
     0
280
     1
281
     0
  0
BLOCK_RECORD
  5
107
330
1
100
AcDbSymbolTableRecord
100
AcDbBlockTableRecord
  2
*D12
340
0
 70
     0
280
     1
281
     0
  0
BLOCK_RECORD
  5
112
330
1
100
AcDbSymbolTableRecord
100
AcDbBlockTableRecord
  2
*D13
340
0
 70
     0
280
     1
281
     0
  0
BLOCK_RECORD
  5
122
330
1
100
AcDbSymbolTableRecord
100
AcDbBlockTableRecord
  2
*D14
340
0
 70
     0
280
     1
281
     0
  0
BLOCK_RECORD
  5
130
330
1
100
AcDbSymbolTableRecord
100
AcDbBlockTableRecord
  2
*D15
340
0
 70
     0
280
     1
281
     0
  0
BLOCK_RECORD
  5
230
330
1
100
AcDbSymbolTableRecord
100
AcDbBlockTableRecord
  2
Sheet Border
340
0
102
{BLKREFS
331
233
102
}
 70
     0
280
     1
281
     0
  0
ENDTAB
  0
ENDSEC
  0
SECTION
  2
BLOCKS
  0
BLOCK
  5
20
330
1F
100
AcDbEntity
  8
0
100
AcDbBlockBegin
  2
*Model_Space
 70
     0
 10
0.0
 20
0.0
 30
0.0
  3
*Model_Space
  1

  0
ENDBLK
  5
21
330
1F
100
AcDbEntity
  8
0
100
AcDbBlockEnd
  0
BLOCK
  5
1C
330
1B
100
AcDbEntity
 67
     1
  8
0
100
AcDbBlockBegin
  2
*Paper_Space
 70
     0
 10
0.0
 20
0.0
 30
0.0
  3
*Paper_Space
  1

  0
ENDBLK
  5
1D
330
1B
100
AcDbEntity
 67
     1
  8
0
100
AcDbBlockEnd
  0
BLOCK
  5
24
330
23
100
AcDbEntity
  8
0
100
AcDbBlockBegin
  2
*Paper_Space0
 70
     0
 10
0.0
 20
0.0
 30
0.0
  3
*Paper_Space0
  1

  0
ENDBLK
  5
25
330
23
100
AcDbEntity
  8
0
100
AcDbBlockEnd
  0
BLOCK
  5
9D
330
9A
100
AcDbEntity
  8
0
100
AcDbBlockBegin
  2
$AttrValue elphel_parts
 70
     0
 10
0.0
 20
0.0
 30
0.0
  3
$AttrValue elphel_parts
  1

  0
TEXT
  5
9B
330
9A
100
AcDbEntity
  8
0
 62
     2
100
AcDbText
 10
0.0
 20
0.0
 30
0.0
 40
3.0
  1
1:1
  7
VCDSTYLE22
100
AcDbText
  0
ENDBLK
  5
9E
330
9A
100
AcDbEntity
  8
0
100
AcDbBlockEnd
  0
BLOCK
  5
A2
330
9F
100
AcDbEntity
  8
0
100
AcDbBlockBegin
  2
$AttrValue elphel_parts(1)
 70
     0
 10
0.0
 20
0.0
 30
0.0
  3
$AttrValue elphel_parts(1)
  1

  0
TEXT
  5
A0
330
9F
100
AcDbEntity
  8
0
 62
     2
100
AcDbText
 10
0.0
 20
0.0
 30
0.0
 40
2.0
  1
06/29/2015
  7
VCDSTYLE03
100
AcDbText
  0
ENDBLK
  5
A3
330
9F
100
AcDbEntity
  8
0
100
AcDbBlockEnd
  0
BLOCK
  5
A7
330
A4
100
AcDbEntity
  8
0
100
AcDbBlockBegin
  2
$AttrValue elphel_parts(2)
 70
     0
 10
0.0
 20
0.0
 30
0.0
  3
$AttrValue elphel_parts(2)
  1

  0
TEXT
  5
A5
330
A4
100
AcDbEntity
  8
0
 62
     2
100
AcDbText
 10
0.0
 20
0.0
 30
0.0
 40
2.0
  1
Chromate Conversion
  7
VCDSTYLE04
100
AcDbText
  0
ENDBLK
  5
A8
330
A4
100
AcDbEntity
  8
0
100
AcDbBlockEnd
  0
BLOCK
  5
AC
330
A9
100
AcDbEntity
  8
0
100
AcDbBlockBegin
  2
$AttrValue elphel_parts(3)
 70
     0
 10
0.0
 20
0.0
 30
0.0
  3
$AttrValue elphel_parts(3)
  1

  0
TEXT
  5
AA
330
A9
100
AcDbEntity
  8
0
 62
     2
100
AcDbText
 10
0.0
 20
0.0
 30
0.0
 40
2.0
  1
Aluminum 6061
  7
VCDSTYLE04
100
AcDbText
  0
ENDBLK
  5
AD
330
A9
100
AcDbEntity
  8
0
100
AcDbBlockEnd
  0
BLOCK
  5
B1
330
AE
100
AcDbEntity
  8
0
100
AcDbBlockBegin
  2
$AttrValue elphel_parts(4)
 70
     0
 10
0.0
 20
0.0
 30
0.0
  3
$AttrValue elphel_parts(4)
  1

  0
TEXT
  5
AF
330
AE
100
AcDbEntity
  8
0
 62
     2
100
AcDbText
 10
0.0
 20
0.0
 30
0.0
 40
2.0
  1
12.9
  7
VCDSTYLE04
100
AcDbText
  0
ENDBLK
  5
B2
330
AE
100
AcDbEntity
  8
0
100
AcDbBlockEnd
  0
BLOCK
  5
B6
330
B3
100
AcDbEntity
  8
0
100
AcDbBlockBegin
  2
$AttrValue elphel_parts(5)
 70
     0
 10
0.0
 20
0.0
 30
0.0
  3
$AttrValue elphel_parts(5)
  1

  0
TEXT
  5
B4
330
B3
100
AcDbEntity
  8
0
100
AcDbText
 10
0.0
 20
0.0
 30
0.0
 40
1.5
  1
2015
  7
VCDSTYLE10
100
AcDbText
  0
ENDBLK
  5
B7
330
B3
100
AcDbEntity
  8
0
100
AcDbBlockEnd
  0
BLOCK
  5
BB
330
B8
100
AcDbEntity
  8
0
100
AcDbBlockBegin
  2
$AttrValue elphel_parts(6)
 70
     0
 10
0.0
 20
0.0
 30
0.0
  3
$AttrValue elphel_parts(6)
  1

  0
TEXT
  5
B9
330
B8
100
AcDbEntity
  8
0
 62
     2
100
AcDbText
 10
0.0
 20
0.0
 30
0.0
 40
3.0
  1
PCB holder
  7
VCDSTYLE04
100
AcDbText
  0
ENDBLK
  5
BC
330
B8
100
AcDbEntity
  8
0
100
AcDbBlockEnd
  0
BLOCK
  5
C0
330
BD
100
AcDbEntity
  8
0
100
AcDbBlockBegin
  2
$AttrValue elphel_parts(7)
 70
     0
 10
0.0
 20
0.0
 30
0.0
  3
$AttrValue elphel_parts(7)
  1

  0
TEXT
  5
BE
330
BD
100
AcDbEntity
  8
Auxiliary
  6
Continuous
100
AcDbText
 10
0.0
 20
0.0
 30
0.0
 40
8.0
  1
A
  7
VCDSTYLE22
100
AcDbText
  0
ENDBLK
  5
C1
330
BD
100
AcDbEntity
  8
0
100
AcDbBlockEnd
  0
BLOCK
  5
C5
330
C2
100
AcDbEntity
  8
0
100
AcDbBlockBegin
  2
$AttrValue elphel_parts(8)
 70
     0
 10
0.0
 20
0.0
 30
0.0
  3
$AttrValue elphel_parts(8)
  1

  0
TEXT
  5
C3
330
C2
100
AcDbEntity
  8
0
 62
     2
100
AcDbText
 10
0.0
 20
0.0
 30
0.0
 40
7.0
  1
0353-24-03
  7
VCDSTYLE22
100
AcDbText
  0
ENDBLK
  5
C6
330
C2
100
AcDbEntity
  8
0
100
AcDbBlockEnd
  0
BLOCK
  5
F6
330
C7
100
AcDbEntity
  8
0
100
AcDbBlockBegin
  2
$TitleBlock elphel_parts
 70
     0
 10
0.0
 20
0.0
 30
0.0
  3
$TitleBlock elphel_parts
  1

  0
TEXT
  5
C8
330
C7
100
AcDbEntity
  8
Outline
 62
     2
100
AcDbText
 10
-168.3495635986328
 20
16.18584442138672
 30
0.0
 40
1.841060042381287
  1
Surface
  7
VCDSTYLE02
100
AcDbText
  0
LWPOLYLINE
  5
C9
330
C7
100
AcDbEntity
  8
Outline
 62
     2
100
AcDbPolyline
 90
        5
 70
     0
 43
0.0
 10
-0.4602650136366151
 20
0.4602650136366293
 10
-82.38743744095697
 20
0.4602650136366293
 10
-82.38743744095697
 20
15.18874545000888
 10
-0.4602650136366151
 20
15.18874545000888
 10
-0.4602650136366151
 20
0.0
  0
LINE
  5
CA
330
C7
100
AcDbEntity
  8
Outline
 62
     2
100
AcDbLine
 10
0.0000000000000568
 20
15.64901046364552
 30
0.0
 11
0.0000000000000568
 21
0.0
 31
0.0
  0
LINE
  5
CB
330
C7
100
AcDbEntity
  8
Outline
 62
     2
100
AcDbLine
 10
-97.57618289096607
 20
15.64901046364552
 30
0.0
 11
-97.57618289096607
 21
19.56126307955689
 31
0.0
  0
LINE
  5
CC
330
C7
100
AcDbEntity
  8
Outline
 62
     2
100
AcDbLine
 10
-170.298055045554
 20
15.64901046364552
 30
0.0
 11
-82.84770245459381
 21
15.64901046364552
 31
0.0
  0
LINE
  5
CD
330
C7
100
AcDbEntity
  8
Outline
 62
     2
100
AcDbLine
 10
-170.298055045554
 20
0.0
 30
0.0
 11
-82.84770245459381
 21
0.0
 31
0.0
  0
LINE
  5
CE
330
C7
100
AcDbEntity
  8
Outline
 62
     2
100
AcDbLine
 10
-82.84770245459381
 20
0.0
 30
0.0
 11
-82.84770245459381
 21
15.64901046364552
 31
0.0
  0
LINE
  5
CF
330
C7
100
AcDbEntity
  8
Outline
 62
     2
100
AcDbLine
 10
-170.298055045554
 20
19.56126307955689
 30
0.0
 11
0.0000000000000568
 21
19.56126307955689
 31
0.0
  0
LINE
  5
D0
330
C7
100
AcDbEntity
  8
Outline
 62
     2
100
AcDbLine
 10
0.0000000000000568
 20
0.0
 30
0.0
 11
-82.84770245459381
 21
0.0
 31
0.0
  0
LINE
  5
D1
330
C7
100
AcDbEntity
  8
Outline
 62
     2
100
AcDbLine
 10
-82.84770245459381
 20
15.64901046364552
 30
0.0
 11
0.0000000000000568
 21
15.64901046364552
 31
0.0
  0
TEXT
  5
D2
330
C7
100
AcDbEntity
  8
Outline
 62
     2
100
AcDbText
 10
-81.25203704833984
 20
44.91454315185547
 30
0.0
 40
0.9205300211906433
  1
Description
  7
VCDSTYLE02
100
AcDbText
  0
LINE
  5
D3
330
C7
100
AcDbEntity
  8
Outline
 62
     2
100
AcDbLine
 10
-170.298055045554
 20
27.38576831137964
 30
0.0
 11
0.0000000000000568
 21
27.38576831137964
 31
0.0
  0
LINE
  5
D4
330
C7
100
AcDbEntity
  8
Outline
 62
     2
100
AcDbLine
 10
0.0000000000000568
 20
46.94703139093654
 30
0.0
 11
-170.298055045554
 21
46.94703139093654
 31
0.0
  0
LINE
  5
D5
330
C7
100
AcDbEntity
  8
Outline
 62
     2
100
AcDbLine
 10
-170.298055045554
 20
27.38576831137964
 30
0.0
 11
-82.84770245459381
 21
27.38576831137964
 31
0.0
  0
LINE
  5
D6
330
C7
100
AcDbEntity
  8
Outline
 62
     2
100
AcDbLine
 10
-170.298055045554
 20
31.29802092729101
 30
0.0
 11
-170.298055045554
 21
46.94703139093654
 31
0.0
  0
LINE
  5
D7
330
C7
100
AcDbEntity
  8
Outline
 62
     2
100
AcDbLine
 10
-82.84770245459381
 20
46.94703139093654
 30
0.0
 11
-82.84770245459381
 21
31.29802092729101
 31
0.0
  0
LINE
  5
D8
330
C7
100
AcDbEntity
  8
Outline
 62
     2
100
AcDbLine
 10
0.0000000000000568
 20
31.29802092729101
 30
0.0
 11
0.0000000000000568
 21
46.94703139093654
 31
0.0
  0
LINE
  5
D9
330
C7
100
AcDbEntity
  8
Outline
 62
     2
100
AcDbLine
 10
-157.0483207857146
 20
46.94703139093654
 30
0.0
 11
-157.0483207857146
 21
31.29802092729101
 31
0.0
  0
TEXT
  5
DA
330
C7
100
AcDbEntity
  8
Outline
 62
     2
100
AcDbText
 10
-168.3495635986328
 20
28.04717826843262
 30
0.0
 40
1.841060042381287
  1
Material
  7
VCDSTYLE02
100
AcDbText
  0
LINE
  5
DB
330
C7
100
AcDbEntity
  8
Outline
 62
     2
100
AcDbLine
 10
-170.298055045554
 20
0.0
 30
0.0
 11
-170.298055045554
 21
31.29802092729101
 31
0.0
  0
LINE
  5
DC
330
C7
100
AcDbEntity
  8
Outline
 62
     2
100
AcDbLine
 10
-150.9056121242796
 20
15.64901046364552
 30
0.0
 11
-150.9056121242796
 21
31.29802092729101
 31
0.0
  0
LINE
  5
DD
330
C7
100
AcDbEntity
  8
Outline
 62
     2
100
AcDbLine
 10
-82.84770245459381
 20
31.29802092729101
 30
0.0
 11
-82.84770245459381
 21
15.64901046364552
 31
0.0
  0
LINE
  5
DE
330
C7
100
AcDbEntity
  8
Outline
100
AcDbLine
 10
-170.298055045554
 20
23.47351569546827
 30
0.0
 11
-82.84770245459381
 21
23.47351569546827
 31
0.0
  0
LINE
  5
DF
330
C7
100
AcDbEntity
  8
Outline
 62
     2
100
AcDbLine
 10
-170.298055045554
 20
23.47351569546827
 30
0.0
 11
0.0000000000000568
 21
23.47351569546827
 31
0.0
  0
TEXT
  5
E0
330
C7
100
AcDbEntity
  8
Outline
 62
     2
100
AcDbText
 10
-168.3495635986328
 20
24.13492584228516
 30
0.0
 40
1.841060042381287
  1
Finish
  7
VCDSTYLE02
100
AcDbText
  0
LINE
  5
E1
330
C7
100
AcDbEntity
  8
Outline
 62
     2
100
AcDbLine
 10
0.0000000000000568
 20
15.64901046364552
 30
0.0
 11
0.0000000000000568
 21
31.29802092729101
 31
0.0
  0
TEXT
  5
E2
330
C7
100
AcDbEntity
  8
Outline
 62
     2
100
AcDbText
 10
-81.25203704833984
 20
12.55433559417725
 30
0.0
 40
0.9205300211906433
  1
Notes
  7
VCDSTYLE02
100
AcDbText
  0
LINE
  5
E3
330
C7
100
AcDbEntity
  8
Outline
 62
     2
100
AcDbLine
 10
-170.298055045554
 20
31.29802092729101
 30
0.0
 11
-82.84770245459381
 21
31.29802092729101
 31
0.0
  0
TEXT
  5
E4
330
C7
100
AcDbEntity
  8
Outline
 62
     2
100
AcDbText
 10
-168.3495635986328
 20
20.20714569091797
 30
0.0
 40
1.841060042381287
  1
Weight(g)
  7
VCDSTYLE02
100
AcDbText
  0
TEXT
  5
E5
330
C7
100
AcDbEntity
  8
Outline
100
AcDbText
 10
-167.9451904296875
 20
7.327913284301758
 30
0.0
 40
1.200000047683716
  1
Permission is also granted to copy, distribute and/or modify this document under the terms of the
 50
360.0
  7
VCDSTYLE10
100
AcDbText
  0
TEXT
  5
E6
330
C7
100
AcDbEntity
  8
Outline
100
AcDbText
 10
-167.9451904296875
 20
5.407913684844971
 30
0.0
 40
1.200000047683716
  1
GNU Free Documentation License, Version 1.3 or any later version published by the Free Software
 50
360.0
  7
VCDSTYLE10
100
AcDbText
  0
TEXT
  5
E7
330
C7
100
AcDbEntity
  8
Outline
100
AcDbText
 10
-167.9451904296875
 20
3.487913608551025
 30
0.0
 40
1.200000047683716
  1
Foundation; with no Invariant Sections, no Front-Cover Texts, and no Back-Cover Texts.  A copy of
 50
360.0
  7
VCDSTYLE10
100
AcDbText
  0
TEXT
  5
E8
330
C7
100
AcDbEntity
  8
Outline
100
AcDbText
 10
-167.9451904296875
 20
1.56791353225708
 30
0.0
 40
1.200000047683716
  1
the license is included in the section entitled "GNU Free Documentation License".
 50
360.0
  7
VCDSTYLE10
100
AcDbText
  0
TEXT
  5
E9
330
C7
100
AcDbEntity
  8
Outline
 62
     2
100
AcDbText
 10
-156.5416564941406
 20
45.10939788818359
 30
0.0
 40
0.9205300211906433
  1
Part #
  7
VCDSTYLE02
100
AcDbText
  0
TEXT
  5
EA
330
C7
100
AcDbEntity
  8
Outline
 62
     2
100
AcDbText
 10
-169.0979461669922
 20
45.19255065917969
 30
0.0
 40
0.9205300211906433
  1
Revision
  7
VCDSTYLE02
100
AcDbText
  0
TEXT
  5
EB
330
C7
100
AcDbEntity
  8
Outline
100
AcDbText
 10
-168.0283508300781
 20
12.77079391479492
 30
0.0
 40
1.5
  1
Copyright (c)                 Elphel, Inc.
 50
360.0
  7
VCDSTYLE10
100
AcDbText
  0
TEXT
  5
EC
330
C7
100
AcDbEntity
  8
Outline
100
AcDbText
 10
-168.0283508300781
 20
10.37079429626465
 30
0.0
 40
1.5
  1
Licensed under CERN OHL v.1.1 or later - see http://ohwr.org/cernohl
 50
360.0
  7
VCDSTYLE10
100
AcDbText
  0
TEXT
  5
ED
330
C7
100
AcDbEntity
  8
Outline
100
AcDbText
 10
-168.0283508300781
 20
7.970794200897217
 30
0.0
 40
1.5
  1
 
 50
360.0
  7
VCDSTYLE10
100
AcDbText
  0
LINE
  5
EE
330
C7
100
AcDbEntity
  8
Outline
 62
     2
100
AcDbLine
 10
-59.83011277766059
 20
27.38576831137964
 30
0.0
 11
-59.83011277766059
 21
15.64901046364552
 31
0.0
  0
TEXT
  5
EF
330
C7
100
AcDbEntity
  8
Outline
 62
     2
100
AcDbText
 10
-82.25203704833984
 20
24.13492584228516
 30
0.0
 40
1.841060042381287
  1
Serial No.
  7
VCDSTYLE02
100
AcDbText
  0
TEXT
  5
F0
330
C7
100
AcDbEntity
  8
Outline
 62
     2
100
AcDbText
 10
-82.25203704833984
 20
16.18584442138672
 30
0.0
 40
1.841060042381287
  1
Date
  7
VCDSTYLE02
100
AcDbText
  0
TEXT
  5
F1
330
C7
100
AcDbEntity
  8
Outline
 62
     2
100
AcDbText
 10
-82.25203704833984
 20
20.20714569091797
 30
0.0
 40
1.841060042381287
  1
Assembly No.
  7
VCDSTYLE02
100
AcDbText
  0
LINE
  5
F2
330
C7
100
AcDbEntity
  8
Outline
 62
     2
100
AcDbLine
 10
-14.79493342379411
 20
19.56126307955689
 30
0.0
 11
-14.79493342379411
 21
15.64901046364552
 31
0.0
  0
LINE
  5
F3
330
C7
100
AcDbEntity
  8
Outline
 62
     2
100
AcDbLine
 10
-26.81252310072733
 20
19.56126307955689
 30
0.0
 11
-26.81252310072733
 21
15.64901046364552
 31
0.0
  0
TEXT
  5
F4
330
C7
100
AcDbEntity
  8
Outline
 62
     2
100
AcDbText
 10
-25.21685791015625
 20
16.18584442138672
 30
0.0
 40
1.841060042381287
  1
Scale
  7
VCDSTYLE02
100
AcDbText
  0
ENDBLK
  5
F7
330
C7
100
AcDbEntity
  8
0
100
AcDbBlockEnd
  0
BLOCK
  5
105
330
F8
100
AcDbEntity
  8
0
100
AcDbBlockBegin
  2
*D11
 70
     1
 10
0.0
 20
0.0
 30
0.0
  3
*D11
  1

  0
LINE
  5
F9
330
F8
100
AcDbEntity
  8
Dimension
 62
     0
370
    -2
100
AcDbLine
 10
149.1575767001164
 20
222.4402185801394
 30
0.0
 11
142.3575767001164
 21
222.4402185801394
 31
0.0
  0
LINE
  5
FA
330
F8
100
AcDbEntity
  8
Dimension
 62
     0
370
    -2
100
AcDbLine
 10
142.3575767001164
 20
222.4402185801394
 30
0.0
 11
122.8311604511239
 21
208.4618283394373
 31
0.0
  0
MTEXT
  5
FB
330
F8
100
AcDbEntity
  8
Dimension
 62
     0
100
AcDbMText
 10
185.2051957477354
 20
222.4402185801394
 30
0.0
 40
4.0
 41
0.0
 46
0.0
 71
     5
 72
     1
  1
\A1;M2x0.4 THRU 8 HOLES
  7
VCDSTYLE02
 73
     1
 44
1.0
  0
LINE
  5
FC
330
F8
100
AcDbEntity
  8
Dimension
 62
     0
370
    -2
100
AcDbLine
 10
118.9281679287413
 20
205.6677901560496
 30
0.0
 11
117.3019210444155
 21
204.5036075796383
 31
0.0
  0
SOLID
  5
FD
330
F8
100
AcDbEntity
  8
Dimension
 62
     0
100
AcDbTrace
 10
122.1714569911574
 20
209.3833682405553
 30
0.0
 11
123.4908639110904
 21
207.5402884383192
 31
0.0
 12
117.3019210444155
 22
204.5036075796383
 32
0.0
 13
117.3019210444155
 23
204.5036075796383
 33
0.0
  0
ARC
  5
FE
330
F8
100
AcDbEntity
  8
Dimension
 62
     0
370
    -2
100
AcDbCircle
 10
118.1150444865784
 20
205.085698867844
 30
0.0
 40
0.9999999999999076
100
AcDbArc
 50
185.000000000007
 51
275.5977675377083
  0
POINT
  5
103
330
F8
100
AcDbEntity
  8
Defpoints
 62
     0
100
AcDbPoint
 10
117.3019210444155
 20
204.5036075796383
 30
0.0
  0
POINT
  5
104
330
F8
100
AcDbEntity
  8
Defpoints
 62
     0
100
AcDbPoint
 10
118.9281679287413
 20
205.6677901560496
 30
0.0
  0
ENDBLK
  5
106
330
F8
100
AcDbEntity
  8
0
100
AcDbBlockEnd
  0
BLOCK
  5
110
330
107
100
AcDbEntity
  8
0
100
AcDbBlockBegin
  2
*D12
 70
     1
 10
0.0
 20
0.0
 30
0.0
  3
*D12
  1

  0
LINE
  5
108
330
107
100
AcDbEntity
  8
Dimension
 62
     0
370
    -2
100
AcDbLine
 10
152.1460129601122
 20
119.9805272951548
 30
0.0
 11
145.3460129601122
 21
119.9805272951548
 31
0.0
  0
LINE
  5
109
330
107
100
AcDbEntity
  8
Dimension
 62
     0
370
    -2
100
AcDbLine
 10
145.3460129601122
 20
119.9805272951548
 30
0.0
 11
123.5169304928963
 21
133.7865367366347
 31
0.0
  0
MTEXT
  5
10A
330
107
100
AcDbEntity
  8
Dimension
 62
     0
100
AcDbMText
 10
201.3364891505884
 20
119.9805272951548
 30
0.0
 40
4.0
 41
0.0
 46
0.0
 71
     5
 72
     1
  1
\A1;M2x0.4 5.5MM DEEP 12 HOLES
  7
VCDSTYLE02
 73
     1
 44
1.0
  0
LINE
  5
10B
330
107
100
AcDbEntity
  8
Dimension
 62
     0
370
    -2
100
AcDbLine
 10
119.4601972462818
 20
136.3522560053415
 30
0.0
 11
117.7698917268592
 21
137.4213057006359
 31
0.0
  0
SOLID
  5
10C
330
107
100
AcDbEntity
  8
Dimension
 62
     0
100
AcDbTrace
 10
124.1227253202298
 20
134.7443765309742
 30
0.0
 11
122.9111356655627
 21
132.8286969422952
 31
0.0
 12
117.7698917268592
 22
137.4213057006359
 32
0.0
 13
117.7698917268592
 23
137.4213057006359
 33
0.0
  0
POINT
  5
10D
330
107
100
AcDbEntity
  8
Defpoints
 62
     0
100
AcDbPoint
 10
117.7698917268592
 20
137.4213057006359
 30
0.0
  0
POINT
  5
10F
330
107
100
AcDbEntity
  8
Defpoints
 62
     0
100
AcDbPoint
 10
119.4601972462818
 20
136.3522560053415
 30
0.0
  0
ENDBLK
  5
111
330
107
100
AcDbEntity
  8
0
100
AcDbBlockEnd
  0
BLOCK
  5
120
330
112
100
AcDbEntity
  8
0
100
AcDbBlockBegin
  2
*D13
 70
     1
 10
0.0
 20
0.0
 30
0.0
  3
*D13
  1

  0
LINE
  5
113
330
112
100
AcDbEntity
  8
Dimension
 62
     0
370
    -2
100
AcDbLine
 10
86.1150444865919
 20
261.7846168826943
 30
0.0
 11
72.61576080282202
 21
261.7846168826943
 31
0.0
  0
LINE
  5
114
330
112
100
AcDbEntity
  8
Dimension
 62
     0
370
    -2
100
AcDbLine
 10
86.71504448658993
 20
245.0856988678332
 30
0.0
 11
72.61576080282202
 21
245.0856988678332
 31
0.0
  0
LINE
  5
115
330
112
100
AcDbEntity
  8
Dimension
 62
     0
370
    -2
100
AcDbLine
 10
73.61576080282202
 20
261.7846168826943
 30
0.0
 11
73.61576080282202
 21
254.1170076369689
 31
0.0
  0
LINE
  5
116
330
112
100
AcDbEntity
  8
Dimension
 62
     0
370
    -2
100
AcDbLine
 10
73.61576080282202
 20
245.0856988678332
 30
0.0
 11
73.61576080282202
 21
248.1170076369689
 31
0.0
  0
LINE
  5
117
330
112
100
AcDbEntity
  8
Dimension
 62
     0
370
    -2
100
AcDbLine
 10
73.61576080282202
 20
268.5846168826943
 30
0.0
 11
73.61576080282202
 21
275.3846168826943
 31
0.0
  0
LINE
  5
118
330
112
100
AcDbEntity
  8
Dimension
 62
     0
370
    -2
100
AcDbLine
 10
73.61576080282202
 20
238.2856988678332
 30
0.0
 11
73.61576080282202
 21
231.4856988678332
 31
0.0
  0
SOLID
  5
119
330
112
100
AcDbEntity
  8
Dimension
 62
     0
100
AcDbTrace
 10
72.48242746948868
 20
268.5846168826943
 30
0.0
 11
74.74909413615536
 21
268.5846168826943
 31
0.0
 12
73.61576080282202
 22
261.7846168826943
 32
0.0
 13
73.61576080282202
 23
261.7846168826943
 33
0.0
  0
SOLID
  5
11A
330
112
100
AcDbEntity
  8
Dimension
 62
     0
100
AcDbTrace
 10
74.74909413615536
 20
238.2856988678332
 30
0.0
 11
72.48242746948868
 21
238.2856988678332
 31
0.0
 12
73.61576080282202
 22
245.0856988678332
 32
0.0
 13
73.61576080282202
 23
245.0856988678332
 33
0.0
  0
MTEXT
  5
11B
330
112
100
AcDbEntity
  8
Dimension
 62
     0
100
AcDbMText
 10
73.61576080282202
 20
251.1170076369689
 30
0.0
 40
4.0
 41
0.0
 46
0.0
 71
     5
 72
     1
  1
\A1;16.7
  7
VCDSTYLE02
 73
     1
 44
1.0
  0
POINT
  5
11D
330
112
100
AcDbEntity
  8
Defpoints
 62
     0
100
AcDbPoint
 10
86.1150444865919
 20
261.7846168826943
 30
0.0
  0
POINT
  5
11E
330
112
100
AcDbEntity
  8
Defpoints
 62
     0
100
AcDbPoint
 10
86.71504448658993
 20
245.0856988678332
 30
0.0
  0
POINT
  5
11F
330
112
100
AcDbEntity
  8
Defpoints
 62
     0
100
AcDbPoint
 10
73.61576080282202
 20
245.0856988678332
 30
0.0
  0
ENDBLK
  5
121
330
112
100
AcDbEntity
  8
0
100
AcDbBlockEnd
  0
BLOCK
  5
12E
330
122
100
AcDbEntity
  8
0
100
AcDbBlockBegin
  2
*D14
 70
     1
 10
0.0
 20
0.0
 30
0.0
  3
*D14
  1

  0
LINE
  5
123
330
122
100
AcDbEntity
  8
Dimension
 62
     0
370
    -2
100
AcDbLine
 10
86.1150444865919
 20
261.7846168826943
 30
0.0
 11
86.1150444865919
 21
275.9957459623017
 31
0.0
  0
LINE
  5
124
330
122
100
AcDbEntity
  8
Dimension
 62
     0
370
    -2
100
AcDbLine
 10
121.1150444865842
 20
261.7846168827013
 30
0.0
 11
121.1150444865842
 21
275.9957459623017
 31
0.0
  0
LINE
  5
125
330
122
100
AcDbEntity
  8
Dimension
 62
     0
370
    -2
100
AcDbLine
 10
92.9150444865919
 20
274.9957459623017
 30
0.0
 11
99.31935324044207
 21
274.9957459623017
 31
0.0
  0
LINE
  5
126
330
122
100
AcDbEntity
  8
Dimension
 62
     0
370
    -2
100
AcDbLine
 10
114.3150444865842
 20
274.9957459623017
 30
0.0
 11
107.7955437166326
 21
274.9957459623017
 31
0.0
  0
SOLID
  5
127
330
122
100
AcDbEntity
  8
Dimension
 62
     0
100
AcDbTrace
 10
92.9150444865919
 20
276.129079295635
 30
0.0
 11
92.9150444865919
 21
273.8624126289683
 31
0.0
 12
86.1150444865919
 22
274.9957459623017
 32
0.0
 13
86.1150444865919
 23
274.9957459623017
 33
0.0
  0
SOLID
  5
128
330
122
100
AcDbEntity
  8
Dimension
 62
     0
100
AcDbTrace
 10
114.3150444865842
 20
273.8624126289683
 30
0.0
 11
114.3150444865842
 21
276.129079295635
 31
0.0
 12
121.1150444865842
 22
274.9957459623017
 32
0.0
 13
121.1150444865842
 23
274.9957459623017
 33
0.0
  0
MTEXT
  5
129
330
122
100
AcDbEntity
  8
Dimension
 62
     0
100
AcDbMText
 10
103.5574484785373
 20
274.9957459623017
 30
0.0
 40
4.0
 41
0.0
 46
0.0
 71
     5
 72
     1
  1
\A1;35
  7
VCDSTYLE02
 73
     1
 44
1.0
  0
POINT
  5
12B
330
122
100
AcDbEntity
  8
Defpoints
 62
     0
100
AcDbPoint
 10
86.1150444865919
 20
261.7846168826943
 30
0.0
  0
POINT
  5
12C
330
122
100
AcDbEntity
  8
Defpoints
 62
     0
100
AcDbPoint
 10
121.1150444865842
 20
261.7846168827013
 30
0.0
  0
POINT
  5
12D
330
122
100
AcDbEntity
  8
Defpoints
 62
     0
100
AcDbPoint
 10
121.1150444865842
 20
274.9957459623017
 30
0.0
  0
ENDBLK
  5
12F
330
122
100
AcDbEntity
  8
0
100
AcDbBlockEnd
  0
BLOCK
  5
13C
330
130
100
AcDbEntity
  8
0
100
AcDbBlockBegin
  2
*D15
 70
     1
 10
0.0
 20
0.0
 30
0.0
  3
*D15
  1

  0
LINE
  5
131
330
130
100
AcDbEntity
  8
Dimension
 62
     0
370
    -2
100
AcDbLine
 10
37.41612647173429
 20
213.085698867827
 30
0.0
 11
27.1137875013842
 21
213.085698867827
 31
0.0
  0
LINE
  5
132
330
130
100
AcDbEntity
  8
Dimension
 62
     0
370
    -2
100
AcDbLine
 10
37.41612647173076
 20
182.0856988678306
 30
0.0
 11
27.11378750138419
 21
182.0856988678306
 31
0.0
  0
LINE
  5
133
330
130
100
AcDbEntity
  8
Dimension
 62
     0
370
    -2
100
AcDbLine
 10
28.1137875013842
 20
206.285698867827
 30
0.0
 11
28.1137875013842
 21
198.6395923835321
 31
0.0
  0
LINE
  5
134
330
130
100
AcDbEntity
  8
Dimension
 62
     0
370
    -2
100
AcDbLine
 10
28.11378750138419
 20
188.8856988678306
 30
0.0
 11
28.11378750138419
 21
192.6395923835321
 31
0.0
  0
SOLID
  5
135
330
130
100
AcDbEntity
  8
Dimension
 62
     0
100
AcDbTrace
 10
29.24712083471753
 20
206.285698867827
 30
0.0
 11
26.98045416805087
 21
206.285698867827
 31
0.0
 12
28.1137875013842
 22
213.085698867827
 32
0.0
 13
28.1137875013842
 23
213.085698867827
 33
0.0
  0
SOLID
  5
136
330
130
100
AcDbEntity
  8
Dimension
 62
     0
100
AcDbTrace
 10
26.98045416805086
 20
188.8856988678306
 30
0.0
 11
29.24712083471753
 21
188.8856988678306
 31
0.0
 12
28.11378750138419
 22
182.0856988678306
 32
0.0
 13
28.11378750138419
 23
182.0856988678306
 33
0.0
  0
MTEXT
  5
137
330
130
100
AcDbEntity
  8
Dimension
 62
     0
100
AcDbMText
 10
28.11378750138419
 20
195.6395923835321
 30
0.0
 40
4.0
 41
0.0
 46
0.0
 71
     5
 72
     1
  1
\A1;31
  7
VCDSTYLE02
 73
     1
 44
1.0
  0
POINT
  5
139
330
130
100
AcDbEntity
  8
Defpoints
 62
     0
100
AcDbPoint
 10
37.41612647173429
 20
213.085698867827
 30
0.0
  0
POINT
  5
13A
330
130
100
AcDbEntity
  8
Defpoints
 62
     0
100
AcDbPoint
 10
37.41612647173076
 20
182.0856988678306
 30
0.0
  0
POINT
  5
13B
330
130
100
AcDbEntity
  8
Defpoints
 62
     0
100
AcDbPoint
 10
28.11378750138419
 20
182.0856988678306
 30
0.0
  0
ENDBLK
  5
13D
330
130
100
AcDbEntity
  8
0
100
AcDbBlockEnd
  0
BLOCK
  5
234
330
230
100
AcDbEntity
  8
0
100
AcDbBlockBegin
  2
Sheet Border
 70
     0
 10
0.0
 20
0.0
 30
0.0
  3
Sheet Border
  1

  0
LWPOLYLINE
  5
231
330
230
100
AcDbEntity
  8
Outline
 62
     2
100
AcDbPolyline
 90
        5
 70
     0
 43
0.0
 10
5.0
 20
5.0
 10
205.0
 20
5.0
 10
205.0
 20
292.0
 10
5.0
 20
292.0
 10
5.0
 20
5.0
  0
LWPOLYLINE
  5
232
330
230
100
AcDbEntity
  8
Outline
 62
     2
100
AcDbPolyline
 90
        5
 70
     0
 43
0.0
 10
0.0
 20
0.0
 10
210.0
 20
0.0
 10
210.0
 20
297.0
 10
0.0
 20
297.0
 10
0.0
 20
0.0
  0
ENDBLK
  5
235
330
230
100
AcDbEntity
  8
0
100
AcDbBlockEnd
  0
ENDSEC
  0
SECTION
  2
ENTITIES
  0
INSERT
  5
9C
330
1F
100
AcDbEntity
  8
Dimension
100
AcDbBlockReference
  2
$AttrValue elphel_parts
 10
188.2343
 20
26.0346
 30
0.0
  0
INSERT
  5
A1
330
1F
100
AcDbEntity
  8
Dimension
100
AcDbBlockReference
  2
$AttrValue elphel_parts(1)
 10
145.3357000000001
 20
26.4917
 30
0.0
  0
INSERT
  5
A6
330
1F
100
AcDbEntity
  8
Dimension
100
AcDbBlockReference
  2
$AttrValue elphel_parts(2)
 10
50.43000000000006
 20
34.4112
 30
0.0
  0
INSERT
  5
AB
330
1F
100
AcDbEntity
  8
Dimension
100
AcDbBlockReference
  2
$AttrValue elphel_parts(3)
 10
50.43000000000006
 20
38.1451
 30
0.0
  0
INSERT
  5
B0
330
1F
100
AcDbEntity
  8
Dimension
100
AcDbBlockReference
  2
$AttrValue elphel_parts(4)
 10
50.43000000000006
 20
30.3694
 30
0.0
  0
INSERT
  5
B5
330
1F
100
AcDbEntity
  8
Dimension
100
AcDbBlockReference
  2
$AttrValue elphel_parts(5)
 10
47.37900000000005
 20
22.801
 30
0.0
  0
INSERT
  5
BA
330
1F
100
AcDbEntity
  8
Dimension
100
AcDbBlockReference
  2
$AttrValue elphel_parts(6)
 10
119.3813000000001
 20
49.8706
 30
0.0
  0
INSERT
  5
BF
330
1F
100
AcDbEntity
  8
Dimension
100
AcDbBlockReference
  2
$AttrValue elphel_parts(7)
 10
32.70900000000006
 20
44.4461
 30
0.0
  0
INSERT
  5
C4
330
1F
100
AcDbEntity
  8
Dimension
100
AcDbBlockReference
  2
$AttrValue elphel_parts(8)
 10
44.76700000000005
 20
44.7335
 30
0.0
  0
INSERT
  5
F5
330
1F
100
AcDbEntity
  8
Dimension
100
AcDbBlockReference
  2
$TitleBlock elphel_parts
 10
200.0
 20
10.0
 30
0.0
  0
DIMENSION
  5
101
330
1F
100
AcDbEntity
  8
Dimension
100
AcDbDimension
280
     0
  2
*D11
 10
118.9281679287413
 20
205.6677901560496
 30
0.0
 11
185.2051957477354
 21
222.4402185801394
 31
0.0
 70
   163
  1
M2x0.4 THRU 8 HOLES
 71
     5
 42
1.999999999999815
 73
     0
 74
     0
 75
     0
  3
VCDDIMSTYLE01
100
AcDbDiametricDimension
 15
117.3019210444155
 25
204.5036075796383
 35
0.0
 40
0.0
1001
ACAD_DSTYLE_DIMRADIAL_EXTENSION
1070
   387
1070
     1
1070
   388
1040
4.625122517784854
1070
   390
1040
3.228859116189633
1001
ACAD
1000
DSTYLE
1002
{
1070
     3
1000
M <>
1002
}
  0
DIMENSION
  5
10E
330
1F
100
AcDbEntity
  8
Dimension
100
AcDbDimension
280
     0
  2
*D12
 10
119.4601972462818
 20
136.3522560053415
 30
0.0
 11
201.3364891505884
 21
119.9805272951548
 31
0.0
 70
   163
  1
M2x0.4 5.5MM DEEP 12 HOLES
 71
     5
 42
1.999999999999929
 73
     0
 74
     0
 75
     0
  3
VCDDIMSTYLE01
100
AcDbDiametricDimension
 15
117.7698917268592
 25
137.4213057006359
 35
0.0
 40
0.0
1001
ACAD_DSTYLE_DIMRADIAL_EXTENSION
1070
   387
1070
     1
1070
   388
1040
4.625122517784916
1070
   390
1040
3.228859116189695
1001
ACAD
1000
DSTYLE
1002
{
1070
     3
1000
M <>
1002
}
  0
DIMENSION
  5
11C
330
1F
100
AcDbEntity
  8
Dimension
100
AcDbDimension
280
     0
  2
*D13
 10
73.61576080282202
 20
245.0856988678332
 30
0.0
 11
73.61576080282202
 21
251.1170076369689
 31
0.0
 70
   160
  1
16.7
 71
     5
 42
16.69891801486108
 73
     0
 74
     0
 75
     0
  3
VCDDIMSTYLE01
100
AcDbAlignedDimension
 13
86.1150444865919
 23
261.7846168826943
 33
0.0
 14
86.71504448658993
 24
245.0856988678332
 34
0.0
 50
90.0
100
AcDbRotatedDimension
1001
ACAD
1000
DSTYLE
1002
{
1070
   271
1070
     4
1002
}
  0
DIMENSION
  5
12A
330
1F
100
AcDbEntity
  8
Dimension
100
AcDbDimension
280
     0
  2
*D14
 10
121.1150444865842
 20
274.9957459623017
 30
0.0
 11
103.5574484785373
 21
274.9957459623017
 31
0.0
 70
   160
 71
     5
 42
34.99999999999227
 73
     0
 74
     0
 75
     0
  3
VCDDIMSTYLE01
100
AcDbAlignedDimension
 13
86.1150444865919
 23
261.7846168826943
 33
0.0
 14
121.1150444865842
 24
261.7846168827013
 34
0.0
100
AcDbRotatedDimension
1001
ACAD
1000
DSTYLE
1002
{
1070
   271
1070
     4
1002
}
  0
DIMENSION
  5
138
330
1F
100
AcDbEntity
  8
Dimension
100
AcDbDimension
280
     0
  2
*D15
 10
28.11378750138419
 20
182.0856988678306
 30
0.0
 11
28.11378750138419
 21
195.6395923835321
 31
0.0
 70
   160
 71
     5
 42
30.99999999999642
 73
     0
 74
     0
 75
     0
  3
VCDDIMSTYLE01
100
AcDbAlignedDimension
 13
37.41612647173429
 23
213.085698867827
 33
0.0
 14
37.41612647173076
 24
182.0856988678306
 34
0.0
 50
90.0
100
AcDbRotatedDimension
1001
ACAD
1000
DSTYLE
1002
{
1070
   271
1070
     4
1002
}
  0
LINE
  5
13E
330
1F
100
AcDbEntity
  8
0
 62
     2
100
AcDbLine
 10
86.11504448657018
 20
70.38678085298983
 30
0.0
 11
86.11504448657269
 21
91.95849516727867
 31
0.0
  0
LINE
  5
13F
330
1F
100
AcDbEntity
  8
0
 62
     2
100
AcDbLine
 10
86.71504448657271
 20
93.58678059170364
 30
0.0
 11
86.71504448657356
 21
101.3867808529864
 31
0.0
  0
LINE
  5
140
330
1F
100
AcDbEntity
  8
0
 62
     2
100
AcDbLine
 10
90.91504448657213
 20
93.58678059170455
 30
0.0
 11
90.91504448657298
 21
101.3867808529872
 31
0.0
  0
LINE
  5
141
330
1F
100
AcDbEntity
  8
0
 62
     2
100
AcDbLine
 10
86.11504448657018
 20
70.38678085298983
 30
0.0
 11
86.71504448657004
 21
70.38678085298983
 31
0.0
  0
LINE
  5
142
330
1F
100
AcDbEntity
  8
0
 62
     2
100
AcDbLine
 10
90.91504448656946
 20
70.38678085299074
 30
0.0
 11
90.91504448657213
 21
93.58678059170455
 31
0.0
  0
ARC
  5
143
330
1F
100
AcDbEntity
  8
0
 62
     2
100
AcDbCircle
 10
84.71504448657322
 20
93.38678085298689
 30
0.0
 40
1.999999999999406
100
AcDbArc
 50
314.4270040007984
 51
359.9999999999994
  0
LINE
  5
144
330
1F
100
AcDbEntity
  8
0
 62
     2
100
AcDbLine
 10
116.3150444865659
 20
93.58678059170956
 30
0.0
 11
116.3150444865668
 21
101.3867808529922
 31
0.0
  0
LINE
  5
145
330
1F
100
AcDbEntity
  8
0
 62
     2
100
AcDbLine
 10
120.5150444865652
 20
93.58678059171037
 30
0.0
 11
120.5150444865661
 21
101.386780852993
 31
0.0
  0
LINE
  5
146
330
1F
100
AcDbEntity
  8
0
 62
     2
100
AcDbLine
 10
121.1150444865624
 20
70.38678085299665
 30
0.0
 11
121.1150444865649
 21
91.95849516728549
 31
0.0
  0
LINE
  5
147
330
1F
100
AcDbEntity
  8
0
 62
     2
100
AcDbLine
 10
120.5150444865626
 20
70.38678085299665
 30
0.0
 11
121.1150444865624
 21
70.38678085299665
 31
0.0
  0
LINE
  5
148
330
1F
100
AcDbEntity
  8
0
 62
     2
100
AcDbLine
 10
116.3150444865659
 20
93.58678059170956
 30
0.0
 11
116.3150444865632
 21
70.38678085299576
 31
0.0
  0
ARC
  5
149
330
1F
100
AcDbEntity
  8
0
 62
     2
100
AcDbCircle
 10
122.5150444865644
 20
93.38678085299425
 30
0.0
 40
1.999999999999545
100
AcDbArc
 50
180.0
 51
225.5729959992112
  0
LINE
  5
14A
330
1F
100
AcDbEntity
  8
0
 62
     2
100
AcDbLine
 10
116.3150444865668
 20
101.3867808529922
 30
0.0
 11
120.5150444865661
 21
101.386780852993
 31
0.0
  0
LINE
  5
14B
330
1F
100
AcDbEntity
  8
0
 62
     2
100
AcDbLine
 10
86.71504448657356
 20
101.3867808529864
 30
0.0
 11
90.91504448657298
 21
101.3867808529872
 31
0.0
  0
LINE
  5
14C
330
1F
100
AcDbEntity
  8
0
 62
     2
100
AcDbLine
 10
90.91504448657213
 20
93.58678059170455
 30
0.0
 11
86.71504448657271
 21
93.58678059170364
 31
0.0
  0
LINE
  5
14D
330
1F
100
AcDbEntity
  8
0
 62
     2
100
AcDbLine
 10
120.5150444865653
 20
93.58678059171035
 30
0.0
 11
116.3150444865659
 21
93.58678059170956
 31
0.0
  0
LINE
  5
14E
330
1F
100
AcDbEntity
  8
0
 62
     2
100
AcDbLine
 10
116.3150444865632
 20
70.38678085299576
 30
0.0
 11
120.5150444865626
 21
70.38678085299665
 31
0.0
  0
LINE
  5
14F
330
1F
100
AcDbEntity
  8
0
 62
     2
100
AcDbLine
 10
86.71504448657004
 20
70.38678085298983
 30
0.0
 11
90.91504448656946
 21
70.38678085299063
 31
0.0
  0
LINE
  5
150
330
1F
100
AcDbEntity
  8
0
 62
     2
100
AcDbLine
 10
92.91504457550462
 20
78.38678098935662
 30
0.0
 11
114.3150445754998
 21
78.38678098936106
 31
0.0
  0
LINE
  5
151
330
1F
100
AcDbEntity
  8
0
 62
     2
100
AcDbLine
 10
90.91504448656946
 20
70.38678085299074
 30
0.0
 11
116.3150444865632
 21
70.38678085299576
 31
0.0
  0
ARC
  5
152
330
1F
100
AcDbEntity
  8
0
 62
     2
100
AcDbCircle
 10
92.91504457550485
 20
80.3867809893564
 30
0.0
 40
1.999999999999545
100
AcDbArc
 50
180.0
 51
270.0
  0
ARC
  5
153
330
1F
100
AcDbEntity
  8
0
 62
     2
100
AcDbCircle
 10
114.3150445755001
 20
80.38678098936083
 30
0.0
 40
1.999999999999773
100
AcDbArc
 50
269.9999999999935
 51
359.9999999999936
  0
ARC
  5
154
330
1F
100
AcDbEntity
  8
0
 62
     6
100
AcDbCircle
 10
89.11504448657195
 20
90.38678085298824
 30
0.0
 40
1.000000000000071
100
AcDbArc
 50
264.9999999999973
 51
184.9999999999973
  0
CIRCLE
  5
155
330
1F
100
AcDbEntity
  8
0
 62
     2
100
AcDbCircle
 10
89.11504448657195
 20
90.38678085298824
 30
0.0
 40
0.7835200000000668
  0
ARC
  5
156
330
1F
100
AcDbEntity
  8
0
 62
     6
100
AcDbCircle
 10
118.1150444865654
 20
90.38678085299392
 30
0.0
 40
0.9999999999999584
100
AcDbArc
 50
264.9999999999968
 51
184.9999999999967
  0
CIRCLE
  5
157
330
1F
100
AcDbEntity
  8
0
 62
     2
100
AcDbCircle
 10
118.1150444865654
 20
90.38678085299392
 30
0.0
 40
0.7835200000000668
  0
ARC
  5
158
330
1F
100
AcDbEntity
  8
0
 62
     6
100
AcDbCircle
 10
118.115044486564
 20
78.38678085299529
 30
0.0
 40
1.000000000000071
100
AcDbArc
 50
264.9999999999972
 51
184.9999999999973
  0
CIRCLE
  5
159
330
1F
100
AcDbEntity
  8
0
 62
     2
100
AcDbCircle
 10
118.115044486564
 20
78.38678085299529
 30
0.0
 40
0.7835200000000668
  0
ARC
  5
15A
330
1F
100
AcDbEntity
  8
0
 62
     6
100
AcDbCircle
 10
89.11504448657058
 20
78.38678085298959
 30
0.0
 40
1.000000000000071
100
AcDbArc
 50
264.9999999999973
 51
184.9999999999973
  0
CIRCLE
  5
15B
330
1F
100
AcDbEntity
  8
0
 62
     2
100
AcDbCircle
 10
89.11504448657058
 20
78.38678085298959
 30
0.0
 40
0.7835200000000668
  0
LINE
  5
15C
330
1F
100
AcDbEntity
  8
0
 62
     2
100
AcDbLine
 10
86.71504448657271
 20
93.58678059170364
 30
0.0
 11
86.71504448657265
 21
93.38678085298727
 31
0.0
  0
LINE
  5
15D
330
1F
100
AcDbEntity
  8
0
 62
     2
100
AcDbLine
 10
120.515044486565
 20
93.38678085299392
 30
0.0
 11
120.515044486565
 21
93.5867805917103
 31
0.0
  0
LINE
  5
15E
330
1F
100
AcDbEntity
  8
0
 62
     2
100
AcDbLine
 10
111.1150444865675
 20
95.88678073018741
 30
0.0
 11
114.3150444865666
 21
95.88678073018804
 31
0.0
  0
LINE
  5
15F
330
1F
100
AcDbEntity
  8
0
 62
     2
100
AcDbLine
 10
96.11504448657155
 20
101.3867807301837
 30
0.0
 11
90.91504417773803
 21
101.3867807301827
 31
0.0
  0
LINE
  5
160
330
1F
100
AcDbEntity
  8
0
 62
     2
100
AcDbLine
 10
96.11504448657155
 20
101.3867807301837
 30
0.0
 11
96.11504448657092
 21
95.88678073018441
 31
0.0
  0
LINE
  5
161
330
1F
100
AcDbEntity
  8
0
 62
     2
100
AcDbLine
 10
111.1150444865675
 20
95.88678073018741
 30
0.0
 11
111.1150444865681
 21
101.3867807301868
 31
0.0
  0
LINE
  5
162
330
1F
100
AcDbEntity
  8
0
 62
     2
100
AcDbLine
 10
96.11504448657092
 20
95.88678073018441
 30
0.0
 11
111.1150444865675
 21
95.88678073018741
 31
0.0
  0
LINE
  5
163
330
1F
100
AcDbEntity
  8
0
 62
     2
100
AcDbLine
 10
111.1150444865681
 20
101.3867807301868
 30
0.0
 11
96.11504448657155
 21
101.3867807301837
 31
0.0
  0
LINE
  5
164
330
1F
100
AcDbEntity
  8
0
 62
     2
100
AcDbLine
 10
116.3150441777323
 20
101.3867807301878
 30
0.0
 11
111.1150444865681
 21
101.3867807301868
 31
0.0
  0
LINE
  5
165
330
1F
100
AcDbEntity
  8
0
 62
     2
100
AcDbLine
 10
92.9150444865719
 20
95.88678073018372
 30
0.0
 11
96.11504448657092
 21
95.88678073018441
 31
0.0
  0
ARC
  5
166
330
1F
100
AcDbEntity
  8
0
 62
     2
100
AcDbCircle
 10
92.91504448657167
 20
93.88678073018394
 30
0.0
 40
1.999999999999773
100
AcDbArc
 50
89.99999999999349
 51
179.9999999999937
  0
ARC
  5
167
330
1F
100
AcDbEntity
  8
0
 62
     2
100
AcDbCircle
 10
114.3150444865664
 20
93.88678073018826
 30
0.0
 40
1.999999999999545
100
AcDbArc
 50
0.0
 51
89.99999999999984
  0
ARC
  5
168
330
1F
100
AcDbEntity
  8
0
 62
     6
100
AcDbCircle
 10
157.4650444848343
 20
186.0856988582578
 30
0.0
 40
0.9999999999998122
100
AcDbArc
 50
92.92805725022907
 51
267.0719427497608
  0
LINE
  5
169
330
1F
100
AcDbEntity
  8
0
 62
     2
100
AcDbLine
 10
157.4139624865704
 20
213.0856988678509
 30
0.0
 11
157.4139624865679
 21
191.513984553562
 31
0.0
  0
LINE
  5
16A
330
1F
100
AcDbEntity
  8
0
 62
     2
100
AcDbLine
 10
153.1150444865686
 20
189.8856991291362
 30
0.0
 11
153.1150444865678
 21
182.0856988678536
 31
0.0
  0
LINE
  5
16B
330
1F
100
AcDbEntity
  8
0
 62
     2
100
AcDbLine
 10
153.1150444865686
 20
189.8856991291362
 30
0.0
 11
157.4139624865677
 21
189.8856991291371
 31
0.0
  0
LINE
  5
16C
330
1F
100
AcDbEntity
  8
0
 62
     2
100
AcDbLine
 10
157.4139624865679
 20
191.513984553562
 30
0.0
 11
157.4139624865678
 21
190.0856988678536
 31
0.0
  0
LINE
  5
16D
330
1F
100
AcDbEntity
  8
0
 62
     2
100
AcDbLine
 10
167.8139627335447
 20
189.8856984880293
 30
0.0
 11
169.813962501428
 21
189.8856984880297
 31
0.0
  0
LINE
  5
16E
330
1F
100
AcDbEntity
  8
0
 62
     2
100
AcDbLine
 10
167.8139627335447
 20
190.0856990442734
 30
0.0
 11
167.8139627335447
 21
189.8856984880293
 31
0.0
  0
LINE
  5
16F
330
1F
100
AcDbEntity
  8
0
 62
     2
100
AcDbLine
 10
169.8139625014272
 20
182.0856990442747
 30
0.0
 11
169.813962501428
 21
189.8856984880297
 31
0.0
  0
ARC
  5
170
330
1F
100
AcDbEntity
  8
0
 62
     6
100
AcDbCircle
 10
166.4650444848323
 20
186.0856988582596
 30
0.0
 40
0.9999999999999634
100
AcDbArc
 50
264.9999999999935
 51
184.9999999999935
  0
LINE
  5
171
330
1F
100
AcDbEntity
  8
0
 62
     2
100
AcDbLine
 10
157.4139624865668
 20
182.0856988678545
 30
0.0
 11
153.1150444865678
 21
182.0856988678536
 31
0.0
  0
LINE
  5
172
330
1F
100
AcDbEntity
  8
0
 62
     2
100
AcDbLine
 10
157.4139624865668
 20
182.0856988678545
 30
0.0
 11
169.8139625571256
 21
182.0856988678569
 31
0.0
  0
LINE
  5
173
330
1F
100
AcDbEntity
  8
0
 62
     2
100
AcDbLine
 10
167.8139627335449
 20
191.5139845535641
 30
0.0
 11
167.8139627335447
 21
190.0856988678556
 31
0.0
  0
LINE
  5
174
330
1F
100
AcDbEntity
  8
0
 62
     2
100
AcDbLine
 10
167.8139627335449
 20
191.5139845535641
 30
0.0
 11
157.4139624865679
 21
191.513984553562
 31
0.0
  0
LINE
  5
175
330
1F
100
AcDbEntity
  8
0
 62
     2
100
AcDbLine
 10
169.8139625014308
 20
213.0856988678534
 30
0.0
 11
169.8139625014302
 21
208.2856984880274
 31
0.0
  0
LINE
  5
176
330
1F
100
AcDbEntity
  8
0
 62
     2
100
AcDbLine
 10
167.8139627335468
 20
208.2856984880271
 30
0.0
 11
167.8139627335449
 21
191.5139845535641
 31
0.0
  0
LINE
  5
177
330
1F
100
AcDbEntity
  8
0
 62
     2
100
AcDbLine
 10
169.8139625014308
 20
213.0856988678534
 30
0.0
 11
157.4139624865704
 21
213.0856988678509
 31
0.0
  0
LINE
  5
178
330
1F
100
AcDbEntity
  8
0
 62
     2
100
AcDbLine
 10
169.8139625014302
 20
208.2856984880274
 30
0.0
 11
167.8139627335468
 21
208.2856984880271
 31
0.0
  0
LINE
  5
179
330
1F
100
AcDbEntity
  8
0
 62
     2
100
AcDbLine
 10
157.4139627698995
 20
189.8856991291371
 30
0.0
 11
157.4139627698996
 21
190.0856988678535
 31
0.0
  0
ARC
  5
17A
330
1F
100
AcDbEntity
  8
0
 62
     6
100
AcDbCircle
 10
157.4650444848343
 20
186.0856988582578
 30
0.0
 40
0.9999999999999373
100
AcDbArc
 50
267.0719427497582
 51
92.92805725022991
  0
LINE
  5
17B
330
1F
100
AcDbEntity
  8
0
 62
     2
100
AcDbLine
 10
167.8139627335447
 20
190.0856988678556
 30
0.0
 11
157.4139624865678
 21
190.0856988678536
 31
0.0
  0
CIRCLE
  5
17C
330
1F
100
AcDbEntity
  8
0
 62
     2
100
AcDbCircle
 10
166.4650444848323
 20
186.0856988582596
 30
0.0
 40
0.900000000000091
  0
CIRCLE
  5
17D
330
1F
100
AcDbEntity
  8
0
 62
     2
100
AcDbCircle
 10
166.4650444848323
 20
186.0856988582596
 30
0.0
 40
0.7835200000000668
  0
CIRCLE
  5
17E
330
1F
100
AcDbEntity
  8
0
 62
     2
100
AcDbCircle
 10
157.4650444848343
 20
186.0856988582578
 30
0.0
 40
0.7835199999999531
  0
ARC
  5
17F
330
1F
100
AcDbEntity
  8
0
 62
     6
100
AcDbCircle
 10
49.76504448832458
 20
186.0856988582364
 30
0.0
 40
1.000000000000096
100
AcDbArc
 50
272.9280572502282
 51
87.0719427497594
  0
LINE
  5
180
330
1F
100
AcDbEntity
  8
0
 62
     2
100
AcDbLine
 10
54.11504448659099
 20
189.8856991291166
 30
0.0
 11
54.11504448659014
 21
182.085698867834
 31
0.0
  0
LINE
  5
181
330
1F
100
AcDbEntity
  8
0
 62
     2
100
AcDbLine
 10
49.81612648659461
 20
213.0856988678295
 30
0.0
 11
49.81612648659217
 21
191.5139845535408
 31
0.0
  0
LINE
  5
182
330
1F
100
AcDbEntity
  8
0
 62
     2
100
AcDbLine
 10
49.81612648659194
 20
189.8856991291157
 30
0.0
 11
54.11504448659093
 21
189.8856991291166
 31
0.0
  0
LINE
  5
183
330
1F
100
AcDbEntity
  8
0
 62
     2
100
AcDbLine
 10
49.81612648659205
 20
190.0856988678321
 30
0.0
 11
49.81612648659222
 21
191.5139845535409
 31
0.0
  0
LINE
  5
184
330
1F
100
AcDbEntity
  8
0
 62
     2
100
AcDbLine
 10
37.41612647173162
 20
189.8856984880032
 30
0.0
 11
39.41612623961498
 21
189.8856984880037
 31
0.0
  0
LINE
  5
185
330
1F
100
AcDbEntity
  8
0
 62
     2
100
AcDbLine
 10
39.41612623961498
 20
189.8856984880037
 30
0.0
 11
39.41612623961504
 21
190.0856990442479
 31
0.0
  0
LINE
  5
186
330
1F
100
AcDbEntity
  8
0
 62
     2
100
AcDbLine
 10
37.41612647173162
 20
189.8856984880032
 30
0.0
 11
37.41612647173076
 21
182.0856990442484
 31
0.0
  0
ARC
  5
187
330
1F
100
AcDbEntity
  8
0
 62
     6
100
AcDbCircle
 10
40.76504448832662
 20
186.0856988582345
 30
0.0
 40
0.9999999999999067
100
AcDbArc
 50
264.9999999999932
 51
184.9999999999932
  0
LINE
  5
188
330
1F
100
AcDbEntity
  8
0
 62
     2
100
AcDbLine
 10
54.11504448659014
 20
182.085698867834
 30
0.0
 11
49.81612648659114
 21
182.0856988678331
 31
0.0
  0
LINE
  5
189
330
1F
100
AcDbEntity
  8
0
 62
     2
100
AcDbLine
 10
37.41612641603234
 20
182.0856988678306
 30
0.0
 11
49.81612648659109
 21
182.0856988678331
 31
0.0
  0
LINE
  5
18A
330
1F
100
AcDbEntity
  8
0
 62
     2
100
AcDbLine
 10
39.41612623961504
 20
190.08569886783
 30
0.0
 11
39.41612623961521
 21
191.5139845535387
 31
0.0
  0
LINE
  5
18B
330
1F
100
AcDbEntity
  8
0
 62
     2
100
AcDbLine
 10
39.41612623961521
 20
191.5139845535387
 30
0.0
 11
49.81612648659217
 21
191.5139845535408
 31
0.0
  0
LINE
  5
18C
330
1F
100
AcDbEntity
  8
0
 62
     2
100
AcDbLine
 10
39.41612623961521
 20
191.5139845535387
 30
0.0
 11
39.41612623961709
 21
208.2856984880016
 31
0.0
  0
LINE
  5
18D
330
1F
100
AcDbEntity
  8
0
 62
     2
100
AcDbLine
 10
37.41612647173429
 20
213.085698867827
 30
0.0
 11
37.41612647173372
 21
208.2856984880011
 31
0.0
  0
LINE
  5
18E
330
1F
100
AcDbEntity
  8
0
 62
     2
100
AcDbLine
 10
49.81612648659461
 20
213.0856988678295
 30
0.0
 11
37.41612647173423
 21
213.085698867827
 31
0.0
  0
LINE
  5
18F
330
1F
100
AcDbEntity
  8
0
 62
     2
100
AcDbLine
 10
39.41612623961709
 20
208.2856984880016
 30
0.0
 11
37.41612647173366
 21
208.2856984880012
 31
0.0
  0
LINE
  5
190
330
1F
100
AcDbEntity
  8
0
 62
     2
100
AcDbLine
 10
49.81612620326024
 20
190.0856988678321
 30
0.0
 11
49.81612620326018
 21
189.8856991291157
 31
0.0
  0
ARC
  5
191
330
1F
100
AcDbEntity
  8
0
 62
     6
100
AcDbCircle
 10
49.76504448832458
 20
186.0856988582364
 30
0.0
 40
0.9999999999998777
100
AcDbArc
 50
87.07194274976132
 51
272.9280572502298
  0
LINE
  5
192
330
1F
100
AcDbEntity
  8
0
 62
     2
100
AcDbLine
 10
39.41612623961504
 20
190.08569886783
 30
0.0
 11
49.81612648659205
 21
190.0856988678321
 31
0.0
  0
CIRCLE
  5
193
330
1F
100
AcDbEntity
  8
0
 62
     2
100
AcDbCircle
 10
40.76504448832662
 20
186.0856988582345
 30
0.0
 40
0.8999999999998067
  0
CIRCLE
  5
194
330
1F
100
AcDbEntity
  8
0
 62
     2
100
AcDbCircle
 10
40.76504448832662
 20
186.0856988582345
 30
0.0
 40
0.7835199999999531
  0
CIRCLE
  5
195
330
1F
100
AcDbEntity
  8
0
 62
     2
100
AcDbCircle
 10
49.76504448832458
 20
186.0856988582364
 30
0.0
 40
0.78352000000001
  0
LINE
  5
196
330
1F
100
AcDbEntity
  8
0
 62
     2
100
AcDbLine
 10
95.11504448658985
 20
258.7846168826965
 30
0.0
 11
92.9150445755252
 21
258.7846168826961
 31
0.0
  0
LINE
  5
197
330
1F
100
AcDbEntity
  8
0
 62
     2
100
AcDbLine
 10
99.11504448658883
 20
257.2846171511661
 30
0.0
 11
95.11504448658968
 21
257.2846171511653
 31
0.0
  0
LINE
  5
198
330
1F
100
AcDbEntity
  8
0
 62
     2
100
AcDbLine
 10
99.11504448658894
 20
258.7846168826973
 30
0.0
 11
95.11504448658985
 21
258.7846168826965
 31
0.0
  0
LINE
  5
199
330
1F
100
AcDbEntity
  8
0
 62
     2
100
AcDbLine
 10
86.11504448659036
 20
249.3846168678326
 30
0.0
 11
86.71504448659044
 21
249.3846168678327
 31
0.0
  0
LINE
  5
19A
330
1F
100
AcDbEntity
  8
0
 62
     2
100
AcDbLine
 10
86.71504448659044
 20
249.3846168678327
 30
0.0
 11
86.71504448658993
 21
245.0856988678332
 31
0.0
  0
LINE
  5
19B
330
1F
100
AcDbEntity
  8
0
 62
     2
100
AcDbLine
 10
90.91504448659043
 20
254.5856988717143
 30
0.0
 11
90.91504448659043
 21
255.3846168826966
 31
0.0
  0
LINE
  5
19C
330
1F
100
AcDbEntity
  8
0
 62
     2
100
AcDbLine
 10
86.71504448659044
 20
249.3846168678327
 30
0.0
 11
86.71504448659186
 21
261.7846169383928
 31
0.0
  0
LINE
  5
19D
330
1F
100
AcDbEntity
  8
0
 62
     2
100
AcDbLine
 10
90.91504457552566
 20
258.7846168826956
 30
0.0
 11
90.91504457552514
 21
255.3846168826965
 31
0.0
  0
LINE
  5
19E
330
1F
100
AcDbEntity
  8
0
 62
     2
100
AcDbLine
 10
90.91504448658935
 20
245.0856988678341
 30
0.0
 11
90.91504448658964
 21
247.9356988717151
 31
0.0
  0
LINE
  5
19F
330
1F
100
AcDbEntity
  8
0
 62
     2
100
AcDbLine
 10
120.5150444865827
 20
249.3846168678394
 30
0.0
 11
121.1150444865829
 21
249.3846168678395
 31
0.0
  0
LINE
  5
1A0
330
1F
100
AcDbEntity
  8
0
 62
     2
100
AcDbLine
 10
116.3150444865835
 20
247.9356988717201
 30
0.0
 11
116.3150444865832
 21
245.0856988678392
 31
0.0
  0
LINE
  5
1A1
330
1F
100
AcDbEntity
  8
0
 62
     2
100
AcDbLine
 10
120.5150444865825
 20
245.0856988678399
 30
0.0
 11
120.515044486583
 21
249.3846168678394
 31
0.0
  0
LINE
  5
1A2
330
1F
100
AcDbEntity
  8
0
 62
     2
100
AcDbLine
 10
120.5150444865842
 20
261.7846169383996
 30
0.0
 11
120.5150444865828
 21
249.3846168678394
 31
0.0
  0
LINE
  5
1A3
330
1F
100
AcDbEntity
  8
0
 62
     2
100
AcDbLine
 10
116.3150445755195
 20
255.3846168827017
 30
0.0
 11
116.3150445755198
 21
258.7846168827007
 31
0.0
  0
LINE
  5
1A4
330
1F
100
AcDbEntity
  8
0
 62
     2
100
AcDbLine
 10
116.3150444865843
 20
255.3846168827017
 30
0.0
 11
116.3150444865842
 21
254.5856988717194
 31
0.0
  0
LINE
  5
1A5
330
1F
100
AcDbEntity
  8
0
 62
     2
100
AcDbLine
 10
116.315044486585
 20
261.7846168827004
 30
0.0
 11
116.3150444865847
 21
258.7846168827008
 31
0.0
  0
LINE
  5
1A6
330
1F
100
AcDbEntity
  8
0
 62
     2
100
AcDbLine
 10
90.91504448659094
 20
258.7846168826957
 30
0.0
 11
90.91504448659128
 21
261.7846168826953
 31
0.0
  0
ARC
  5
1A7
330
1F
100
AcDbEntity
  8
0
 62
     6
100
AcDbCircle
 10
89.11504448659014
 20
251.5856988661
 30
0.0
 40
0.9999999904031693
100
AcDbArc
 50
264.9999999999988
 51
184.9999999999988
  0
ARC
  5
1A8
330
1F
100
AcDbEntity
  8
0
 62
     6
100
AcDbCircle
 10
89.11504448658974
 20
246.9856988661005
 30
0.0
 40
0.9999999904031127
100
AcDbArc
 50
264.9999999999985
 51
184.9999999999985
  0
ARC
  5
1A9
330
1F
100
AcDbEntity
  8
0
 62
     6
100
AcDbCircle
 10
118.1150444865831
 20
246.985698866106
 30
0.0
 40
0.999999990403231
100
AcDbArc
 50
264.9999999999958
 51
184.9999999999958
  0
LINE
  5
1AA
330
1F
100
AcDbEntity
  8
0
 62
     2
100
AcDbLine
 10
90.91504448659128
 20
261.7846168826953
 30
0.0
 11
86.71504448659186
 21
261.7846168826945
 31
0.0
  0
LINE
  5
1AB
330
1F
100
AcDbEntity
  8
0
 62
     2
100
AcDbLine
 10
120.5150444865841
 20
261.7846168827012
 30
0.0
 11
116.315044486585
 21
261.7846168827004
 31
0.0
  0
LINE
  5
1AC
330
1F
100
AcDbEntity
  8
0
 62
     2
100
AcDbLine
 10
116.3150444865832
 20
245.0856988678392
 30
0.0
 11
120.5150444865824
 21
245.08569886784
 31
0.0
  0
LINE
  5
1AD
330
1F
100
AcDbEntity
  8
0
 62
     2
100
AcDbLine
 10
86.71504448658993
 20
245.0856988678332
 30
0.0
 11
90.91504448658941
 21
245.085698867834
 31
0.0
  0
ARC
  5
1AE
330
1F
100
AcDbEntity
  8
0
 62
     6
100
AcDbCircle
 10
118.1150444865841
 20
256.1856988661053
 30
0.0
 40
0.9999999904031743
100
AcDbArc
 50
264.9999999999956
 51
184.9999999999955
  0
ARC
  5
1AF
330
1F
100
AcDbEntity
  8
0
 62
     6
100
AcDbCircle
 10
89.11504448659076
 20
256.1856988660994
 30
0.0
 40
0.9999999904030611
100
AcDbArc
 50
264.999999999995
 51
184.999999999995
  0
ARC
  5
1B0
330
1F
100
AcDbEntity
  8
0
 62
     6
100
AcDbCircle
 10
118.1150444865836
 20
251.5856988661058
 30
0.0
 40
0.9999999904031693
100
AcDbArc
 50
264.9999999999988
 51
184.9999999999988
  0
LINE
  5
1B1
330
1F
100
AcDbEntity
  8
0
 62
     2
100
AcDbLine
 10
114.3150445755202
 20
258.7846168827004
 30
0.0
 11
99.11504448658894
 21
258.7846168826973
 31
0.0
  0
LINE
  5
1B2
330
1F
100
AcDbEntity
  8
0
 62
     2
100
AcDbLine
 10
86.11504448659167
 20
259.7846171148107
 30
0.0
 11
86.71504448659164
 21
259.7846171148108
 31
0.0
  0
LINE
  5
1B3
330
1F
100
AcDbEntity
  8
0
 62
     2
100
AcDbLine
 10
86.11504448659167
 20
259.7846171148107
 30
0.0
 11
86.11504448659048
 21
249.3846168678326
 31
0.0
  0
LINE
  5
1B4
330
1F
100
AcDbEntity
  8
0
 62
     2
100
AcDbLine
 10
120.515044486584
 20
259.7846171148176
 30
0.0
 11
121.1150444865839
 21
259.7846171148178
 31
0.0
  0
LINE
  5
1B5
330
1F
100
AcDbEntity
  8
0
 62
     2
100
AcDbLine
 10
121.1150444865839
 20
259.7846171148178
 30
0.0
 11
121.1150444865828
 21
249.3846168678396
 31
0.0
  0
LINE
  5
1B6
330
1F
100
AcDbEntity
  8
0
 62
     2
100
AcDbLine
 10
86.71504448659192
 20
261.7846168826945
 30
0.0
 11
86.1150444865919
 21
261.7846168826943
 31
0.0
  0
LINE
  5
1B7
330
1F
100
AcDbEntity
  8
0
 62
     2
100
AcDbLine
 10
121.1150444865841
 20
261.7846168827013
 30
0.0
 11
120.5150444086063
 21
261.7846168827012
 31
0.0
  0
LINE
  5
1B8
330
1F
100
AcDbEntity
  8
0
 62
     2
100
AcDbLine
 10
92.91504457552475
 20
255.384616882697
 30
0.0
 11
114.31504457552
 21
255.3846168827012
 31
0.0
  0
LINE
  5
1B9
330
1F
100
AcDbEntity
  8
0
 62
     2
100
AcDbLine
 10
86.1150444865919
 20
261.7846168826943
 30
0.0
 11
86.11504448659167
 21
259.7846171148107
 31
0.0
  0
LINE
  5
1BA
330
1F
100
AcDbEntity
  8
0
 62
     2
100
AcDbLine
 10
121.115044486584
 20
259.7846171148177
 30
0.0
 11
121.1150444865842
 21
261.7846168827014
 31
0.0
  0
LINE
  5
1BB
330
1F
100
AcDbEntity
  8
0
 62
     2
100
AcDbLine
 10
95.11504448658968
 20
257.2846171511653
 30
0.0
 11
95.11504448658985
 21
258.7846168826965
 31
0.0
  0
LINE
  5
1BC
330
1F
100
AcDbEntity
  8
0
 62
     2
100
AcDbLine
 10
99.11504448658894
 20
258.7846168826973
 30
0.0
 11
99.11504448658872
 21
257.2846171511661
 31
0.0
  0
LINE
  5
1BD
330
1F
100
AcDbEntity
  8
0
 62
     2
100
AcDbLine
 10
92.91504457552526
 20
258.7846168826962
 30
0.0
 11
92.91504457552475
 21
255.3846168826972
 31
0.0
  0
LINE
  5
1BE
330
1F
100
AcDbEntity
  8
0
 62
     2
100
AcDbLine
 10
114.3150445755199
 20
255.3846168827013
 30
0.0
 11
114.3150445755203
 21
258.7846168827004
 31
0.0
  0
LINE
  5
1BF
330
1F
100
AcDbEntity
  8
0
 62
     2
100
AcDbLine
 10
90.91504457552566
 20
258.7846168826957
 30
0.0
 11
92.9150445755252
 21
258.7846168826961
 31
0.0
  0
LINE
  5
1C0
330
1F
100
AcDbEntity
  8
0
 62
     2
100
AcDbLine
 10
92.91504457552475
 20
255.384616882697
 30
0.0
 11
90.91504457552514
 21
255.3846168826965
 31
0.0
  0
LINE
  5
1C1
330
1F
100
AcDbEntity
  8
0
 62
     2
100
AcDbLine
 10
116.3150445755195
 20
255.3846168827017
 30
0.0
 11
114.31504457552
 21
255.3846168827012
 31
0.0
  0
LINE
  5
1C2
330
1F
100
AcDbEntity
  8
0
 62
     2
100
AcDbLine
 10
114.3150445755202
 20
258.7846168827004
 30
0.0
 11
116.3150445755198
 21
258.7846168827008
 31
0.0
  0
CIRCLE
  5
1C3
330
1F
100
AcDbEntity
  8
0
 62
     2
100
AcDbCircle
 10
118.1150444865841
 20
256.1856988661053
 30
0.0
 40
0.7835199999998395
  0
CIRCLE
  5
1C4
330
1F
100
AcDbEntity
  8
0
 62
     2
100
AcDbCircle
 10
118.1150444865831
 20
246.985698866106
 30
0.0
 40
0.7835199999998963
  0
CIRCLE
  5
1C5
330
1F
100
AcDbEntity
  8
0
 62
     2
100
AcDbCircle
 10
89.11504448659076
 20
256.1856988660994
 30
0.0
 40
0.7835199999998395
  0
CIRCLE
  5
1C6
330
1F
100
AcDbEntity
  8
0
 62
     2
100
AcDbCircle
 10
89.11504448658974
 20
246.9856988661005
 30
0.0
 40
0.7835199999998963
  0
CIRCLE
  5
1C7
330
1F
100
AcDbEntity
  8
0
 62
     2
100
AcDbCircle
 10
118.1150444865836
 20
251.5856988661058
 30
0.0
 40
0.7835199999998963
  0
CIRCLE
  5
1C8
330
1F
100
AcDbEntity
  8
0
 62
     2
100
AcDbCircle
 10
89.11504448659014
 20
251.5856988661
 30
0.0
 40
0.7835199999998963
  0
LINE
  5
1C9
330
1F
100
AcDbEntity
  8
0
 62
     2
100
AcDbLine
 10
96.1150444865882
 20
247.9356988717162
 30
0.0
 11
90.9150441777548
 21
247.9356988717151
 31
0.0
  0
LINE
  5
1CA
330
1F
100
AcDbEntity
  8
0
 62
     2
100
AcDbLine
 10
96.11504448658826
 20
248.5856988717161
 30
0.0
 11
96.1150444865882
 21
247.9356988717162
 31
0.0
  0
LINE
  5
1CB
330
1F
100
AcDbEntity
  8
0
 62
     2
100
AcDbLine
 10
111.1150444865848
 20
247.9356988717191
 30
0.0
 11
111.1150444865849
 21
248.585698871719
 31
0.0
  0
LINE
  5
1CC
330
1F
100
AcDbEntity
  8
0
 62
     2
100
AcDbLine
 10
111.1150444865849
 20
248.585698871719
 30
0.0
 11
96.11504448658826
 21
248.5856988717161
 31
0.0
  0
ARC
  5
1CD
330
1F
100
AcDbEntity
  8
0
 62
     6
100
AcDbCircle
 10
108.7150444865857
 20
251.5856988661039
 30
0.0
 40
0.9999998675987166
100
AcDbArc
 50
264.9999999999917
 51
184.9999999999918
  0
LINE
  5
1CE
330
1F
100
AcDbEntity
  8
0
 62
     2
100
AcDbLine
 10
116.3150441777498
 20
254.5856988717194
 30
0.0
 11
90.91504417775553
 21
254.5856988717144
 31
0.0
  0
LINE
  5
1CF
330
1F
100
AcDbEntity
  8
0
 62
     2
100
AcDbLine
 10
116.315044177749
 20
247.9356988717201
 30
0.0
 11
111.1150444865848
 21
247.9356988717191
 31
0.0
  0
ARC
  5
1D0
330
1F
100
AcDbEntity
  8
0
 62
     6
100
AcDbCircle
 10
98.51504448658812
 20
251.5856988661018
 30
0.0
 40
0.999999867598655
100
AcDbArc
 50
264.9999999999947
 51
184.9999999999946
  0
CIRCLE
  5
1D1
330
1F
100
AcDbEntity
  8
0
 62
     2
100
AcDbCircle
 10
98.51504448658812
 20
251.5856988661018
 30
0.0
 40
0.7835199999998963
  0
CIRCLE
  5
1D2
330
1F
100
AcDbEntity
  8
0
 62
     2
100
AcDbCircle
 10
108.7150444865857
 20
251.5856988661039
 30
0.0
 40
0.7835199999999531
  0
LINE
  5
1D3
330
1F
100
AcDbEntity
  8
0
 62
     2
100
AcDbLine
 10
86.11504448657871
 20
145.7867808678444
 30
0.0
 11
86.71504448657856
 21
145.7867808678445
 31
0.0
  0
LINE
  5
1D4
330
1F
100
AcDbEntity
  8
0
 62
     2
100
AcDbLine
 10
90.91504448657798
 20
145.7867805845135
 30
0.0
 11
90.9150444865773
 21
139.7867808529823
 31
0.0
  0
LINE
  5
1D5
330
1F
100
AcDbEntity
  8
0
 62
     2
100
AcDbLine
 10
90.91504448657798
 20
145.7867805845135
 30
0.0
 11
90.9150444865785
 21
150.0856988678448
 31
0.0
  0
LINE
  5
1D6
330
1F
100
AcDbEntity
  8
0
 62
     2
100
AcDbLine
 10
86.71504448657907
 20
150.085698867844
 30
0.0
 11
86.71504448657856
 21
145.7867808678445
 31
0.0
  0
LINE
  5
1D7
330
1F
100
AcDbEntity
  8
0
 62
     2
100
AcDbLine
 10
116.3150444865711
 20
139.7867808529873
 30
0.0
 11
116.3150444865718
 21
145.7867805845186
 31
0.0
  0
LINE
  5
1D8
330
1F
100
AcDbEntity
  8
0
 62
     2
100
AcDbLine
 10
120.5150444865711
 20
145.7867808678512
 30
0.0
 11
121.115044486571
 21
145.7867808678513
 31
0.0
  0
LINE
  5
1D9
330
1F
100
AcDbEntity
  8
0
 62
     2
100
AcDbLine
 10
120.5150444865711
 20
145.7867808678512
 30
0.0
 11
120.5150444865716
 21
150.0856988678508
 31
0.0
  0
LINE
  5
1DA
330
1F
100
AcDbEntity
  8
0
 62
     2
100
AcDbLine
 10
116.3150444865723
 20
150.0856988678498
 30
0.0
 11
116.3150444865718
 21
145.7867805845186
 31
0.0
  0
LINE
  5
1DB
330
1F
100
AcDbEntity
  8
0
 62
     2
100
AcDbLine
 10
116.3150444865703
 20
133.3867808529886
 30
0.0
 11
116.3150444865707
 21
136.3867808529882
 31
0.0
  0
LINE
  5
1DC
330
1F
100
AcDbEntity
  8
0
 62
     2
100
AcDbLine
 10
116.3150444865707
 20
136.3867808529882
 30
0.0
 11
90.9150444865769
 21
136.3867808529832
 31
0.0
  0
LINE
  5
1DD
330
1F
100
AcDbEntity
  8
0
 62
     2
100
AcDbLine
 10
90.9150444865769
 20
136.3867808529832
 30
0.0
 11
90.91504448657656
 21
133.3867808529835
 31
0.0
  0
LINE
  5
1DE
330
1F
100
AcDbEntity
  8
0
 62
     2
100
AcDbLine
 10
90.9150444865785
 20
150.0856988678448
 30
0.0
 11
86.71504448657907
 21
150.085698867844
 31
0.0
  0
LINE
  5
1DF
330
1F
100
AcDbEntity
  8
0
 62
     2
100
AcDbLine
 10
120.5150444865716
 20
150.0856988678508
 30
0.0
 11
116.3150444865723
 21
150.0856988678499
 31
0.0
  0
LINE
  5
1E0
330
1F
100
AcDbEntity
  8
0
 62
     2
100
AcDbLine
 10
116.3150444865718
 20
145.7867805845186
 30
0.0
 11
120.5150444865711
 21
145.7867805845194
 31
0.0
  0
LINE
  5
1E1
330
1F
100
AcDbEntity
  8
0
 62
     2
100
AcDbLine
 10
86.71504448657856
 20
145.7867805845127
 30
0.0
 11
90.91504448657798
 21
145.7867805845135
 31
0.0
  0
LINE
  5
1E2
330
1F
100
AcDbEntity
  8
0
 62
     2
100
AcDbLine
 10
90.91504448657656
 20
133.3867808529835
 30
0.0
 11
86.11504448657729
 21
133.3867808529826
 31
0.0
  0
LINE
  5
1E3
330
1F
100
AcDbEntity
  8
0
 62
     2
100
AcDbLine
 10
121.1150444865695
 20
133.3867808529896
 30
0.0
 11
116.3150444865703
 21
133.3867808529886
 31
0.0
  0
ARC
  5
1E4
330
1F
100
AcDbEntity
  8
0
 62
     6
100
AcDbCircle
 10
88.61504448657729
 20
136.8867808529827
 30
0.0
 40
0.9999999999999017
100
AcDbArc
 50
264.9999999999965
 51
184.9999999999964
  0
ARC
  5
1E5
330
1F
100
AcDbEntity
  8
0
 62
     6
100
AcDbCircle
 10
118.6150444865712
 20
143.286780852988
 30
0.0
 40
0.9999999999999584
100
AcDbArc
 50
264.9999999999968
 51
184.9999999999967
  0
LINE
  5
1E6
330
1F
100
AcDbEntity
  8
0
 62
     2
100
AcDbLine
 10
121.115044486571
 20
145.7867808678513
 30
0.0
 11
121.1150444865695
 21
133.3867808529896
 31
0.0
  0
LINE
  5
1E7
330
1F
100
AcDbEntity
  8
0
 62
     2
100
AcDbLine
 10
90.9150444865773
 20
139.7867808529823
 30
0.0
 11
116.3150444865711
 21
139.7867808529873
 31
0.0
  0
LINE
  5
1E8
330
1F
100
AcDbEntity
  8
0
 62
     2
100
AcDbLine
 10
86.11504448657729
 20
133.3867808529826
 30
0.0
 11
86.11504448657871
 21
145.7867808678444
 31
0.0
  0
ARC
  5
1E9
330
1F
100
AcDbEntity
  8
0
 62
     6
100
AcDbCircle
 10
88.61504448657803
 20
143.2867808529821
 30
0.0
 40
0.9999999999999584
100
AcDbArc
 50
264.9999999999968
 51
184.9999999999967
  0
ARC
  5
1EA
330
1F
100
AcDbEntity
  8
0
 62
     6
100
AcDbCircle
 10
118.6150444865705
 20
136.8867808529887
 30
0.0
 40
0.9999999999999584
100
AcDbArc
 50
264.9999999999968
 51
184.9999999999967
  0
CIRCLE
  5
1EB
330
1F
100
AcDbEntity
  8
0
 62
     2
100
AcDbCircle
 10
88.61504448657803
 20
143.2867808529821
 30
0.0
 40
0.7835199999999531
  0
CIRCLE
  5
1EC
330
1F
100
AcDbEntity
  8
0
 62
     2
100
AcDbCircle
 10
118.6150444865712
 20
143.286780852988
 30
0.0
 40
0.7835199999998963
  0
CIRCLE
  5
1ED
330
1F
100
AcDbEntity
  8
0
 62
     2
100
AcDbCircle
 10
118.6150444865705
 20
136.8867808529887
 30
0.0
 40
0.7835199999999531
  0
CIRCLE
  5
1EE
330
1F
100
AcDbEntity
  8
0
 62
     2
100
AcDbCircle
 10
88.61504448657729
 20
136.8867808529827
 30
0.0
 40
0.7835199999998963
  0
LINE
  5
1EF
330
1F
100
AcDbEntity
  8
0
 62
     2
100
AcDbLine
 10
114.3150444865717
 20
140.5856988639692
 30
0.0
 11
114.3150444865724
 21
147.2356988639685
 31
0.0
  0
LINE
  5
1F0
330
1F
100
AcDbEntity
  8
0
 62
     2
100
AcDbLine
 10
92.91504448657696
 20
140.585698863965
 30
0.0
 11
114.3150444865717
 21
140.5856988639692
 31
0.0
  0
LINE
  5
1F1
330
1F
100
AcDbEntity
  8
0
 62
     2
100
AcDbLine
 10
111.1150444865733
 20
147.2356988639678
 30
0.0
 11
114.3150444865724
 21
147.2356988639685
 31
0.0
  0
LINE
  5
1F2
330
1F
100
AcDbEntity
  8
0
 62
     2
100
AcDbLine
 10
92.9150444865777
 20
147.2356988639642
 30
0.0
 11
92.91504448657696
 21
140.585698863965
 31
0.0
  0
LINE
  5
1F3
330
1F
100
AcDbEntity
  8
0
 62
     2
100
AcDbLine
 10
96.11504448657672
 20
147.2356988639648
 30
0.0
 11
96.11504448657666
 21
146.5856988639649
 31
0.0
  0
LINE
  5
1F4
330
1F
100
AcDbEntity
  8
0
 62
     2
100
AcDbLine
 10
111.1150444865733
 20
146.5856988639679
 30
0.0
 11
111.1150444865733
 21
147.2356988639678
 31
0.0
  0
LINE
  5
1F5
330
1F
100
AcDbEntity
  8
0
 62
     2
100
AcDbLine
 10
96.11504448657666
 20
146.5856988639649
 30
0.0
 11
111.1150444865733
 21
146.5856988639679
 31
0.0
  0
ARC
  5
1F6
330
1F
100
AcDbEntity
  8
0
 62
     6
100
AcDbCircle
 10
108.7150444865734
 20
143.585698869582
 30
0.0
 40
0.9999999999999067
100
AcDbArc
 50
264.9999999999932
 51
184.9999999999932
  0
LINE
  5
1F7
330
1F
100
AcDbEntity
  8
0
 62
     2
100
AcDbLine
 10
92.9150444865777
 20
147.2356988639642
 30
0.0
 11
96.11504448657672
 21
147.2356988639648
 31
0.0
  0
ARC
  5
1F8
330
1F
100
AcDbEntity
  8
0
 62
     6
100
AcDbCircle
 10
98.51504448657579
 20
143.5856988695801
 30
0.0
 40
0.9999999999999067
100
AcDbArc
 50
264.9999999999932
 51
184.9999999999932
  0
CIRCLE
  5
1F9
330
1F
100
AcDbEntity
  8
0
 62
     2
100
AcDbCircle
 10
98.51504448657579
 20
143.5856988695801
 30
0.0
 40
0.7835199999999531
  0
CIRCLE
  5
1FA
330
1F
100
AcDbEntity
  8
0
 62
     2
100
AcDbCircle
 10
108.7150444865734
 20
143.585698869582
 30
0.0
 40
0.7835199999998395
  0
LINE
  5
1FB
330
1F
100
AcDbEntity
  8
0
 62
     2
100
AcDbLine
 10
92.91504448657696
 20
140.585698863965
 30
0.0
 11
90.91504448657741
 21
140.5856988639645
 31
0.0
  0
LINE
  5
1FC
330
1F
100
AcDbEntity
  8
0
 62
     2
100
AcDbLine
 10
90.91504448657815
 20
147.2356988639638
 30
0.0
 11
92.9150444865777
 21
147.2356988639642
 31
0.0
  0
LINE
  5
1FD
330
1F
100
AcDbEntity
  8
0
 62
     2
100
AcDbLine
 10
114.3150444865724
 20
147.2356988639685
 30
0.0
 11
116.3150444865719
 21
147.2356988639688
 31
0.0
  0
LINE
  5
1FE
330
1F
100
AcDbEntity
  8
0
 62
     2
100
AcDbLine
 10
116.3150444865712
 20
140.5856988639696
 30
0.0
 11
114.3150444865717
 21
140.5856988639692
 31
0.0
  0
LINE
  5
1FF
330
1F
100
AcDbEntity
  8
0
 62
     2
100
AcDbLine
 10
95.11504448658371
 20
205.0856987314729
 30
0.0
 11
92.91504457551906
 21
205.0856987314725
 31
0.0
  0
LINE
  5
200
330
1F
100
AcDbEntity
  8
0
 62
     2
100
AcDbLine
 10
99.1150444865828
 20
205.0856987314737
 30
0.0
 11
95.11504448658371
 21
205.0856987314729
 31
0.0
  0
LINE
  5
201
330
1F
100
AcDbEntity
  8
0
 62
     2
100
AcDbLine
 10
95.11504448658411
 20
208.5856988678393
 30
0.0
 11
95.11504448658371
 21
205.0856987314729
 31
0.0
  0
ARC
  5
202
330
1F
100
AcDbEntity
  8
0
 62
     2
100
AcDbCircle
 10
97.11504448658366
 20
208.5856988678397
 30
0.0
 40
1.999999999999545
100
AcDbArc
 50
0.0
 51
179.9999999999999
  0
LINE
  5
203
330
1F
100
AcDbEntity
  8
0
 62
     2
100
AcDbLine
 10
99.1150444865828
 20
205.0856987314737
 30
0.0
 11
99.1150444865832
 21
208.5856988678401
 31
0.0
  0
LINE
  5
204
330
1F
100
AcDbEntity
  8
0
 62
     2
100
AcDbLine
 10
86.71504448658368
 20
190.0856990442572
 30
0.0
 11
86.71504448658362
 21
189.885698488013
 31
0.0
  0
LINE
  5
205
330
1F
100
AcDbEntity
  8
0
 62
     2
100
AcDbLine
 10
86.71504448658277
 20
182.0856990442581
 30
0.0
 11
86.71504448658362
 21
189.885698488013
 31
0.0
  0
LINE
  5
206
330
1F
100
AcDbEntity
  8
0
 62
     2
100
AcDbLine
 10
120.515044486576
 20
189.8856984880198
 30
0.0
 11
120.515044486576
 21
190.085699044264
 31
0.0
  0
LINE
  5
207
330
1F
100
AcDbEntity
  8
0
 62
     2
100
AcDbLine
 10
120.515044486576
 20
189.8856984880198
 30
0.0
 11
120.5150444865751
 21
182.0856990442649
 31
0.0
  0
LINE
  5
208
330
1F
100
AcDbEntity
  8
0
 62
     2
100
AcDbLine
 10
90.91504448658219
 20
182.0856988678412
 30
0.0
 11
86.71504448658277
 21
182.0856988678404
 31
0.0
  0
LINE
  5
209
330
1F
100
AcDbEntity
  8
0
 62
     2
100
AcDbLine
 10
120.5150444865751
 20
182.0856988678472
 30
0.0
 11
116.3150444865759
 21
182.0856988678462
 31
0.0
  0
LINE
  5
20A
330
1F
100
AcDbEntity
  8
0
 62
     2
100
AcDbLine
 10
116.3150444865794
 20
213.0856988678427
 30
0.0
 11
116.315044486579
 21
209.2856984880167
 31
0.0
  0
LINE
  5
20B
330
1F
100
AcDbEntity
  8
0
 62
     2
100
AcDbLine
 10
116.3150444865768
 20
189.8856984880189
 30
0.0
 11
116.3150444865759
 21
182.0856988678462
 31
0.0
  0
LINE
  5
20C
330
1F
100
AcDbEntity
  8
0
 62
     2
100
AcDbLine
 10
116.3150444865789
 20
208.2856984880169
 30
0.0
 11
116.3150444865768
 21
189.8856984880189
 31
0.0
  0
LINE
  5
20D
330
1F
100
AcDbEntity
  8
0
 62
     2
100
AcDbLine
 10
116.3150444865789
 20
208.2856984880169
 30
0.0
 11
116.315044486579
 21
209.2856984880167
 31
0.0
  0
LINE
  5
20E
330
1F
100
AcDbEntity
  8
0
 62
     2
100
AcDbLine
 10
114.3150445755142
 20
205.0856987314767
 30
0.0
 11
99.1150444865828
 21
205.0856987314737
 31
0.0
  0
LINE
  5
20F
330
1F
100
AcDbEntity
  8
0
 62
     2
100
AcDbLine
 10
116.3150444865794
 20
213.0856988678427
 30
0.0
 11
90.91504448658566
 21
213.0856988678377
 31
0.0
  0
LINE
  5
210
330
1F
100
AcDbEntity
  8
0
 62
     2
100
AcDbLine
 10
90.91504448658304
 20
189.8856984880139
 30
0.0
 11
90.91504448658515
 21
208.2856984880117
 31
0.0
  0
LINE
  5
211
330
1F
100
AcDbEntity
  8
0
 62
     2
100
AcDbLine
 10
90.91504448658571
 20
213.0856988678377
 30
0.0
 11
90.91504448658526
 21
209.2856984880117
 31
0.0
  0
LINE
  5
212
330
1F
100
AcDbEntity
  8
0
 62
     2
100
AcDbLine
 10
90.91504448658304
 20
189.8856984880139
 30
0.0
 11
90.91504448658219
 21
182.0856988678412
 31
0.0
  0
LINE
  5
213
330
1F
100
AcDbEntity
  8
0
 62
     2
100
AcDbLine
 10
90.9150444865852
 20
209.2856984880117
 30
0.0
 11
90.91504448658515
 21
208.2856984880117
 31
0.0
  0
ARC
  5
214
330
1F
100
AcDbEntity
  8
0
 62
     2
100
AcDbCircle
 10
84.71504448658413
 20
190.0856988678391
 30
0.0
 40
1.999999999999545
100
AcDbArc
 50
0.0
 51
45.57299599919508
  0
ARC
  5
215
330
1F
100
AcDbEntity
  8
0
 62
     2
100
AcDbCircle
 10
122.5150444865755
 20
190.0856988678466
 30
0.0
 40
1.999999999999326
100
AcDbArc
 50
134.4270040007964
 51
179.9999999999984
  0
ARC
  5
216
330
1F
100
AcDbEntity
  8
0
 62
     2
100
AcDbCircle
 10
89.91504448658543
 20
209.2856984880115
 30
0.0
 40
0.9999999999998863
100
AcDbArc
 50
269.9999999999968
 51
359.9999999999951
  0
ARC
  5
217
330
1F
100
AcDbEntity
  8
0
 62
     2
100
AcDbCircle
 10
117.3150444865788
 20
209.285698488017
 30
0.0
 40
0.9999999999997726
100
AcDbArc
 50
180.0
 51
269.9999999999987
  0
ARC
  5
218
330
1F
100
AcDbEntity
  8
0
 62
     6
100
AcDbCircle
 10
89.11504448658496
 20
205.0856988678383
 30
0.0
 40
0.9999999999999535
100
AcDbArc
 50
264.9999999999999
 51
184.9999999999999
  0
LINE
  5
219
330
1F
100
AcDbEntity
  8
0
 62
     2
100
AcDbLine
 10
90.91504448658571
 20
213.0856988678377
 30
0.0
 11
86.11504448658638
 21
213.0856988678367
 31
0.0
  0
LINE
  5
21A
330
1F
100
AcDbEntity
  8
0
 62
     2
100
AcDbLine
 10
86.71504448658362
 20
189.885698488013
 30
0.0
 11
90.91504448658304
 21
189.8856984880139
 31
0.0
  0
LINE
  5
21B
330
1F
100
AcDbEntity
  8
0
 62
     2
100
AcDbLine
 10
89.91504448658537
 20
208.2856984880116
 30
0.0
 11
86.11504448658582
 21
208.2856984880108
 31
0.0
  0
LINE
  5
21C
330
1F
100
AcDbEntity
  8
0
 62
     2
100
AcDbLine
 10
86.11504448658638
 20
213.0856988678367
 30
0.0
 11
86.11504448658582
 21
208.2856984880108
 31
0.0
  0
ARC
  5
21D
330
1F
100
AcDbEntity
  8
0
 62
     6
100
AcDbCircle
 10
118.1150444865771
 20
193.0856988678453
 30
0.0
 40
0.9999999999999067
100
AcDbArc
 50
264.9999999999932
 51
184.9999999999932
  0
LINE
  5
21E
330
1F
100
AcDbEntity
  8
0
 62
     2
100
AcDbLine
 10
86.11504448658582
 20
208.2856984880108
 30
0.0
 11
86.11504448658394
 21
191.5139845535478
 31
0.0
  0
LINE
  5
21F
330
1F
100
AcDbEntity
  8
0
 62
     2
100
AcDbLine
 10
121.1150444865762
 20
191.5139845535549
 30
0.0
 11
121.1150444865781
 21
208.2856984880178
 31
0.0
  0
ARC
  5
220
330
1F
100
AcDbEntity
  8
0
 62
     6
100
AcDbCircle
 10
89.11504448658366
 20
193.0856988678397
 30
0.0
 40
0.9999999999999584
100
AcDbArc
 50
264.9999999999968
 51
184.9999999999967
  0
ARC
  5
221
330
1F
100
AcDbEntity
  8
0
 62
     6
100
AcDbCircle
 10
118.1150444865784
 20
205.085698867844
 30
0.0
 40
0.9999999999999067
100
AcDbArc
 50
264.9999999999932
 51
184.9999999999932
  0
LINE
  5
222
330
1F
100
AcDbEntity
  8
0
 62
     2
100
AcDbLine
 10
121.1150444865787
 20
213.0856988678437
 30
0.0
 11
116.3150444865794
 21
213.0856988678427
 31
0.0
  0
LINE
  5
223
330
1F
100
AcDbEntity
  8
0
 62
     2
100
AcDbLine
 10
116.3150444865768
 20
189.8856984880189
 30
0.0
 11
120.515044486576
 21
189.8856984880198
 31
0.0
  0
LINE
  5
224
330
1F
100
AcDbEntity
  8
0
 62
     2
100
AcDbLine
 10
121.1150444865781
 20
208.2856984880178
 30
0.0
 11
117.3150444865786
 21
208.285698488017
 31
0.0
  0
LINE
  5
225
330
1F
100
AcDbEntity
  8
0
 62
     2
100
AcDbLine
 10
121.1150444865787
 20
213.0856988678437
 30
0.0
 11
121.1150444865781
 21
208.2856984880178
 31
0.0
  0
ARC
  5
226
330
1F
100
AcDbEntity
  8
0
 62
     2
100
AcDbCircle
 10
92.91504457551883
 20
203.0856987314727
 30
0.0
 40
1.999999999999773
100
AcDbArc
 50
89.99999999999349
 51
179.9999999999926
  0
ARC
  5
227
330
1F
100
AcDbEntity
  8
0
 62
     2
100
AcDbCircle
 10
114.3150445755139
 20
203.085698731477
 30
0.0
 40
1.999999999999602
100
AcDbArc
 50
0.0
 51
89.99999999999918
  0
CIRCLE
  5
228
330
1F
100
AcDbEntity
  8
0
 62
     2
100
AcDbCircle
 10
89.11504448658366
 20
193.0856988678397
 30
0.0
 40
0.7835199999999531
  0
CIRCLE
  5
229
330
1F
100
AcDbEntity
  8
0
 62
     2
100
AcDbCircle
 10
118.1150444865771
 20
193.0856988678453
 30
0.0
 40
0.7835199999998395
  0
CIRCLE
  5
22A
330
1F
100
AcDbEntity
  8
0
 62
     2
100
AcDbCircle
 10
118.1150444865784
 20
205.085698867844
 30
0.0
 40
0.7835199999998395
  0
CIRCLE
  5
22B
330
1F
100
AcDbEntity
  8
0
 62
     2
100
AcDbCircle
 10
89.11504448658496
 20
205.0856988678383
 30
0.0
 40
0.7835199999999531
  0
LINE
  5
22C
330
1F
100
AcDbEntity
  8
0
 62
     2
100
AcDbLine
 10
92.91504448658236
 20
187.5856989906454
 30
0.0
 11
114.3150444865771
 21
187.5856989906496
 31
0.0
  0
LINE
  5
22D
330
1F
100
AcDbEntity
  8
0
 62
     2
100
AcDbLine
 10
116.3150441777415
 20
182.0856989906507
 30
0.0
 11
90.91504417774723
 21
182.0856989906457
 31
0.0
  0
ARC
  5
22E
330
1F
100
AcDbEntity
  8
0
 62
     2
100
AcDbCircle
 10
92.91504448658253
 20
189.5856989906452
 30
0.0
 40
1.999999999999545
100
AcDbArc
 50
180.0
 51
269.9999999999994
  0
ARC
  5
22F
330
1F
100
AcDbEntity
  8
0
 62
     2
100
AcDbCircle
 10
114.3150444865772
 20
189.5856989906494
 30
0.0
 40
1.999999999999773
100
AcDbArc
 50
269.9999999999935
 51
359.9999999999933
  0
INSERT
  5
233
330
1F
100
AcDbEntity
  8
Outline
100
AcDbBlockReference
  2
Sheet Border
 10
0.0
 20
0.0
 30
0.0
  0
ENDSEC
  0
SECTION
  2
OBJECTS
  0
DICTIONARY
  5
C
330
0
100
AcDbDictionary
281
     1
  3
ACAD_DETAILVIEWSTYLE
350
23D
  3
ACAD_GROUP
350
D
  3
ACAD_LAYOUT
350
1A
  3
ACAD_MATERIAL
350
43
  3
ACAD_MLEADERSTYLE
350
6B
  3
ACAD_MLINESTYLE
350
17
  3
ACAD_PLOTSETTINGS
350
19
  3
ACAD_PLOTSTYLENAME
350
E
  3
ACAD_SCALELIST
350
47
  3
ACAD_SECTIONVIEWSTYLE
350
23E
  3
ACAD_TABLESTYLE
350
69
  3
ACAD_VISUALSTYLE
350
2A
  3
ACDB_RECOMPOSE_DATA
350
23A
  3
AcDbVariableDictionary
350
236
  0
SUN
  5
6D
330
29
100
AcDbSun
 90
        1
290
     0
 63
     7
421
 16777215
 40
1.0
291
     1
 91
  2455826
 92
 54000000
292
     0
 70
     2
 71
   256
280
     1
  0
DICTIONARY
  5
23D
102
{ACAD_REACTORS
330
C
102
}
330
C
100
AcDbDictionary
281
     1
  0
DICTIONARY
  5
D
102
{ACAD_REACTORS
330
C
102
}
330
C
100
AcDbDictionary
281
     1
  0
DICTIONARY
  5
1A
102
{ACAD_REACTORS
330
C
102
}
330
C
100
AcDbDictionary
281
     1
  3
Layout1
350
1E
  3
Layout2
350
26
  3
Model
350
22
  0
DICTIONARY
  5
43
102
{ACAD_REACTORS
330
C
102
}
330
C
100
AcDbDictionary
281
     1
  3
ByBlock
350
45
  3
ByLayer
350
44
  3
Global
350
46
  0
DICTIONARY
  5
6B
102
{ACAD_REACTORS
330
C
102
}
330
C
100
AcDbDictionary
281
     1
  3
Standard
350
6C
  0
DICTIONARY
  5
17
102
{ACAD_REACTORS
330
C
102
}
330
C
100
AcDbDictionary
281
     1
  3
Standard
350
18
  0
DICTIONARY
  5
19
102
{ACAD_REACTORS
330
C
102
}
330
C
100
AcDbDictionary
281
     1
  0
ACDBDICTIONARYWDFLT
  5
E
102
{ACAD_REACTORS
330
C
102
}
330
C
100
AcDbDictionary
281
     1
  3
Normal
350
F
100
AcDbDictionaryWithDefault
340
F
  0
DICTIONARY
  5
47
102
{ACAD_REACTORS
330
C
102
}
330
C
100
AcDbDictionary
281
     1
  3
A0
350
48
  3
A1
350
49
  3
A2
350
4A
  3
A3
350
4B
  3
A4
350
4C
  3
A5
350
4D
  3
A6
350
4E
  3
A7
350
4F
  3
A8
350
50
  3
A9
350
51
  3
B0
350
52
  3
B1
350
53
  3
B2
350
54
  3
B3
350
55
  3
B4
350
56
  3
B5
350
57
  3
B6
350
58
  3
B7
350
59
  3
B8
350
5A
  3
B9
350
5B
  3
C0
350
5C
  3
C1
350
5D
  3
C2
350
5E
  3
C3
350
5F
  3
C4
350
60
  3
C5
350
61
  3
C6
350
62
  3
C7
350
63
  3
C8
350
64
  3
C9
350
65
  3
D0
350
66
  3
D1
350
67
  3
D2
350
68
  0
DICTIONARY
  5
23E
102
{ACAD_REACTORS
330
C
102
}
330
C
100
AcDbDictionary
281
     1
  0
DICTIONARY
  5
69
102
{ACAD_REACTORS
330
C
102
}
330
C
100
AcDbDictionary
281
     1
  3
Standard
350
6A
  0
DICTIONARY
  5
2A
102
{ACAD_REACTORS
330
C
102
}
330
C
100
AcDbDictionary
281
     1
  3
2dWireframe
350
2F
  3
Basic
350
32
  3
Brighten
350
36
  3
ColorChange
350
3A
  3
Conceptual
350
34
  3
Dim
350
35
  3
EdgeColorOff
350
3D
  3
Facepattern
350
39
  3
Flat
350
2B
  3
FlatWithEdges
350
2C
  3
Gouraud
350
2D
  3
GouraudWithEdges
350
2E
  3
Hidden
350
31
  3
JitterOff
350
3B
  3
Linepattern
350
38
  3
OverhangOff
350
3C
  3
Realistic
350
33
  3
Shaded
350
42
  3
Shaded with edges
350
41
  3
Shades of Gray
350
3E
  3
Sketchy
350
3F
  3
Thicken
350
37
  3
Wireframe
350
30
  3
X-Ray
350
40
  0
XRECORD
  5
23A
102
{ACAD_REACTORS
330
C
102
}
330
C
100
AcDbXrecord
280
     1
 90
        1
330
6A
  0
DICTIONARY
  5
236
102
{ACAD_REACTORS
330
C
102
}
330
C
100
AcDbDictionary
281
     1
  3
CANNOSCALE
350
237
  3
CMLEADERSTYLE
350
23C
  3
CTABLESTYLE
350
23B
  0
LAYOUT
  5
1E
102
{ACAD_REACTORS
330
1A
102
}
330
1A
100
AcDbPlotSettings
  1

  2
none_device
  4

  6

 40
0.0
 41
0.0
 42
0.0
 43
0.0
 44
0.0
 45
0.0
 46
0.0
 47
0.0
 48
0.0
 49
0.0
140
0.0
141
0.0
142
1.0
143
1.0
 70
   688
 72
     1
 73
     0
 74
     5
  7

 75
    16
 76
     0
 77
     2
 78
   300
147
1.0
148
0.0
149
0.0
100
AcDbLayout
  1
Layout1
 70
     1
 71
     1
 10
0.0
 20
0.0
 11
420.0
 21
297.0
 12
0.0
 22
0.0
 32
0.0
 14
1.000000000000000E+20
 24
1.000000000000000E+20
 34
1.000000000000000E+20
 15
-1.000000000000000E+20
 25
-1.000000000000000E+20
 35
-1.000000000000000E+20
146
0.0
 13
0.0
 23
0.0
 33
0.0
 16
1.0
 26
0.0
 36
0.0
 17
0.0
 27
1.0
 37
0.0
 76
     0
330
1B
  0
LAYOUT
  5
26
102
{ACAD_REACTORS
330
1A
102
}
330
1A
100
AcDbPlotSettings
  1

  2
none_device
  4

  6

 40
0.0
 41
0.0
 42
0.0
 43
0.0
 44
0.0
 45
0.0
 46
0.0
 47
0.0
 48
0.0
 49
0.0
140
0.0
141
0.0
142
1.0
143
1.0
 70
   688
 72
     1
 73
     0
 74
     5
  7

 75
    16
 76
     0
 77
     2
 78
   300
147
1.0
148
0.0
149
0.0
100
AcDbLayout
  1
Layout2
 70
     1
 71
     2
 10
0.0
 20
0.0
 11
0.0
 21
0.0
 12
0.0
 22
0.0
 32
0.0
 14
0.0
 24
0.0
 34
0.0
 15
0.0
 25
0.0
 35
0.0
146
0.0
 13
0.0
 23
0.0
 33
0.0
 16
1.0
 26
0.0
 36
0.0
 17
0.0
 27
1.0
 37
0.0
 76
     0
330
23
  0
LAYOUT
  5
22
102
{ACAD_REACTORS
330
1A
102
}
330
1A
100
AcDbPlotSettings
  1

  2
none_device
  4
Letter_(8.50_x_11.00_Inches)
  6

 40
6.35
 41
6.35
 42
6.35000508
 43
6.35000508
 44
215.9
 45
279.4
 46
0.0
 47
0.0
 48
0.0
 49
0.0
140
0.0
141
0.0
142
1.0
143
1.0
 70
  1712
 72
     1
 73
     0
 74
     0
  7

 75
     0
 76
     0
 77
     2
 78
   300
147
1.0
148
0.0
149
0.0
100
AcDbLayout
  1
Model
 70
     1
 71
     0
 10
0.0
 20
0.0
 11
210.0
 21
297.0
 12
0.0
 22
0.0
 32
0.0
 14
0.0
 24
0.0
 34
0.0
 15
210.0
 25
297.0
 35
0.0
146
0.0
 13
0.0
 23
0.0
 33
0.0
 16
1.0
 26
0.0
 36
0.0
 17
0.0
 27
1.0
 37
0.0
 76
     0
330
1F
331
29
  0
MATERIAL
  5
45
102
{ACAD_REACTORS
330
43
102
}
330
43
100
AcDbMaterial
  1
ByBlock
 72
     1
 94
      127
  0
MATERIAL
  5
44
102
{ACAD_REACTORS
330
43
102
}
330
43
100
AcDbMaterial
  1
ByLayer
 72
     1
 94
      127
  0
MATERIAL
  5
46
102
{ACAD_REACTORS
330
43
102
}
330
43
100
AcDbMaterial
  1
Global
 72
     1
 94
      127
  0
MLEADERSTYLE
  5
6C
102
{ACAD_REACTORS
330
6B
102
}
330
6B
100
AcDbMLeaderStyle
179
     2
170
     2
171
     1
172
     0
 90
        2
 40
0.0
 41
0.0
173
     1
 91
-1056964608
340
14
 92
       -2
290
     1
 42
2.0
291
     1
 43
8.0
  3
Standard
341
0
 44
4.0
300

342
11
174
     1
178
     6
175
     1
176
     0
 93
-1056964608
 45
4.0
292
     0
297
     0
 46
4.0
343
0
 94
-1056964608
 47
1.0
 49
1.0
140
1.0
293
     1
141
0.0
294
     1
177
     0
142
1.0
295
     0
296
     0
143
3.75
271
     0
272
     9
273
     9
298
     0
  0
MLINESTYLE
  5
18
102
{ACAD_REACTORS
330
17
102
}
330
17
100
AcDbMlineStyle
  2
Standard
 70
     0
  3

 62
   256
 51
90.0
 52
90.0
 71
     2
 49
0.5
 62
   256
  6
BYLAYER
 49
-0.5
 62
   256
  6
BYLAYER
  0
ACDBPLACEHOLDER
  5
F
102
{ACAD_REACTORS
330
E
102
}
330
E
  0
SCALE
  5
48
102
{ACAD_REACTORS
330
47
102
}
330
47
100
AcDbScale
 70
     0
300
1:1
140
1.0
141
1.0
290
     1
  0
SCALE
  5
49
102
{ACAD_REACTORS
330
47
102
}
330
47
100
AcDbScale
 70
     0
300
1:2
140
1.0
141
2.0
290
     0
  0
SCALE
  5
4A
102
{ACAD_REACTORS
330
47
102
}
330
47
100
AcDbScale
 70
     0
300
1:4
140
1.0
141
4.0
290
     0
  0
SCALE
  5
4B
102
{ACAD_REACTORS
330
47
102
}
330
47
100
AcDbScale
 70
     0
300
1:5
140
1.0
141
5.0
290
     0
  0
SCALE
  5
4C
102
{ACAD_REACTORS
330
47
102
}
330
47
100
AcDbScale
 70
     0
300
1:8
140
1.0
141
8.0
290
     0
  0
SCALE
  5
4D
102
{ACAD_REACTORS
330
47
102
}
330
47
100
AcDbScale
 70
     0
300
1:10
140
1.0
141
10.0
290
     0
  0
SCALE
  5
4E
102
{ACAD_REACTORS
330
47
102
}
330
47
100
AcDbScale
 70
     0
300
1:16
140
1.0
141
16.0
290
     0
  0
SCALE
  5
4F
102
{ACAD_REACTORS
330
47
102
}
330
47
100
AcDbScale
 70
     0
300
1:20
140
1.0
141
20.0
290
     0
  0
SCALE
  5
50
102
{ACAD_REACTORS
330
47
102
}
330
47
100
AcDbScale
 70
     0
300
1:30
140
1.0
141
30.0
290
     0
  0
SCALE
  5
51
102
{ACAD_REACTORS
330
47
102
}
330
47
100
AcDbScale
 70
     0
300
1:40
140
1.0
141
40.0
290
     0
  0
SCALE
  5
52
102
{ACAD_REACTORS
330
47
102
}
330
47
100
AcDbScale
 70
     0
300
1:50
140
1.0
141
50.0
290
     0
  0
SCALE
  5
53
102
{ACAD_REACTORS
330
47
102
}
330
47
100
AcDbScale
 70
     0
300
1:100
140
1.0
141
100.0
290
     0
  0
SCALE
  5
54
102
{ACAD_REACTORS
330
47
102
}
330
47
100
AcDbScale
 70
     0
300
2:1
140
2.0
141
1.0
290
     0
  0
SCALE
  5
55
102
{ACAD_REACTORS
330
47
102
}
330
47
100
AcDbScale
 70
     0
300
4:1
140
4.0
141
1.0
290
     0
  0
SCALE
  5
56
102
{ACAD_REACTORS
330
47
102
}
330
47
100
AcDbScale
 70
     0
300
8:1
140
8.0
141
1.0
290
     0
  0
SCALE
  5
57
102
{ACAD_REACTORS
330
47
102
}
330
47
100
AcDbScale
 70
     0
300
10:1
140
10.0
141
1.0
290
     0
  0
SCALE
  5
58
102
{ACAD_REACTORS
330
47
102
}
330
47
100
AcDbScale
 70
     0
300
100:1
140
100.0
141
1.0
290
     0
  0
SCALE
  5
59
102
{ACAD_REACTORS
330
47
102
}
330
47
100
AcDbScale
 70
     0
300
1/128" = 1'-0"
140
0.0078125
141
12.0
290
     0
  0
SCALE
  5
5A
102
{ACAD_REACTORS
330
47
102
}
330
47
100
AcDbScale
 70
     0
300
1/64" = 1'-0"
140
0.015625
141
12.0
290
     0
  0
SCALE
  5
5B
102
{ACAD_REACTORS
330
47
102
}
330
47
100
AcDbScale
 70
     0
300
1/32" = 1'-0"
140
0.03125
141
12.0
290
     0
  0
SCALE
  5
5C
102
{ACAD_REACTORS
330
47
102
}
330
47
100
AcDbScale
 70
     0
300
1/16" = 1'-0"
140
0.0625
141
12.0
290
     0
  0
SCALE
  5
5D
102
{ACAD_REACTORS
330
47
102
}
330
47
100
AcDbScale
 70
     0
300
3/32" = 1'-0"
140
0.09375
141
12.0
290
     0
  0
SCALE
  5
5E
102
{ACAD_REACTORS
330
47
102
}
330
47
100
AcDbScale
 70
     0
300
1/8" = 1'-0"
140
0.125
141
12.0
290
     0
  0
SCALE
  5
5F
102
{ACAD_REACTORS
330
47
102
}
330
47
100
AcDbScale
 70
     0
300
3/16" = 1'-0"
140
0.1875
141
12.0
290
     0
  0
SCALE
  5
60
102
{ACAD_REACTORS
330
47
102
}
330
47
100
AcDbScale
 70
     0
300
1/4" = 1'-0"
140
0.25
141
12.0
290
     0
  0
SCALE
  5
61
102
{ACAD_REACTORS
330
47
102
}
330
47
100
AcDbScale
 70
     0
300
3/8" = 1'-0"
140
0.375
141
12.0
290
     0
  0
SCALE
  5
62
102
{ACAD_REACTORS
330
47
102
}
330
47
100
AcDbScale
 70
     0
300
1/2" = 1'-0"
140
0.5
141
12.0
290
     0
  0
SCALE
  5
63
102
{ACAD_REACTORS
330
47
102
}
330
47
100
AcDbScale
 70
     0
300
3/4" = 1'-0"
140
0.75
141
12.0
290
     0
  0
SCALE
  5
64
102
{ACAD_REACTORS
330
47
102
}
330
47
100
AcDbScale
 70
     0
300
1" = 1'-0"
140
1.0
141
12.0
290
     0
  0
SCALE
  5
65
102
{ACAD_REACTORS
330
47
102
}
330
47
100
AcDbScale
 70
     0
300
1-1/2" = 1'-0"
140
1.5
141
12.0
290
     0
  0
SCALE
  5
66
102
{ACAD_REACTORS
330
47
102
}
330
47
100
AcDbScale
 70
     0
300
3" = 1'-0"
140
3.0
141
12.0
290
     0
  0
SCALE
  5
67
102
{ACAD_REACTORS
330
47
102
}
330
47
100
AcDbScale
 70
     0
300
6" = 1'-0"
140
6.0
141
12.0
290
     0
  0
SCALE
  5
68
102
{ACAD_REACTORS
330
47
102
}
330
47
100
AcDbScale
 70
     0
300
1'-0" = 1'-0"
140
12.0
141
12.0
290
     0
  0
TABLESTYLE
  5
6A
102
{ACAD_REACTORS
330
69
102
}
102
{ACAD_XDICTIONARY
360
238
102
}
330
69
100
AcDbTableStyle
  3
Standard
 70
     0
 71
     0
 40
0.06
 41
0.06
280
     0
281
     0
  7
Standard
140
4.5
170
     2
 62
     0
 63
   257
283
     0
 90
        4
 91
        0
  1

274
    -2
284
     1
 64
     0
275
    -2
285
     1
 65
     0
276
    -2
286
     1
 66
     0
277
    -2
287
     1
 67
     0
278
    -2
288
     1
 68
     0
279
    -2
289
     1
 69
     0
  7
Standard
140
6.0
170
     5
 62
     0
 63
   257
283
     0
 90
        4
 91
        0
  1

274
    -2
284
     1
 64
     0
275
    -2
285
     1
 65
     0
276
    -2
286
     1
 66
     0
277
    -2
287
     1
 67
     0
278
    -2
288
     1
 68
     0
279
    -2
289
     1
 69
     0
  7
Standard
140
4.5
170
     5
 62
     0
 63
   257
283
     0
 90
        4
 91
        0
  1

274
    -2
284
     1
 64
     0
275
    -2
285
     1
 65
     0
276
    -2
286
     1
 66
     0
277
    -2
287
     1
 67
     0
278
    -2
288
     1
 68
     0
279
    -2
289
     1
 69
     0
  0
VISUALSTYLE
  5
2F
102
{ACAD_REACTORS
330
2A
102
}
330
2A
100
AcDbVisualStyle
  2
2dWireframe
 70
     4
177
     3
291
     0
 70
    58
 90
        0
176
     1
 90
        2
176
     1
 90
        0
176
     1
 90
        0
176
     1
 40
0.6
176
     1
 40
30.0
176
     1
 62
     7
420
 16777215
176
     1
 90
        1
176
     1
 90
        4
176
     1
 62
     7
176
     1
 62
   257
176
     1
 90
        1
176
     1
 90
        1
176
     1
 40
1.0
176
     1
 90
        0
176
     1
 62
   257
176
     1
 40
1.0
176
     1
 90
        1
176
     1
 90
        6
176
     1
 90
        2
176
     1
 62
     7
176
     1
 90
        5
176
     1
 90
        0
176
     1
 90
        0
176
     1
290
     0
176
     1
 90
        1
176
     1
 40
0.0
176
     1
 90
        0
176
     1
290
     1
176
     1
290
     1
176
     1
290
     0
176
     1
290
     0
176
     1
290
     0
176
     1
290
     0
176
     1
290
     0
176
     1
290
     0
176
     1
290
     0
176
     1
 90
       50
176
     1
 40
0.0
176
     1
 40
1.0
176
     1
 90
        0
176
     1
 62
   178
420
        0
176
     1
 90
       50
176
     1
 90
        3
176
     1
 62
     5
420
      255
176
     1
290
     0
176
     1
 90
       50
176
     1
 90
       50
176
     1
 90
       50
176
     1
290
     0
176
     1
 90
       50
176
     1
 62
   256
176
     0
 40
1.0
176
     0
 90
        2
176
     1
  1
strokes_ogs.tif
176
     1
290
     0
176
     1
 40
1.0
176
     1
 40
1.0
176
     1
  0
VISUALSTYLE
  5
32
102
{ACAD_REACTORS
330
2A
102
}
330
2A
100
AcDbVisualStyle
  2
Basic
 70
     7
177
     3
291
     1
 70
    58
 90
        1
176
     1
 90
        0
176
     1
 90
        1
176
     1
 90
        0
176
     1
 40
0.6
176
     1
 40
30.0
176
     1
 62
     7
420
 16777215
176
     1
 90
        0
176
     1
 90
        4
176
     1
 62
     7
176
     1
 62
   257
176
     1
 90
        1
176
     1
 90
        1
176
     1
 40
1.0
176
     1
 90
        8
176
     1
 62
     7
176
     1
 40
1.0
176
     1
 90
        1
176
     1
 90
        6
176
     1
 90
        2
176
     1
 62
     7
176
     1
 90
        5
176
     1
 90
        0
176
     1
 90
        0
176
     1
290
     0
176
     1
 90
        1
176
     1
 40
0.0
176
     1
 90
        0
176
     1
290
     0
176
     1
290
     1
176
     1
290
     1
176
     1
290
     0
176
     1
290
     0
176
     1
290
     0
176
     1
290
     0
176
     1
290
     0
176
     1
290
     0
176
     1
 90
       50
176
     1
 40
0.0
176
     1
 40
1.0
176
     1
 90
        0
176
     1
 62
   178
420
        0
176
     1
 90
       50
176
     1
 90
        3
176
     1
 62
     5
420
      255
176
     1
290
     0
176
     1
 90
       50
176
     1
 90
       50
176
     1
 90
       50
176
     1
290
     0
176
     1
 90
       50
176
     1
 62
   256
176
     0
 40
1.0
176
     0
 90
        2
176
     1
  1
strokes_ogs.tif
176
     1
290
     0
176
     1
 40
1.0
176
     1
 40
1.0
176
     1
  0
VISUALSTYLE
  5
36
102
{ACAD_REACTORS
330
2A
102
}
330
2A
100
AcDbVisualStyle
  2
Brighten
 70
    12
177
     3
291
     1
 70
    58
 90
        2
176
     1
 90
        2
176
     1
 90
        0
176
     1
 90
        0
176
     1
 40
0.6
176
     1
 40
30.0
176
     1
 62
     7
420
 16777215
176
     1
 90
        1
176
     1
 90
        4
176
     1
 62
     7
176
     1
 62
   257
176
     1
 90
        1
176
     1
 90
        1
176
     1
 40
1.0
176
     1
 90
        8
176
     1
 62
     7
176
     1
 40
1.0
176
     1
 90
        1
176
     1
 90
        6
176
     1
 90
        2
176
     1
 62
     7
176
     1
 90
        5
176
     1
 90
        0
176
     1
 90
        0
176
     1
290
     0
176
     1
 90
        1
176
     1
 40
50.0
176
     1
 90
        0
176
     1
290
     0
176
     1
290
     1
176
     1
290
     1
176
     1
290
     0
176
     1
290
     0
176
     1
290
     0
176
     1
290
     0
176
     1
290
     0
176
     1
290
     0
176
     1
 90
       50
176
     1
 40
0.0
176
     1
 40
1.0
176
     1
 90
        0
176
     1
 62
   178
420
        0
176
     1
 90
       50
176
     1
 90
        3
176
     1
 62
     5
420
      255
176
     1
290
     0
176
     1
 90
       50
176
     1
 90
       50
176
     1
 90
       50
176
     1
290
     0
176
     1
 90
       50
176
     1
 62
   256
176
     0
 40
1.0
176
     0
 90
        2
176
     1
  1
strokes_ogs.tif
176
     1
290
     0
176
     1
 40
1.0
176
     1
 40
1.0
176
     1
  0
VISUALSTYLE
  5
3A
102
{ACAD_REACTORS
330
2A
102
}
330
2A
100
AcDbVisualStyle
  2
ColorChange
 70
    16
177
     3
291
     1
 70
    58
 90
        2
176
     1
 90
        2
176
     1
 90
        3
176
     1
 90
        0
176
     1
 40
0.6
176
     1
 40
30.0
176
     1
 62
     8
420
  8421504
176
     1
 90
        1
176
     1
 90
        4
176
     1
 62
     7
176
     1
 62
   257
176
     1
 90
        1
176
     1
 90
        1
176
     1
 40
1.0
176
     1
 90
        8
176
     1
 62
     8
420
  8421504
176
     1
 40
1.0
176
     1
 90
        1
176
     1
 90
        6
176
     1
 90
        2
176
     1
 62
     7
176
     1
 90
        5
176
     1
 90
        0
176
     1
 90
        0
176
     1
290
     0
176
     1
 90
        1
176
     1
 40
0.0
176
     1
 90
        0
176
     1
290
     0
176
     1
290
     1
176
     1
290
     1
176
     1
290
     0
176
     1
290
     0
176
     1
290
     0
176
     1
290
     0
176
     1
290
     0
176
     1
290
     0
176
     1
 90
       50
176
     1
 40
0.0
176
     1
 40
1.0
176
     1
 90
        0
176
     1
 62
   178
420
        0
176
     1
 90
       50
176
     1
 90
        3
176
     1
 62
     5
420
      255
176
     1
290
     0
176
     1
 90
       50
176
     1
 90
       50
176
     1
 90
       50
176
     1
290
     0
176
     1
 90
       50
176
     1
 62
   256
176
     0
 40
1.0
176
     0
 90
        2
176
     1
  1
strokes_ogs.tif
176
     1
290
     0
176
     1
 40
1.0
176
     1
 40
1.0
176
     1
  0
VISUALSTYLE
  5
34
102
{ACAD_REACTORS
330
2A
102
}
330
2A
100
AcDbVisualStyle
  2
Conceptual
 70
     9
177
     3
291
     0
 70
    58
 90
        3
176
     1
 90
        2
176
     1
 90
        0
176
     1
 90
        0
176
     1
 40
0.6
176
     1
 40
30.0
176
     1
 62
     7
420
 16777215
176
     1
 90
        2
176
     1
 90
        2
176
     1
 62
     7
176
     1
 62
   257
176
     1
 90
        1
176
     1
 90
        1
176
     1
 40
179.0
176
     1
 90
        8
176
     1
 62
     7
176
     1
 40
1.0
176
     1
 90
        1
176
     1
 90
        6
176
     1
 90
        2
176
     1
 62
     7
176
     1
 90
        3
176
     1
 90
        0
176
     1
 90
        0
176
     1
290
     0
176
     1
 90
        1
176
     1
 40
0.0
176
     1
 90
        0
176
     1
290
     0
176
     1
290
     1
176
     1
290
     1
176
     1
290
     0
176
     1
290
     0
176
     1
290
     0
176
     1
290
     0
176
     1
290
     0
176
     1
290
     0
176
     1
 90
       50
176
     1
 40
0.0
176
     1
 40
1.0
176
     1
 90
        0
176
     1
 62
   178
420
        0
176
     1
 90
       50
176
     1
 90
        3
176
     1
 62
     5
420
      255
176
     1
290
     0
176
     1
 90
       50
176
     1
 90
       50
176
     1
 90
       50
176
     1
290
     0
176
     1
 90
       50
176
     1
 62
   256
176
     0
 40
1.0
176
     0
 90
        2
176
     1
  1
strokes_ogs.tif
176
     1
290
     0
176
     1
 40
1.0
176
     1
 40
1.0
176
     1
  0
VISUALSTYLE
  5
35
102
{ACAD_REACTORS
330
2A
102
}
330
2A
100
AcDbVisualStyle
  2
Dim
 70
    11
177
     3
291
     1
 70
    58
 90
        2
176
     1
 90
        2
176
     1
 90
        0
176
     1
 90
        0
176
     1
 40
0.6
176
     1
 40
30.0
176
     1
 62
     7
420
 16777215
176
     1
 90
        1
176
     1
 90
        4
176
     1
 62
     7
176
     1
 62
   257
176
     1
 90
        1
176
     1
 90
        1
176
     1
 40
1.0
176
     1
 90
        8
176
     1
 62
     7
176
     1
 40
1.0
176
     1
 90
        1
176
     1
 90
        6
176
     1
 90
        2
176
     1
 62
     7
176
     1
 90
        5
176
     1
 90
        0
176
     1
 90
        0
176
     1
290
     0
176
     1
 90
        1
176
     1
 40
-50.0
176
     1
 90
        0
176
     1
290
     0
176
     1
290
     1
176
     1
290
     1
176
     1
290
     0
176
     1
290
     0
176
     1
290
     0
176
     1
290
     0
176
     1
290
     0
176
     1
290
     0
176
     1
 90
       50
176
     1
 40
0.0
176
     1
 40
1.0
176
     1
 90
        0
176
     1
 62
   178
420
        0
176
     1
 90
       50
176
     1
 90
        3
176
     1
 62
     5
420
      255
176
     1
290
     0
176
     1
 90
       50
176
     1
 90
       50
176
     1
 90
       50
176
     1
290
     0
176
     1
 90
       50
176
     1
 62
   256
176
     0
 40
1.0
176
     0
 90
        2
176
     1
  1
strokes_ogs.tif
176
     1
290
     0
176
     1
 40
1.0
176
     1
 40
1.0
176
     1
  0
VISUALSTYLE
  5
3D
102
{ACAD_REACTORS
330
2A
102
}
330
2A
100
AcDbVisualStyle
  2
EdgeColorOff
 70
    22
177
     3
291
     1
 70
    58
 90
        2
176
     0
 90
        2
176
     0
 90
        0
176
     0
 90
        0
176
     0
 40
0.6
176
     0
 40
30.0
176
     0
 62
     7
420
 16777215
176
     0
 90
        1
176
     0
 90
        4
176
     0
 62
     7
176
     0
 62
   257
176
     0
 90
        1
176
     0
 90
        1
176
     0
 40
1.0
176
     0
 90
        8
176
     2
 62
     7
176
     0
 40
1.0
176
     0
 90
        1
176
     0
 90
        6
176
     0
 90
        2
176
     0
 62
     7
176
     0
 90
        5
176
     0
 90
        0
176
     0
 90
        0
176
     0
290
     0
176
     0
 90
        1
176
     0
 40
0.0
176
     0
 90
        0
176
     0
290
     0
176
     0
290
     1
176
     0
290
     1
176
     0
290
     0
176
     0
290
     0
176
     0
290
     0
176
     0
290
     0
176
     0
290
     0
176
     0
290
     0
176
     0
 90
       50
176
     0
 40
0.0
176
     0
 40
1.0
176
     0
 90
        0
176
     0
 62
   178
420
        0
176
     0
 90
       50
176
     0
 90
        3
176
     0
 62
     5
420
      255
176
     0
290
     0
176
     0
 90
       50
176
     0
 90
       50
176
     0
 90
       50
176
     0
290
     0
176
     0
 90
       50
176
     0
 62
   256
176
     0
 40
1.0
176
     0
 90
        2
176
     0
  1
strokes_ogs.tif
176
     0
290
     0
176
     0
 40
1.0
176
     0
 40
1.0
176
     0
  0
VISUALSTYLE
  5
39
102
{ACAD_REACTORS
330
2A
102
}
330
2A
100
AcDbVisualStyle
  2
Facepattern
 70
    15
177
     3
291
     1
 70
    58
 90
        2
176
     1
 90
        2
176
     1
 90
        0
176
     1
 90
        0
176
     1
 40
0.6
176
     1
 40
30.0
176
     1
 62
     7
420
 16777215
176
     1
 90
        1
176
     1
 90
        4
176
     1
 62
     7
176
     1
 62
   257
176
     1
 90
        1
176
     1
 90
        1
176
     1
 40
1.0
176
     1
 90
        8
176
     1
 62
     7
176
     1
 40
1.0
176
     1
 90
        1
176
     1
 90
        6
176
     1
 90
        2
176
     1
 62
     7
176
     1
 90
        5
176
     1
 90
        0
176
     1
 90
        0
176
     1
290
     0
176
     1
 90
        1
176
     1
 40
0.0
176
     1
 90
        0
176
     1
290
     0
176
     1
290
     1
176
     1
290
     1
176
     1
290
     0
176
     1
290
     0
176
     1
290
     0
176
     1
290
     0
176
     1
290
     0
176
     1
290
     0
176
     1
 90
       50
176
     1
 40
0.0
176
     1
 40
1.0
176
     1
 90
        0
176
     1
 62
   178
420
        0
176
     1
 90
       50
176
     1
 90
        3
176
     1
 62
     5
420
      255
176
     1
290
     0
176
     1
 90
       50
176
     1
 90
       50
176
     1
 90
       50
176
     1
290
     0
176
     1
 90
       50
176
     1
 62
   256
176
     0
 40
1.0
176
     0
 90
        2
176
     1
  1
strokes_ogs.tif
176
     1
290
     0
176
     1
 40
1.0
176
     1
 40
1.0
176
     1
  0
VISUALSTYLE
  5
2B
102
{ACAD_REACTORS
330
2A
102
}
330
2A
100
AcDbVisualStyle
  2
Flat
 70
     0
177
     3
291
     1
 70
    58
 90
        2
176
     1
 90
        1
176
     1
 90
        1
176
     1
 90
        2
176
     1
 40
0.6
176
     1
 40
30.0
176
     1
 62
     7
420
 16777215
176
     1
 90
        0
176
     1
 90
        0
176
     1
 62
     7
176
     1
 62
   257
176
     1
 90
        1
176
     1
 90
        1
176
     1
 40
1.0
176
     1
 90
        8
176
     1
 62
     7
176
     1
 40
1.0
176
     1
 90
        1
176
     1
 90
        6
176
     1
 90
        2
176
     1
 62
     7
176
     1
 90
        5
176
     1
 90
        0
176
     1
 90
        0
176
     1
290
     0
176
     1
 90
       13
176
     1
 40
0.0
176
     1
 90
        0
176
     1
290
     0
176
     1
290
     1
176
     1
290
     1
176
     1
290
     0
176
     1
290
     0
176
     1
290
     0
176
     1
290
     0
176
     1
290
     0
176
     1
290
     0
176
     1
 90
       50
176
     1
 40
0.0
176
     1
 40
1.0
176
     1
 90
        0
176
     1
 62
   178
420
        0
176
     1
 90
       50
176
     1
 90
        3
176
     1
 62
     5
420
      255
176
     1
290
     0
176
     1
 90
       50
176
     1
 90
       50
176
     1
 90
       50
176
     1
290
     0
176
     1
 90
       50
176
     1
 62
   256
176
     0
 40
1.0
176
     0
 90
        2
176
     1
  1
strokes_ogs.tif
176
     1
290
     0
176
     1
 40
1.0
176
     1
 40
1.0
176
     1
  0
VISUALSTYLE
  5
2C
102
{ACAD_REACTORS
330
2A
102
}
330
2A
100
AcDbVisualStyle
  2
FlatWithEdges
 70
     1
177
     3
291
     1
 70
    58
 90
        2
176
     1
 90
        1
176
     1
 90
        1
176
     1
 90
        2
176
     1
 40
0.6
176
     1
 40
30.0
176
     1
 62
     7
420
 16777215
176
     1
 90
        1
176
     1
 90
        0
176
     1
 62
     7
176
     1
 62
   257
176
     1
 90
        1
176
     1
 90
        1
176
     1
 40
1.0
176
     1
 90
        0
176
     1
 62
   257
176
     1
 40
1.0
176
     1
 90
        1
176
     1
 90
        6
176
     1
 90
        2
176
     1
 62
     7
176
     1
 90
        5
176
     1
 90
        0
176
     1
 90
        0
176
     1
290
     0
176
     1
 90
       13
176
     1
 40
0.0
176
     1
 90
        0
176
     1
290
     0
176
     1
290
     1
176
     1
290
     1
176
     1
290
     0
176
     1
290
     0
176
     1
290
     0
176
     1
290
     0
176
     1
290
     0
176
     1
290
     0
176
     1
 90
       50
176
     1
 40
0.0
176
     1
 40
1.0
176
     1
 90
        0
176
     1
 62
   178
420
        0
176
     1
 90
       50
176
     1
 90
        3
176
     1
 62
     5
420
      255
176
     1
290
     0
176
     1
 90
       50
176
     1
 90
       50
176
     1
 90
       50
176
     1
290
     0
176
     1
 90
       50
176
     1
 62
   256
176
     0
 40
1.0
176
     0
 90
        2
176
     1
  1
strokes_ogs.tif
176
     1
290
     0
176
     1
 40
1.0
176
     1
 40
1.0
176
     1
  0
VISUALSTYLE
  5
2D
102
{ACAD_REACTORS
330
2A
102
}
330
2A
100
AcDbVisualStyle
  2
Gouraud
 70
     2
177
     3
291
     1
 70
    58
 90
        2
176
     1
 90
        2
176
     1
 90
        1
176
     1
 90
        2
176
     1
 40
0.6
176
     1
 40
30.0
176
     1
 62
     7
420
 16777215
176
     1
 90
        0
176
     1
 90
        0
176
     1
 62
     7
176
     1
 62
   257
176
     1
 90
        1
176
     1
 90
        1
176
     1
 40
1.0
176
     1
 90
        0
176
     1
 62
     7
176
     1
 40
1.0
176
     1
 90
        1
176
     1
 90
        6
176
     1
 90
        2
176
     1
 62
     7
176
     1
 90
        5
176
     1
 90
        0
176
     1
 90
        0
176
     1
290
     0
176
     1
 90
       13
176
     1
 40
0.0
176
     1
 90
        0
176
     1
290
     0
176
     1
290
     1
176
     1
290
     1
176
     1
290
     0
176
     1
290
     0
176
     1
290
     0
176
     1
290
     0
176
     1
290
     0
176
     1
290
     0
176
     1
 90
       50
176
     1
 40
0.0
176
     1
 40
1.0
176
     1
 90
        0
176
     1
 62
   178
420
        0
176
     1
 90
       50
176
     1
 90
        3
176
     1
 62
     5
420
      255
176
     1
290
     0
176
     1
 90
       50
176
     1
 90
       50
176
     1
 90
       50
176
     1
290
     0
176
     1
 90
       50
176
     1
 62
   256
176
     0
 40
1.0
176
     0
 90
        2
176
     1
  1
strokes_ogs.tif
176
     1
290
     0
176
     1
 40
1.0
176
     1
 40
1.0
176
     1
  0
VISUALSTYLE
  5
2E
102
{ACAD_REACTORS
330
2A
102
}
330
2A
100
AcDbVisualStyle
  2
GouraudWithEdges
 70
     3
177
     3
291
     1
 70
    58
 90
        2
176
     1
 90
        2
176
     1
 90
        1
176
     1
 90
        2
176
     1
 40
0.6
176
     1
 40
30.0
176
     1
 62
     7
420
 16777215
176
     1
 90
        1
176
     1
 90
        0
176
     1
 62
     7
176
     1
 62
   257
176
     1
 90
        1
176
     1
 90
        1
176
     1
 40
1.0
176
     1
 90
        0
176
     1
 62
   257
176
     1
 40
1.0
176
     1
 90
        1
176
     1
 90
        6
176
     1
 90
        2
176
     1
 62
     7
176
     1
 90
        5
176
     1
 90
        0
176
     1
 90
        0
176
     1
290
     0
176
     1
 90
       13
176
     1
 40
0.0
176
     1
 90
        0
176
     1
290
     0
176
     1
290
     1
176
     1
290
     1
176
     1
290
     0
176
     1
290
     0
176
     1
290
     0
176
     1
290
     0
176
     1
290
     0
176
     1
290
     0
176
     1
 90
       50
176
     1
 40
0.0
176
     1
 40
1.0
176
     1
 90
        0
176
     1
 62
   178
420
        0
176
     1
 90
       50
176
     1
 90
        3
176
     1
 62
     5
420
      255
176
     1
290
     0
176
     1
 90
       50
176
     1
 90
       50
176
     1
 90
       50
176
     1
290
     0
176
     1
 90
       50
176
     1
 62
   256
176
     0
 40
1.0
176
     0
 90
        2
176
     1
  1
strokes_ogs.tif
176
     1
290
     0
176
     1
 40
1.0
176
     1
 40
1.0
176
     1
  0
VISUALSTYLE
  5
31
102
{ACAD_REACTORS
330
2A
102
}
330
2A
100
AcDbVisualStyle
  2
Hidden
 70
     6
177
     3
291
     0
 70
    58
 90
        1
176
     1
 90
        2
176
     1
 90
        2
176
     1
 90
        0
176
     1
 40
0.6
176
     1
 40
30.0
176
     1
 62
     7
420
 16777215
176
     1
 90
        2
176
     1
 90
        2
176
     1
 62
     7
176
     1
 62
   257
176
     1
 90
        2
176
     1
 90
        1
176
     1
 40
40.0
176
     1
 90
        0
176
     1
 62
   257
176
     1
 40
1.0
176
     1
 90
        1
176
     1
 90
        6
176
     1
 90
        2
176
     1
 62
     7
176
     1
 90
        3
176
     1
 90
        0
176
     1
 90
        0
176
     1
290
     0
176
     1
 90
        1
176
     1
 40
0.0
176
     1
 90
        0
176
     1
290
     0
176
     1
290
     1
176
     1
290
     1
176
     1
290
     0
176
     1
290
     0
176
     1
290
     0
176
     1
290
     0
176
     1
290
     0
176
     1
290
     0
176
     1
 90
       50
176
     1
 40
0.0
176
     1
 40
1.0
176
     1
 90
        0
176
     1
 62
   178
420
        0
176
     1
 90
       50
176
     1
 90
        3
176
     1
 62
     5
420
      255
176
     1
290
     0
176
     1
 90
       50
176
     1
 90
       50
176
     1
 90
       50
176
     1
290
     0
176
     1
 90
       50
176
     1
 62
   256
176
     0
 40
1.0
176
     0
 90
        2
176
     1
  1
strokes_ogs.tif
176
     1
290
     0
176
     1
 40
1.0
176
     1
 40
1.0
176
     1
  0
VISUALSTYLE
  5
3B
102
{ACAD_REACTORS
330
2A
102
}
330
2A
100
AcDbVisualStyle
  2
JitterOff
 70
    20
177
     3
291
     1
 70
    58
 90
        2
176
     0
 90
        2
176
     0
 90
        0
176
     0
 90
        0
176
     0
 40
0.6
176
     0
 40
30.0
176
     0
 62
     7
420
 16777215
176
     0
 90
        1
176
     0
 90
        4
176
     0
 62
     7
176
     0
 62
   257
176
     0
 90
        1
176
     0
 90
        1
176
     0
 40
1.0
176
     0
 90
       10
176
     2
 62
     7
176
     0
 40
1.0
176
     0
 90
        1
176
     0
 90
        6
176
     0
 90
        2
176
     0
 62
     7
176
     0
 90
        5
176
     0
 90
        0
176
     0
 90
        0
176
     0
290
     0
176
     0
 90
        1
176
     0
 40
0.0
176
     0
 90
        0
176
     0
290
     0
176
     0
290
     1
176
     0
290
     1
176
     0
290
     0
176
     0
290
     0
176
     0
290
     0
176
     0
290
     0
176
     0
290
     0
176
     0
290
     0
176
     0
 90
       50
176
     0
 40
0.0
176
     0
 40
1.0
176
     0
 90
        0
176
     0
 62
   178
420
        0
176
     0
 90
       50
176
     0
 90
        3
176
     0
 62
     5
420
      255
176
     0
290
     0
176
     0
 90
       50
176
     0
 90
       50
176
     0
 90
       50
176
     0
290
     0
176
     0
 90
       50
176
     0
 62
   256
176
     0
 40
1.0
176
     0
 90
        2
176
     0
  1
strokes_ogs.tif
176
     0
290
     0
176
     0
 40
1.0
176
     0
 40
1.0
176
     0
  0
VISUALSTYLE
  5
38
102
{ACAD_REACTORS
330
2A
102
}
330
2A
100
AcDbVisualStyle
  2
Linepattern
 70
    14
177
     3
291
     1
 70
    58
 90
        2
176
     1
 90
        2
176
     1
 90
        0
176
     1
 90
        0
176
     1
 40
0.6
176
     1
 40
30.0
176
     1
 62
     7
420
 16777215
176
     1
 90
        1
176
     1
 90
        4
176
     1
 62
     7
176
     1
 62
   257
176
     1
 90
        7
176
     1
 90
        7
176
     1
 40
1.0
176
     1
 90
        8
176
     1
 62
     7
176
     1
 40
1.0
176
     1
 90
        1
176
     1
 90
        6
176
     1
 90
        2
176
     1
 62
     7
176
     1
 90
        5
176
     1
 90
        0
176
     1
 90
        0
176
     1
290
     0
176
     1
 90
        1
176
     1
 40
0.0
176
     1
 90
        0
176
     1
290
     0
176
     1
290
     1
176
     1
290
     1
176
     1
290
     0
176
     1
290
     0
176
     1
290
     0
176
     1
290
     0
176
     1
290
     0
176
     1
290
     0
176
     1
 90
       50
176
     1
 40
0.0
176
     1
 40
1.0
176
     1
 90
        0
176
     1
 62
   178
420
        0
176
     1
 90
       50
176
     1
 90
        3
176
     1
 62
     5
420
      255
176
     1
290
     0
176
     1
 90
       50
176
     1
 90
       50
176
     1
 90
       50
176
     1
290
     0
176
     1
 90
       50
176
     1
 62
   256
176
     0
 40
1.0
176
     0
 90
        2
176
     1
  1
strokes_ogs.tif
176
     1
290
     0
176
     1
 40
1.0
176
     1
 40
1.0
176
     1
  0
VISUALSTYLE
  5
3C
102
{ACAD_REACTORS
330
2A
102
}
330
2A
100
AcDbVisualStyle
  2
OverhangOff
 70
    21
177
     3
291
     1
 70
    58
 90
        2
176
     0
 90
        2
176
     0
 90
        0
176
     0
 90
        0
176
     0
 40
0.6
176
     0
 40
30.0
176
     0
 62
     7
420
 16777215
176
     0
 90
        1
176
     0
 90
        4
176
     0
 62
     7
176
     0
 62
   257
176
     0
 90
        1
176
     0
 90
        1
176
     0
 40
1.0
176
     0
 90
        9
176
     2
 62
     7
176
     0
 40
1.0
176
     0
 90
        1
176
     0
 90
        6
176
     0
 90
        2
176
     0
 62
     7
176
     0
 90
        5
176
     0
 90
        0
176
     0
 90
        0
176
     0
290
     0
176
     0
 90
        1
176
     0
 40
0.0
176
     0
 90
        0
176
     0
290
     0
176
     0
290
     1
176
     0
290
     1
176
     0
290
     0
176
     0
290
     0
176
     0
290
     0
176
     0
290
     0
176
     0
290
     0
176
     0
290
     0
176
     0
 90
       50
176
     0
 40
0.0
176
     0
 40
1.0
176
     0
 90
        0
176
     0
 62
   178
420
        0
176
     0
 90
       50
176
     0
 90
        3
176
     0
 62
     5
420
      255
176
     0
290
     0
176
     0
 90
       50
176
     0
 90
       50
176
     0
 90
       50
176
     0
290
     0
176
     0
 90
       50
176
     0
 62
   256
176
     0
 40
1.0
176
     0
 90
        2
176
     0
  1
strokes_ogs.tif
176
     0
290
     0
176
     0
 40
1.0
176
     0
 40
1.0
176
     0
  0
VISUALSTYLE
  5
33
102
{ACAD_REACTORS
330
2A
102
}
330
2A
100
AcDbVisualStyle
  2
Realistic
 70
     8
177
     3
291
     0
 70
    58
 90
        2
176
     1
 90
        3
176
     1
 90
        0
176
     1
 90
        2
176
     1
 40
0.6
176
     1
 40
30.0
176
     1
 62
     7
420
 16777215
176
     1
 90
        0
176
     1
 90
        0
176
     1
 62
     7
176
     1
 62
   257
176
     1
 90
        1
176
     1
 90
        1
176
     1
 40
1.0
176
     1
 90
        8
176
     1
 62
   257
176
     1
 40
1.0
176
     1
 90
        1
176
     1
 90
        6
176
     1
 90
        2
176
     1
 62
     7
176
     1
 90
        3
176
     1
 90
        0
176
     1
 90
        0
176
     1
290
     0
176
     1
 90
       13
176
     1
 40
0.0
176
     1
 90
        0
176
     1
290
     0
176
     1
290
     1
176
     1
290
     1
176
     1
290
     0
176
     1
290
     0
176
     1
290
     0
176
     1
290
     0
176
     1
290
     0
176
     1
290
     0
176
     1
 90
       50
176
     1
 40
0.0
176
     1
 40
1.0
176
     1
 90
        0
176
     1
 62
   178
420
        0
176
     1
 90
       50
176
     1
 90
        3
176
     1
 62
     5
420
      255
176
     1
290
     0
176
     1
 90
       50
176
     1
 90
       50
176
     1
 90
       50
176
     1
290
     0
176
     1
 90
       50
176
     1
 62
   256
176
     0
 40
1.0
176
     0
 90
        2
176
     1
  1
strokes_ogs.tif
176
     1
290
     0
176
     1
 40
1.0
176
     1
 40
1.0
176
     1
  0
VISUALSTYLE
  5
42
102
{ACAD_REACTORS
330
2A
102
}
330
2A
100
AcDbVisualStyle
  2
Shaded
 70
    27
177
     3
291
     0
 70
    58
 90
        2
176
     1
 90
        2
176
     1
 90
        1
176
     1
 90
        2
176
     1
 40
0.6
176
     1
 40
30.0
176
     1
 62
     7
420
 16777215
176
     1
 90
        0
176
     1
 90
        4
176
     1
 62
     7
176
     1
 62
   257
176
     1
 90
        1
176
     1
 90
        1
176
     1
 40
1.0
176
     1
 90
        8
176
     1
 62
   257
176
     1
 40
1.0
176
     1
 90
        1
176
     1
 90
        6
176
     1
 90
        2
176
     1
 62
     8
420
  7895160
176
     1
 90
        3
176
     1
 90
        0
176
     1
 90
        0
176
     1
290
     0
176
     1
 90
        5
176
     1
 40
0.0
176
     1
 90
        0
176
     1
290
     0
176
     1
290
     1
176
     1
290
     1
176
     1
290
     0
176
     1
290
     0
176
     1
290
     0
176
     1
290
     0
176
     1
290
     0
176
     1
290
     0
176
     1
 90
       50
176
     1
 40
0.0
176
     1
 40
1.0
176
     1
 90
        0
176
     1
 62
   178
420
        0
176
     1
 90
       50
176
     1
 90
        3
176
     1
 62
     5
420
      255
176
     1
290
     0
176
     1
 90
       50
176
     1
 90
       50
176
     1
 90
       50
176
     1
290
     0
176
     1
 90
       50
176
     1
 62
   256
176
     0
 40
1.0
176
     0
 90
        2
176
     1
  1
strokes_ogs.tif
176
     1
290
     0
176
     1
 40
1.0
176
     1
 40
1.0
176
     1
  0
VISUALSTYLE
  5
41
102
{ACAD_REACTORS
330
2A
102
}
330
2A
100
AcDbVisualStyle
  2
Shaded with edges
 70
    26
177
     3
291
     0
 70
    58
 90
        2
176
     1
 90
        2
176
     1
 90
        1
176
     1
 90
        2
176
     1
 40
0.6
176
     1
 40
30.0
176
     1
 62
     7
420
 16777215
176
     1
 90
        1
176
     1
 90
       10
176
     1
 62
     7
176
     1
 62
   257
176
     1
 90
        2
176
     1
 90
        1
176
     1
 40
1.0
176
     1
 90
        8
176
     1
 62
   257
176
     1
 40
1.0
176
     1
 90
        1
176
     1
 90
        6
176
     1
 90
        2
176
     1
 62
     7
176
     1
 90
        3
176
     1
 90
        0
176
     1
 90
        0
176
     1
290
     0
176
     1
 90
        5
176
     1
 40
0.0
176
     1
 90
        0
176
     1
290
     0
176
     1
290
     1
176
     1
290
     1
176
     1
290
     0
176
     1
290
     0
176
     1
290
     0
176
     1
290
     0
176
     1
290
     0
176
     1
290
     0
176
     1
 90
       50
176
     1
 40
0.0
176
     1
 40
1.0
176
     1
 90
        0
176
     1
 62
   178
420
        0
176
     1
 90
       50
176
     1
 90
        3
176
     1
 62
     5
420
      255
176
     1
290
     0
176
     1
 90
       50
176
     1
 90
       50
176
     1
 90
       50
176
     1
290
     0
176
     1
 90
       50
176
     1
 62
   256
176
     0
 40
1.0
176
     0
 90
        2
176
     1
  1
strokes_ogs.tif
176
     1
290
     0
176
     1
 40
1.0
176
     1
 40
1.0
176
     1
  0
VISUALSTYLE
  5
3E
102
{ACAD_REACTORS
330
2A
102
}
330
2A
100
AcDbVisualStyle
  2
Shades of Gray
 70
    23
177
     3
291
     0
 70
    58
 90
        2
176
     1
 90
        2
176
     1
 90
        3
176
     1
 90
        0
176
     1
 40
0.6
176
     1
 40
30.0
176
     1
 62
     7
420
 16777215
176
     1
 90
        2
176
     1
 90
        2
176
     1
 62
     7
176
     1
 62
     7
176
     1
 90
        1
176
     1
 90
        1
176
     1
 40
40.0
176
     1
 90
        8
176
     1
 62
     7
176
     1
 40
1.0
176
     1
 90
        1
176
     1
 90
        6
176
     1
 90
        2
176
     1
 62
     7
176
     1
 90
        3
176
     1
 90
        0
176
     1
 90
        0
176
     1
290
     0
176
     1
 90
        1
176
     1
 40
0.0
176
     1
 90
        0
176
     1
290
     0
176
     1
290
     1
176
     1
290
     1
176
     1
290
     0
176
     1
290
     0
176
     1
290
     0
176
     1
290
     0
176
     1
290
     0
176
     1
290
     0
176
     1
 90
       50
176
     1
 40
0.0
176
     1
 40
1.0
176
     1
 90
        0
176
     1
 62
   178
420
        0
176
     1
 90
       50
176
     1
 90
        3
176
     1
 62
     5
420
      255
176
     1
290
     0
176
     1
 90
       50
176
     1
 90
       50
176
     1
 90
       50
176
     1
290
     0
176
     1
 90
       50
176
     1
 62
   256
176
     0
 40
1.0
176
     0
 90
        2
176
     1
  1
strokes_ogs.tif
176
     1
290
     0
176
     1
 40
1.0
176
     1
 40
1.0
176
     1
  0
VISUALSTYLE
  5
3F
102
{ACAD_REACTORS
330
2A
102
}
330
2A
100
AcDbVisualStyle
  2
Sketchy
 70
    24
177
     3
291
     0
 70
    58
 90
        1
176
     1
 90
        2
176
     1
 90
        2
176
     1
 90
        0
176
     1
 40
0.6
176
     1
 40
30.0
176
     1
 62
     7
420
 16777215
176
     1
 90
        2
176
     1
 90
        2
176
     1
 62
     7
176
     1
 62
     7
176
     1
 90
        1
176
     1
 90
        1
176
     1
 40
40.0
176
     1
 90
       11
176
     1
 62
     7
176
     1
 40
1.0
176
     1
 90
        1
176
     1
 90
        6
176
     1
 90
        2
176
     1
 62
     7
176
     1
 90
        6
176
     1
 90
        0
176
     1
 90
        0
176
     1
290
     0
176
     1
 90
        1
176
     1
 40
0.0
176
     1
 90
        0
176
     1
290
     0
176
     1
290
     1
176
     1
290
     1
176
     1
290
     0
176
     1
290
     0
176
     1
290
     0
176
     1
290
     0
176
     1
290
     0
176
     1
290
     0
176
     1
 90
       50
176
     1
 40
0.0
176
     1
 40
1.0
176
     1
 90
        0
176
     1
 62
   178
420
        0
176
     1
 90
       50
176
     1
 90
        3
176
     1
 62
     5
420
      255
176
     1
290
     0
176
     1
 90
       50
176
     1
 90
       50
176
     1
 90
       50
176
     1
290
     0
176
     1
 90
       50
176
     1
 62
   256
176
     0
 40
1.0
176
     0
 90
        2
176
     1
  1
strokes_ogs.tif
176
     1
290
     0
176
     1
 40
1.0
176
     1
 40
1.0
176
     1
  0
VISUALSTYLE
  5
37
102
{ACAD_REACTORS
330
2A
102
}
330
2A
100
AcDbVisualStyle
  2
Thicken
 70
    13
177
     3
291
     1
 70
    58
 90
        2
176
     1
 90
        2
176
     1
 90
        0
176
     1
 90
        0
176
     1
 40
0.6
176
     1
 40
30.0
176
     1
 62
     7
420
 16777215
176
     1
 90
        1
176
     1
 90
        4
176
     1
 62
     7
176
     1
 62
   257
176
     1
 90
        1
176
     1
 90
        1
176
     1
 40
1.0
176
     1
 90
       12
176
     1
 62
     7
176
     1
 40
1.0
176
     1
 90
        1
176
     1
 90
        6
176
     1
 90
        2
176
     1
 62
     7
176
     1
 90
        5
176
     1
 90
        0
176
     1
 90
        0
176
     1
290
     0
176
     1
 90
        1
176
     1
 40
0.0
176
     1
 90
        0
176
     1
290
     0
176
     1
290
     1
176
     1
290
     1
176
     1
290
     0
176
     1
290
     0
176
     1
290
     0
176
     1
290
     0
176
     1
290
     0
176
     1
290
     0
176
     1
 90
       50
176
     1
 40
0.0
176
     1
 40
1.0
176
     1
 90
        0
176
     1
 62
   178
420
        0
176
     1
 90
       50
176
     1
 90
        3
176
     1
 62
     5
420
      255
176
     1
290
     0
176
     1
 90
       50
176
     1
 90
       50
176
     1
 90
       50
176
     1
290
     0
176
     1
 90
       50
176
     1
 62
   256
176
     0
 40
1.0
176
     0
 90
        2
176
     1
  1
strokes_ogs.tif
176
     1
290
     0
176
     1
 40
1.0
176
     1
 40
1.0
176
     1
  0
VISUALSTYLE
  5
30
102
{ACAD_REACTORS
330
2A
102
}
330
2A
100
AcDbVisualStyle
  2
Wireframe
 70
     5
177
     3
291
     0
 70
    58
 90
        0
176
     1
 90
        2
176
     1
 90
        0
176
     1
 90
        0
176
     1
 40
0.6
176
     1
 40
30.0
176
     1
 62
     7
420
 16777215
176
     1
 90
        1
176
     1
 90
        4
176
     1
 62
     7
176
     1
 62
   257
176
     1
 90
        1
176
     1
 90
        1
176
     1
 40
1.0
176
     1
 90
        0
176
     1
 62
   257
176
     1
 40
1.0
176
     1
 90
        1
176
     1
 90
        6
176
     1
 90
        2
176
     1
 62
     7
176
     1
 90
        3
176
     1
 90
        0
176
     1
 90
        0
176
     1
290
     0
176
     1
 90
        1
176
     1
 40
0.0
176
     1
 90
        0
176
     1
290
     0
176
     1
290
     1
176
     1
290
     1
176
     1
290
     0
176
     1
290
     0
176
     1
290
     0
176
     1
290
     0
176
     1
290
     0
176
     1
290
     0
176
     1
 90
       50
176
     1
 40
0.0
176
     1
 40
1.0
176
     1
 90
        0
176
     1
 62
   178
420
        0
176
     1
 90
       50
176
     1
 90
        3
176
     1
 62
     5
420
      255
176
     1
290
     0
176
     1
 90
       50
176
     1
 90
       50
176
     1
 90
       50
176
     1
290
     0
176
     1
 90
       50
176
     1
 62
   256
176
     0
 40
1.0
176
     0
 90
        2
176
     1
  1
strokes_ogs.tif
176
     1
290
     0
176
     1
 40
1.0
176
     1
 40
1.0
176
     1
  0
VISUALSTYLE
  5
40
102
{ACAD_REACTORS
330
2A
102
}
330
2A
100
AcDbVisualStyle
  2
X-Ray
 70
    25
177
     3
291
     0
 70
    58
 90
        2
176
     1
 90
        2
176
     1
 90
        1
176
     1
 90
        1
176
     1
 40
0.5
176
     1
 40
30.0
176
     1
 62
     7
420
 16777215
176
     1
 90
        1
176
     1
 90
        0
176
     1
 62
     7
176
     1
 62
   257
176
     1
 90
        1
176
     1
 90
        1
176
     1
 40
1.0
176
     1
 90
        8
176
     1
 62
     7
176
     1
 40
1.0
176
     1
 90
        1
176
     1
 90
        6
176
     1
 90
        2
176
     1
 62
     7
176
     1
 90
        3
176
     1
 90
        0
176
     1
 90
        0
176
     1
290
     0
176
     1
 90
       13
176
     1
 40
0.0
176
     1
 90
        0
176
     1
290
     0
176
     1
290
     1
176
     1
290
     1
176
     1
290
     0
176
     1
290
     0
176
     1
290
     0
176
     1
290
     0
176
     1
290
     0
176
     1
290
     0
176
     1
 90
       50
176
     1
 40
0.0
176
     1
 40
1.0
176
     1
 90
        0
176
     1
 62
   178
420
        0
176
     1
 90
       50
176
     1
 90
        3
176
     1
 62
     5
420
      255
176
     1
290
     0
176
     1
 90
       50
176
     1
 90
       50
176
     1
 90
       50
176
     1
290
     0
176
     1
 90
       50
176
     1
 62
   256
176
     0
 40
1.0
176
     0
 90
        2
176
     1
  1
strokes_ogs.tif
176
     1
290
     0
176
     1
 40
1.0
176
     1
 40
1.0
176
     1
  0
DICTIONARYVAR
  5
237
102
{ACAD_REACTORS
330
236
102
}
330
236
100
DictionaryVariables
280
     0
  1
1:1
  0
DICTIONARYVAR
  5
23C
102
{ACAD_REACTORS
330
236
102
}
330
236
100
DictionaryVariables
280
     0
  1
Standard
  0
DICTIONARYVAR
  5
23B
102
{ACAD_REACTORS
330
236
102
}
330
236
100
DictionaryVariables
280
     0
  1
Standard
  0
DICTIONARY
  5
238
330
6A
100
AcDbDictionary
280
     1
281
     1
  3
ACAD_ROUNDTRIP_2008_TABLESTYLE_CELLSTYLEMAP
360
239
  0
CELLSTYLEMAP
  5
239
102
{ACAD_REACTORS
330
238
102
}
330
238
100
AcDbCellStyleMap
 90
        3
300
CELLSTYLE
  1
TABLEFORMAT_BEGIN
 90
        5
170
     1
 91
        0
 92
    32768
 62
   257
 93
        1
300
CONTENTFORMAT
  1
CONTENTFORMAT_BEGIN
 90
        0
 91
        0
 92
        4
 93
        0
300

 40
0.0
140
1.0
 94
        5
 62
     0
340
11
144
6.0
309
CONTENTFORMAT_END
171
     1
301
MARGIN
  1
CELLMARGIN_BEGIN
 40
1.5
 40
1.5
 40
1.5
 40
1.5
 40
1.5
 40
1.5
309
CELLMARGIN_END
 94
        6
 95
        1
302
GRIDFORMAT
  1
GRIDFORMAT_BEGIN
 90
        0
 91
        1
 62
     0
 92
       -2
340
14
 93
        0
 40
0.045
309
GRIDFORMAT_END
 95
        2
302
GRIDFORMAT
  1
GRIDFORMAT_BEGIN
 90
        0
 91
        1
 62
     0
 92
       -2
340
14
 93
        0
 40
0.045
309
GRIDFORMAT_END
 95
        4
302
GRIDFORMAT
  1
GRIDFORMAT_BEGIN
 90
        0
 91
        1
 62
     0
 92
       -2
340
14
 93
        0
 40
0.045
309
GRIDFORMAT_END
 95
        8
302
GRIDFORMAT
  1
GRIDFORMAT_BEGIN
 90
        0
 91
        1
 62
     0
 92
       -2
340
14
 93
        0
 40
0.045
309
GRIDFORMAT_END
 95
       16
302
GRIDFORMAT
  1
GRIDFORMAT_BEGIN
 90
        0
 91
        1
 62
     0
 92
       -2
340
14
 93
        0
 40
0.045
309
GRIDFORMAT_END
 95
       32
302
GRIDFORMAT
  1
GRIDFORMAT_BEGIN
 90
        0
 91
        1
 62
     0
 92
       -2
340
14
 93
        0
 40
0.045
309
GRIDFORMAT_END
309
TABLEFORMAT_END
  1
CELLSTYLE_BEGIN
 90
        1
 91
        1
300
_TITLE
309
CELLSTYLE_END
300
CELLSTYLE
  1
TABLEFORMAT_BEGIN
 90
        5
170
     1
 91
        0
 92
        0
 62
   257
 93
        1
300
CONTENTFORMAT
  1
CONTENTFORMAT_BEGIN
 90
        0
 91
        0
 92
        4
 93
        0
300

 40
0.0
140
1.0
 94
        5
 62
     0
340
11
144
4.5
309
CONTENTFORMAT_END
171
     1
301
MARGIN
  1
CELLMARGIN_BEGIN
 40
1.5
 40
1.5
 40
1.5
 40
1.5
 40
1.5
 40
1.5
309
CELLMARGIN_END
 94
        6
 95
        1
302
GRIDFORMAT
  1
GRIDFORMAT_BEGIN
 90
        0
 91
        1
 62
     0
 92
       -2
340
14
 93
        0
 40
0.045
309
GRIDFORMAT_END
 95
        2
302
GRIDFORMAT
  1
GRIDFORMAT_BEGIN
 90
        0
 91
        1
 62
     0
 92
       -2
340
14
 93
        0
 40
0.045
309
GRIDFORMAT_END
 95
        4
302
GRIDFORMAT
  1
GRIDFORMAT_BEGIN
 90
        0
 91
        1
 62
     0
 92
       -2
340
14
 93
        0
 40
0.045
309
GRIDFORMAT_END
 95
        8
302
GRIDFORMAT
  1
GRIDFORMAT_BEGIN
 90
        0
 91
        1
 62
     0
 92
       -2
340
14
 93
        0
 40
0.045
309
GRIDFORMAT_END
 95
       16
302
GRIDFORMAT
  1
GRIDFORMAT_BEGIN
 90
        0
 91
        1
 62
     0
 92
       -2
340
14
 93
        0
 40
0.045
309
GRIDFORMAT_END
 95
       32
302
GRIDFORMAT
  1
GRIDFORMAT_BEGIN
 90
        0
 91
        1
 62
     0
 92
       -2
340
14
 93
        0
 40
0.045
309
GRIDFORMAT_END
309
TABLEFORMAT_END
  1
CELLSTYLE_BEGIN
 90
        2
 91
        1
300
_HEADER
309
CELLSTYLE_END
300
CELLSTYLE
  1
TABLEFORMAT_BEGIN
 90
        5
170
     1
 91
        0
 92
        0
 62
   257
 93
        1
300
CONTENTFORMAT
  1
CONTENTFORMAT_BEGIN
 90
        0
 91
        0
 92
        4
 93
        0
300

 40
0.0
140
1.0
 94
        2
 62
     0
340
11
144
4.5
309
CONTENTFORMAT_END
171
     1
301
MARGIN
  1
CELLMARGIN_BEGIN
 40
1.5
 40
1.5
 40
1.5
 40
1.5
 40
1.5
 40
1.5
309
CELLMARGIN_END
 94
        6
 95
        1
302
GRIDFORMAT
  1
GRIDFORMAT_BEGIN
 90
        0
 91
        1
 62
     0
 92
       -2
340
14
 93
        0
 40
0.045
309
GRIDFORMAT_END
 95
        2
302
GRIDFORMAT
  1
GRIDFORMAT_BEGIN
 90
        0
 91
        1
 62
     0
 92
       -2
340
14
 93
        0
 40
0.045
309
GRIDFORMAT_END
 95
        4
302
GRIDFORMAT
  1
GRIDFORMAT_BEGIN
 90
        0
 91
        1
 62
     0
 92
       -2
340
14
 93
        0
 40
0.045
309
GRIDFORMAT_END
 95
        8
302
GRIDFORMAT
  1
GRIDFORMAT_BEGIN
 90
        0
 91
        1
 62
     0
 92
       -2
340
14
 93
        0
 40
0.045
309
GRIDFORMAT_END
 95
       16
302
GRIDFORMAT
  1
GRIDFORMAT_BEGIN
 90
        0
 91
        1
 62
     0
 92
       -2
340
14
 93
        0
 40
0.045
309
GRIDFORMAT_END
 95
       32
302
GRIDFORMAT
  1
GRIDFORMAT_BEGIN
 90
        0
 91
        1
 62
     0
 92
       -2
340
14
 93
        0
 40
0.045
309
GRIDFORMAT_END
309
TABLEFORMAT_END
  1
CELLSTYLE_BEGIN
 90
        3
 91
        2
300
_DATA
309
CELLSTYLE_END
  0
ENDSEC
  0
EOF
