  0
SECTION
  2
HEADER
  9
$ACADVER
  1
AC1027
  9
$ACADMAINTVER
 70
     8
  9
$DWGCODEPAGE
  3
ANSI_1252
  9
$REQUIREDVERSIONS
160
                 0
  9
$INSBASE
 10
0.0
 20
0.0
 30
0.0
  9
$EXTMIN
 10
0.0
 20
0.0
 30
0.0
  9
$EXTMAX
 10
210.0
 20
297.0
 30
0.0
  9
$LIMMIN
 10
0.0
 20
0.0
  9
$LIMMAX
 10
210.0
 20
297.0
  9
$ORTHOMODE
 70
     0
  9
$REGENMODE
 70
     1
  9
$FILLMODE
 70
     1
  9
$QTEXTMODE
 70
     0
  9
$MIRRTEXT
 70
     1
  9
$LTSCALE
 40
1.0
  9
$ATTMODE
 70
     1
  9
$TEXTSIZE
 40
2.5
  9
$TRACEWID
 40
1.0
  9
$TEXTSTYLE
  7
Standard
  9
$CLAYER
  8
Dimension
  9
$CELTYPE
  6
ByLayer
  9
$CECOLOR
 62
   256
  9
$CELTSCALE
 40
1.0
  9
$DISPSILH
 70
     0
  9
$DIMSCALE
 40
1.0
  9
$DIMASZ
 40
2.5
  9
$DIMEXO
 40
0.625
  9
$DIMDLI
 40
3.75
  9
$DIMRND
 40
0.0
  9
$DIMDLE
 40
0.0
  9
$DIMEXE
 40
1.25
  9
$DIMTP
 40
0.0
  9
$DIMTM
 40
0.0
  9
$DIMTXT
 40
2.5
  9
$DIMCEN
 40
2.5
  9
$DIMTSZ
 40
0.0
  9
$DIMTOL
 70
     0
  9
$DIMLIM
 70
     0
  9
$DIMTIH
 70
     0
  9
$DIMTOH
 70
     0
  9
$DIMSE1
 70
     0
  9
$DIMSE2
 70
     0
  9
$DIMTAD
 70
     1
  9
$DIMZIN
 70
     8
  9
$DIMBLK
  1

  9
$DIMASO
 70
     1
  9
$DIMSHO
 70
     1
  9
$DIMPOST
  1

  9
$DIMAPOST
  1

  9
$DIMALT
 70
     0
  9
$DIMALTD
 70
     3
  9
$DIMALTF
 40
0.03937007874016
  9
$DIMLFAC
 40
1.0
  9
$DIMTOFL
 70
     1
  9
$DIMTVP
 40
0.0
  9
$DIMTIX
 70
     0
  9
$DIMSOXD
 70
     0
  9
$DIMSAH
 70
     0
  9
$DIMBLK1
  1

  9
$DIMBLK2
  1

  9
$DIMSTYLE
  2
ISO-25
  9
$DIMCLRD
 70
     0
  9
$DIMCLRE
 70
     0
  9
$DIMCLRT
 70
     0
  9
$DIMTFAC
 40
1.0
  9
$DIMGAP
 40
0.625
  9
$DIMJUST
 70
     0
  9
$DIMSD1
 70
     0
  9
$DIMSD2
 70
     0
  9
$DIMTOLJ
 70
     0
  9
$DIMTZIN
 70
     8
  9
$DIMALTZ
 70
     0
  9
$DIMALTTZ
 70
     0
  9
$DIMUPT
 70
     0
  9
$DIMDEC
 70
     2
  9
$DIMTDEC
 70
     2
  9
$DIMALTU
 70
     2
  9
$DIMALTTD
 70
     3
  9
$DIMTXSTY
  7
Standard
  9
$DIMAUNIT
 70
     0
  9
$DIMADEC
 70
     0
  9
$DIMALTRND
 40
0.0
  9
$DIMAZIN
 70
     0
  9
$DIMDSEP
 70
    44
  9
$DIMATFIT
 70
     3
  9
$DIMFRAC
 70
     0
  9
$DIMLDRBLK
  1

  9
$DIMLUNIT
 70
     2
  9
$DIMLWD
 70
    -2
  9
$DIMLWE
 70
    -2
  9
$DIMTMOVE
 70
     0
  9
$DIMFXL
 40
1.0
  9
$DIMFXLON
 70
     0
  9
$DIMJOGANG
 40
0.7853981633974483
  9
$DIMTFILL
 70
     0
  9
$DIMTFILLCLR
 70
     0
  9
$DIMARCSYM
 70
     0
  9
$DIMLTYPE
  6

  9
$DIMLTEX1
  6

  9
$DIMLTEX2
  6

  9
$DIMTXTDIRECTION
 70
     0
  9
$LUNITS
 70
     2
  9
$LUPREC
 70
     4
  9
$SKETCHINC
 40
1.0
  9
$FILLETRAD
 40
10.0
  9
$AUNITS
 70
     0
  9
$AUPREC
 70
     0
  9
$MENU
  1
.
  9
$ELEVATION
 40
0.0
  9
$PELEVATION
 40
0.0
  9
$THICKNESS
 40
0.0
  9
$LIMCHECK
 70
     0
  9
$CHAMFERA
 40
0.0
  9
$CHAMFERB
 40
0.0
  9
$CHAMFERC
 40
0.0
  9
$CHAMFERD
 40
0.0
  9
$SKPOLY
 70
     0
  9
$TDCREATE
 40
2457520.504872685
  9
$TDUCREATE
 40
2457520.796539352
  9
$TDUPDATE
 40
2457520.504872685
  9
$TDUUPDATE
 40
2457520.796539352
  9
$TDINDWG
 40
0.0000000116
  9
$TDUSRTIMER
 40
0.0000000116
  9
$USRTIMER
 70
     1
  9
$ANGBASE
 50
0.0
  9
$ANGDIR
 70
     0
  9
$PDMODE
 70
     0
  9
$PDSIZE
 40
0.0
  9
$PLINEWID
 40
0.0
  9
$SPLFRAME
 70
     0
  9
$SPLINETYPE
 70
     6
  9
$SPLINESEGS
 70
     8
  9
$HANDSEED
  5
2C8
  9
$SURFTAB1
 70
     6
  9
$SURFTAB2
 70
     6
  9
$SURFTYPE
 70
     6
  9
$SURFU
 70
     6
  9
$SURFV
 70
     6
  9
$UCSBASE
  2

  9
$UCSNAME
  2

  9
$UCSORG
 10
0.0
 20
0.0
 30
0.0
  9
$UCSXDIR
 10
1.0
 20
0.0
 30
0.0
  9
$UCSYDIR
 10
0.0
 20
1.0
 30
0.0
  9
$UCSORTHOREF
  2

  9
$UCSORTHOVIEW
 70
     0
  9
$UCSORGTOP
 10
0.0
 20
0.0
 30
0.0
  9
$UCSORGBOTTOM
 10
0.0
 20
0.0
 30
0.0
  9
$UCSORGLEFT
 10
0.0
 20
0.0
 30
0.0
  9
$UCSORGRIGHT
 10
0.0
 20
0.0
 30
0.0
  9
$UCSORGFRONT
 10
0.0
 20
0.0
 30
0.0
  9
$UCSORGBACK
 10
0.0
 20
0.0
 30
0.0
  9
$PUCSBASE
  2

  9
$PUCSNAME
  2

  9
$PUCSORG
 10
0.0
 20
0.0
 30
0.0
  9
$PUCSXDIR
 10
1.0
 20
0.0
 30
0.0
  9
$PUCSYDIR
 10
0.0
 20
1.0
 30
0.0
  9
$PUCSORTHOREF
  2

  9
$PUCSORTHOVIEW
 70
     0
  9
$PUCSORGTOP
 10
0.0
 20
0.0
 30
0.0
  9
$PUCSORGBOTTOM
 10
0.0
 20
0.0
 30
0.0
  9
$PUCSORGLEFT
 10
0.0
 20
0.0
 30
0.0
  9
$PUCSORGRIGHT
 10
0.0
 20
0.0
 30
0.0
  9
$PUCSORGFRONT
 10
0.0
 20
0.0
 30
0.0
  9
$PUCSORGBACK
 10
0.0
 20
0.0
 30
0.0
  9
$USERI1
 70
     0
  9
$USERI2
 70
     0
  9
$USERI3
 70
     0
  9
$USERI4
 70
     0
  9
$USERI5
 70
     0
  9
$USERR1
 40
0.0
  9
$USERR2
 40
0.0
  9
$USERR3
 40
0.0
  9
$USERR4
 40
0.0
  9
$USERR5
 40
0.0
  9
$WORLDVIEW
 70
     1
  9
$SHADEDGE
 70
     3
  9
$SHADEDIF
 70
    70
  9
$TILEMODE
 70
     1
  9
$MAXACTVP
 70
    64
  9
$PINSBASE
 10
0.0
 20
0.0
 30
0.0
  9
$PLIMCHECK
 70
     0
  9
$PEXTMIN
 10
1.000000000000000E+20
 20
1.000000000000000E+20
 30
1.000000000000000E+20
  9
$PEXTMAX
 10
-1.000000000000000E+20
 20
-1.000000000000000E+20
 30
-1.000000000000000E+20
  9
$PLIMMIN
 10
0.0
 20
0.0
  9
$PLIMMAX
 10
420.0
 20
297.0
  9
$UNITMODE
 70
     0
  9
$VISRETAIN
 70
     1
  9
$PLINEGEN
 70
     0
  9
$PSLTSCALE
 70
     1
  9
$TREEDEPTH
 70
  3020
  9
$CMLSTYLE
  2
Standard
  9
$CMLJUST
 70
     0
  9
$CMLSCALE
 40
20.0
  9
$PROXYGRAPHICS
 70
     1
  9
$MEASUREMENT
 70
     1
  9
$CELWEIGHT
370
    -1
  9
$ENDCAPS
280
     0
  9
$JOINSTYLE
280
     0
  9
$LWDISPLAY
290
     0
  9
$INSUNITS
 70
     4
  9
$HYPERLINKBASE
  1

  9
$STYLESHEET
  1

  9
$XEDIT
290
     1
  9
$CEPSNTYPE
380
     0
  9
$PSTYLEMODE
290
     1
  9
$FINGERPRINTGUID
  2
{461f16ae-a6b1-423a-b387-7102e1311c30}
  9
$VERSIONGUID
  2
{FAEB1C32-E019-11D5-929B-00C0DF256EC4}
  9
$EXTNAMES
290
     1
  9
$PSVPSCALE
 40
0.0
  9
$OLESTARTUP
290
     0
  9
$SORTENTS
280
   127
  9
$INDEXCTL
280
     0
  9
$HIDETEXT
280
     1
  9
$XCLIPFRAME
280
     2
  9
$HALOGAP
280
     0
  9
$OBSCOLOR
 70
   257
  9
$OBSLTYPE
280
     0
  9
$INTERSECTIONDISPLAY
280
     0
  9
$INTERSECTIONCOLOR
 70
   257
  9
$DIMASSOC
280
     2
  9
$PROJECTNAME
  1

  9
$CAMERADISPLAY
290
     0
  9
$LENSLENGTH
 40
50.0
  9
$CAMERAHEIGHT
 40
0.0
  9
$STEPSPERSEC
 40
2.0
  9
$STEPSIZE
 40
6.0
  9
$3DDWFPREC
 40
2.0
  9
$PSOLWIDTH
 40
5.0
  9
$PSOLHEIGHT
 40
80.0
  9
$LOFTANG1
 40
1.570796326794897
  9
$LOFTANG2
 40
1.570796326794897
  9
$LOFTMAG1
 40
0.0
  9
$LOFTMAG2
 40
0.0
  9
$LOFTPARAM
 70
     7
  9
$LOFTNORMALS
280
     1
  9
$LATITUDE
 40
37.795
  9
$LONGITUDE
 40
-122.394
  9
$NORTHDIRECTION
 40
0.0
  9
$TIMEZONE
 70
 -8000
  9
$LIGHTGLYPHDISPLAY
280
     1
  9
$TILEMODELIGHTSYNCH
280
     1
  9
$CMATERIAL
347
44
  9
$SOLIDHIST
280
     0
  9
$SHOWHIST
280
     1
  9
$DWFFRAME
280
     2
  9
$DGNFRAME
280
     2
  9
$REALWORLDSCALE
290
     1
  9
$INTERFERECOLOR
 62
   256
  9
$CSHADOW
280
     0
  9
$SHADOWPLANELOCATION
 40
0.0
  0
ENDSEC
  0
SECTION
  2
CLASSES
  0
CLASS
  1
ACDBDICTIONARYWDFLT
  2
AcDbDictionaryWithDefault
  3
ObjectDBX Classes
 90
        0
 91
        4
280
     0
281
     0
  0
CLASS
  1
VISUALSTYLE
  2
AcDbVisualStyle
  3
ObjectDBX Classes
 90
     4095
 91
        4
280
     0
281
     0
  0
CLASS
  1
MATERIAL
  2
AcDbMaterial
  3
ObjectDBX Classes
 90
     1153
 91
        4
280
     0
281
     0
  0
CLASS
  1
SCALE
  2
AcDbScale
  3
ObjectDBX Classes
 90
     1153
 91
        4
280
     0
281
     0
  0
CLASS
  1
TABLESTYLE
  2
AcDbTableStyle
  3
ObjectDBX Classes
 90
     4095
 91
        4
280
     0
281
     0
  0
CLASS
  1
MLEADERSTYLE
  2
AcDbMLeaderStyle
  3
ACDB_MLEADERSTYLE_CLASS
 90
     4095
 91
        4
280
     0
281
     0
  0
CLASS
  1
SUN
  2
AcDbSun
  3
SCENEOE
 90
     1153
 91
        4
280
     0
281
     0
  0
CLASS
  1
DICTIONARYVAR
  2
AcDbDictionaryVar
  3
ObjectDBX Classes
 90
        0
 91
        4
280
     0
281
     0
  0
CLASS
  1
CELLSTYLEMAP
  2
AcDbCellStyleMap
  3
ObjectDBX Classes
 90
     1152
 91
        4
280
     0
281
     0
  0
ENDSEC
  0
SECTION
  2
TABLES
  0
TABLE
  2
VPORT
  5
8
330
0
100
AcDbSymbolTable
 70
     1
  0
VPORT
  5
29
330
8
100
AcDbSymbolTableRecord
100
AcDbViewportTableRecord
  2
*Active
 70
     0
 10
0.0
 20
0.0
 11
1.0
 21
1.0
 12
140.7201711537395
 22
146.0484146112763
 13
0.0
 23
0.0
 14
10.0
 24
10.0
 15
10.0
 25
10.0
 16
0.0
 26
0.0
 36
1.0
 17
0.0
 27
0.0
 37
0.0
 40
377.4653151946148
 41
1.863590772316951
 42
50.0
 43
0.0
 44
0.0
 50
0.0
 51
0.0
 71
     0
 72
   100
 73
     1
 74
     3
 75
     0
 76
     0
 77
     0
 78
     0
281
     0
 65
     1
110
0.0
120
0.0
130
0.0
111
1.0
121
0.0
131
0.0
112
0.0
122
1.0
132
0.0
 79
     0
146
0.0
348
2F
 60
     3
 61
     5
292
     1
282
     1
141
0.0
142
0.0
 63
   250
361
6D
  0
ENDTAB
  0
TABLE
  2
LTYPE
  5
5
330
0
100
AcDbSymbolTable
 70
     7
  0
LTYPE
  5
14
330
5
100
AcDbSymbolTableRecord
100
AcDbLinetypeTableRecord
  2
ByBlock
 70
     0
  3

 72
    65
 73
     0
 40
0.0
  0
LTYPE
  5
15
330
5
100
AcDbSymbolTableRecord
100
AcDbLinetypeTableRecord
  2
ByLayer
 70
     0
  3

 72
    65
 73
     0
 40
0.0
  0
LTYPE
  5
16
330
5
100
AcDbSymbolTableRecord
100
AcDbLinetypeTableRecord
  2
Continuous
 70
     0
  3
Solid line
 72
    65
 73
     0
 40
0.0
  0
LTYPE
  5
6E
330
5
100
AcDbSymbolTableRecord
100
AcDbLinetypeTableRecord
  2
DOT
 70
     0
  3
Dot . . . . . . . . . . . . . . . . . . . . . . . .
 72
    65
 73
     2
 40
2.032
 49
1.016
 74
     0
 49
-1.016
 74
     0
  0
LTYPE
  5
6F
330
5
100
AcDbSymbolTableRecord
100
AcDbLinetypeTableRecord
  2
CENTER
 70
     0
  3
Center ____ _ ____ _ ____ _ ____ _ ____ _ ____
 72
    65
 73
     4
 40
13.208
 49
8.128
 74
     0
 49
-1.524
 74
     0
 49
2.032
 74
     0
 49
-1.524
 74
     0
  0
LTYPE
  5
70
330
5
100
AcDbSymbolTableRecord
100
AcDbLinetypeTableRecord
  2
HIDDEN2
 70
     0
  3
Hidden (.5x) _ _ _ _ _ _ _ _ _ _ _ _ _ _ _ _ _
 72
    65
 73
     2
 40
4.762499999999999
 49
3.175
 74
     0
 49
-1.5875
 74
     0
  0
LTYPE
  5
71
330
5
100
AcDbSymbolTableRecord
100
AcDbLinetypeTableRecord
  2
DASHED
 70
     0
  3
Dashed __ __ __ __ __ __ __ __ __ __ __ __ __ _
 72
    65
 73
     2
 40
9.652
 49
8.128
 74
     0
 49
-1.524
 74
     0
  0
LTYPE
  5
72
330
5
100
AcDbSymbolTableRecord
100
AcDbLinetypeTableRecord
  2
PHANTOM2
 70
     0
  3
Phantom (.5x) ___ _ _ ___ _ _ ___ _ _ ___ _ _
 72
    65
 73
     6
 40
14.732
 49
8.128
 74
     0
 49
-1.524
 74
     0
 49
1.016
 74
     0
 49
-1.524
 74
     0
 49
1.016
 74
     0
 49
-1.524
 74
     0
  0
LTYPE
  5
73
330
5
100
AcDbSymbolTableRecord
100
AcDbLinetypeTableRecord
  2
DASHDOT
 70
     0
  3
Dash dot __ . __ . __ . __ . __ . __ . __ . __
 72
    65
 73
     4
 40
11.176
 49
8.128
 74
     0
 49
-1.524
 74
     0
 49
0.0
 74
     0
 49
-1.524
 74
     0
  0
ENDTAB
  0
TABLE
  2
LAYER
  5
2
330
0
100
AcDbSymbolTable
 70
     8
  0
LAYER
  5
10
330
2
100
AcDbSymbolTableRecord
100
AcDbLayerTableRecord
  2
0
 70
     0
 62
     7
  6
Continuous
370
    -3
390
F
347
46
348
0
  0
LAYER
  5
74
330
2
100
AcDbSymbolTableRecord
100
AcDbLayerTableRecord
  2
Outline
 70
     0
 62
     7
  6
Continuous
370
    -3
390
F
347
46
348
0
  0
LAYER
  5
75
330
2
100
AcDbSymbolTableRecord
100
AcDbLayerTableRecord
  2
Axis
 70
     0
 62
     5
  6
DASHDOT
370
    -3
390
F
347
46
348
0
  0
LAYER
  5
76
330
2
100
AcDbSymbolTableRecord
100
AcDbLayerTableRecord
  2
Dimension
 70
     0
 62
     7
  6
Continuous
370
    -3
390
F
347
46
348
0
  0
LAYER
  5
77
330
2
100
AcDbSymbolTableRecord
100
AcDbLayerTableRecord
  2
Hatch
 70
     0
 62
     5
  6
Continuous
370
    -3
390
F
347
46
348
0
  0
LAYER
  5
78
330
2
100
AcDbSymbolTableRecord
100
AcDbLayerTableRecord
  2
Auxiliary
 70
     0
 62
     1
  6
DOT
370
    -3
390
F
347
46
348
0
  0
LAYER
  5
79
330
2
100
AcDbSymbolTableRecord
100
AcDbLayerTableRecord
  2
Invisible
 70
     0
 62
     6
  6
DOT
370
    -3
390
F
347
46
348
0
  0
LAYER
  5
A5
330
2
100
AcDbSymbolTableRecord
100
AcDbLayerTableRecord
  2
Defpoints
 70
     0
 62
     7
  6
Continuous
290
     0
370
    -3
390
F
347
46
348
0
  0
ENDTAB
  0
TABLE
  2
STYLE
  5
3
330
0
100
AcDbSymbolTable
 70
    33
  0
STYLE
  5
11
330
3
100
AcDbSymbolTableRecord
100
AcDbTextStyleTableRecord
  2
Standard
 70
     0
 40
0.0
 41
1.0
 50
0.0
 71
     0
 42
2.5
  3
txt
  4

  0
STYLE
  5
7A
330
3
100
AcDbSymbolTableRecord
100
AcDbTextStyleTableRecord
  2
VCDSTYLE01
 70
     0
 40
0.0
 41
1.0
 50
0.0
 71
     0
 42
2.5
  3
txt
  4

  0
STYLE
  5
7B
330
3
100
AcDbSymbolTableRecord
100
AcDbTextStyleTableRecord
  2
VCDSTYLE02
 70
     0
 40
0.0
 41
1.0
 50
0.0
 71
     0
 42
2.5
  3
txt
  4

  0
STYLE
  5
7C
330
3
100
AcDbSymbolTableRecord
100
AcDbTextStyleTableRecord
  2
VCDSTYLE03
 70
     0
 40
0.0
 41
1.0
 50
0.0
 71
     0
 42
2.5
  3
txt
  4

  0
STYLE
  5
7D
330
3
100
AcDbSymbolTableRecord
100
AcDbTextStyleTableRecord
  2
VCDSTYLE04
 70
     0
 40
0.0
 41
1.0
 50
0.0
 71
     0
 42
2.5
  3
txt
  4

  0
STYLE
  5
7E
330
3
100
AcDbSymbolTableRecord
100
AcDbTextStyleTableRecord
  2
VCDSTYLE05
 70
     0
 40
0.0
 41
1.0
 50
0.0
 71
     0
 42
2.5
  3
txt
  4

  0
STYLE
  5
7F
330
3
100
AcDbSymbolTableRecord
100
AcDbTextStyleTableRecord
  2
VCDSTYLE06
 70
     0
 40
0.0
 41
1.0
 50
0.0
 71
     0
 42
2.5
  3
txt
  4

  0
STYLE
  5
80
330
3
100
AcDbSymbolTableRecord
100
AcDbTextStyleTableRecord
  2
VCDSTYLE07
 70
     0
 40
0.0
 41
1.0
 50
0.0
 71
     0
 42
2.5
  3
txt
  4

  0
STYLE
  5
81
330
3
100
AcDbSymbolTableRecord
100
AcDbTextStyleTableRecord
  2
VCDSTYLE08
 70
     0
 40
0.0
 41
1.0
 50
0.0
 71
     0
 42
2.5
  3
txt
  4

  0
STYLE
  5
82
330
3
100
AcDbSymbolTableRecord
100
AcDbTextStyleTableRecord
  2
VCDSTYLE09
 70
     0
 40
0.0
 41
1.0
 50
0.0
 71
     0
 42
2.5
  3
txt
  4

  0
STYLE
  5
83
330
3
100
AcDbSymbolTableRecord
100
AcDbTextStyleTableRecord
  2
VCDSTYLE10
 70
     0
 40
0.0
 41
1.0
 50
0.0
 71
     0
 42
2.5
  3
Sans Serif.ttf
  4

1001
ACAD
1000
Sans Serif
1071
        0
  0
STYLE
  5
84
330
3
100
AcDbSymbolTableRecord
100
AcDbTextStyleTableRecord
  2
VCDSTYLE11
 70
     0
 40
0.0
 41
1.0
 50
0.0
 71
     0
 42
2.5
  3
Sans Serif.ttf
  4

1001
ACAD
1000
Sans Serif
1071
 16777216
  0
STYLE
  5
85
330
3
100
AcDbSymbolTableRecord
100
AcDbTextStyleTableRecord
  2
VCDSTYLE12
 70
     0
 40
0.0
 41
1.0
 50
0.0
 71
     0
 42
2.5
  3
DejaVu Sans.ttf
  4

1001
ACAD
1000
DejaVu Sans
1071
        0
  0
STYLE
  5
86
330
3
100
AcDbSymbolTableRecord
100
AcDbTextStyleTableRecord
  2
VCDSTYLE13
 70
     0
 40
0.0
 41
1.0
 50
0.0
 71
     0
 42
2.5
  3
DejaVu Sans.ttf
  4

1001
ACAD
1000
DejaVu Sans
1071
 16777216
  0
STYLE
  5
87
330
3
100
AcDbSymbolTableRecord
100
AcDbTextStyleTableRecord
  2
VCDSTYLE14
 70
     0
 40
0.0
 41
1.0
 50
0.0
 71
     0
 42
2.5
  3
DejaVu Sans Mono.ttf
  4

1001
ACAD
1000
DejaVu Sans Mono
1071
        0
  0
STYLE
  5
88
330
3
100
AcDbSymbolTableRecord
100
AcDbTextStyleTableRecord
  2
VCDSTYLE15
 70
     0
 40
0.0
 41
1.0
 50
0.0
 71
     0
 42
2.5
  3
DejaVu Sans Mono.ttf
  4

1001
ACAD
1000
DejaVu Sans Mono
1071
 16777216
  0
STYLE
  5
89
330
3
100
AcDbSymbolTableRecord
100
AcDbTextStyleTableRecord
  2
VCDSTYLE16
 70
     0
 40
0.0
 41
1.0
 50
0.0
 71
     0
 42
2.5
  3
UnDotum.ttf
  4

1001
ACAD
1000
UnDotum
1071
        0
  0
STYLE
  5
8A
330
3
100
AcDbSymbolTableRecord
100
AcDbTextStyleTableRecord
  2
VCDSTYLE17
 70
     0
 40
0.0
 41
1.0
 50
0.0
 71
     0
 42
2.5
  3
UnDotum.ttf
  4

1001
ACAD
1000
UnDotum
1071
 16777216
  0
STYLE
  5
8B
330
3
100
AcDbSymbolTableRecord
100
AcDbTextStyleTableRecord
  2
VCDSTYLE18
 70
     0
 40
0.0
 41
1.0
 50
0.0
 71
     0
 42
2.5
  3
Sans Serif.ttf
  4

1001
ACAD
1000
Sans Serif
1071
        0
  0
STYLE
  5
8C
330
3
100
AcDbSymbolTableRecord
100
AcDbTextStyleTableRecord
  2
VCDSTYLE19
 70
     0
 40
0.0
 41
1.0
 50
0.0
 71
     0
 42
2.5
  3
Sans Serif.ttf
  4

1001
ACAD
1000
Sans Serif
1071
 16777216
  0
STYLE
  5
8D
330
3
100
AcDbSymbolTableRecord
100
AcDbTextStyleTableRecord
  2
VCDSTYLE20
 70
     0
 40
0.0
 41
1.0
 50
0.0
 71
     0
 42
2.5
  3
Sans Serif.ttf
  4

1001
ACAD
1000
Sans Serif
1071
        0
  0
STYLE
  5
8E
330
3
100
AcDbSymbolTableRecord
100
AcDbTextStyleTableRecord
  2
VCDSTYLE21
 70
     0
 40
0.0
 41
1.0
 50
0.0
 71
     0
 42
2.5
  3
Sans Serif.ttf
  4

1001
ACAD
1000
Sans Serif
1071
 16777216
  0
STYLE
  5
8F
330
3
100
AcDbSymbolTableRecord
100
AcDbTextStyleTableRecord
  2
VCDSTYLE22
 70
     0
 40
0.0
 41
1.0
 50
0.0
 71
     0
 42
2.5
  3
Monospace.ttf
  4

1001
ACAD
1000
Monospace
1071
        0
  0
STYLE
  5
90
330
3
100
AcDbSymbolTableRecord
100
AcDbTextStyleTableRecord
  2
VCDSTYLE23
 70
     0
 40
0.0
 41
1.0
 50
0.0
 71
     0
 42
2.5
  3
Monospace.ttf
  4

1001
ACAD
1000
Monospace
1071
 16777216
  0
STYLE
  5
91
330
3
100
AcDbSymbolTableRecord
100
AcDbTextStyleTableRecord
  2
VCDSTYLE24
 70
     0
 40
0.0
 41
1.0
 50
0.0
 71
     0
 42
2.5
  3
URW Gothic L.ttf
  4

1001
ACAD
1000
URW Gothic L
1071
        0
  0
STYLE
  5
92
330
3
100
AcDbSymbolTableRecord
100
AcDbTextStyleTableRecord
  2
VCDSTYLE25
 70
     0
 40
0.0
 41
1.0
 50
0.0
 71
     0
 42
2.5
  3
URW Gothic L.ttf
  4

1001
ACAD
1000
URW Gothic L
1071
 16777216
  0
STYLE
  5
93
330
3
100
AcDbSymbolTableRecord
100
AcDbTextStyleTableRecord
  2
VCDSTYLE26
 70
     0
 40
0.0
 41
1.0
 50
0.0
 71
     0
 42
2.5
  3
Waree.ttf
  4

1001
ACAD
1000
Waree
1071
        0
  0
STYLE
  5
94
330
3
100
AcDbSymbolTableRecord
100
AcDbTextStyleTableRecord
  2
VCDSTYLE27
 70
     0
 40
0.0
 41
1.0
 50
0.0
 71
     0
 42
2.5
  3
Waree.ttf
  4

1001
ACAD
1000
Waree
1071
 16777216
  0
STYLE
  5
95
330
3
100
AcDbSymbolTableRecord
100
AcDbTextStyleTableRecord
  2
VCDSTYLE28
 70
     0
 40
0.0
 41
1.0
 50
0.0
 71
     0
 42
2.5
  3
Nimbus Mono L.ttf
  4

1001
ACAD
1000
Nimbus Mono L
1071
        0
  0
STYLE
  5
96
330
3
100
AcDbSymbolTableRecord
100
AcDbTextStyleTableRecord
  2
VCDSTYLE29
 70
     0
 40
0.0
 41
1.0
 50
0.0
 71
     0
 42
2.5
  3
Nimbus Sans L.ttf
  4

1001
ACAD
1000
Nimbus Sans L
1071
        0
  0
STYLE
  5
97
330
3
100
AcDbSymbolTableRecord
100
AcDbTextStyleTableRecord
  2
VCDSTYLE30
 70
     0
 40
0.0
 41
1.0
 50
0.0
 71
     0
 42
2.5
  3
Nimbus Sans L.ttf
  4

1001
ACAD
1000
Nimbus Sans L
1071
 16777216
  0
STYLE
  5
98
330
3
100
AcDbSymbolTableRecord
100
AcDbTextStyleTableRecord
  2
VCDSTYLE31
 70
     0
 40
0.0
 41
1.0
 50
0.0
 71
     0
 42
2.5
  3
Serif.ttf
  4

1001
ACAD
1000
Serif
1071
        0
  0
STYLE
  5
99
330
3
100
AcDbSymbolTableRecord
100
AcDbTextStyleTableRecord
  2
VCDSTYLE32
 70
     0
 40
0.0
 41
1.0
 50
0.0
 71
     0
 42
2.5
  3
Serif.ttf
  4

1001
ACAD
1000
Serif
1071
 16777216
  0
ENDTAB
  0
TABLE
  2
VIEW
  5
6
330
0
100
AcDbSymbolTable
 70
     0
  0
ENDTAB
  0
TABLE
  2
UCS
  5
7
330
0
100
AcDbSymbolTable
 70
     0
  0
ENDTAB
  0
TABLE
  2
APPID
  5
9
330
0
100
AcDbSymbolTable
 70
     2
  0
APPID
  5
12
330
9
100
AcDbSymbolTableRecord
100
AcDbRegAppTableRecord
  2
ACAD
 70
     0
  0
APPID
  5
B0
330
9
100
AcDbSymbolTableRecord
100
AcDbRegAppTableRecord
  2
ACAD_DSTYLE_DIMRADIAL_EXTENSION
 70
     0
  0
ENDTAB
  0
TABLE
  2
DIMSTYLE
  5
A
330
0
100
AcDbSymbolTable
 70
     2
100
AcDbDimStyleTable
  0
DIMSTYLE
105
27
330
A
100
AcDbSymbolTableRecord
100
AcDbDimStyleTableRecord
  2
ISO-25
 70
     0
 41
2.5
 42
0.625
 43
3.75
 44
1.25
 73
     0
 74
     0
 77
     1
 78
     8
140
2.5
141
2.5
143
0.03937007874016
147
0.625
171
     3
172
     1
178
     0
271
     2
272
     2
274
     3
278
    44
283
     0
284
     8
340
11
  0
DIMSTYLE
105
A3
102
{ACAD_REACTORS
330
A4
330
B1
330
BF
330
CC
330
D9
102
}
330
A
100
AcDbSymbolTableRecord
100
AcDbDimStyleTableRecord
  2
VCDDIMSTYLE01
 70
     0
 41
5.0
 42
0.0
 43
8.0
 44
1.0
 73
     0
 74
     0
 77
     1
 78
     8
 79
     2
140
4.0
147
1.0
172
     1
173
     1
178
     0
179
     3
271
     5
275
     1
288
     1
289
     0
340
7B
  0
ENDTAB
  0
TABLE
  2
BLOCK_RECORD
  5
1
330
0
100
AcDbSymbolTable
 70
    12
  0
BLOCK_RECORD
  5
1F
330
1
100
AcDbSymbolTableRecord
100
AcDbBlockTableRecord
  2
*Model_Space
340
22
 70
     0
280
     1
281
     0
  0
BLOCK_RECORD
  5
1B
330
1
100
AcDbSymbolTableRecord
100
AcDbBlockTableRecord
  2
*Paper_Space
340
1E
 70
     0
280
     1
281
     0
  0
BLOCK_RECORD
  5
23
330
1
100
AcDbSymbolTableRecord
100
AcDbBlockTableRecord
  2
*Paper_Space0
340
26
 70
     0
280
     1
281
     0
  0
BLOCK_RECORD
  5
9A
330
1
100
AcDbSymbolTableRecord
100
AcDbBlockTableRecord
  2
*D1
340
0
 70
     0
280
     1
281
     0
  0
BLOCK_RECORD
  5
AC
330
1
100
AcDbSymbolTableRecord
100
AcDbBlockTableRecord
  2
*D2
340
0
 70
     0
280
     1
281
     0
  0
BLOCK_RECORD
  5
B8
330
1
100
AcDbSymbolTableRecord
100
AcDbBlockTableRecord
  2
*D3
340
0
 70
     0
280
     1
281
     0
  0
BLOCK_RECORD
  5
C5
330
1
100
AcDbSymbolTableRecord
100
AcDbBlockTableRecord
  2
*D4
340
0
 70
     0
280
     1
281
     0
  0
BLOCK_RECORD
  5
D2
330
1
100
AcDbSymbolTableRecord
100
AcDbBlockTableRecord
  2
*D5
340
0
 70
     0
280
     1
281
     0
  0
BLOCK_RECORD
  5
DF
330
1
100
AcDbSymbolTableRecord
100
AcDbBlockTableRecord
  2
$AttrValue elphel_parts
340
0
102
{BLKREFS
331
E1
102
}
 70
     0
280
     1
281
     0
  0
BLOCK_RECORD
  5
E4
330
1
100
AcDbSymbolTableRecord
100
AcDbBlockTableRecord
  2
$AttrValue elphel_parts(1)
340
0
102
{BLKREFS
331
E6
102
}
 70
     0
280
     1
281
     0
  0
BLOCK_RECORD
  5
E9
330
1
100
AcDbSymbolTableRecord
100
AcDbBlockTableRecord
  2
$AttrValue elphel_parts(2)
340
0
102
{BLKREFS
331
EB
102
}
 70
     0
280
     1
281
     0
  0
BLOCK_RECORD
  5
EE
330
1
100
AcDbSymbolTableRecord
100
AcDbBlockTableRecord
  2
$AttrValue elphel_parts(3)
340
0
102
{BLKREFS
331
F0
102
}
 70
     0
280
     1
281
     0
  0
BLOCK_RECORD
  5
F3
330
1
100
AcDbSymbolTableRecord
100
AcDbBlockTableRecord
  2
$TitleBlock elphel_parts
340
0
102
{BLKREFS
331
121
102
}
 70
     0
280
     1
281
     0
  0
BLOCK_RECORD
  5
2B9
330
1
100
AcDbSymbolTableRecord
100
AcDbBlockTableRecord
  2
Sheet Border
340
0
102
{BLKREFS
331
2BC
102
}
 70
     0
280
     1
281
     0
  0
ENDTAB
  0
ENDSEC
  0
SECTION
  2
BLOCKS
  0
BLOCK
  5
20
330
1F
100
AcDbEntity
  8
0
100
AcDbBlockBegin
  2
*Model_Space
 70
     0
 10
0.0
 20
0.0
 30
0.0
  3
*Model_Space
  1

  0
ENDBLK
  5
21
330
1F
100
AcDbEntity
  8
0
100
AcDbBlockEnd
  0
BLOCK
  5
1C
330
1B
100
AcDbEntity
 67
     1
  8
0
100
AcDbBlockBegin
  2
*Paper_Space
 70
     0
 10
0.0
 20
0.0
 30
0.0
  3
*Paper_Space
  1

  0
ENDBLK
  5
1D
330
1B
100
AcDbEntity
 67
     1
  8
0
100
AcDbBlockEnd
  0
BLOCK
  5
24
330
23
100
AcDbEntity
  8
0
100
AcDbBlockBegin
  2
*Paper_Space0
 70
     0
 10
0.0
 20
0.0
 30
0.0
  3
*Paper_Space0
  1

  0
ENDBLK
  5
25
330
23
100
AcDbEntity
  8
0
100
AcDbBlockEnd
  0
BLOCK
  5
AA
330
9A
100
AcDbEntity
  8
0
100
AcDbBlockBegin
  2
*D1
 70
     1
 10
0.0
 20
0.0
 30
0.0
  3
*D1
  1

  0
LINE
  5
9B
330
9A
100
AcDbEntity
  8
Dimension
 62
     0
370
    -2
100
AcDbLine
 10
110.9493418310591
 20
232.7969402642909
 30
0.0
 11
126.4884487369622
 21
232.7969402642909
 31
0.0
  0
LINE
  5
9C
330
9A
100
AcDbEntity
  8
Dimension
 62
     0
370
    -2
100
AcDbLine
 10
110.949341832128
 20
207.2164789705612
 30
0.0
 11
126.4884487369622
 21
207.2164789705612
 31
0.0
  0
LINE
  5
9D
330
9A
100
AcDbEntity
  8
Dimension
 62
     0
370
    -2
100
AcDbLine
 10
125.4884487369622
 20
207.2164789705612
 30
0.0
 11
125.4884487369622
 21
175.3931826670467
 31
0.0
  0
LINE
  5
9E
330
9A
100
AcDbEntity
  8
Dimension
 62
     0
370
    -2
100
AcDbLine
 10
125.4884487369622
 20
232.7969402642909
 30
0.0
 11
125.4884487369622
 21
207.2164789705612
 31
0.0
  0
LINE
  5
9F
330
9A
100
AcDbEntity
  8
Dimension
 62
     0
370
    -2
100
AcDbLine
 10
125.4884487369622
 20
237.7969402642909
 30
0.0
 11
125.4884487369622
 21
242.7969402642909
 31
0.0
  0
LINE
  5
A0
330
9A
100
AcDbEntity
  8
Dimension
 62
     0
370
    -2
100
AcDbLine
 10
125.4884487369622
 20
202.2164789705612
 30
0.0
 11
125.4884487369622
 21
197.2164789705612
 31
0.0
  0
SOLID
  5
A1
330
9A
100
AcDbEntity
  8
Dimension
 62
     0
100
AcDbTrace
 10
124.6551154036288
 20
237.7969402642909
 30
0.0
 11
126.3217820702955
 21
237.7969402642909
 31
0.0
 12
125.4884487369622
 22
232.7969402642909
 32
0.0
 13
125.4884487369622
 23
232.7969402642909
 33
0.0
  0
SOLID
  5
A2
330
9A
100
AcDbEntity
  8
Dimension
 62
     0
100
AcDbTrace
 10
126.3217820702955
 20
202.2164789705612
 30
0.0
 11
124.6551154036288
 21
202.2164789705612
 31
0.0
 12
125.4884487369622
 22
207.2164789705612
 32
0.0
 13
125.4884487369622
 23
207.2164789705612
 33
0.0
  0
MTEXT
  5
A6
330
9A
100
AcDbEntity
  8
Dimension
 62
     0
100
AcDbMText
 10
122.3806724750249
 20
186.304830818804
 30
0.0
 40
4.0
 41
0.0
 46
0.0
 71
     5
 72
     1
  1
\A1;ø 25.6
  7
VCDSTYLE02
 11
0.0
 21
1.0
 31
0.0
 73
     1
 44
1.0
  0
POINT
  5
A7
330
9A
100
AcDbEntity
  8
Defpoints
 62
     0
100
AcDbPoint
 10
110.9493418310591
 20
232.7969402642909
 30
0.0
  0
POINT
  5
A8
330
9A
100
AcDbEntity
  8
Defpoints
 62
     0
100
AcDbPoint
 10
110.949341832128
 20
207.2164789705612
 30
0.0
  0
POINT
  5
A9
330
9A
100
AcDbEntity
  8
Defpoints
 62
     0
100
AcDbPoint
 10
125.4884487369622
 20
207.2164789705612
 30
0.0
  0
ENDBLK
  5
AB
330
9A
100
AcDbEntity
  8
0
100
AcDbBlockEnd
  0
BLOCK
  5
B6
330
AC
100
AcDbEntity
  8
0
100
AcDbBlockBegin
  2
*D2
 70
     1
 10
0.0
 20
0.0
 30
0.0
  3
*D2
  1

  0
LINE
  5
AD
330
AC
100
AcDbEntity
  8
Dimension
 62
     0
370
    -2
100
AcDbLine
 10
148.1395763443835
 20
107.4132908554294
 30
0.0
 11
120.3937112329115
 21
107.4083223138871
 31
0.0
  0
MTEXT
  5
AE
330
AC
100
AcDbEntity
  8
Dimension
 62
     0
100
AcDbMText
 10
131.3931738368758
 20
110.4102920712282
 30
0.0
 40
4.0
 41
0.0
 46
0.0
 71
     5
 72
     1
  1
\A1;R 12.8
  7
VCDSTYLE02
 11
0.9999999839663904
 21
0.0001790732219997259
 31
0.0
 73
     1
 44
1.0
  0
LINE
  5
AF
330
AC
100
AcDbEntity
  8
Dimension
 62
     0
370
    -2
100
AcDbLine
 10
165.9395760589853
 20
107.416478358781
 30
0.0
 11
153.1395762642155
 21
107.4141862215394
 31
0.0
  0
SOLID
  5
B2
330
AC
100
AcDbEntity
  8
Dimension
 62
     0
100
AcDbTrace
 10
148.1397255720685
 20
106.5799575354574
 30
0.0
 11
148.1394271166985
 21
108.2466241754014
 31
0.0
 12
153.1395762642155
 22
107.4141862215394
 32
0.0
 13
153.1395762642155
 23
107.4141862215394
 33
0.0
  0
ARC
  5
B3
330
AC
100
AcDbEntity
  8
Dimension
 62
     0
370
    -2
100
AcDbCircle
 10
165.9395760589853
 20
107.416478358781
 30
0.0
 40
12.80000000000001
100
AcDbArc
 50
175.5328882182142
 51
239.4817498205458
  0
POINT
  5
B4
330
AC
100
AcDbEntity
  8
Defpoints
 62
     0
100
AcDbPoint
 10
153.1395762642155
 20
107.4141862215394
 30
0.0
  0
POINT
  5
B5
330
AC
100
AcDbEntity
  8
Defpoints
 62
     0
100
AcDbPoint
 10
165.9395760589853
 20
107.416478358781
 30
0.0
  0
ENDBLK
  5
B7
330
AC
100
AcDbEntity
  8
0
100
AcDbBlockEnd
  0
BLOCK
  5
C3
330
B8
100
AcDbEntity
  8
0
100
AcDbBlockBegin
  2
*D3
 70
     1
 10
0.0
 20
0.0
 30
0.0
  3
*D3
  1

  0
LINE
  5
B9
330
B8
100
AcDbEntity
  8
Dimension
 62
     0
370
    -2
100
AcDbLine
 10
144.4395723692807
 20
226.5067093656028
 30
0.0
 11
144.4395723692807
 21
248.3689450256096
 31
0.0
  0
LINE
  5
BA
330
B8
100
AcDbEntity
  8
Dimension
 62
     0
370
    -2
100
AcDbLine
 10
165.4395723692807
 20
241.506709704431
 30
0.0
 11
165.4395723692807
 21
248.3689450256096
 31
0.0
  0
LINE
  5
BB
330
B8
100
AcDbEntity
  8
Dimension
 62
     0
370
    -2
100
AcDbLine
 10
149.4395723692807
 20
247.3689450256096
 30
0.0
 11
160.4395723692807
 21
247.3689450256096
 31
0.0
  0
SOLID
  5
BC
330
B8
100
AcDbEntity
  8
Dimension
 62
     0
100
AcDbTrace
 10
149.4395723692807
 20
248.2022783589429
 30
0.0
 11
149.4395723692807
 21
246.5356116922762
 31
0.0
 12
144.4395723692807
 22
247.3689450256096
 32
0.0
 13
144.4395723692807
 23
247.3689450256096
 33
0.0
  0
SOLID
  5
BD
330
B8
100
AcDbEntity
  8
Dimension
 62
     0
100
AcDbTrace
 10
160.4395723692807
 20
246.5356116922762
 30
0.0
 11
160.4395723692807
 21
248.2022783589429
 31
0.0
 12
165.4395723692807
 22
247.3689450256096
 32
0.0
 13
165.4395723692807
 23
247.3689450256096
 33
0.0
  0
MTEXT
  5
BE
330
B8
100
AcDbEntity
  8
Dimension
 62
     0
100
AcDbMText
 10
155.1233081938888
 20
250.3689450256096
 30
0.0
 40
4.0
 41
0.0
 46
0.0
 71
     5
 72
     1
  1
\A1;21
  7
VCDSTYLE02
 73
     1
 44
1.0
  0
POINT
  5
C0
330
B8
100
AcDbEntity
  8
Defpoints
 62
     0
100
AcDbPoint
 10
144.4395723692807
 20
226.5067093656028
 30
0.0
  0
POINT
  5
C1
330
B8
100
AcDbEntity
  8
Defpoints
 62
     0
100
AcDbPoint
 10
165.4395723692807
 20
241.506709704431
 30
0.0
  0
POINT
  5
C2
330
B8
100
AcDbEntity
  8
Defpoints
 62
     0
100
AcDbPoint
 10
165.4395723692807
 20
247.3689450256096
 30
0.0
  0
ENDBLK
  5
C4
330
B8
100
AcDbEntity
  8
0
100
AcDbBlockEnd
  0
BLOCK
  5
D0
330
C5
100
AcDbEntity
  8
0
100
AcDbBlockBegin
  2
*D4
 70
     1
 10
0.0
 20
0.0
 30
0.0
  3
*D4
  1

  0
LINE
  5
C6
330
C5
100
AcDbEntity
  8
Dimension
 62
     0
370
    -2
100
AcDbLine
 10
38.64934193524967
 20
241.5067090181431
 30
0.0
 11
28.69886335262377
 21
241.5067090181431
 31
0.0
  0
LINE
  5
C7
330
C5
100
AcDbEntity
  8
Dimension
 62
     0
370
    -2
100
AcDbLine
 10
38.64934183212807
 20
198.5067091212647
 30
0.0
 11
28.69886335262376
 21
198.5067091212647
 31
0.0
  0
LINE
  5
C8
330
C5
100
AcDbEntity
  8
Dimension
 62
     0
370
    -2
100
AcDbLine
 10
29.69886335262377
 20
236.5067090181431
 30
0.0
 11
29.69886335262376
 21
203.5067091212647
 31
0.0
  0
SOLID
  5
C9
330
C5
100
AcDbEntity
  8
Dimension
 62
     0
100
AcDbTrace
 10
30.5321966859571
 20
236.5067090181431
 30
0.0
 11
28.86553001929044
 21
236.5067090181431
 31
0.0
 12
29.69886335262377
 22
241.5067090181431
 32
0.0
 13
29.69886335262377
 23
241.5067090181431
 33
0.0
  0
SOLID
  5
CA
330
C5
100
AcDbEntity
  8
Dimension
 62
     0
100
AcDbTrace
 10
28.86553001929043
 20
203.5067091212647
 30
0.0
 11
30.5321966859571
 21
203.5067091212647
 31
0.0
 12
29.69886335262376
 22
198.5067091212647
 32
0.0
 13
29.69886335262376
 23
198.5067091212647
 33
0.0
  0
MTEXT
  5
CB
330
C5
100
AcDbEntity
  8
Dimension
 62
     0
100
AcDbMText
 10
26.69886335262377
 20
220.2780665271365
 30
0.0
 40
4.0
 41
0.0
 46
0.0
 71
     5
 72
     1
  1
\A1;43
  7
VCDSTYLE02
 11
8.262124854233812E-17
 21
1.0
 31
0.0
 73
     1
 44
1.0
  0
POINT
  5
CD
330
C5
100
AcDbEntity
  8
Defpoints
 62
     0
100
AcDbPoint
 10
38.64934193524967
 20
241.5067090181431
 30
0.0
  0
POINT
  5
CE
330
C5
100
AcDbEntity
  8
Defpoints
 62
     0
100
AcDbPoint
 10
38.64934183212807
 20
198.5067091212647
 30
0.0
  0
POINT
  5
CF
330
C5
100
AcDbEntity
  8
Defpoints
 62
     0
100
AcDbPoint
 10
29.69886335262376
 20
198.5067091212647
 30
0.0
  0
ENDBLK
  5
D1
330
C5
100
AcDbEntity
  8
0
100
AcDbBlockEnd
  0
BLOCK
  5
DD
330
D2
100
AcDbEntity
  8
0
100
AcDbBlockBegin
  2
*D5
 70
     1
 10
0.0
 20
0.0
 30
0.0
  3
*D5
  1

  0
LINE
  5
D3
330
D2
100
AcDbEntity
  8
Dimension
 62
     0
370
    -2
100
AcDbLine
 10
35.14934183212804
 20
202.0067091212647
 30
0.0
 11
35.14934183212804
 21
186.6076902225456
 31
0.0
  0
LINE
  5
D4
330
D2
100
AcDbEntity
  8
Dimension
 62
     0
370
    -2
100
AcDbLine
 10
110.949341832128
 20
205.0067091212648
 30
0.0
 11
110.949341832128
 21
186.6076902225456
 31
0.0
  0
LINE
  5
D5
330
D2
100
AcDbEntity
  8
Dimension
 62
     0
370
    -2
100
AcDbLine
 10
40.14934183212804
 20
187.6076902225456
 30
0.0
 11
105.949341832128
 21
187.6076902225456
 31
0.0
  0
SOLID
  5
D6
330
D2
100
AcDbEntity
  8
Dimension
 62
     0
100
AcDbTrace
 10
40.14934183212804
 20
188.4410235558789
 30
0.0
 11
40.14934183212804
 21
186.7743568892122
 31
0.0
 12
35.14934183212804
 22
187.6076902225456
 32
0.0
 13
35.14934183212804
 23
187.6076902225456
 33
0.0
  0
SOLID
  5
D7
330
D2
100
AcDbEntity
  8
Dimension
 62
     0
100
AcDbTrace
 10
105.949341832128
 20
186.7743568892122
 30
0.0
 11
105.949341832128
 21
188.4410235558789
 31
0.0
 12
110.949341832128
 22
187.6076902225456
 32
0.0
 13
110.949341832128
 23
187.6076902225456
 33
0.0
  0
MTEXT
  5
D8
330
D2
100
AcDbEntity
  8
Dimension
 62
     0
100
AcDbMText
 10
72.59835557133445
 20
190.6076902225456
 30
0.0
 40
4.0
 41
0.0
 46
0.0
 71
     5
 72
     1
  1
\A1;75.8
  7
VCDSTYLE02
 73
     1
 44
1.0
  0
POINT
  5
DA
330
D2
100
AcDbEntity
  8
Defpoints
 62
     0
100
AcDbPoint
 10
35.14934183212804
 20
202.0067091212647
 30
0.0
  0
POINT
  5
DB
330
D2
100
AcDbEntity
  8
Defpoints
 62
     0
100
AcDbPoint
 10
110.949341832128
 20
205.0067091212648
 30
0.0
  0
POINT
  5
DC
330
D2
100
AcDbEntity
  8
Defpoints
 62
     0
100
AcDbPoint
 10
110.949341832128
 20
187.6076902225456
 30
0.0
  0
ENDBLK
  5
DE
330
D2
100
AcDbEntity
  8
0
100
AcDbBlockEnd
  0
BLOCK
  5
E2
330
DF
100
AcDbEntity
  8
0
100
AcDbBlockBegin
  2
$AttrValue elphel_parts
 70
     0
 10
0.0
 20
0.0
 30
0.0
  3
$AttrValue elphel_parts
  1

  0
TEXT
  5
E0
330
DF
100
AcDbEntity
  8
0
 62
     2
100
AcDbText
 10
0.0
 20
0.0
 30
0.0
 40
2.0
  1
PLA
  7
VCDSTYLE04
100
AcDbText
  0
ENDBLK
  5
E3
330
DF
100
AcDbEntity
  8
0
100
AcDbBlockEnd
  0
BLOCK
  5
E7
330
E4
100
AcDbEntity
  8
0
100
AcDbBlockBegin
  2
$AttrValue elphel_parts(1)
 70
     0
 10
0.0
 20
0.0
 30
0.0
  3
$AttrValue elphel_parts(1)
  1

  0
TEXT
  5
E5
330
E4
100
AcDbEntity
  8
0
100
AcDbText
 10
0.0
 20
0.0
 30
0.0
 40
1.5
  1
2016
  7
VCDSTYLE10
100
AcDbText
  0
ENDBLK
  5
E8
330
E4
100
AcDbEntity
  8
0
100
AcDbBlockEnd
  0
BLOCK
  5
EC
330
E9
100
AcDbEntity
  8
0
100
AcDbBlockBegin
  2
$AttrValue elphel_parts(2)
 70
     0
 10
0.0
 20
0.0
 30
0.0
  3
$AttrValue elphel_parts(2)
  1

  0
TEXT
  5
EA
330
E9
100
AcDbEntity
  8
0
 62
     2
100
AcDbText
 10
0.0
 20
0.0
 30
0.0
 40
3.0
  1
Support frame adapter
  7
VCDSTYLE04
100
AcDbText
  0
ENDBLK
  5
ED
330
E9
100
AcDbEntity
  8
0
100
AcDbBlockEnd
  0
BLOCK
  5
F1
330
EE
100
AcDbEntity
  8
0
100
AcDbBlockBegin
  2
$AttrValue elphel_parts(3)
 70
     0
 10
0.0
 20
0.0
 30
0.0
  3
$AttrValue elphel_parts(3)
  1

  0
TEXT
  5
EF
330
EE
100
AcDbEntity
  8
0
 62
     2
100
AcDbText
 10
0.0
 20
0.0
 30
0.0
 40
6.0
  1
0393-27-03c
  7
VCDSTYLE22
100
AcDbText
  0
ENDBLK
  5
F2
330
EE
100
AcDbEntity
  8
0
100
AcDbBlockEnd
  0
BLOCK
  5
122
330
F3
100
AcDbEntity
  8
0
100
AcDbBlockBegin
  2
$TitleBlock elphel_parts
 70
     0
 10
0.0
 20
0.0
 30
0.0
  3
$TitleBlock elphel_parts
  1

  0
TEXT
  5
F4
330
F3
100
AcDbEntity
  8
Outline
 62
     2
100
AcDbText
 10
-168.3495635986328
 20
16.18584442138672
 30
0.0
 40
1.841060042381287
  1
Surface
  7
VCDSTYLE02
100
AcDbText
  0
LWPOLYLINE
  5
F5
330
F3
100
AcDbEntity
  8
Outline
 62
     2
100
AcDbPolyline
 90
        5
 70
     0
 43
0.0
 10
-0.4602650136366151
 20
0.4602650136366293
 10
-82.38743744095697
 20
0.4602650136366293
 10
-82.38743744095697
 20
15.18874545000888
 10
-0.4602650136366151
 20
15.18874545000888
 10
-0.4602650136366151
 20
0.0
  0
LINE
  5
F6
330
F3
100
AcDbEntity
  8
Outline
 62
     2
100
AcDbLine
 10
0.0000000000000568
 20
15.64901046364552
 30
0.0
 11
0.0000000000000568
 21
0.0
 31
0.0
  0
LINE
  5
F7
330
F3
100
AcDbEntity
  8
Outline
 62
     2
100
AcDbLine
 10
-97.57618289096607
 20
15.64901046364552
 30
0.0
 11
-97.57618289096607
 21
19.56126307955689
 31
0.0
  0
LINE
  5
F8
330
F3
100
AcDbEntity
  8
Outline
 62
     2
100
AcDbLine
 10
-170.298055045554
 20
15.64901046364552
 30
0.0
 11
-82.84770245459381
 21
15.64901046364552
 31
0.0
  0
LINE
  5
F9
330
F3
100
AcDbEntity
  8
Outline
 62
     2
100
AcDbLine
 10
-170.298055045554
 20
0.0
 30
0.0
 11
-82.84770245459381
 21
0.0
 31
0.0
  0
LINE
  5
FA
330
F3
100
AcDbEntity
  8
Outline
 62
     2
100
AcDbLine
 10
-82.84770245459381
 20
0.0
 30
0.0
 11
-82.84770245459381
 21
15.64901046364552
 31
0.0
  0
LINE
  5
FB
330
F3
100
AcDbEntity
  8
Outline
 62
     2
100
AcDbLine
 10
-170.298055045554
 20
19.56126307955689
 30
0.0
 11
0.0000000000000568
 21
19.56126307955689
 31
0.0
  0
LINE
  5
FC
330
F3
100
AcDbEntity
  8
Outline
 62
     2
100
AcDbLine
 10
0.0000000000000568
 20
0.0
 30
0.0
 11
-82.84770245459381
 21
0.0
 31
0.0
  0
LINE
  5
FD
330
F3
100
AcDbEntity
  8
Outline
 62
     2
100
AcDbLine
 10
-82.84770245459381
 20
15.64901046364552
 30
0.0
 11
0.0000000000000568
 21
15.64901046364552
 31
0.0
  0
TEXT
  5
FE
330
F3
100
AcDbEntity
  8
Outline
 62
     2
100
AcDbText
 10
-81.25203704833984
 20
44.91454315185547
 30
0.0
 40
0.9205300211906433
  1
Description
  7
VCDSTYLE02
100
AcDbText
  0
LINE
  5
FF
330
F3
100
AcDbEntity
  8
Outline
 62
     2
100
AcDbLine
 10
-170.298055045554
 20
27.38576831137964
 30
0.0
 11
0.0000000000000568
 21
27.38576831137964
 31
0.0
  0
LINE
  5
100
330
F3
100
AcDbEntity
  8
Outline
 62
     2
100
AcDbLine
 10
0.0000000000000568
 20
46.94703139093654
 30
0.0
 11
-170.298055045554
 21
46.94703139093654
 31
0.0
  0
LINE
  5
101
330
F3
100
AcDbEntity
  8
Outline
 62
     2
100
AcDbLine
 10
-170.298055045554
 20
27.38576831137964
 30
0.0
 11
-82.84770245459381
 21
27.38576831137964
 31
0.0
  0
LINE
  5
102
330
F3
100
AcDbEntity
  8
Outline
 62
     2
100
AcDbLine
 10
-170.298055045554
 20
31.29802092729101
 30
0.0
 11
-170.298055045554
 21
46.94703139093654
 31
0.0
  0
LINE
  5
103
330
F3
100
AcDbEntity
  8
Outline
 62
     2
100
AcDbLine
 10
-82.84770245459381
 20
46.94703139093654
 30
0.0
 11
-82.84770245459381
 21
31.29802092729101
 31
0.0
  0
LINE
  5
104
330
F3
100
AcDbEntity
  8
Outline
 62
     2
100
AcDbLine
 10
0.0000000000000568
 20
31.29802092729101
 30
0.0
 11
0.0000000000000568
 21
46.94703139093654
 31
0.0
  0
LINE
  5
105
330
F3
100
AcDbEntity
  8
Outline
 62
     2
100
AcDbLine
 10
-157.0483207857146
 20
46.94703139093654
 30
0.0
 11
-157.0483207857146
 21
31.29802092729101
 31
0.0
  0
TEXT
  5
106
330
F3
100
AcDbEntity
  8
Outline
 62
     2
100
AcDbText
 10
-168.3495635986328
 20
28.04717826843262
 30
0.0
 40
1.841060042381287
  1
Material
  7
VCDSTYLE02
100
AcDbText
  0
LINE
  5
107
330
F3
100
AcDbEntity
  8
Outline
 62
     2
100
AcDbLine
 10
-170.298055045554
 20
0.0
 30
0.0
 11
-170.298055045554
 21
31.29802092729101
 31
0.0
  0
LINE
  5
108
330
F3
100
AcDbEntity
  8
Outline
 62
     2
100
AcDbLine
 10
-150.9056121242796
 20
15.64901046364552
 30
0.0
 11
-150.9056121242796
 21
31.29802092729101
 31
0.0
  0
LINE
  5
109
330
F3
100
AcDbEntity
  8
Outline
 62
     2
100
AcDbLine
 10
-82.84770245459381
 20
31.29802092729101
 30
0.0
 11
-82.84770245459381
 21
15.64901046364552
 31
0.0
  0
LINE
  5
10A
330
F3
100
AcDbEntity
  8
Outline
100
AcDbLine
 10
-170.298055045554
 20
23.47351569546827
 30
0.0
 11
-82.84770245459381
 21
23.47351569546827
 31
0.0
  0
LINE
  5
10B
330
F3
100
AcDbEntity
  8
Outline
 62
     2
100
AcDbLine
 10
-170.298055045554
 20
23.47351569546827
 30
0.0
 11
0.0000000000000568
 21
23.47351569546827
 31
0.0
  0
TEXT
  5
10C
330
F3
100
AcDbEntity
  8
Outline
 62
     2
100
AcDbText
 10
-168.3495635986328
 20
24.13492584228516
 30
0.0
 40
1.841060042381287
  1
Finish
  7
VCDSTYLE02
100
AcDbText
  0
LINE
  5
10D
330
F3
100
AcDbEntity
  8
Outline
 62
     2
100
AcDbLine
 10
0.0000000000000568
 20
15.64901046364552
 30
0.0
 11
0.0000000000000568
 21
31.29802092729101
 31
0.0
  0
TEXT
  5
10E
330
F3
100
AcDbEntity
  8
Outline
 62
     2
100
AcDbText
 10
-81.25203704833984
 20
12.55433559417725
 30
0.0
 40
0.9205300211906433
  1
Notes
  7
VCDSTYLE02
100
AcDbText
  0
LINE
  5
10F
330
F3
100
AcDbEntity
  8
Outline
 62
     2
100
AcDbLine
 10
-170.298055045554
 20
31.29802092729101
 30
0.0
 11
-82.84770245459381
 21
31.29802092729101
 31
0.0
  0
TEXT
  5
110
330
F3
100
AcDbEntity
  8
Outline
 62
     2
100
AcDbText
 10
-168.3495635986328
 20
20.20714569091797
 30
0.0
 40
1.841060042381287
  1
Weight(g)
  7
VCDSTYLE02
100
AcDbText
  0
TEXT
  5
111
330
F3
100
AcDbEntity
  8
Outline
100
AcDbText
 10
-167.9451904296875
 20
7.327913284301758
 30
0.0
 40
1.200000047683716
  1
Permission is also granted to copy, distribute and/or modify this document under the terms of the
 50
360.0
  7
VCDSTYLE10
100
AcDbText
  0
TEXT
  5
112
330
F3
100
AcDbEntity
  8
Outline
100
AcDbText
 10
-167.9451904296875
 20
5.407913684844971
 30
0.0
 40
1.200000047683716
  1
GNU Free Documentation License, Version 1.3 or any later version published by the Free Software
 50
360.0
  7
VCDSTYLE10
100
AcDbText
  0
TEXT
  5
113
330
F3
100
AcDbEntity
  8
Outline
100
AcDbText
 10
-167.9451904296875
 20
3.487913608551025
 30
0.0
 40
1.200000047683716
  1
Foundation; with no Invariant Sections, no Front-Cover Texts, and no Back-Cover Texts.  A copy of
 50
360.0
  7
VCDSTYLE10
100
AcDbText
  0
TEXT
  5
114
330
F3
100
AcDbEntity
  8
Outline
100
AcDbText
 10
-167.9451904296875
 20
1.56791353225708
 30
0.0
 40
1.200000047683716
  1
the license is included in the section entitled "GNU Free Documentation License".
 50
360.0
  7
VCDSTYLE10
100
AcDbText
  0
TEXT
  5
115
330
F3
100
AcDbEntity
  8
Outline
 62
     2
100
AcDbText
 10
-156.5416564941406
 20
45.10939788818359
 30
0.0
 40
0.9205300211906433
  1
Part #
  7
VCDSTYLE02
100
AcDbText
  0
TEXT
  5
116
330
F3
100
AcDbEntity
  8
Outline
 62
     2
100
AcDbText
 10
-169.0979461669922
 20
45.19255065917969
 30
0.0
 40
0.9205300211906433
  1
Revision
  7
VCDSTYLE02
100
AcDbText
  0
TEXT
  5
117
330
F3
100
AcDbEntity
  8
Outline
100
AcDbText
 10
-168.0283508300781
 20
12.77079391479492
 30
0.0
 40
1.5
  1
Copyright (c)                 Elphel, Inc.
 50
360.0
  7
VCDSTYLE10
100
AcDbText
  0
TEXT
  5
118
330
F3
100
AcDbEntity
  8
Outline
100
AcDbText
 10
-168.0283508300781
 20
10.37079429626465
 30
0.0
 40
1.5
  1
Licensed under CERN OHL v.1.1 or later - see http://ohwr.org/cernohl
 50
360.0
  7
VCDSTYLE10
100
AcDbText
  0
TEXT
  5
119
330
F3
100
AcDbEntity
  8
Outline
100
AcDbText
 10
-168.0283508300781
 20
7.970794200897217
 30
0.0
 40
1.5
  1
 
 50
360.0
  7
VCDSTYLE10
100
AcDbText
  0
LINE
  5
11A
330
F3
100
AcDbEntity
  8
Outline
 62
     2
100
AcDbLine
 10
-59.83011277766059
 20
27.38576831137964
 30
0.0
 11
-59.83011277766059
 21
15.64901046364552
 31
0.0
  0
TEXT
  5
11B
330
F3
100
AcDbEntity
  8
Outline
 62
     2
100
AcDbText
 10
-82.25203704833984
 20
24.13492584228516
 30
0.0
 40
1.841060042381287
  1
Serial No.
  7
VCDSTYLE02
100
AcDbText
  0
TEXT
  5
11C
330
F3
100
AcDbEntity
  8
Outline
 62
     2
100
AcDbText
 10
-82.25203704833984
 20
16.18584442138672
 30
0.0
 40
1.841060042381287
  1
Date
  7
VCDSTYLE02
100
AcDbText
  0
TEXT
  5
11D
330
F3
100
AcDbEntity
  8
Outline
 62
     2
100
AcDbText
 10
-82.25203704833984
 20
20.20714569091797
 30
0.0
 40
1.841060042381287
  1
Assembly No.
  7
VCDSTYLE02
100
AcDbText
  0
LINE
  5
11E
330
F3
100
AcDbEntity
  8
Outline
 62
     2
100
AcDbLine
 10
-14.79493342379411
 20
19.56126307955689
 30
0.0
 11
-14.79493342379411
 21
15.64901046364552
 31
0.0
  0
LINE
  5
11F
330
F3
100
AcDbEntity
  8
Outline
 62
     2
100
AcDbLine
 10
-26.81252310072733
 20
19.56126307955689
 30
0.0
 11
-26.81252310072733
 21
15.64901046364552
 31
0.0
  0
TEXT
  5
120
330
F3
100
AcDbEntity
  8
Outline
 62
     2
100
AcDbText
 10
-25.21685791015625
 20
16.18584442138672
 30
0.0
 40
1.841060042381287
  1
Scale
  7
VCDSTYLE02
100
AcDbText
  0
ENDBLK
  5
123
330
F3
100
AcDbEntity
  8
0
100
AcDbBlockEnd
  0
BLOCK
  5
2BD
330
2B9
100
AcDbEntity
  8
0
100
AcDbBlockBegin
  2
Sheet Border
 70
     0
 10
0.0
 20
0.0
 30
0.0
  3
Sheet Border
  1

  0
LWPOLYLINE
  5
2BA
330
2B9
100
AcDbEntity
  8
Outline
 62
     2
100
AcDbPolyline
 90
        5
 70
     0
 43
0.0
 10
5.0
 20
5.0
 10
205.0
 20
5.0
 10
205.0
 20
292.0
 10
5.0
 20
292.0
 10
5.0
 20
5.0
  0
LWPOLYLINE
  5
2BB
330
2B9
100
AcDbEntity
  8
Outline
 62
     2
100
AcDbPolyline
 90
        5
 70
     0
 43
0.0
 10
0.0
 20
0.0
 10
210.0
 20
0.0
 10
210.0
 20
297.0
 10
0.0
 20
297.0
 10
0.0
 20
0.0
  0
ENDBLK
  5
2BE
330
2B9
100
AcDbEntity
  8
0
100
AcDbBlockEnd
  0
ENDSEC
  0
SECTION
  2
ENTITIES
  0
DIMENSION
  5
A4
330
1F
100
AcDbEntity
  8
Dimension
100
AcDbDimension
280
     0
  2
*D1
 10
125.4884487369622
 20
207.2164789705612
 30
0.0
 11
125.4884487369622
 21
186.304830818804
 31
0.0
 70
   160
  1
ø 25.6
 71
     5
 42
25.58046129372963
 73
     0
 74
     0
 75
     0
  3
VCDDIMSTYLE01
100
AcDbAlignedDimension
 13
110.9493418310591
 23
232.7969402642909
 33
0.0
 14
110.949341832128
 24
207.2164789705612
 34
0.0
 50
90.0
100
AcDbRotatedDimension
1001
ACAD
1000
DSTYLE
1002
{
1070
   271
1070
     4
1070
     3
1000
ø <>
1002
}
  0
DIMENSION
  5
B1
330
1F
100
AcDbEntity
  8
Dimension
100
AcDbDimension
280
     0
  2
*D2
 10
165.9395760589853
 20
107.416478358781
 30
0.0
 11
131.3937110565418
 21
107.4102921193291
 31
0.0
 70
   164
 71
     5
 42
12.80000000000001
 73
     0
 74
     0
 75
     0
  3
VCDDIMSTYLE01
100
AcDbRadialDimension
 15
153.1395762642155
 25
107.4141862215394
 35
0.0
 40
0.0
1001
ACAD_DSTYLE_DIMRADIAL_EXTENSION
1070
   387
1070
     1
1070
   388
1040
4.179745032805863
1070
   390
1040
4.673316250971453
1001
ACAD
1000
DSTYLE
1002
{
1070
   271
1070
     4
1070
     3
1000
R <>
1002
}
  0
DIMENSION
  5
BF
330
1F
100
AcDbEntity
  8
Dimension
100
AcDbDimension
280
     0
  2
*D3
 10
165.4395723692807
 20
247.3689450256096
 30
0.0
 11
155.1233081938888
 21
247.3689450256096
 31
0.0
 70
   160
 71
     5
 42
21.0
 73
     0
 74
     0
 75
     0
  3
VCDDIMSTYLE01
100
AcDbAlignedDimension
 13
144.4395723692807
 23
226.5067093656028
 33
0.0
 14
165.4395723692807
 24
241.506709704431
 34
0.0
100
AcDbRotatedDimension
1001
ACAD
1000
DSTYLE
1002
{
1070
   271
1070
     4
1002
}
  0
DIMENSION
  5
CC
330
1F
100
AcDbEntity
  8
Dimension
100
AcDbDimension
280
     0
  2
*D4
 10
29.69886335262376
 20
198.5067091212647
 30
0.0
 11
29.69886335262377
 21
220.2780665271365
 31
0.0
 70
   160
 71
     5
 42
42.99999989687836
 73
     0
 74
     0
 75
     0
  3
VCDDIMSTYLE01
100
AcDbAlignedDimension
 13
38.64934193524967
 23
241.5067090181431
 33
0.0
 14
38.64934183212807
 24
198.5067091212647
 34
0.0
 50
90.0
100
AcDbRotatedDimension
1001
ACAD
1000
DSTYLE
1002
{
1070
   271
1070
     4
1002
}
  0
DIMENSION
  5
D9
330
1F
100
AcDbEntity
  8
Dimension
100
AcDbDimension
280
     0
  2
*D5
 10
110.949341832128
 20
187.6076902225456
 30
0.0
 11
72.59835557133445
 21
187.6076902225456
 31
0.0
 70
   160
 71
     5
 42
75.79999999999997
 73
     0
 74
     0
 75
     0
  3
VCDDIMSTYLE01
100
AcDbAlignedDimension
 13
35.14934183212804
 23
202.0067091212647
 33
0.0
 14
110.949341832128
 24
205.0067091212648
 34
0.0
100
AcDbRotatedDimension
1001
ACAD
1000
DSTYLE
1002
{
1070
   271
1070
     4
1002
}
  0
INSERT
  5
E1
330
1F
100
AcDbEntity
  8
Outline
100
AcDbBlockReference
  2
$AttrValue elphel_parts
 10
50.43000000000006
 20
38.1451
 30
0.0
  0
INSERT
  5
E6
330
1F
100
AcDbEntity
  8
Outline
100
AcDbBlockReference
  2
$AttrValue elphel_parts(1)
 10
47.37900000000005
 20
22.801
 30
0.0
  0
INSERT
  5
EB
330
1F
100
AcDbEntity
  8
Outline
100
AcDbBlockReference
  2
$AttrValue elphel_parts(2)
 10
119.3813000000001
 20
49.8706
 30
0.0
  0
INSERT
  5
F0
330
1F
100
AcDbEntity
  8
Outline
100
AcDbBlockReference
  2
$AttrValue elphel_parts(3)
 10
44.76700000000005
 20
44.7335
 30
0.0
  0
INSERT
  5
121
330
1F
100
AcDbEntity
  8
Outline
100
AcDbBlockReference
  2
$TitleBlock elphel_parts
 10
200.0
 20
10.0
 30
0.0
  0
LINE
  5
124
330
1F
100
AcDbEntity
  8
0
 62
     2
100
AcDbLine
 10
144.4395723692807
 20
103.9164783587814
 30
0.0
 11
144.4579137595647
 21
103.478907745266
 31
0.0
  0
LINE
  5
125
330
1F
100
AcDbEntity
  8
0
 62
     2
100
AcDbLine
 10
144.4395723692807
 20
103.9164783587814
 30
0.0
 11
144.457974238843
 21
103.4709683010889
 31
0.0
  0
LINE
  5
126
330
1F
100
AcDbEntity
  8
0
 62
     2
100
AcDbLine
 10
144.4395723692807
 20
103.9164783587814
 30
0.0
 11
144.4580366436755
 21
103.4631098592511
 31
0.0
  0
LINE
  5
127
330
1F
100
AcDbEntity
  8
0
 62
     2
100
AcDbLine
 10
144.4395723692807
 20
103.9164783587814
 30
0.0
 11
144.458101487336
 21
103.4553159179976
 31
0.0
  0
LINE
  5
128
330
1F
100
AcDbEntity
  8
0
 62
     2
100
AcDbLine
 10
144.4395723692807
 20
103.9164783587814
 30
0.0
 11
144.4581660944541
 21
103.447606319068
 31
0.0
  0
LINE
  5
129
330
1F
100
AcDbEntity
  8
0
 62
     2
100
AcDbLine
 10
144.4395723692807
 20
103.9164783587814
 30
0.0
 11
144.4582652400974
 21
103.3667495279983
 31
0.0
  0
LINE
  5
12A
330
1F
100
AcDbEntity
  8
0
 62
     2
100
AcDbLine
 10
144.4395723692807
 20
103.9164783587814
 30
0.0
 11
144.4582296708592
 21
103.3609500294681
 31
0.0
  0
LINE
  5
12B
330
1F
100
AcDbEntity
  8
0
 62
     2
100
AcDbLine
 10
144.4395723692807
 20
103.9164783587814
 30
0.0
 11
144.457597649032
 21
103.3732709315497
 31
0.0
  0
LINE
  5
12C
330
1F
100
AcDbEntity
  8
0
 62
     2
100
AcDbLine
 10
144.4395723692807
 20
103.9164783587814
 30
0.0
 11
144.457584852555
 21
103.367328230134
 31
0.0
  0
LINE
  5
12D
330
1F
100
AcDbEntity
  8
0
 62
     2
100
AcDbLine
 10
144.4395723692807
 20
103.9164783587814
 30
0.0
 11
144.4575764813746
 21
103.3614462101744
 31
0.0
  0
LINE
  5
12E
330
1F
100
AcDbEntity
  8
0
 62
     2
100
AcDbLine
 10
144.4395723692807
 20
103.9164783587814
 30
0.0
 11
144.4572949422562
 21
103.3642649710263
 31
0.0
  0
LINE
  5
12F
330
1F
100
AcDbEntity
  8
0
 62
     2
100
AcDbLine
 10
144.4395723692807
 20
103.9164783587814
 30
0.0
 11
144.4581003689302
 21
103.3332242108095
 31
0.0
  0
LINE
  5
130
330
1F
100
AcDbEntity
  8
0
 62
     2
100
AcDbLine
 10
144.4395723692807
 20
103.9164783587814
 30
0.0
 11
144.4580860890552
 21
103.3279083364796
 31
0.0
  0
LINE
  5
131
330
1F
100
AcDbEntity
  8
0
 62
     2
100
AcDbLine
 10
144.4395723692807
 20
103.9164783587814
 30
0.0
 11
144.4575745720025
 21
103.3387258968351
 31
0.0
  0
LINE
  5
132
330
1F
100
AcDbEntity
  8
0
 62
     2
100
AcDbLine
 10
144.4395723692807
 20
103.9164783587814
 30
0.0
 11
144.4573332584843
 21
103.3412508853633
 31
0.0
  0
LINE
  5
133
330
1F
100
AcDbEntity
  8
0
 62
     2
100
AcDbLine
 10
144.4395723692807
 20
103.9164783587814
 30
0.0
 11
144.4575874188597
 21
103.3278697175774
 31
0.0
  0
LINE
  5
134
330
1F
100
AcDbEntity
  8
0
 62
     2
100
AcDbLine
 10
144.4395723692807
 20
103.9164783587814
 30
0.0
 11
144.4580569549047
 21
103.3073833649917
 31
0.0
  0
LINE
  5
135
330
1F
100
AcDbEntity
  8
0
 62
     2
100
AcDbLine
 10
144.4395723692807
 20
103.9164783587814
 30
0.0
 11
144.4580549424001
 21
103.3024335237538
 31
0.0
  0
LINE
  5
136
330
1F
100
AcDbEntity
  8
0
 62
     2
100
AcDbLine
 10
144.4395723692807
 20
103.9164783587814
 30
0.0
 11
144.4580543481868
 21
103.2975549512398
 31
0.0
  0
LINE
  5
137
330
1F
100
AcDbEntity
  8
0
 62
     2
100
AcDbLine
 10
144.4395723692807
 20
103.9164783587814
 30
0.0
 11
144.4580549422325
 21
103.292747007606
 31
0.0
  0
LINE
  5
138
330
1F
100
AcDbEntity
  8
0
 62
     2
100
AcDbLine
 10
144.4395723692807
 20
103.9164783587814
 30
0.0
 11
144.4580569545854
 21
103.2880090774903
 31
0.0
  0
LINE
  5
139
330
1F
100
AcDbEntity
  8
0
 62
     2
100
AcDbLine
 10
144.4395723692807
 20
103.9164783587814
 30
0.0
 11
144.4580607303061
 21
103.283340551651
 31
0.0
  0
LINE
  5
13A
330
1F
100
AcDbEntity
  8
0
 62
     2
100
AcDbLine
 10
144.4395723692807
 20
103.9164783587813
 30
0.0
 11
144.4573613473513
 21
103.2913197350736
 31
0.0
  0
LINE
  5
13B
330
1F
100
AcDbEntity
  8
0
 62
     2
100
AcDbLine
 10
144.4395723692807
 20
103.9164783587813
 30
0.0
 11
144.4581181365406
 21
103.2610176631309
 31
0.0
  0
LINE
  5
13C
330
1F
100
AcDbEntity
  8
0
 62
     2
100
AcDbLine
 10
144.4395723692807
 20
103.9164783587814
 30
0.0
 11
144.4581397387368
 21
103.2567527688689
 31
0.0
  0
LINE
  5
13D
330
1F
100
AcDbEntity
  8
0
 62
     2
100
AcDbLine
 10
144.4395723692807
 20
103.9164783587813
 30
0.0
 11
144.4581655197237
 21
103.2525530141897
 31
0.0
  0
LINE
  5
13E
330
1F
100
AcDbEntity
  8
0
 62
     2
100
AcDbLine
 10
144.4395723692807
 20
103.9164783587814
 30
0.0
 11
144.4578763634752
 21
103.2598757733197
 31
0.0
  0
LINE
  5
13F
330
1F
100
AcDbEntity
  8
0
 62
     2
100
AcDbLine
 10
144.4395723692807
 20
103.9164783587813
 30
0.0
 11
144.4577604659177
 21
103.2612500428154
 31
0.0
  0
LINE
  5
140
330
1F
100
AcDbEntity
  8
0
 62
     2
100
AcDbLine
 10
144.4395723692807
 20
103.9164783587813
 30
0.0
 11
144.457651412398
 21
103.2625431582929
 31
0.0
  0
LINE
  5
141
330
1F
100
AcDbEntity
  8
0
 62
     2
100
AcDbLine
 10
144.4395723692807
 20
103.9164783587814
 30
0.0
 11
144.4577334782135
 21
103.2147656803135
 31
0.0
  0
LINE
  5
142
330
1F
100
AcDbEntity
  8
0
 62
     2
100
AcDbLine
 10
144.4395723692807
 20
103.9164783587814
 30
0.0
 11
144.4575440890845
 21
103.2171478931294
 31
0.0
  0
LINE
  5
143
330
1F
100
AcDbEntity
  8
0
 62
     2
100
AcDbLine
 10
144.4395723692807
 20
103.9164783587814
 30
0.0
 11
144.4573681236514
 21
103.219361257286
 31
0.0
  0
LINE
  5
144
330
1F
100
AcDbEntity
  8
0
 62
     2
100
AcDbLine
 10
144.4395723692807
 20
103.9164783587814
 30
0.0
 11
144.4572103090869
 21
103.2213463124997
 31
0.0
  0
LINE
  5
145
330
1F
100
AcDbEntity
  8
0
 62
     2
100
AcDbLine
 10
144.4395723692807
 20
103.9164783587814
 30
0.0
 11
144.4579137541532
 21
103.1897086937506
 31
0.0
  0
LWPOLYLINE
  5
146
330
1F
100
AcDbEntity
  8
0
 62
     2
100
AcDbPolyline
 90
        4
 70
     0
 43
0.0
 10
154.2159828726521
 20
89.85659455255674
 10
154.9356455255087
 20
89.60855319565327
 10
155.667277503882
 20
89.39702255721792
 10
156.0827484132094
 20
89.29948772399291
  0
LINE
  5
147
330
1F
100
AcDbEntity
  8
0
 62
     2
100
AcDbLine
 10
158.6855477293908
 20
88.93396680899646
 30
0.0
 11
159.4395723692807
 21
88.91647835878106
 31
0.0
  0
LWPOLYLINE
  5
148
330
1F
100
AcDbEntity
  8
0
 62
     2
100
AcDbPolyline
 90
        5
 70
     0
 43
0.0
 10
155.6609843881088
 20
89.39948495288287
 10
156.4021531894763
 20
89.2237591397134
 10
157.1517944121023
 20
89.0868849927628
 10
157.9087026792712
 20
88.99018666956592
 10
158.6744861336018
 20
88.93422336582103
  0
LINE
  5
149
330
1F
100
AcDbEntity
  8
0
 62
     2
100
AcDbLine
 10
144.4395723692807
 20
121.931908945113
 30
0.0
 11
144.4675817623871
 21
122.0712062507205
 31
0.0
  0
LINE
  5
14A
330
1F
100
AcDbEntity
  8
0
 62
     2
100
AcDbLine
 10
144.4395723692807
 20
121.931908945113
 30
0.0
 11
144.4684690997515
 21
122.0622420450771
 31
0.0
  0
LINE
  5
14B
330
1F
100
AcDbEntity
  8
0
 62
     2
100
AcDbLine
 10
144.4395723692807
 20
121.931908945113
 30
0.0
 11
144.4692613907762
 21
122.0413177197506
 31
0.0
  0
LINE
  5
14C
330
1F
100
AcDbEntity
  8
0
 62
     2
100
AcDbLine
 10
144.4395723692807
 20
121.931908945113
 30
0.0
 11
144.4692613907762
 21
122.0342753296942
 31
0.0
  0
LINE
  5
14D
330
1F
100
AcDbEntity
  8
0
 62
     2
100
AcDbLine
 10
144.4395723692807
 20
121.931908945113
 30
0.0
 11
144.4684690997515
 21
122.0130597537345
 31
0.0
  0
LINE
  5
14E
330
1F
100
AcDbEntity
  8
0
 62
     2
100
AcDbLine
 10
144.4395723692807
 20
121.931908945113
 30
0.0
 11
144.4675817623871
 21
122.0037836010758
 31
0.0
  0
LINE
  5
14F
330
1F
100
AcDbEntity
  8
0
 62
     2
100
AcDbLine
 10
156.4395732527784
 20
115.9167088959338
 30
0.0
 11
156.4395732525069
 21
115.8167088959337
 31
0.0
  0
LINE
  5
150
330
1F
100
AcDbEntity
  8
0
 62
     2
100
AcDbLine
 10
154.1493427153542
 20
164.716478358781
 30
0.0
 11
155.6395732525069
 21
166.2067088959338
 31
0.0
  0
LINE
  5
151
330
1F
100
AcDbEntity
  8
0
 62
     2
100
AcDbLine
 10
155.202704101707
 20
113.4172829443942
 30
0.0
 11
157.5681381264331
 21
113.4172345261441
 31
0.0
  0
LINE
  5
152
330
1F
100
AcDbEntity
  8
0
 62
     2
100
AcDbLine
 10
155.2023232519806
 20
101.4163552547952
 30
0.0
 11
157.5677572750151
 21
101.4162535388352
 31
0.0
  0
LWPOLYLINE
  5
153
330
1F
100
AcDbEntity
  8
0
 62
     2
100
AcDbPolyline
 90
        3
 70
     0
 43
0.0
 10
155.7990390778885
 20
164.716478358781
 10
156.8701390101273
 20
165.6320957345746
 10
157.5681390096592
 20
166.2067095822217
  0
LWPOLYLINE
  5
154
330
1F
100
AcDbEntity
  8
0
 62
     2
100
AcDbPolyline
 90
        6
 70
     0
 43
0.0
 10
156.7972531540822
 20
115.9167259127776
 10
156.8486397543984
 20
115.9984584315245
 10
157.162717092461
 20
116.4073497745296
 10
157.5613204469562
 20
116.7999316452174
 10
158.0406107604767
 20
117.1724241131415
 10
158.5743037350315
 20
117.5088937740124
  0
LINE
  5
155
330
1F
100
AcDbEntity
  8
0
 62
     2
100
AcDbLine
 10
152.1037764550748
 20
162.8581826785078
 30
0.0
 11
152.1020540600959
 21
162.85938921939
 31
0.0
  0
LINE
  5
156
330
1F
100
AcDbEntity
  8
0
 62
     2
100
AcDbLine
 10
151.3208821137997
 20
150.8581898055508
 30
0.0
 11
151.3179806667265
 21
150.8594510564176
 31
0.0
  0
LINE
  5
157
330
1F
100
AcDbEntity
  8
0
 62
     2
100
AcDbLine
 10
149.8734178361544
 20
135.2061103355628
 30
0.0
 11
149.8885903002384
 21
135.2074769579565
 31
0.0
  0
LINE
  5
158
330
1F
100
AcDbEntity
  8
0
 62
     2
100
AcDbLine
 10
151.3208821137997
 20
138.8581898055508
 30
0.0
 11
151.3179806667265
 21
138.8594510564176
 31
0.0
  0
LINE
  5
159
330
1F
100
AcDbEntity
  8
0
 62
     2
100
AcDbLine
 10
148.7246180607123
 20
126.8581511721577
 30
0.0
 11
148.7232420245478
 21
126.859421248065
 31
0.0
  0
LWPOLYLINE
  5
15A
330
1F
100
AcDbEntity
  8
0
 62
     2
100
AcDbPolyline
 90
       31
 70
     0
 43
0.0
 10
149.7096831503317
 20
93.81308634363091
 10
149.723152589017
 20
93.75987436301031
 10
149.7336619208014
 20
93.72335480363544
 10
149.7340385098276
 20
93.72210814968048
 10
149.750403506841
 20
93.67120813616324
 10
149.7657419452221
 20
93.6281219279408
 10
149.7850549834953
 20
93.57850591599352
 10
149.8069660242353
 20
93.5269256902976
 10
149.8081038998144
 20
93.5243602161102
 10
149.8278390572079
 20
93.4813705040366
 10
149.8588994190279
 20
93.41856759772828
 10
149.8795283318214
 20
93.37950340228716
 10
149.9152516424382
 20
93.31584504306667
 10
149.9232276324991
 20
93.30222771577297
 10
149.9411244817826
 20
93.2723678103596
 10
150.0023356362983
 20
93.1764604978236
 10
150.0136766151097
 20
93.15959963712172
 10
150.0560942429157
 20
93.0986511461162
 10
150.0948731513781
 20
93.0454535526709
 10
150.0985749157796
 20
93.04048513247812
 10
150.0993054835216
 20
93.03950669704533
 10
150.1967203604363
 20
92.91449809354945
 10
150.217162354542
 20
92.88945046434527
 10
150.2291345533705
 20
92.87494427756259
 10
150.308962660815
 20
92.78097560372777
 10
150.3603894953267
 20
92.72266116257228
 10
150.4292449344958
 20
92.64688554520683
 10
150.4365602001371
 20
92.63897548218208
 10
150.5337982696261
 20
92.53610769920239
 10
150.5807080079464
 20
92.48786066211493
 10
150.6515505301801
 20
92.41650196617906
  0
LWPOLYLINE
  5
15B
330
1F
100
AcDbEntity
  8
0
 62
     2
100
AcDbPolyline
 90
      120
 70
     0
 43
0.0
 10
154.8490923118866
 20
91.73431051254306
 10
154.8368114058366
 20
91.7867025715432
 10
154.8306692709856
 20
91.81210047090475
 10
154.8059696961436
 20
91.90820527641216
 10
154.8004280295976
 20
91.9284216348535
 10
154.79206621539
 20
91.95801891507884
 10
154.7677688310286
 20
92.03821071282067
 10
154.7634985720077
 20
92.05147566989064
 10
154.7182912630924
 20
92.1794361910062
 10
154.7171558227856
 20
92.18240259559673
 10
154.7157196422927
 20
92.18613987209646
 10
154.7047183943207
 20
92.21423927543363
 10
154.6589274435723
 20
92.32255840793528
 10
154.6535153337047
 20
92.33457004332907
 10
154.6147706406418
 20
92.4164332955889
 10
154.5855718058918
 20
92.47381336819
 10
154.5667698745688
 20
92.50903008531455
 10
154.490793427751
 20
92.63962161693222
 10
154.4863036666504
 20
92.6468218048021
 10
154.4432582522863
 20
92.71331940287449
 10
154.363652217626
 20
92.82560315434799
 10
154.325682249416
 20
92.8749440736487
 10
154.2391673142584
 20
92.97925763710857
 10
154.1806675384018
 20
93.04480856808118
 10
154.1303494036535
 20
93.09865074718313
 10
154.0509788973106
 20
93.17963354559595
 10
153.9081458079995
 20
93.31572019375469
 10
153.9004365713755
 20
93.32276525206524
 10
153.8480515135307
 20
93.36988231574877
 10
153.7133448156283
 20
93.48527618056431
 10
153.6655778979052
 20
93.52430175338601
 10
153.5723962594514
 20
93.59773102442668
 10
153.4257590002765
 20
93.70659123016708
 10
153.4041110391016
 20
93.72203225066836
 10
153.3744945685687
 20
93.74291233604842
 10
153.2536920457774
 20
93.82530617572164
 10
153.1269727308428
 20
93.9073153223605
 10
153.1196078226493
 20
93.91195170261892
 10
152.962315847104
 20
94.0077839865194
 10
152.8497930569035
 20
94.07279532310086
 10
152.8400876865681
 20
94.07827058347748
 10
152.7428819191266
 20
94.13198779774613
 10
152.7006163751196
 20
94.15472064903692
 10
152.5493038472982
 20
94.23310004432014
 10
152.3589083083442
 20
94.3250343734132
 10
152.2584085757739
 20
94.37048877212747
 10
152.0756714024012
 20
94.44757374345211
 10
152.0591643733377
 20
94.45418283331392
 10
152.0359786377472
 20
94.46336722989462
 10
151.9695671466129
 20
94.48903639284347
 10
151.8058186711607
 20
94.54827090003322
 10
151.6865959531622
 20
94.58764217283763
 10
151.6830030445111
 20
94.58877731290917
 10
151.5833740824777
 20
94.61901428904167
 10
151.5733039626008
 20
94.62193499595772
 10
151.4313851750671
 20
94.6603560078371
 10
151.4116027815232
 20
94.66529744094726
 10
151.3850757978394
 20
94.67176120386759
 10
151.3838864033325
 20
94.6720466379983
 10
151.3811121987853
 20
94.67271093191817
 10
151.2029342348526
 20
94.71096806956885
 10
151.1457872481836
 20
94.72133096106397
 10
151.1393571087634
 20
94.72243658079312
 10
151.0365120549115
 20
94.73840800753877
 10
150.9281361904351
 20
94.75160346519881
 10
150.8915325835961
 20
94.75517535055012
 10
150.8833264536836
 20
94.75591279147505
 10
150.7435068362135
 20
94.76475293766043
 10
150.7414025424317
 20
94.76483016670441
 10
150.7338999988039
 20
94.76509150261451
 10
150.6516380289125
 20
94.76648192552487
 10
150.610459361596
 20
94.76612027338923
 10
150.580605836452
 20
94.76539374789914
 10
150.4892982062994
 20
94.76059651346235
 10
150.4364896894601
 20
94.75591714053012
 10
150.429327975322
 20
94.75516746304142
 10
150.3777906681304
 20
94.74891525941854
 10
150.3090755803208
 20
94.73806440264167
 10
150.2756034810948
 20
94.73163630910777
 10
150.2290925872972
 20
94.72132730283536
 10
150.1966842096215
 20
94.71310991542136
 10
150.1822410743559
 20
94.70915140660978
 10
150.0985069289515
 20
94.68209928452654
 10
150.0979856392677
 20
94.68190646172215
 10
150.0948651330395
 20
94.68074522714808
 10
150.0561505411636
 20
94.66529163489473
 10
150.02283823643
 20
94.65028501944646
 10
150.0136711449504
 20
94.64584558480975
 10
149.9561706076894
 20
94.6144329582674
 10
149.9411953803048
 20
94.60508994975187
 10
149.9153051195608
 20
94.58758187526524
 10
149.8978063675015
 20
94.57465351905041
 10
149.8795905331553
 20
94.56012153685346
 10
149.8473027219501
 20
94.53117758421915
 10
149.8278470044725
 20
94.51135146015531
 10
149.8081695207973
 20
94.48901944969043
 10
149.8039985789993
 20
94.48394304203762
 10
149.7850752388019
 20
94.45912528213789
 10
149.7676711577287
 20
94.433184926471
 10
149.7503726614587
 20
94.40348389526272
 10
149.7379336321
 20
94.37888726416645
 10
149.7339984792383
 20
94.3703869973353
 10
149.7231415866541
 20
94.34466276168817
 10
149.7145095272849
 20
94.32116753526535
 10
149.7027534759385
 20
94.28269089753745
 10
149.6970508671906
 20
94.2598917029719
 10
149.6914289148788
 20
94.23305014283721
 10
149.6886906791825
 20
94.21759185222513
 10
149.6853161784684
 20
94.1951022072906
 10
149.6805148996266
 20
94.14949885747507
 10
149.6790576835312
 20
94.12666822879171
 10
149.6778635439222
 20
94.07821722356687
 10
149.6781532694075
 20
94.05441032776456
 10
149.6805427287022
 20
94.00369117424276
 10
149.6826223495416
 20
93.97823759877758
 10
149.6886959269098
 20
93.92588991079252
 10
149.6914076267865
 20
93.90739832485578
 10
149.6928876701102
 20
93.89805943003876
 10
149.7027603460269
 20
93.84462067463542
 10
149.7096831503317
 20
93.81308634363091
  0
LWPOLYLINE
  5
15C
330
1F
100
AcDbEntity
  8
0
 62
     2
100
AcDbPolyline
 90
      120
 70
     0
 43
0.0
 10
150.6515860455463
 20
92.41646661835168
 10
150.733864383399
 20
92.33564229622843
 10
150.7434839526719
 20
92.32632659076789
 10
150.7472584023316
 20
92.32267873902158
 10
150.8915818847601
 20
92.18614204775434
 10
150.9277851362022
 20
92.15273900179973
 10
151.0169874018828
 20
92.07177402050674
 10
151.1392509100703
 20
91.96372149816206
 10
151.1458049276965
 20
91.95802045858485
 10
151.3810288674595
 20
91.75925265335965
 10
151.3852409301524
 20
91.75579499067359
 10
151.3883857453407
 20
91.75321571939797
 10
151.4115060994085
 20
91.73431326218105
 10
151.4594212373406
 20
91.69547408967122
 10
151.6398468680346
 20
91.55316924019554
 10
151.6830672819819
 20
91.51998303504551
 10
151.6867430786614
 20
91.51717643060711
 10
151.9694023514773
 20
91.30869977293939
 10
152.0357786962847
 20
91.26185051120632
 10
152.0757738912313
 20
91.2340108962795
 10
152.205588915955
 20
91.14567721718666
 10
152.2578491901894
 20
91.1109813035114
 10
152.5217527594996
 20
90.94289587327123
 10
152.5498723696566
 20
90.92565789058516
 10
152.7007855488972
 20
90.83527117875624
 10
152.8406269377209
 20
90.75474172374767
 10
152.8492226397265
 20
90.74989535280659
 10
153.1268175688701
 20
90.59993833865873
 10
153.2512054560218
 20
90.53677486894253
 10
153.3387867514569
 20
90.49376715320899
 10
153.3744808979048
 20
90.47658738120613
 10
153.4040893108584
 20
90.46249231413277
 10
153.6668455019986
 20
90.34392790097051
 10
153.7004791756237
 20
90.32964783119556
 10
153.9066518368565
 20
90.24702640289718
 10
153.9111584963916
 20
90.24531983656719
 10
153.9554670627193
 20
90.22878222189712
 10
154.0517052413437
 20
90.19443762228138
 10
154.1316750097001
 20
90.16767202460132
 10
154.149301893993
 20
90.16200669387833
 10
154.1812257969418
 20
90.15197566622744
 10
154.3005793520686
 20
90.11750193477367
 10
154.3230825781795
 20
90.11163630851203
 10
154.359447712699
 20
90.10266654485653
 10
154.4215428281579
 20
90.08901523375947
 10
154.4843301885836
 20
90.0777977501552
 10
154.4884038669046
 20
90.07717524847256
 10
154.5197885165015
 20
90.07287171492301
 10
154.5857176780309
 20
90.0671803852044
 10
154.5996844131542
 20
90.06668338014123
 10
154.6153658832217
 20
90.06648192577414
 10
154.6600089412534
 20
90.06837321827665
 10
154.6643042210177
 20
90.0687806754405
 10
154.7049195036645
 20
90.07511697195835
 10
154.7161401585752
 20
90.07779795746387
 10
154.7165903633243
 20
90.07791530163705
 10
154.7176005658389
 20
90.07818146030684
 10
154.7594165357293
 20
90.09319315973532
 10
154.7631586683374
 20
90.0949796217529
 10
154.7916413607273
 20
90.11163657300848
 10
154.7948702113107
 20
90.11391059736418
 10
154.7999769803346
 20
90.11768873480996
 10
154.8246486103762
 20
90.13943888329585
 10
154.8304687717133
 20
90.145511869233
 10
154.8491049460918
 20
90.16769818865475
 10
154.8504116111263
 20
90.16941876433617
 10
154.8565709101387
 20
90.17783933269202
 10
154.8732216855452
 20
90.20334360238971
 10
154.8796071196919
 20
90.21427024925163
 10
154.8937744896518
 20
90.2409881096267
 10
154.8959297333552
 20
90.24536543622911
 10
154.9002648093627
 20
90.25442894599203
 10
154.9126050608486
 20
90.2821671535171
 10
154.9191423763725
 20
90.29808192661586
 10
154.9299475251091
 20
90.32648157295479
 10
154.9361011936991
 20
90.34396717995489
 10
154.9364314260397
 20
90.34493506110242
 10
154.9458645889338
 20
90.37398187991566
 10
154.952132518374
 20
90.39494687843921
 10
154.9602647282448
 20
90.42451419529118
 10
154.9661354623184
 20
90.44789234574301
 10
154.969569372039
 20
90.46255145859874
 10
154.9729790802488
 20
90.4779751625937
 10
154.9782101028278
 20
90.50371334511678
 10
154.9837110779921
 20
90.53442502633996
 10
154.9880243136919
 20
90.56233511805505
 10
154.9921366939802
 20
90.59378450876227
 10
154.992843412605
 20
90.59986196470814
 10
154.9953468971393
 20
90.62367494188953
 10
154.9980883034304
 20
90.65598860326381
 10
155.0000721561381
 20
90.68782690457165
 10
155.001380432733
 20
90.7212478088439
 10
155.0018825869093
 20
90.75477614199697
 10
155.0015346080041
 20
90.78952270857445
 10
155.0003213195621
 20
90.82454781208313
 10
154.9982501578974
 20
90.86104960972123
 10
154.9955033146749
 20
90.89717177892915
 10
154.9929234654717
 20
90.9255743017193
 10
154.9919110939181
 20
90.93582855695328
 10
154.9879515092227
 20
90.97272739413896
 10
154.9829951839232
 20
91.01396390725006
 10
154.9780844117763
 20
91.05124720914932
 10
154.9717767534885
 20
91.09558239658799
 10
154.9695065314578
 20
91.11079592017973
 10
154.966099466291
 20
91.13303168302944
 10
154.9584066629267
 20
91.18109376320783
 10
154.952197484778
 20
91.21817346330882
 10
154.9431111128052
 20
91.27031587608536
 10
154.9365182702083
 20
91.30689030293918
 10
154.9361879228644
 20
91.30869914838472
 10
154.925972446262
 20
91.36367485663702
 10
154.919211573307
 20
91.3991780872311
 10
154.9070716649653
 20
91.46152564107611
 10
154.9002837730178
 20
91.49563555394124
 10
154.8959386780526
 20
91.51717463065489
 10
154.8862614764359
 20
91.56429587152782
 10
154.8795423779319
 20
91.59631504316657
 10
154.8630592425492
 20
91.67244184234454
 10
154.8565457333244
 20
91.7015897234899
 10
154.8490923118866
 20
91.73431051254306
  0
LWPOLYLINE
  5
15D
330
1F
100
AcDbEntity
  8
0
 62
     2
100
AcDbPolyline
 90
       47
 70
     0
 43
0.0
 10
146.3569479802393
 20
123.2136959868695
 10
146.3834191790658
 20
123.186473373567
 10
146.4125273344218
 20
123.160509749978
 10
146.4590986987809
 20
123.1239885546743
 10
146.4599130407478
 20
123.123388403969
 10
146.4884447525867
 20
123.1029987871113
 10
146.5693377781275
 20
123.0504383421247
 10
146.5855047105136
 20
123.0407003446908
 10
146.6117328096631
 20
123.0253994697945
 10
146.6535850973251
 20
123.0022243400218
 10
146.7048824603387
 20
122.9757635930646
 10
146.7210764087246
 20
122.9678109930301
 10
146.763848229176
 20
122.9476741133203
 10
146.8411022148605
 20
122.9147331767785
 10
146.9066963047346
 20
122.891648187263
 10
146.9307023046407
 20
122.8844907447038
 10
147.0333480041614
 20
122.8612544256346
 10
147.0548303939549
 20
122.857802149297
 10
147.1630399536143
 20
122.8474904123738
 10
147.2104437408809
 20
122.8464819258895
 10
147.3741758667323
 20
122.8577941587874
 10
147.4680714001942
 20
122.8736543030094
 10
147.5471230544873
 20
122.8916426108519
 10
147.7037937384743
 20
122.9388235527123
 10
147.7285792330901
 20
122.9476759427552
 10
147.7651541278732
 20
122.9614709861393
 10
147.806682975016
 20
122.9782066702218
 10
147.9113849196424
 20
123.0253679744657
 10
147.9719828594384
 20
123.0557466400375
 10
148.0891903171595
 20
123.1209233031076
 10
148.0942949357066
 20
123.1239881523029
 10
148.142270290655
 20
123.1539505198024
 10
148.2633102638943
 20
123.2425502112173
 10
148.2761386630419
 20
123.2533842531426
 10
148.283516659902
 20
123.2597568086354
 10
148.2857648717595
 20
123.2617194773966
 10
148.397167194264
 20
123.371623390663
 10
148.4047191304268
 20
123.3799502839202
 10
148.4261444219584
 20
123.4040851481606
 10
148.4918850082704
 20
123.4811820527004
 10
148.5353517856818
 20
123.5327679418728
 10
148.5371049117067
 20
123.5348510542568
 10
148.5759588153804
 20
123.5811002274496
 10
148.6249236053565
 20
123.6398373756455
 10
148.647409314937
 20
123.6671869232281
 10
148.6783479014388
 20
123.7056688224213
 10
148.6922662625447
 20
123.7235173085174
  0
LWPOLYLINE
  5
15E
330
1F
100
AcDbEntity
  8
0
 62
     2
100
AcDbPolyline
 90
      107
 70
     0
 43
0.0
 10
148.6922662625447
 20
123.7235173085174
 10
148.8330354982874
 20
123.8731111351121
 10
148.8488693419935
 20
123.8908916714403
 10
148.9035296587499
 20
123.9538872931285
 10
149.0040894882116
 20
124.0769293595251
 10
149.0132149990866
 20
124.0885981639199
 10
149.1648947927829
 20
124.2971757572974
 10
149.191447676867
 20
124.336971719103
 10
149.2767427042517
 20
124.4731834910597
 10
149.3007628545399
 20
124.5142106085854
 10
149.4184368470625
 20
124.738037461408
 10
149.4267957219366
 20
124.7557586578797
 10
149.4900260655305
 20
124.9010268432478
 10
149.5152594959181
 20
124.966055637622
 10
149.5890583876555
 20
125.1964819198894
 10
149.6381795205111
 20
125.4267065861411
 10
149.6466156827794
 20
125.4848972562331
 10
149.6603850477709
 20
125.6281944763905
 10
149.6618305021003
 20
125.6549738585867
 10
149.6593207332835
 20
125.8786843952806
 10
149.6568437351706
 20
125.9094929212487
 10
149.6393628567209
 20
126.046150918526
 10
149.6303143470363
 20
126.0958921151001
 10
149.5759890929388
 20
126.3042048070015
 10
149.5746149339725
 20
126.3083841153879
 10
149.5281871151832
 20
126.432817794544
 10
149.4974661401149
 20
126.5020858282387
 10
149.4729653826363
 20
126.5521024102301
 10
149.409556629868
 20
126.6658172514175
 10
149.3963021319815
 20
126.6873062072588
 10
149.2747984798971
 20
126.8581830965203
 10
149.2610265677435
 20
126.8751485920298
 10
149.1773317701754
 20
126.9701584787222
 10
149.1355324679037
 20
127.0130566187122
 10
149.0882921618802
 20
127.0583918801099
 10
148.9945663136378
 20
127.1396646112943
 10
148.9811319324382
 20
127.1504589230575
 10
148.8329837409602
 20
127.2571181324544
 10
148.8144718503621
 20
127.268980449072
 10
148.7956349446043
 20
127.2807424081836
 10
148.691718929516
 20
127.3403073688076
 10
148.6383401758253
 20
127.3675912110572
 10
148.5856616800527
 20
127.3924307037745
 10
148.4779662419033
 20
127.4370447080799
 10
148.4556697542381
 20
127.4452798369992
 10
148.268949592594
 20
127.5013278566954
 10
148.2595879199058
 20
127.5035433969953
 10
148.1498670021095
 20
127.5253570943026
 10
148.0808999467367
 20
127.5351635388567
 10
148.0403719448269
 20
127.539517924951
 10
147.9314464484015
 20
127.5460171924385
 10
147.8936408717428
 20
127.5464819247731
 10
147.844504909499
 20
127.5456869997724
 10
147.8234292113971
 20
127.5448567084267
 10
147.7166589323774
 20
127.5360485949348
 10
147.7093432245418
 20
127.5351589020906
 10
147.5299244521389
 20
127.5013231994931
 10
147.5081605032948
 20
127.4955903434226
 10
147.4069528203638
 20
127.4640208803856
 10
147.3568417612776
 20
127.4452800068128
 10
147.3080773716317
 20
127.4249671560244
 10
147.2117616832111
 20
127.3785031875841
 10
147.191465027919
 20
127.3675839022359
 10
147.0350797337277
 20
127.2690524307339
 10
146.9675542550293
 20
127.2179198169013
 10
146.8882780400564
 20
127.1504604088301
 10
146.8560941827215
 20
127.1205998972931
 10
146.7753578107622
 20
127.0387999123075
 10
146.7519250286537
 20
127.0130779255474
 10
146.6265322070147
 20
126.8581459431095
 10
146.6247118018795
 20
126.8556614927843
 10
146.5550215275823
 20
126.754785536208
 10
146.5125883723311
 20
126.6873704599554
 10
146.4892051779071
 20
126.6480624153704
 10
146.4273508854197
 20
126.5357923027729
 10
146.4101039734074
 20
126.5021174893565
 10
146.3193541887851
 20
126.3043546285683
 10
146.3158613735547
 20
126.2959517221886
 10
146.2663461817209
 20
126.1691475353795
 10
146.2402601506913
 20
126.0957775721101
 10
146.210748296311
 20
126.0061729203795
 10
146.1728762789986
 20
125.8786202589976
 10
146.1171359339304
 20
125.6549276686321
 10
146.1109350817969
 20
125.6263956375391
 10
146.0829358862699
 20
125.484337558876
 10
146.0729398586501
 20
125.426928962499
 10
146.0401390338764
 20
125.1964819418063
 10
146.0187091272853
 20
124.9661285220807
 10
146.0146427154598
 20
124.9002195967091
 10
146.0089117112477
 20
124.7533374608242
 10
146.008583363574
 20
124.7380942473308
 10
146.0097188529384
 20
124.5142838858042
 10
146.0115014794293
 20
124.4654005912034
 10
146.0198221625549
 20
124.3256424848389
 10
146.0221294177207
 20
124.297137183877
 10
146.0458428215084
 20
124.0886270806514
 10
146.0504701533906
 20
124.0576274587497
 10
146.072776168819
 20
123.9305260391333
 10
146.0809034557493
 20
123.8909115807789
 10
146.1274449714254
 20
123.7056684242304
 10
146.1312718393498
 20
123.6927593467012
 10
146.167400305474
 20
123.5830094753397
 10
146.1855401397309
 20
123.5347473434144
 10
146.2107459468207
 20
123.4737200756667
 10
146.2552207285159
 20
123.379949993482
 10
146.3366777816634
 20
123.2425187095249
 10
146.3569479802393
 20
123.2136959868695
  0
LWPOLYLINE
  5
15F
330
1F
100
AcDbEntity
  8
0
 62
     2
100
AcDbPolyline
 90
       58
 70
     0
 43
0.0
 10
148.0454920103937
 20
138.7713143448725
 10
148.0005466610747
 20
138.7108601774527
 10
147.9839998947225
 20
138.687366008426
 10
147.9576469726285
 20
138.6484438645753
 10
147.9168154148104
 20
138.584126673371
 10
147.8780742570378
 20
138.5179737430866
 10
147.869204045718
 20
138.5020391750134
 10
147.8443967131216
 20
138.4557477325442
 10
147.8414423433324
 20
138.45005556994
 10
147.8069356433727
 20
138.3804478349583
 10
147.7745700377735
 20
138.3092300504158
 10
147.7723812423374
 20
138.3041778438921
 10
147.7443614071495
 20
138.2364853863639
 10
147.7163256320061
 20
138.162300526807
 10
147.6934270551913
 20
138.0957873545757
 10
147.6904777304683
 20
138.086765987712
 10
147.6668297755726
 20
138.0099771417059
 10
147.6453932122051
 20
137.9320328352411
 10
147.6321467312425
 20
137.8786808762241
 10
147.6261794852516
 20
137.8530348403119
 10
147.6092000395983
 20
137.7730876296614
 10
147.5944660423938
 20
137.6922984363669
 10
147.588471926461
 20
137.6550603655784
 10
147.5819850625756
 20
137.6107805581469
 10
147.571762159226
 20
137.5286520465081
 10
147.5638023402538
 20
137.4460328110427
 10
147.5622844607658
 20
137.4268716331592
 10
147.5581106135677
 20
137.3630442144597
 10
147.5546919870763
 20
137.2798087151131
 10
147.5535514686883
 20
137.1965143498097
 10
147.5546451543904
 20
137.1148841845388
 10
147.5579234780505
 20
137.0333701936884
 10
147.562289255045
 20
136.9660291558282
 10
147.5633817371078
 20
136.9520880754216
 10
147.5710152290019
 20
136.8711528672949
 10
147.5808192511721
 20
136.7906786199677
 10
147.5884576928297
 20
136.7379957297148
 10
147.5927891010579
 20
136.71077807495
 10
147.6069200650755
 20
136.6315623361176
 10
147.623205635375
 20
136.5531387039969
 10
147.6321532173218
 20
136.5142556885174
 10
147.6416355392907
 20
136.4756084410734
 10
147.6621990297674
 20
136.3990700759623
 10
147.6848853597496
 20
136.3236196933577
 10
147.6934239677481
 20
136.2971858824238
 10
147.7096837821821
 20
136.2493507298908
 10
147.736583320242
 20
136.1763536561862
 10
147.7655705550911
 20
136.1047146411199
 10
147.7724003797467
 20
136.0887416955188
 10
147.7966305947455
 20
136.0345159938222
 10
147.8297485268829
 20
135.9658368214646
 10
147.8444125428738
 20
135.9371857266544
 10
147.8692607331125
 20
135.8908218472678
 10
147.9020984190888
 20
135.8333365901386
 10
147.9412993247642
 20
135.769656094799
 10
147.9824919114577
 20
135.7077742503523
 10
147.9839708126304
 20
135.7056397593656
 10
148.0707677290718
 20
135.5896389059095
  0
LWPOLYLINE
  5
160
330
1F
100
AcDbEntity
  8
0
 62
     2
100
AcDbPolyline
 90
      120
 70
     0
 43
0.0
 10
152.9896364499002
 20
136.0342261899222
 10
153.0531011797572
 20
136.0886874606366
 10
153.0685950069979
 20
136.1024135153208
 10
153.1443472620449
 20
136.1722488544408
 10
153.2165675334071
 20
136.2436923940777
 10
153.267177475085
 20
136.2971989191651
 10
153.2848754253217
 20
136.3166904197456
 10
153.3488881066566
 20
136.3911846955278
 10
153.4082227462797
 20
136.4671128332986
 10
153.4421174447982
 20
136.5143373931813
 10
153.4624965130591
 20
136.5444082161179
 10
153.5113452907031
 20
136.6229899694252
 10
153.5544924606716
 20
136.7027255928606
 10
153.5715194524603
 20
136.7379494112237
 10
153.5916869543472
 20
136.7834628576096
 10
153.6226777061859
 20
136.8650439347895
 10
153.647213650644
 20
136.9473062499618
 10
153.6518961479573
 20
136.9662158778368
 10
153.6650437221775
 20
137.0300833778466
 10
153.6759168552426
 20
137.1132059711109
 10
153.6795819882249
 20
137.1964608931222
 10
153.6758878734446
 20
137.2798815094032
 10
153.6649627524879
 20
137.3631281357427
 10
153.6518220596159
 20
137.4268407653367
 10
153.6470627575519
 20
137.4460274410424
 10
153.6224440208333
 20
137.5284080910926
 10
153.5913626745295
 20
137.6101017257414
 10
153.5714860090435
 20
137.6549384946452
 10
153.5540748508373
 20
137.6909439092962
 10
153.5108366819538
 20
137.7707750457051
 10
153.4619043047303
 20
137.8494412536652
 10
153.4420575641262
 20
137.8787311627285
 10
153.4075560303777
 20
137.926810240954
 10
153.3481436128419
 20
138.0028055840803
 10
153.2840339906279
 20
138.0773654874298
 10
153.2672096563436
 20
138.0958897967739
 10
153.2155941022415
 20
138.15043213861
 10
153.1431908861879
 20
138.2219515803909
 10
153.0671912809726
 20
138.2918735811471
 10
153.0531527006681
 20
138.3042906635776
 10
152.9879622220538
 20
138.3601515046921
 10
152.9058461083169
 20
138.4267449568246
 10
152.8211014568112
 20
138.4916259476335
 10
152.807020943784
 20
138.5020629838043
 10
152.7339688746474
 20
138.5547705575728
 10
152.6446889689358
 20
138.6161565757698
 10
152.5535023467869
 20
138.6757632548451
 10
152.5351797568516
 20
138.6873920466133
 10
152.3685728289234
 20
138.7882708282307
 10
152.3663491931035
 20
138.7895611418016
 10
152.2707785033116
 20
138.8437146960526
 10
152.2445158989576
 20
138.8581627170178
 10
152.1741094060193
 20
138.8960136228489
 10
152.076513934584
 20
138.9464403669994
 10
151.9781634238162
 20
138.9949777288574
 10
151.9403230763858
 20
139.0130658170627
 10
151.8792084991629
 20
139.0416078577549
 10
151.7797761128366
 20
139.0863121554937
 10
151.6799919224018
 20
139.1290722205652
 10
151.6281297145713
 20
139.1504829476506
 10
151.5799815854232
 20
139.1698697891964
 10
151.4798670968265
 20
139.2086864112395
 10
151.3797506352411
 20
139.2455025094954
 10
151.3129382385204
 20
139.2689647215935
 10
151.2797277083037
 20
139.2802982806556
 10
151.1798938186103
 20
139.3130540524727
 10
151.1060824594863
 20
139.3360024871876
 10
150.9981197403557
 20
139.3676151129779
 10
150.9811670111976
 20
139.3723667549083
 10
150.8824370907708
 20
139.398883154479
 10
150.7842287679631
 20
139.4232790794619
 10
150.6876192429024
 20
139.4453159815372
 10
150.6866162182631
 20
139.4455344305466
 10
150.5896728075442
 20
139.465629278902
 10
150.4934643297379
 20
139.4835435815043
 10
150.398052445572
 20
139.4992575141102
 10
150.3844445421045
 20
139.501328571938
 10
150.3034987650882
 20
139.5127517172208
 10
150.2098624218264
 20
139.5240072587445
 10
150.1171966982872
 20
139.5330056478425
 10
150.0909063925965
 20
139.5351595209993
 10
150.025554032229
 20
139.5397290236104
 10
149.9349868614102
 20
139.5441602003
 10
149.9236708578016
 20
139.5445545382539
 10
149.8090230316274
 20
139.5464819231605
 10
149.7572824686627
 20
139.546080790685
 10
149.6702362864088
 20
139.5435397766783
 10
149.5844524407242
 20
139.5386460494993
 10
149.5403468963756
 20
139.535166360691
 10
149.4999746585984
 20
139.5313871677868
 10
149.4168466670204
 20
139.5217519012969
 10
149.3351117921695
 20
139.5097303101219
 10
149.2864885856618
 20
139.5013195440372
 10
149.2548085219209
 20
139.4953141508637
 10
149.1759721355652
 20
139.4784970681229
 10
149.0986378548635
 20
139.4592745328344
 10
149.0484322041095
 20
139.4452671361035
 10
149.0228409015771
 20
139.4376439025451
 10
148.9486164974673
 20
139.4136044864912
 10
148.8759998642953
 20
139.3871576124627
 10
148.8329174716965
 20
139.3700124547634
 10
148.8271134630654
 20
139.3676164673484
 10
148.8050262238223
 20
139.3583066953782
 10
148.7357307625813
 20
139.3270573158135
 10
148.6681459934295
 20
139.2934179622357
 10
148.6227811473875
 20
139.2689623657017
 10
148.602299926264
 20
139.2574008148108
 10
148.5382201384357
 20
139.2190210135972
 10
148.4759342072956
 20
139.1782966190567
 10
148.4361918841529
 20
139.1504113904705
 10
148.4154697101945
 20
139.1352486656174
 10
148.3568542244833
 20
139.0899012130511
 10
148.300115327513
 20
139.0422813954811
 10
148.2675047297464
 20
139.0131081310518
 10
148.2452805966346
 20
138.9924194678383
 10
148.1923773260362
 20
138.940349129913
 10
148.1414298126296
 20
138.8861104048646
 10
148.1166964959194
 20
138.8581920044361
 10
148.0924605508305
 20
138.8297489359927
 10
148.0454920103937
 20
138.7713143448725
  0
LWPOLYLINE
  5
161
330
1F
100
AcDbEntity
  8
0
 62
     2
100
AcDbPolyline
 90
       86
 70
     0
 43
0.0
 10
148.070767232727
 20
135.5896293297233
 10
148.1043493154468
 20
135.5347019979955
 10
148.1370441318541
 20
135.4857785040788
 10
148.1729154564271
 20
135.4365246515095
 10
148.2105915849718
 20
135.3891048708027
 10
148.2183153297046
 20
135.3798757891458
 10
148.2500569983955
 20
135.3435531843996
 10
148.2912940693745
 20
135.2998993461651
 10
148.3342851119112
 20
135.2581704026204
 10
148.3514737279071
 20
135.2424676518872
 10
148.3790124400082
 20
135.218390739292
 10
148.4254583676681
 20
135.1805820882842
 10
148.4736052088936
 20
135.144763540001
 10
148.5036533001998
 20
135.1239988005952
 10
148.523435277687
 20
135.1109515589251
 10
148.5749308880511
 20
135.0791600033479
 10
148.6280743462266
 20
135.0494001451846
 10
148.6751755760075
 20
135.0253920290609
 10
148.6828467651637
 20
135.0216801633692
 10
148.7392267891908
 20
134.9960048395282
 10
148.7971927567201
 20
134.9723768406845
 10
148.8329946399091
 20
134.9590864618517
 10
148.8660356594774
 20
134.947653092672
 10
148.9177958759329
 20
134.9312639829785
 10
148.9803897044404
 20
134.913775096599
 10
149.0444828300981
 20
134.8983255755854
 10
149.0757737202261
 20
134.8916323706835
 10
149.110053591318
 20
134.8849090114403
 10
149.177080326512
 20
134.873517324736
 10
149.2455412197795
 20
134.8641408044161
 10
149.3043142721118
 20
134.8577968952285
 10
149.3154120556509
 20
134.856768063979
 10
149.3866667240036
 20
134.8513862772654
 10
149.4592790631564
 20
134.8479813939919
 10
149.5332229114277
 20
134.8465381905642
 10
149.551220148675
 20
134.8464819257772
 10
149.608472107136
 20
134.8470403158748
 10
149.6850004885999
 20
134.8494703359109
 10
149.7627818368906
 20
134.8538097811141
 10
149.8159119407057
 20
134.857803087371
 10
149.8417884595114
 20
134.8600393289041
 10
149.9219910975875
 20
134.8681390376993
 10
149.9237225982762
 20
134.8683329192602
 10
150.0033604164123
 20
134.8780883628257
 10
150.0858670812792
 20
134.889866185724
 10
150.0974757008823
 20
134.8916548863858
 10
150.1694817574818
 20
134.9034508442165
 10
150.2541751103136
 20
134.9188201605207
 10
150.339917322654
 20
134.9359514704484
 10
150.3945607902851
 20
134.9476610207178
 10
150.4266746230453
 20
134.954821675575
 10
150.5144113031334
 20
134.9754072612328
 10
150.6030916412917
 20
134.9976843046088
 10
150.6926799158935
 20
135.0216284914721
 10
150.70614244217
 20
135.0253480127182
 10
150.7831400808066
 20
135.04721517722
 10
150.8744320994361
 20
135.0744199695904
 10
150.966513253208
 20
135.1032187042522
 10
151.0303439709984
 20
135.1239593242536
 10
151.1060210564681
 20
135.1493523451984
 10
151.1528718927351
 20
135.1655008440942
 10
151.2470638417685
 20
135.1989353967299
 10
151.341873728299
 20
135.2338661840921
 10
151.3650238476982
 20
135.2425863379972
 10
151.4372538032627
 20
135.2702689318756
 10
151.5331499924908
 20
135.3081198998625
 10
151.6295077974495
 20
135.3473953885318
 10
151.7071890226923
 20
135.3799524297696
 10
151.7262727196052
 20
135.3880716769665
 10
151.82339022479
 20
135.4301249981197
 10
151.9208004090607
 20
135.4735321199055
 10
152.0184323156475
 20
135.518271072704
 10
152.0539070394954
 20
135.5348335379707
 10
152.1162136262412
 20
135.5643201138909
 10
152.2140720225327
 20
135.6116575266224
 10
152.3119351851881
 20
135.6602615622957
 10
152.3686553747034
 20
135.6890170034681
 10
152.4010810678663
 20
135.7056513572225
 10
152.4097266996522
 20
135.7101107746774
 10
152.5073567500922
 20
135.7611849175311
 10
152.604732783718
 20
135.8134639409198
 10
152.7017621998162
 20
135.8669276595799
 10
152.744422793536
 20
135.8908799845568
 10
152.7983416970124
 20
135.9215566344605
 10
152.8943438280472
 20
135.9773334120824
 10
152.9896378361008
 20
136.0342406475689
  0
LWPOLYLINE
  5
162
330
1F
100
AcDbEntity
  8
0
 62
     2
100
AcDbPolyline
 90
       19
 70
     0
 43
0.0
 10
147.7723812423374
 20
150.3041778438921
 10
147.7443614071495
 20
150.2364853863639
 10
147.7163256320062
 20
150.162300526807
 10
147.6934270551913
 20
150.0957873545757
 10
147.6904777304684
 20
150.086765987712
 10
147.6668297755727
 20
150.0099771417059
 10
147.6453932122051
 20
149.9320328352411
 10
147.6321467312425
 20
149.8786808762241
 10
147.6261794852516
 20
149.8530348403119
 10
147.6092000395983
 20
149.7730876296614
 10
147.5944660423938
 20
149.6922984363669
 10
147.588471926461
 20
149.6550603655784
 10
147.5819850625756
 20
149.6107805581469
 10
147.571762159226
 20
149.5286520465081
 10
147.5638023402538
 20
149.4460328110427
 10
147.5622844607658
 20
149.4268716331592
 10
147.5581106135677
 20
149.3630442144597
 10
147.5546919870763
 20
149.2798087151131
 10
147.5535514686883
 20
149.1964495048543
  0
LWPOLYLINE
  5
163
330
1F
100
AcDbEntity
  8
0
 62
     2
100
AcDbPolyline
 90
      120
 70
     0
 43
0.0
 10
153.5108869017724
 20
148.6222021321693
 10
153.5541492796451
 20
148.7020410907637
 10
153.5715654833781
 20
148.7380482437541
 10
153.5914441935718
 20
148.7828858659021
 10
153.6225195058462
 20
148.8645779956998
 10
153.647123078762
 20
148.9469542394427
 10
153.6518642497704
 20
148.9660819566257
 10
153.665002774613
 20
149.0298474784287
 10
153.6759064556929
 20
149.1130876512208
 10
153.6795819882249
 20
149.1964608931222
 10
153.6758878734447
 20
149.2798815094031
 10
153.664962752488
 20
149.3631281357427
 10
153.6518220596159
 20
149.4268407653366
 10
153.6470627575519
 20
149.4460274410424
 10
153.6224440208334
 20
149.5284080910926
 10
153.5913626745295
 20
149.6101017257414
 10
153.5714860090435
 20
149.6549384946452
 10
153.5540748508373
 20
149.6909439092962
 10
153.5108366819538
 20
149.7707750457051
 10
153.4619043047303
 20
149.8494412536651
 10
153.4420575641262
 20
149.8787311627284
 10
153.4075560303777
 20
149.926810240954
 10
153.3481436128419
 20
150.0028055840802
 10
153.2840339906279
 20
150.0773654874297
 10
153.2672096563436
 20
150.0958897967739
 10
153.2155941022415
 20
150.15043213861
 10
153.1431908861879
 20
150.2219515803909
 10
153.0671912809726
 20
150.2918735811471
 10
153.0531527006681
 20
150.3042906635776
 10
152.9879622220538
 20
150.3601515046921
 10
152.9058461083169
 20
150.4267449568246
 10
152.8211014568112
 20
150.4916259476335
 10
152.8070209437839
 20
150.5020629838043
 10
152.7339688746473
 20
150.5547705575728
 10
152.6446889689358
 20
150.6161565757698
 10
152.5535023467869
 20
150.6757632548451
 10
152.5351797568516
 20
150.6873920466133
 10
152.3685728289234
 20
150.7882708282307
 10
152.3663491931035
 20
150.7895611418016
 10
152.2707785033116
 20
150.8437146960526
 10
152.2445158989576
 20
150.8581627170178
 10
152.1741094060193
 20
150.8960136228489
 10
152.076513934584
 20
150.9464403669994
 10
151.9781634238162
 20
150.9949777288574
 10
151.9403230763858
 20
151.0130658170626
 10
151.8792084991629
 20
151.0416078577549
 10
151.7797761128366
 20
151.0863121554937
 10
151.6799919224018
 20
151.1290722205651
 10
151.6281297145713
 20
151.1504829476506
 10
151.5799815854232
 20
151.1698697891963
 10
151.4798670968265
 20
151.2086864112395
 10
151.3797506352411
 20
151.2455025094953
 10
151.3129382385204
 20
151.2689647215935
 10
151.2797277083037
 20
151.2802982806556
 10
151.1798938186104
 20
151.3130540524727
 10
151.1060824594864
 20
151.3360024871876
 10
150.9981197403557
 20
151.3676151129778
 10
150.9811670111977
 20
151.3723667549083
 10
150.8824370907708
 20
151.398883154479
 10
150.7842287679631
 20
151.4232790794618
 10
150.6876192429024
 20
151.4453159815372
 10
150.6866162182631
 20
151.4455344305465
 10
150.5896728075442
 20
151.465629278902
 10
150.4934643297379
 20
151.4835435815043
 10
150.3980524455721
 20
151.4992575141102
 10
150.3844445421046
 20
151.501328571938
 10
150.3034987650883
 20
151.5127517172208
 10
150.2098624218264
 20
151.5240072587445
 10
150.1171966982871
 20
151.5330056478425
 10
150.0909063925964
 20
151.5351595209993
 10
150.0255540322288
 20
151.5397290236104
 10
149.93498686141
 20
151.5441602003
 10
149.9236708578015
 20
151.5445545382539
 10
149.8090230316272
 20
151.5464819231604
 10
149.7572824686624
 20
151.546080790685
 10
149.6702362864085
 20
151.5435397766783
 10
149.5844524407241
 20
151.5386460494993
 10
149.5403468963755
 20
151.535166360691
 10
149.4999746585983
 20
151.5313871677868
 10
149.4168466670204
 20
151.5217519012969
 10
149.3351117921696
 20
151.5097303101219
 10
149.2864885856619
 20
151.5013195440372
 10
149.2548085219211
 20
151.4953141508637
 10
149.1759721355653
 20
151.4784970681228
 10
149.0986378548637
 20
151.4592745328344
 10
149.0484322041097
 20
151.4452671361035
 10
149.0228409015772
 20
151.4376439025451
 10
148.9486164974674
 20
151.4136044864911
 10
148.8759998642953
 20
151.3871576124627
 10
148.8329174716966
 20
151.3700124547633
 10
148.8271134630655
 20
151.3676164673484
 10
148.8050262238223
 20
151.3583066953782
 10
148.7357307625813
 20
151.3270573158135
 10
148.6681459934295
 20
151.2934179622357
 10
148.6227811473875
 20
151.2689623657017
 10
148.602299926264
 20
151.2574008148108
 10
148.5382201384357
 20
151.2190210135972
 10
148.4759342072956
 20
151.1782966190567
 10
148.4361918841529
 20
151.1504113904705
 10
148.4154697101945
 20
151.1352486656174
 10
148.3568542244833
 20
151.0899012130511
 10
148.3001153275131
 20
151.0422813954811
 10
148.2675047297464
 20
151.0131081310518
 10
148.2452805966346
 20
150.9924194678383
 10
148.1923773260362
 20
150.940349129913
 10
148.1414298126297
 20
150.8861104048645
 10
148.1166964959195
 20
150.8581920044361
 10
148.0924605508305
 20
150.8297489359927
 10
148.0454920103937
 20
150.7713143448725
 10
148.0005466610747
 20
150.7108601774527
 10
147.9839998947225
 20
150.687366008426
 10
147.9576469726285
 20
150.6484438645753
 10
147.9168154148105
 20
150.584126673371
 10
147.8780742570378
 20
150.5179737430866
 10
147.869204045718
 20
150.5020391750134
 10
147.8443967131216
 20
150.4557477325442
 10
147.8414423433324
 20
150.45005556994
 10
147.8069356433728
 20
150.3804478349583
 10
147.7745700377735
 20
150.3092300504158
 10
147.7723812423374
 20
150.3041778438921
  0
LWPOLYLINE
  5
164
330
1F
100
AcDbEntity
  8
0
 62
     2
100
AcDbPolyline
 90
      120
 70
     0
 43
0.0
 10
147.5535514686883
 20
149.1965143498097
 10
147.5546919965859
 20
149.1131547889763
 10
147.558110651737
 20
149.0299189406108
 10
147.5622845339481
 20
148.9660912556279
 10
147.5638024261698
 20
148.9469299981157
 10
147.5717623119124
 20
148.8643104213806
 10
147.5819853009929
 20
148.7821815746274
 10
147.5884722192633
 20
148.7379015886071
 10
147.5944663854396
 20
148.7006633689306
 10
147.6092005060944
 20
148.6198738572285
 10
147.626180093793
 20
148.5399263384713
 10
147.6321473896479
 20
148.514280205368
 10
147.645393981209
 20
148.4609280469772
 10
147.6668307233119
 20
148.3829834567159
 10
147.6904788750708
 20
148.3061943408538
 10
147.6934282243251
 20
148.2971729429781
 10
147.716326991455
 20
148.2306595469575
 10
147.7443629991747
 20
148.1564744486472
 10
147.772383066263
 20
148.0887817842962
 10
147.7745718797928
 20
148.0837295627909
 10
147.8069377526041
 20
148.0125115742901
 10
147.8414447367947
 20
147.9429036540257
 10
147.8443991308892
 20
147.937211476933
 10
147.8692066673952
 20
147.8909199206033
 10
147.8780769515506
 20
147.8749853150315
 10
147.9168184269472
 20
147.8088322390007
 10
147.9576503183608
 20
147.7445149225939
 10
147.984003455119
 20
147.7055927116604
 10
148.0005503560109
 20
147.6820985055564
 10
148.0454960698547
 20
147.621644255484
 10
148.0924649898494
 20
147.5632096036146
 10
148.1167011302649
 20
147.5347665131148
 10
148.1414346459522
 20
147.5068480962226
 10
148.1923825681205
 20
147.452609355139
 10
148.2452862616259
 20
147.4005390238258
 10
148.2675105718478
 20
147.3798503697958
 10
148.3001214288735
 20
147.3506771251979
 10
148.3568607752144
 20
147.3030573589908
 10
148.4154767229614
 20
147.2577099801559
 10
148.4361990597449
 20
147.2425472860338
 10
148.4759416944274
 20
147.2146621227922
 10
148.5382281119255
 20
147.1739378466025
 10
148.6023083977686
 20
147.1355581859035
 10
148.6227897775775
 20
147.12399668367
 10
148.6681549742697
 20
147.0995412010042
 10
148.7357402637417
 20
147.0659020317702
 10
148.805036255682
 20
147.034652858081
 10
148.8271236633398
 20
147.0253431550668
 10
148.832927716166
 20
147.0229471860296
 10
148.876010436038
 20
147.0058021680131
 10
148.9486276177405
 20
146.9793555419105
 10
149.0228525785402
 20
146.955316394438
 10
149.0484440720819
 20
146.947693256834
 10
149.0986500961877
 20
146.9336860530999
 10
149.1759849484339
 20
146.9144638268151
 10
149.2548219130294
 20
146.8976470727823
 10
149.2865022078853
 20
146.8916418153722
 10
149.3351257677249
 20
146.8832312615599
 10
149.4168612326546
 20
146.8712100373382
 10
149.4999898184176
 20
146.8615751562374
 10
149.540362342556
 20
146.8577961546873
 10
149.5844681981338
 20
146.8543166779237
 10
149.6702526444397
 20
146.8494233717659
 10
149.7572994299716
 20
146.8468827960379
 10
149.8089168797692
 20
146.8464819258752
 10
149.9236708645983
 20
146.8484093134664
 10
149.9350050356192
 20
146.8488043134036
 10
150.0255728134802
 20
146.8532359781707
 10
150.0909256062935
 20
146.8578058391638
 10
150.1172160845574
 20
146.8599598579017
 10
150.2098824096692
 20
146.8689587662996
 10
150.3035193496341
 20
146.8802148417687
 10
150.3844656326605
 20
146.8916384555662
 10
150.398073620301
 20
146.893709592792
 10
150.4934860889761
 20
146.9094240876463
 10
150.5896951490568
 20
146.9273389681965
 10
150.6866391431276
 20
146.9474344122758
 10
150.6876387386284
 20
146.9476521190002
 10
150.78425227321
 20
146.9696903772792
 10
150.8824611607436
 20
146.9940869295757
 10
150.9811916172751
 20
147.0206039625677
 10
150.998144434421
 20
147.0253557129288
 10
151.1059534529198
 20
147.056922202999
 10
151.1799193608542
 20
147.0799179130387
 10
151.2797536577654
 20
147.1126743015333
 10
151.3129643228519
 20
147.1240080700384
 10
151.3797769995912
 20
147.1474707175734
 10
151.4798939264093
 20
147.1842875252772
 10
151.5800089731808
 20
147.2231049642691
 10
151.6281574085728
 20
147.2424922461998
 10
151.6800199530174
 20
147.2639034689539
 10
151.779804727612
 20
147.3066644823458
 10
151.8792374741156
 20
147.3513695904257
 10
151.9403520899145
 20
147.3799119877373
 10
151.9781923696793
 20
147.3980002183473
 10
152.0765423164543
 20
147.4465375939647
 10
152.1741369317274
 20
147.496964073046
 10
152.2445429592251
 20
147.5348149502126
 10
152.2708054787245
 20
147.5492630566691
 10
152.3663765351593
 20
147.6034176806617
 10
152.3686001954932
 20
147.6047080374662
 10
152.5352076953887
 20
147.7055934062229
 10
152.5535288013418
 20
147.7172232117393
 10
152.6447048471237
 20
147.7768340572478
 10
152.7339766356692
 20
147.8382199272826
 10
152.8070297938681
 20
147.8909213613816
 10
152.8211107836903
 20
147.9013564760628
 10
152.9058487247538
 20
147.9662209347821
 10
152.9879199921794
 20
148.0327904535847
 10
153.0530337715581
 20
148.0886281289893
 10
153.0670540486888
 20
148.1010403883241
 10
153.1429783114332
 20
148.1709436268499
 10
153.2153673441989
 20
148.2424605521047
 10
153.2671628301972
 20
148.2971829678375
 10
153.2838394157538
 20
148.3155373453855
 10
153.3480100601052
 20
148.3901155895498
 10
153.4074948112606
 20
148.4661326928358
 10
153.442039409461
 20
148.5142248435766
 10
153.4619092032277
 20
148.5435218116312
 10
153.5108869017724
 20
148.6222021321693
  0
LWPOLYLINE
  5
165
330
1F
100
AcDbEntity
  8
0
 62
     2
100
AcDbPolyline
 90
      103
 70
     0
 43
0.0
 10
153.6793685833414
 20
161.2164878831715
 10
153.6766371520803
 20
161.3060008132531
 10
153.6715243336315
 20
161.3954310756118
 10
153.6691944491318
 20
161.4267799511559
 10
153.6561450323098
 20
161.5594722187076
 10
153.643458276125
 20
161.6549095030948
 10
153.6423598516686
 20
161.6622788201383
 10
153.6278565143255
 20
161.750454118413
 10
153.6108792731848
 20
161.8380976141973
 10
153.6021430153679
 20
161.8785847688333
 10
153.5974506052029
 20
161.899292968264
 10
153.5774226430865
 20
161.9809780602037
 10
153.5449916084575
 20
162.0958035083243
 10
153.5446376139684
 20
162.0969628038479
 10
153.5172815283496
 20
162.1815841491957
 10
153.4992849762322
 20
162.2325113495105
 10
153.4718036322151
 20
162.3042097367712
 10
153.4537835914209
 20
162.3477766726116
 10
153.4171941672087
 20
162.429157196095
 10
153.3808639977097
 20
162.5020719204666
 10
153.3517179921296
 20
162.5558394486188
 10
153.3332764555339
 20
162.58796586623
 10
153.2855623998406
 20
162.6651675493922
 10
153.2709342952042
 20
162.687305701797
 10
153.2337556878808
 20
162.7407256610783
 10
153.1775909015621
 20
162.8145060055882
 10
153.1413448408139
 20
162.858182451611
 10
153.1342755378277
 20
162.866371183932
 10
153.1165983538725
 20
162.8864007308669
 10
153.0502731580777
 20
162.956278518921
 10
152.9904167746597
 20
163.0129830840085
 10
152.9781104274436
 20
163.0239723944737
 10
152.8995890756046
 20
163.0892771706843
 10
152.8163319640728
 20
163.1504057208209
 10
152.8008403196896
 20
163.1609576215359
 10
152.7209519817624
 20
163.211698054104
 10
152.6195198353163
 20
163.2681868329561
 10
152.6179429975712
 20
163.2690016102672
 10
152.5621896527805
 20
163.2966581674586
 10
152.3947165414151
 20
163.3675757557449
 10
152.388737778339
 20
163.3698034020608
 10
152.2576796804602
 20
163.4140041751263
 10
152.1781247006147
 20
163.4368635358121
 10
152.1461038181602
 20
163.4452913833823
 10
152.1151099854372
 20
163.4530470541403
 10
151.9604096888279
 20
163.4862577241618
 10
151.8728882645989
 20
163.5013268996357
 10
151.7936119981732
 20
163.5128677496647
 10
151.6152640376006
 20
163.5321356709428
 10
151.5767521577011
 20
163.535165964905
 10
151.4872940582957
 20
163.5407604240264
 10
151.2609271980081
 20
163.5464819256678
 10
151.2313092771604
 20
163.5463876764628
 10
151.030858503761
 20
163.5409565879898
 10
150.9297081914167
 20
163.5351659517286
 10
150.8284812251597
 20
163.5273999589014
 10
150.6270530838141
 20
163.5062354646463
 10
150.5884688554782
 20
163.5013272380677
 10
150.3506042935361
 20
163.4650666713331
 10
150.2431692004053
 20
163.4452934905172
 10
150.2006694507277
 20
163.436881015782
 10
149.9002330093907
 20
163.3675981692784
 10
149.8709512902213
 20
163.359901325331
 10
149.6993257773303
 20
163.3112459852972
 10
149.5657483351469
 20
163.2689956357544
 10
149.5351014572462
 20
163.2587358373425
 10
149.3782408622984
 20
163.2027604354876
 10
149.2709372292554
 20
163.1609692117259
 10
149.2450393495203
 20
163.1504342833393
 10
149.1503987272735
 20
163.1103772907808
 10
149.0863055390513
 20
163.0817946851178
 10
148.9510942553919
 20
163.0173160221102
 10
148.9424814286633
 20
163.0130040965186
 10
148.8229693953215
 20
162.950405036515
 10
148.701823082688
 20
162.8812032312345
 10
148.6774822420548
 20
162.8665392879939
 10
148.6638059610734
 20
162.8581826110578
 10
148.5874288929245
 20
162.8098959928622
 10
148.4795409675511
 20
162.7366601902984
 10
148.4116325459882
 20
162.687229199654
 10
148.377943201901
 20
162.6616518289581
 10
148.2825645472695
 20
162.585000019432
 10
148.2484285941346
 20
162.5558833530534
 10
148.1881644206948
 20
162.5020211900992
 10
148.1103569412826
 20
162.4271836764187
 10
148.0334616075872
 20
162.3461929726992
 10
147.9964143970037
 20
162.3042285456543
 10
147.9371745286479
 20
162.2324557375477
 10
147.883907237476
 20
162.1621809397732
 10
147.8375761553656
 20
162.0957428811202
 10
147.7838274853624
 20
162.0109263423778
 10
147.7353175254166
 20
161.9248323587755
 10
147.7221531943464
 20
161.8994322843176
 10
147.7117566768356
 20
161.8786272166868
 10
147.6924560356476
 20
161.8380062533984
 10
147.6553424732403
 20
161.7505248189541
 10
147.6240747257907
 20
161.6624609305527
 10
147.6216575761143
 20
161.6548528491975
 10
147.5952071530273
 20
161.559962561332
 10
147.5692430513983
 20
161.4267498441322
 10
147.5649936660684
 20
161.3956300730415
 10
147.5564911997836
 20
161.3061174474623
 10
147.5536172841306
 20
161.2164790220234
  0
LWPOLYLINE
  5
166
330
1F
100
AcDbEntity
  8
0
 62
     2
100
AcDbPolyline
 90
       14
 70
     0
 43
0.0
 10
153.4420290503159
 20
160.5142099041057
 10
153.4618991034733
 20
160.5435065792025
 10
153.5108775824033
 20
160.6221861261236
 10
153.5541408684605
 20
160.7020243257297
 10
153.5715575206095
 20
160.7380311454747
 10
153.5914368234043
 20
160.7828683608585
 10
153.6225133146139
 20
160.8645597739254
 10
153.6471182094681
 20
160.946935328455
 10
153.6518734424683
 20
160.9661205434373
 10
153.6649993753459
 20
161.0298279098842
 10
153.6759046796263
 20
161.1130674607764
 10
153.6795819882249
 20
161.1964608931222
 10
153.6795289691757
 20
161.2064745365022
 10
153.6793685833414
 20
161.2164878831715
  0
LWPOLYLINE
  5
167
330
1F
100
AcDbEntity
  8
0
 62
     2
100
AcDbPolyline
 90
      120
 70
     0
 43
0.0
 10
147.5536172841306
 20
161.2164790220234
 10
147.5535679341205
 20
161.2064711965959
 10
147.5535514687818
 20
161.196481854027
 10
147.5546928701725
 20
161.1131228774881
 10
147.5581123662678
 20
161.0298876590311
 10
147.5622868729042
 20
160.9660604876292
 10
147.5638049491968
 20
160.9468993893655
 10
147.5717656110885
 20
160.8642805255703
 10
147.5819893440722
 20
160.7821524289532
 10
147.5884387795749
 20
160.7381183309798
 10
147.5944711402771
 20
160.7006350075848
 10
147.609205940501
 20
160.6198463111724
 10
147.6261861741077
 20
160.5398996339057
 10
147.6321536715019
 20
160.5142537778369
 10
147.6454006735454
 20
160.4609022066666
 10
147.6668379940142
 20
160.3829585004585
 10
147.6904866907142
 20
160.3061702854783
 10
147.6934361023613
 20
160.2971489953709
 10
147.7163353188455
 20
160.2306364063307
 10
147.7443718047472
 20
160.1564522333748
 10
147.77238560852
 20
160.0887758976611
 10
147.7745811295324
 20
160.083708280236
 10
147.806947412814
 20
160.0124912290389
 10
147.8414547740986
 20
159.9428842479388
 10
147.8444091979475
 20
159.9371921486542
 10
147.8692169701976
 20
159.8909012307676
 10
147.8780873328924
 20
159.8749668473021
 10
147.9168291194251
 20
159.8088147061451
 10
147.9576612881187
 20
159.7444983180496
 10
147.9839315124568
 20
159.7056964065312
 10
148.0005615693542
 20
159.682082820318
 10
148.045507493542
 20
159.6216294783254
 10
148.0924765910925
 20
159.5631957211785
 10
148.1167128081321
 20
159.5347530723905
 10
148.1414463924162
 20
159.5068350931142
 10
148.1923944279235
 20
159.4525972140229
 10
148.2452982032857
 20
159.4005277254755
 10
148.2675225378523
 20
159.3798394104424
 10
148.3001334205836
 20
159.3506666479602
 10
148.3568727854443
 20
159.3030476795635
 10
148.415488720737
 20
159.2577010739617
 10
148.4362110460943
 20
159.2425386415528
 10
148.475953649331
 20
159.2146539640717
 10
148.5382399940952
 20
159.1739304085066
 10
148.602320177899
 20
159.1355514405847
 10
148.6228015197208
 20
159.123990149935
 10
148.6681666236114
 20
159.0995351197062
 10
148.7357517541016
 20
159.0658965849165
 10
148.8050475591232
 20
159.0346480152971
 10
148.8271349023051
 20
159.0253384953987
 10
148.8329389378118
 20
159.0229425737471
 10
148.8760215243783
 20
159.0057978981415
 10
148.9486384634492
 20
158.9793518133215
 10
149.0228631547972
 20
158.9553131751123
 10
149.0484545507612
 20
158.9476902032726
 10
149.0986603768833
 20
158.933683310695
 10
149.1759949081685
 20
158.9144615287291
 10
149.254831527114
 20
158.8976451862156
 10
149.2865116781803
 20
158.8916400829229
 10
149.335135012181
 20
158.8832297535735
 10
149.4168700841598
 20
158.871208874908
 10
149.499998253749
 20
158.8615743062923
 10
149.5403705701188
 20
158.8577954429635
 10
149.5844761947416
 20
158.854316107445
 10
149.6702601806559
 20
158.8494230478413
 10
149.7573064850102
 20
158.8468826858983
 10
149.8089236433101
 20
158.8464819259348
 10
149.9235747115256
 20
158.8484061168713
 10
149.9350110694321
 20
158.8488045332772
 10
150.0255783085956
 20
158.8532363147403
 10
150.0909307057737
 20
158.8578062395793
 10
150.1172210233521
 20
158.8599602793323
 10
150.2098867755775
 20
158.8689592410632
 10
150.303523127148
 20
158.8802153386646
 10
150.3844688945188
 20
158.8916389468721
 10
150.3980767948667
 20
158.8937100809675
 10
150.4934886470014
 20
158.9094245366168
 10
150.589697078186
 20
158.9273393478539
 10
150.6866404322419
 20
158.9474346929013
 10
150.6876400211134
 20
158.9476523984554
 10
150.784252912385
 20
158.9696905295584
 10
150.8824611414847
 20
158.9940869245968
 10
150.981190932584
 20
159.0206037718236
 10
150.9981436351928
 20
159.0253554875467
 10
151.1059519239402
 20
159.0569217388683
 10
151.1799173303893
 20
159.0799172668887
 10
151.279750950565
 20
159.112673386545
 10
151.3129613907604
 20
159.1240070597728
 10
151.3797736156991
 20
159.1474695068481
 10
151.4798898677946
 20
159.1842859923153
 10
151.5800042437451
 20
159.2231030829749
 10
151.6281523585228
 20
159.2424901880847
 10
151.6800145595581
 20
159.2639012135872
 10
151.7797986799622
 20
159.3066618275111
 10
151.8792307846461
 20
159.351366511105
 10
151.9403450117494
 20
159.3799086342202
 10
151.9781850532986
 20
159.3979966899114
 10
152.076534391169
 20
159.4465335921532
 10
152.174128421207
 20
159.4969595738111
 10
152.2445340401335
 20
159.5348100742985
 10
152.2707964104357
 20
159.5492580362953
 10
152.3663669400262
 20
159.6034121158096
 10
152.3685905884203
 20
159.6047024595864
 10
152.5351972427834
 20
159.7055868031473
 10
152.5535182629049
 20
159.7172164897632
 10
152.6446939066949
 20
159.7768267239563
 10
152.7339653467513
 20
159.8382119617138
 10
152.8070182589075
 20
159.8909128511229
 10
152.8210992060858
 20
159.9013478577463
 10
152.9058369269847
 20
159.9662116434685
 10
152.9879080483476
 20
160.0327804697006
 10
153.0530217670796
 20
160.0886175631808
 10
153.0670420383526
 20
160.1010296930744
 10
153.1429663216901
 20
160.1709322027094
 10
153.2153554822291
 20
160.2424483853763
 10
153.2671511408668
 20
160.2971702359327
 10
153.2838277989153
 20
160.3155244245833
 10
153.3479988135104
 20
160.3901019050755
 10
153.4074840677759
 20
160.4661182371054
 10
153.4420290503159
 20
160.5142099041057
  0
LINE
  5
168
330
1F
100
AcDbEntity
  8
0
 62
     2
100
AcDbLine
 10
165.4395723692807
 20
124.109394305569
 30
0.0
 11
165.4395723692807
 21
123.2925893134762
 31
0.0
  0
LINE
  5
169
330
1F
100
AcDbEntity
  8
0
 62
     2
100
AcDbLine
 10
165.4395723692807
 20
123.2925893134762
 30
0.0
 11
159.4395723692807
 21
123.2925893134762
 31
0.0
  0
LINE
  5
16A
330
1F
100
AcDbEntity
  8
0
 62
     2
100
AcDbLine
 10
165.4395723692807
 20
124.109394305569
 30
0.0
 11
159.4395723692807
 21
124.109394305569
 31
0.0
  0
LINE
  5
16B
330
1F
100
AcDbEntity
  8
0
 62
     2
100
AcDbLine
 10
165.4395723692807
 20
164.716478358781
 30
0.0
 11
165.4395723692807
 21
161.216478358781
 31
0.0
  0
LINE
  5
16C
330
1F
100
AcDbEntity
  8
0
 62
     2
100
AcDbLine
 10
147.9395723692808
 20
164.716478358781
 30
0.0
 11
159.4395723692805
 21
164.716478358781
 31
0.0
  0
LINE
  5
16D
330
1F
100
AcDbEntity
  8
0
 62
     2
100
AcDbLine
 10
165.4395723692807
 20
164.716478358781
 30
0.0
 11
159.4395723692807
 21
164.716478358781
 31
0.0
  0
LINE
  5
16E
330
1F
100
AcDbEntity
  8
0
 62
     2
100
AcDbLine
 10
165.4395723692807
 20
161.216478358781
 30
0.0
 11
159.4395723692807
 21
161.216478358781
 31
0.0
  0
LINE
  5
16F
330
1F
100
AcDbEntity
  8
0
 62
     2
100
AcDbLine
 10
165.4395723692807
 20
92.41647846190268
 30
0.0
 11
165.4395723692807
 21
88.91647835878106
 31
0.0
  0
LINE
  5
170
330
1F
100
AcDbEntity
  8
0
 62
     2
100
AcDbLine
 10
165.4395723692807
 20
92.4164784619027
 30
0.0
 11
159.4395723692807
 21
92.41647846190268
 31
0.0
  0
LINE
  5
171
330
1F
100
AcDbEntity
  8
0
 62
     2
100
AcDbLine
 10
165.4395723692807
 20
88.91647835878106
 30
0.0
 11
159.4395723692807
 21
88.91647835878106
 31
0.0
  0
LWPOLYLINE
  5
172
330
1F
100
AcDbEntity
  8
0
 62
     2
100
AcDbPolyline
 90
       39
 70
     0
 43
0.0
 10
159.4395338091823
 20
118.443239028727
 10
158.828251451051
 20
118.0592949028239
 10
158.771321484176
 20
118.0210276626563
 10
158.1138329270136
 20
117.5454312102202
 10
157.9693131393577
 20
117.4321126428375
 10
157.8194436555522
 20
117.3110236107411
 10
156.8887006043456
 20
116.467485222805
 10
156.5132006416319
 20
116.0755935614978
 10
156.0450376970539
 20
115.5367550256846
 10
155.2968647035307
 20
114.5276937484726
 10
155.0853013461382
 20
114.1999562133531
 10
154.6511583885541
 20
113.4503380396471
 10
154.5980876571396
 20
113.3504027269233
 10
154.1340131546873
 20
112.3705248431381
 10
154.1108617706095
 20
112.3152930368219
 10
153.6992691226282
 20
111.16877345278
 10
153.6883808994258
 20
111.1327183890198
 10
153.3875546643222
 20
109.9128479296098
 10
153.2037696039975
 20
108.6695218287195
 10
153.1395760591731
 20
107.4164781503714
 10
153.2037696036572
 20
106.1634356747367
 10
153.3875546640655
 20
104.9201095788848
 10
153.6883808999149
 20
103.700239186845
 10
153.6992691226629
 20
103.664184127744
 10
154.1108617717654
 20
102.5176646206185
 10
154.1340131614234
 20
102.4624328019587
 10
154.5980876629084
 20
101.4825548202693
 10
154.6511583884355
 20
101.3826194904115
 10
155.0853013461364
 20
100.6330009985667
 10
155.296864701932
 20
100.305263297866
 10
156.0450376966136
 20
99.29620168865014
 10
156.5132006414948
 20
98.75736335341611
 10
156.8887006065064
 20
98.36547207811913
 10
157.8194436568874
 20
97.52193451939473
 10
157.9693131393683
 20
97.40084550195434
 10
158.1138329327841
 20
97.28752689183574
 10
158.7713214896728
 20
96.81192980565675
 10
158.8282514509804
 20
96.77366249703402
 10
159.439533808931
 20
96.38971768901334
  0
LINE
  5
173
330
1F
100
AcDbEntity
  8
0
 62
     2
100
AcDbLine
 10
144.4395723692807
 20
134.4319087513167
 30
0.0
 11
144.4395723692807
 21
161.2164783587827
 31
0.0
  0
LINE
  5
174
330
1F
100
AcDbEntity
  8
0
 62
     2
100
AcDbLine
 10
159.4395723692807
 20
136.206708879399
 30
0.0
 11
159.4395723692807
 21
161.216478358781
 31
0.0
  0
LINE
  5
175
330
1F
100
AcDbEntity
  8
0
 62
     2
100
AcDbLine
 10
159.4395723692807
 20
118.4432390287271
 30
0.0
 11
159.4395723692807
 21
123.2925893134762
 31
0.0
  0
LINE
  5
176
330
1F
100
AcDbEntity
  8
0
 62
     2
100
AcDbLine
 10
144.4395723692807
 20
103.9164783587814
 30
0.0
 11
144.4395723692807
 21
121.9319089451151
 31
0.0
  0
LINE
  5
177
330
1F
100
AcDbEntity
  8
0
 62
     2
100
AcDbLine
 10
159.4395723692807
 20
92.41647846190268
 30
0.0
 11
159.4395723692807
 21
96.38971768901334
 31
0.0
  0
LINE
  5
178
330
1F
100
AcDbEntity
  8
0
 62
     2
100
AcDbLine
 10
144.4395723692807
 20
121.931908945113
 30
0.0
 11
144.4395723692807
 21
134.4319087513134
 31
0.0
  0
LINE
  5
179
330
1F
100
AcDbEntity
  8
0
 62
     2
100
AcDbLine
 10
159.4395723692807
 20
124.109394305569
 30
0.0
 11
159.4395723692807
 21
136.206708879399
 31
0.0
  0
LINE
  5
17A
330
1F
100
AcDbEntity
  8
0
 62
     2
100
AcDbLine
 10
165.4395723692807
 20
120.2067088614062
 30
0.0
 11
165.4395723692807
 21
123.2925893134762
 31
0.0
  0
ARC
  5
17B
330
1F
100
AcDbEntity
  8
0
 62
     2
100
AcDbCircle
 10
165.9395760589853
 20
107.416478358781
 30
0.0
 40
12.8
100
AcDbArc
 50
239.4817498205458
 51
267.7612975105649
  0
ARC
  5
17C
330
1F
100
AcDbEntity
  8
0
 62
     2
100
AcDbCircle
 10
165.9395760589853
 20
107.416478358781
 30
0.0
 40
12.8
100
AcDbArc
 50
92.2387024894347
 51
120.5182501794541
  0
LINE
  5
17D
330
1F
100
AcDbEntity
  8
0
 62
     2
100
AcDbLine
 10
165.4395723692807
 20
136.206708879399
 30
0.0
 11
165.4395723692807
 21
161.216478358781
 31
0.0
  0
LINE
  5
17E
330
1F
100
AcDbEntity
  8
0
 62
     2
100
AcDbLine
 10
165.4395723692807
 20
124.109394305569
 30
0.0
 11
165.4395723692807
 21
136.206708879399
 31
0.0
  0
LINE
  5
17F
330
1F
100
AcDbEntity
  8
0
 62
     2
100
AcDbLine
 10
165.4395723692807
 20
92.41647846190268
 30
0.0
 11
165.4395723692807
 21
94.62624785615593
 31
0.0
  0
LINE
  5
180
330
1F
100
AcDbEntity
  8
0
 62
     2
100
AcDbLine
 10
165.4395723692807
 20
136.206708879399
 30
0.0
 11
159.4395723692807
 21
136.206708879399
 31
0.0
  0
LWPOLYLINE
  5
181
330
1F
100
AcDbEntity
  8
0
 62
     2
100
AcDbPolyline
 90
       30
 70
     0
 43
0.0
 10
148.6921989458272
 20
123.7236094785001
 10
148.8295639416659
 20
123.745123562948
 10
148.8329225351332
 20
123.7456408213246
 10
149.4896119585204
 20
123.8392706608207
 10
149.7889716588371
 20
123.8773611694702
 10
149.9237535953528
 20
123.8936450253607
 10
150.1859678191236
 20
123.9238536900764
 10
150.9160584729492
 20
123.9983818036887
 10
150.9817449420626
 20
124.0044342654493
 10
151.1060312816331
 20
124.0156045265976
 10
151.6771736897473
 20
124.0623631726282
 10
152.2587648834156
 20
124.1026822901897
 10
152.3685820196119
 20
124.1095102971676
 10
152.4667069589011
 20
124.1154063164135
 10
153.2819353927744
 20
124.15714949805
 10
153.6073852590915
 20
124.1703299640115
 10
153.6993937935547
 20
124.1737071017027
 10
154.1196903699134
 20
124.1872160139806
 10
154.9768835821476
 20
124.2053175901381
 10
155.0143464610775
 20
124.2058270607417
 10
155.0853493253354
 20
124.2067290087103
 10
155.8503728213421
 20
124.211224608952
 10
156.4650312775244
 20
124.2080237332274
 10
156.5132842234754
 20
124.2075191530517
 10
156.7363256128304
 20
124.2047116771674
 10
157.6317846309307
 20
124.1856395937745
 10
157.9447976118039
 20
124.1760473494636
 10
157.9694280189554
 20
124.1752284662045
 10
158.53391892598
 20
124.1538992948427
 10
159.4395723692807
 20
124.109394305569
  0
LWPOLYLINE
  5
182
330
1F
100
AcDbEntity
  8
0
 62
     2
100
AcDbPolyline
 90
       10
 70
     0
 43
0.0
 10
152.989620684119
 20
136.0342519811998
 10
153.6993895135607
 20
136.071613273939
 10
153.8619572742677
 20
136.0794491852479
 10
154.7567795680377
 20
136.1180034654191
 10
155.0852589800469
 20
136.1302808189041
 10
156.5132421566825
 20
136.1726114031794
 10
156.5993764551353
 20
136.1746083103502
 10
157.5397229328115
 20
136.1924208203304
 10
157.9693261694526
 20
136.1981636046601
 10
159.4395723692807
 20
136.206708879399
  0
LINE
  5
183
330
1F
100
AcDbEntity
  8
0
 62
     2
100
AcDbLine
 10
153.679363459766
 20
161.2164783587827
 30
0.0
 11
159.4395723692803
 21
161.2164783587827
 31
0.0
  0
LWPOLYLINE
  5
184
330
1F
100
AcDbEntity
  8
0
 62
     2
100
AcDbPolyline
 90
       19
 70
     0
 43
0.0
 10
144.4395723692807
 20
121.931908945113
 10
144.4660799519008
 20
122.0904524575203
 10
144.5118014679633
 20
122.1923328401685
 10
144.5172767973754
 20
122.2019560002286
 10
144.5472701161393
 20
122.2495022781052
 10
144.682788090321
 20
122.4077748763831
 10
144.7277859049011
 20
122.4494458867889
 10
144.7509696724926
 20
122.4695931060538
 10
144.872277509665
 20
122.5639854533046
 10
145.0852071496412
 20
122.6999841647271
 10
145.1151513014606
 20
122.7170096327276
 10
145.1384154826821
 20
122.7299512701772
 10
145.4104884665516
 20
122.8661913007608
 10
145.5813649032322
 20
122.9407449856797
 10
145.6758066902841
 20
122.9791481567007
 10
145.7571470333584
 20
123.0108382780704
 10
146.1537724396847
 20
123.1502575927348
 10
146.2109380199041
 20
123.1686015488458
 10
146.3571231136522
 20
123.2138143140491
  0
LWPOLYLINE
  5
185
330
1F
100
AcDbEntity
  8
0
 62
     2
100
AcDbPolyline
 90
       55
 70
     0
 43
0.0
 10
144.4395723692807
 20
121.931908945113
 10
144.4660799226439
 20
121.9836124554296
 10
144.5111155953733
 20
122.0165478518706
 10
144.5118024617777
 20
122.0169520665871
 10
144.5472701158185
 20
122.035728591857
 10
144.6827880812374
 20
122.088089335779
 10
144.7264509754533
 20
122.1015955947
 10
144.7278128456819
 20
122.1019998580102
 10
144.8722481347677
 20
122.1405192471516
 10
145.0835777176311
 20
122.1867066185859
 10
145.0852451792362
 20
122.18703847274
 10
145.1151750494768
 20
122.1929251830854
 10
145.4104508799994
 20
122.2452946277508
 10
145.5794087388373
 20
122.2717817444626
 10
145.5814172838955
 20
122.2720848125271
 10
145.7570902123441
 20
122.2976732884453
 10
146.1537652841365
 20
122.3500665428128
 10
146.2088184941222
 20
122.3568649206072
 10
146.2109388878764
 20
122.3571247700575
 10
146.5988243802884
 20
122.4024543179638
 10
146.9654950738932
 20
122.4419527624469
 10
146.9675768911169
 20
122.4421692265367
 10
147.0907893797344
 20
122.4548394655962
 10
147.6279704978376
 20
122.5072209556788
 10
147.8425118277734
 20
122.527032779611
 10
147.8444151491501
 20
122.5272060573017
 10
148.2082304464811
 20
122.5595941548435
 10
148.8294601393735
 20
122.6119624797702
 10
148.8312261934933
 20
122.6121067441919
 10
148.83299400779
 20
122.612251128267
 10
149.4894961412882
 20
122.6643302167055
 10
149.9222123151301
 20
122.6971786107646
 10
149.9237581970161
 20
122.6972941045998
 10
150.1858397918435
 20
122.7166969618526
 10
150.9159181075241
 20
122.7690619727395
 10
151.1047571730646
 20
122.7822466308281
 10
151.1060046314051
 20
122.7823332773558
 10
151.6771389519264
 20
122.8214247802842
 10
152.3676226654692
 20
122.8673104336041
 10
152.368724123416
 20
122.8673825591471
 10
152.4667282341343
 20
122.8737873276004
 10
153.2818121547764
 20
122.9261528117925
 10
153.6987072095631
 20
122.9523809390152
 10
153.6994001433405
 20
122.9524242524926
 10
154.1195729998484
 20
122.9785286019184
 10
154.97690303195
 20
123.0309114072861
 10
155.0853344396071
 20
123.0374625750241
 10
155.8502740230295
 20
123.0832794398984
 10
156.5132897235716
 20
123.1225085644544
 10
156.5135349108853
 20
123.1225230012096
 10
156.7363714237358
 20
123.1356244820556
 10
157.631815451145
 20
123.1879386852727
 10
157.9694074164379
 20
123.2075521633948
 10
158.5339318915974
 20
123.2402576545888
 10
159.4395723692807
 20
123.2925893134762
  0
LINE
  5
186
330
1F
100
AcDbEntity
  8
0
 62
     2
100
AcDbLine
 10
145.7761529260257
 20
161.2164783587827
 30
0.0
 11
147.5536169787509
 21
161.2164783587827
 31
0.0
  0
LINE
  5
187
330
1F
100
AcDbEntity
  8
0
 62
     2
100
AcDbLine
 10
144.4395723692807
 20
161.2164783587827
 30
0.0
 11
145.7761529260257
 21
161.2164783587827
 31
0.0
  0
LWPOLYLINE
  5
188
330
1F
100
AcDbEntity
  8
0
 62
     2
100
AcDbPolyline
 90
       25
 70
     0
 43
0.0
 10
150.4396274287911
 20
97.12763207229267
 10
150.865588890002
 20
96.87105383004155
 10
151.1059793008594
 20
96.72900174593426
 10
151.4982395868429
 20
96.50106164066278
 10
151.7736187185458
 20
96.34366794104024
 10
152.151105054314
 20
96.13111897543561
 10
152.3685857894192
 20
96.01022033261036
 10
152.8228351496398
 20
95.76104957648452
 10
153.195826521095
 20
95.55954443437942
 10
153.5124319156811
 20
95.39048268953024
 10
153.6993208410827
 20
95.2914785355359
 10
154.2185251921847
 20
95.01924636823173
 10
154.6920059420264
 20
94.77422711011985
 10
154.9390056789813
 20
94.64749989891689
 10
155.0854046891616
 20
94.57271275230052
 10
155.6712567864306
 20
94.27563859275463
 10
156.2437535229299
 20
93.98833119671613
 10
156.4129215824387
 20
93.90392523993154
 10
156.513147270157
 20
93.85401346511748
 10
157.1618710998931
 20
93.53248146063139
 10
157.8316322224984
 20
93.20278420353483
 10
157.9168607838877
 20
93.16095830661479
 10
157.9693300964548
 20
93.13522120681603
 10
158.6765365231692
 20
92.78906042381533
 10
159.4395723692807
 20
92.41647846190268
  0
ARC
  5
189
330
1F
100
AcDbEntity
  8
0
 62
     2
100
AcDbCircle
 10
159.4395723692807
 20
103.916478358781
 30
0.0
 40
15.0
100
AcDbArc
 50
203.6925957773864
 51
252.5399770433555
  0
ARC
  5
18A
330
1F
100
AcDbEntity
  8
0
 62
     2
100
AcDbCircle
 10
159.4395723692807
 20
103.916478358781
 30
0.0
 40
15.0
100
AcDbArc
 50
182.7211444067352
 51
203.6925957773863
  0
LWPOLYLINE
  5
18B
330
1F
100
AcDbEntity
  8
0
 62
     2
100
AcDbPolyline
 90
       36
 70
     0
 43
0.0
 10
144.4395723692807
 20
103.9164783587814
 10
144.4555585214856
 20
103.56874174444
 10
144.5096222244381
 20
103.2085207421846
 10
144.5118014449715
 20
103.1977285000267
 10
144.5363370214515
 20
103.0855533985602
 10
144.602118126752
 20
102.8393701552199
 10
144.7277789392069
 20
102.4790141984913
 10
144.7333905658625
 20
102.4649595887171
 10
144.8334979109376
 20
102.2337314661097
 10
144.9037711371518
 20
102.0888894335433
 10
145.0846380156511
 20
101.7603204273265
 10
145.1129766209191
 20
101.7132212353175
 10
145.3306322138447
 20
101.3797569510851
 10
145.3599340541212
 20
101.3380470571274
 10
145.5813793919354
 20
101.0414784300512
 10
145.6435338203451
 20
100.9633090370584
 10
145.9626658278961
 20
100.5890157245981
 10
146.0190116579483
 20
100.5269250722127
 10
146.2110890135533
 20
100.3226946926489
 10
146.3163607355096
 20
100.2151465658452
 10
146.7035781723355
 20
99.841778688805
 10
146.8869372597275
 20
99.67532476578617
 10
146.9675534889684
 20
99.60395624031895
 10
147.1233267257384
 20
99.4689314151284
 10
147.5744776591645
 20
99.09660584140317
 10
147.8443951455874
 20
98.8852025347555
 10
147.9229862079638
 20
98.82504154912712
 10
148.055719232386
 20
98.72475674883353
 10
148.5657256639181
 20
98.35333487340381
 10
148.8330094962865
 20
98.16645169171932
 10
149.10315751741
 20
97.98229808249403
 10
149.1126665192617
 20
97.97589690672461
 10
149.6666342793779
 20
97.61158196943123
 10
149.9237754768835
 20
97.44770951985933
 10
150.2546300762704
 20
97.24116889684535
 10
150.4396274287911
 20
97.12763207229267
  0
LWPOLYLINE
  5
18C
330
1F
100
AcDbEntity
  8
0
 62
     2
100
AcDbPolyline
 90
       15
 70
     0
 43
0.0
 10
144.4395723692807
 20
134.4319087513154
 10
144.5118035726859
 20
134.6058747227859
 10
144.5646174131545
 20
134.6606005440938
 10
144.720434979499
 20
134.7737504224596
 10
144.7278020445644
 20
134.7781616294386
 10
145.0854893701887
 20
134.9471135948397
 10
145.2154150319082
 20
134.9953071405162
 10
145.5525139553951
 20
135.1027900886538
 10
145.5814161851317
 20
135.111105307757
 10
146.210714430092
 20
135.2685388256888
 10
146.3989078503598
 20
135.308929231426
 10
146.9046734656147
 20
135.4067195483047
 10
146.9675184588827
 20
135.4179394809146
 10
147.844455415978
 20
135.5578362244943
 10
148.0708049086894
 20
135.5897020008074
  0
LWPOLYLINE
  5
18D
330
1F
100
AcDbEntity
  8
0
 62
     2
100
AcDbPolyline
 90
      103
 70
     0
 43
0.0
 10
159.4395723692807
 20
92.41647846190268
 10
159.4395723692807
 20
92.31251321378123
 10
159.4395723692807
 20
92.21212137964655
 10
159.4395723692807
 20
92.11530616321402
 10
159.4395723692807
 20
92.07330416783688
 10
159.4395723692807
 20
92.02762649960437
 10
159.4395723692807
 20
92.02185747910022
 10
159.4395723692807
 20
91.93157899151737
 10
159.4395723692807
 20
91.84413524345264
 10
159.4395723692807
 20
91.75940888560514
 10
159.4395723692807
 20
91.73357686926528
 10
159.4395723692807
 20
91.67718640795091
 10
159.4395723692807
 20
91.66194968292429
 10
159.4395723692807
 20
91.59727831817216
 10
159.4395723692807
 20
91.51942624523898
 10
159.4395723692807
 20
91.44355856090358
 10
159.4395723692807
 20
91.40056941386597
 10
159.4395723692807
 20
91.36958743341437
 10
159.4395723692807
 20
91.31996866113508
 10
159.4395723692807
 20
91.29742663447095
 10
159.4395723692807
 20
91.22697112873134
 10
159.4395723692807
 20
91.1581240900397
 10
159.4395723692807
 20
91.09080515082006
 10
159.4395723692807
 20
91.07708453001746
 10
159.4395723692807
 20
91.02492261435349
 10
159.4395723692807
 20
91.0012719877339
 10
159.4395723692807
 20
90.96040950619572
 10
159.4395723692807
 20
90.89720898508267
 10
159.4395723692807
 20
90.83528329806703
 10
159.4395723692807
 20
90.77459092486812
 10
159.4395723692807
 20
90.76641219319188
 10
159.4395723692807
 20
90.71508845323957
 10
159.4395723692807
 20
90.70493325166619
 10
159.4395723692807
 20
90.65673467528583
 10
159.4395723692807
 20
90.59948060238588
 10
159.4395723692807
 20
90.54328676444563
 10
159.4395723692807
 20
90.48810998399314
 10
159.4395723692807
 20
90.47204782438382
 10
159.4395723692807
 20
90.4339577048063
 10
159.4395723692807
 20
90.43012990067898
 10
159.4395723692807
 20
90.3806517675802
 10
159.4395723692807
 20
90.32832618136577
 10
159.4395723692807
 20
90.27691843727783
 10
159.4395723692807
 20
90.22645411049243
 10
159.4395723692807
 20
90.19610711029752
 10
159.4395723692807
 20
90.17681514372875
 10
159.4395723692807
 20
90.17571899652819
 10
159.4395723692807
 20
90.12806389613786
 10
159.4395723692807
 20
90.08022481111627
 10
159.4395723692807
 20
90.0332035141162
 10
159.4395723692807
 20
89.98699763551178
 10
159.4395723692807
 20
89.94160405867814
 10
159.4395723692807
 20
89.89700489696042
 10
159.4395723692807
 20
89.85329079270858
 10
159.4395723692807
 20
89.8103096163403
 10
159.4395723692807
 20
89.76816053499368
 10
159.4395723692807
 20
89.72776048268659
 10
159.4395723692807
 20
89.72684514728698
 10
159.4395723692807
 20
89.71091368684094
 10
159.4395723692807
 20
89.68631906379507
 10
159.4395723692807
 20
89.64658051414902
 10
159.4395723692807
 20
89.60764136161157
 10
159.4395723692807
 20
89.5695004381048
 10
159.4395723692807
 20
89.53475877276234
 10
159.4395723692807
 20
89.53215659105442
 10
159.4395723692807
 20
89.50629932689155
 10
159.4395723692807
 20
89.49560873403077
 10
159.4395723692807
 20
89.4598655930567
 10
159.4395723692807
 20
89.42494409130161
 10
159.4395723692807
 20
89.39086177259155
 10
159.4395723692807
 20
89.36331099428573
 10
159.4395723692807
 20
89.3576361870792
 10
159.4395723692807
 20
89.32964144973366
 10
159.4395723692807
 20
89.32528424752698
 10
159.4395723692807
 20
89.29382472832478
 10
159.4395723692807
 20
89.26327458454655
 10
159.4395723692807
 20
89.2336513548911
 10
159.4395723692807
 20
89.21530649460544
 10
159.4395723692807
 20
89.2049724007113
 10
159.4395723692807
 20
89.18289954133694
 10
159.4395723692807
 20
89.17725577622642
 10
159.4395723692807
 20
89.15053851778698
 10
159.4395723692807
 20
89.12486765604191
 10
159.4395723692807
 20
89.10029143493544
 10
159.4395723692807
 20
89.0927831033872
 10
159.4395723692807
 20
89.07685693383422
 10
159.4395723692807
 20
89.06732497331801
 10
159.4395723692807
 20
89.05461374112116
 10
159.4395723692807
 20
89.03361094794079
 10
159.4395723692807
 20
89.01389583793537
 10
159.4395723692807
 20
88.9988870101479
 10
159.4395723692807
 20
88.99553515559614
 10
159.4395723692807
 20
88.98374574961815
 10
159.4395723692807
 20
88.97867089027777
 10
159.4395723692807
 20
88.96347409393756
 10
159.4395723692807
 20
88.95010661318186
 10
159.4395723692807
 20
88.93872310393802
 10
159.4395723692807
 20
88.93808921424343
 10
159.4395723692807
 20
88.93334194957444
 10
159.4395723692807
 20
88.92951611745478
 10
159.4395723692807
 20
88.92262621285384
 10
159.4395723692807
 20
88.9182254993497
 10
159.4395723692807
 20
88.91647835878106
  0
LINE
  5
18E
330
1F
100
AcDbEntity
  8
0
 62
     2
100
AcDbLine
 10
159.4395723692807
 20
161.216478358781
 30
0.0
 11
159.4395723692807
 21
164.716478358781
 31
0.0
  0
ARC
  5
18F
330
1F
100
AcDbEntity
  8
0
 62
     2
100
AcDbCircle
 10
147.9395723692807
 20
161.216478358781
 30
0.0
 40
3.5
100
AcDbArc
 50
89.99999999999955
 51
179.9999999999995
  0
LWPOLYLINE
  5
190
330
1F
100
AcDbEntity
  8
0
 62
     2
100
AcDbPolyline
 90
       13
 70
     0
 43
0.0
 10
159.4395723692807
 20
124.109394305569
 10
159.4395723692807
 20
124.0506130510865
 10
159.4395723692807
 20
123.9840040696616
 10
159.4395723692807
 20
123.908364998407
 10
159.4395723692807
 20
123.8257902806288
 10
159.4395723692807
 20
123.7439407955922
 10
159.4395723692807
 20
123.7038406144079
 10
159.4395723692807
 20
123.6637500790966
 10
159.4395723692807
 20
123.5814139053333
 10
159.4395723692807
 20
123.4978562606763
 10
159.4395723692807
 20
123.4209825705381
 10
159.4395723692807
 20
123.3529499767023
 10
159.4395723692807
 20
123.2925893134762
  0
ARC
  5
191
330
1F
100
AcDbEntity
  8
0
 62
     2
100
AcDbCircle
 10
165.9395723692807
 20
107.4164783587811
 30
0.0
 40
12.3
100
AcDbArc
 50
207.0330266141814
 51
209.1970617482547
  0
ARC
  5
192
330
1F
100
AcDbEntity
  8
0
 62
     2
100
AcDbCircle
 10
165.9395723692807
 20
107.4164783587811
 30
0.0
 40
10.30000000000001
100
AcDbArc
 50
212.8716541145992
 51
215.6264647524203
  0
ARC
  5
193
330
1F
100
AcDbEntity
  8
0
 62
     2
100
AcDbCircle
 10
165.9395723692807
 20
107.4164783587811
 30
0.0
 40
10.30000000000001
100
AcDbArc
 50
209.0804298083895
 51
212.8716541145992
  0
ARC
  5
194
330
1F
100
AcDbEntity
  8
0
 62
     2
100
AcDbCircle
 10
165.9395723692807
 20
107.4164783587811
 30
0.0
 40
10.30000000000001
100
AcDbArc
 50
157.0537718034641
 51
209.0804298083897
  0
ARC
  5
195
330
1F
100
AcDbEntity
  8
0
 62
     2
100
AcDbCircle
 10
165.9395723692807
 20
107.4164783587811
 30
0.0
 40
10.30000000000001
100
AcDbArc
 50
144.3698986817219
 51
157.0537718034641
  0
ARC
  5
196
330
1F
100
AcDbEntity
  8
0
 62
     2
100
AcDbCircle
 10
165.9395723692807
 20
107.4164783587811
 30
0.0
 40
12.3
100
AcDbArc
 50
150.7993016858881
 51
207.0330266141813
  0
LINE
  5
197
330
1F
100
AcDbEntity
  8
0
 62
     2
100
AcDbLine
 10
165.4395714860544
 20
101.416494223299
 30
0.0
 11
157.5676661243698
 21
101.4167440384021
 31
0.0
  0
LINE
  5
198
330
1F
100
AcDbEntity
  8
0
 62
     2
100
AcDbLine
 10
165.4395714860541
 20
113.4164942293437
 30
0.0
 11
165.4395714860544
 21
101.416494223299
 31
0.0
  0
LINE
  5
199
330
1F
100
AcDbEntity
  8
0
 62
     2
100
AcDbLine
 10
157.5680469446559
 20
113.4167440323635
 30
0.0
 11
165.4395714860541
 21
113.4164942293457
 31
0.0
  0
LINE
  5
19A
330
1F
100
AcDbEntity
  8
0
 62
     2
100
AcDbLine
 10
154.6331312546781
 20
113.4168371719824
 30
0.0
 11
155.2024446839271
 21
113.4168191048072
 31
0.0
  0
LINE
  5
19B
330
1F
100
AcDbEntity
  8
0
 62
     2
100
AcDbLine
 10
155.2020638636412
 20
101.4168191108458
 30
0.0
 11
154.6327504345165
 21
101.416837178021
 31
0.0
  0
LINE
  5
19C
330
1F
100
AcDbEntity
  8
0
 62
     2
100
AcDbLine
 10
158.5743037350316
 20
115.8167088959337
 30
0.0
 11
156.4395732526461
 21
115.8167088959337
 31
0.0
  0
LINE
  5
19D
330
1F
100
AcDbEntity
  8
0
 62
     2
100
AcDbLine
 10
158.5743037350316
 20
117.8785142431613
 30
0.0
 11
158.5743037350316
 21
117.508894076512
 31
0.0
  0
LINE
  5
19E
330
1F
100
AcDbEntity
  8
0
 62
     2
100
AcDbLine
 10
165.4395723692803
 20
120.2067088614061
 30
0.0
 11
165.4395723692803
 21
115.8167088959337
 31
0.0
  0
LINE
  5
19F
330
1F
100
AcDbEntity
  8
0
 62
     2
100
AcDbLine
 10
158.5743037350316
 20
117.508894076512
 30
0.0
 11
158.5743037350316
 21
115.8167088959337
 31
0.0
  0
LINE
  5
1A0
330
1F
100
AcDbEntity
  8
0
 62
     2
100
AcDbLine
 10
158.5743037350316
 20
115.8167088959337
 30
0.0
 11
165.4395723692803
 21
115.8167088959337
 31
0.0
  0
LINE
  5
1A1
330
1F
100
AcDbEntity
  8
0
 62
     2
100
AcDbLine
 10
157.288742358141
 20
166.2067088959337
 30
0.0
 11
157.5681384518713
 21
166.2067088959337
 31
0.0
  0
LINE
  5
1A2
330
1F
100
AcDbEntity
  8
0
 62
     2
100
AcDbLine
 10
156.9380088978911
 20
166.2067088959337
 30
0.0
 11
157.288742358141
 21
166.2067088959337
 31
0.0
  0
LINE
  5
1A3
330
1F
100
AcDbEntity
  8
0
 62
     2
100
AcDbLine
 10
155.639573252777
 20
166.2067088959337
 30
0.0
 11
156.9380088978911
 21
166.2067088959337
 31
0.0
  0
LINE
  5
1A4
330
1F
100
AcDbEntity
  8
0
 62
     2
100
AcDbLine
 10
165.4395723692803
 20
166.2067088959337
 30
0.0
 11
165.4395723692803
 21
164.716478358781
 31
0.0
  0
LINE
  5
1A5
330
1F
100
AcDbEntity
  8
0
 62
     2
100
AcDbLine
 10
165.4395723692803
 20
166.2067088959337
 30
0.0
 11
157.568047827882
 21
166.2067095822217
 31
0.0
  0
LINE
  5
1A6
330
1F
100
AcDbEntity
  8
0
 62
     2
100
AcDbLine
 10
156.7972428633235
 20
115.9167088959337
 30
0.0
 11
156.375155739616
 21
115.9167088959337
 31
0.0
  0
LINE
  5
1A7
330
1F
100
AcDbEntity
  8
0
 62
     2
100
AcDbLine
 10
158.5741133248886
 20
117.508894076512
 30
0.0
 11
158.0672356312039
 21
117.508894076512
 31
0.0
  0
LINE
  5
1A8
330
1F
100
AcDbEntity
  8
0
 62
     2
100
AcDbLine
 10
48.05935769966833
 20
198.6167095822217
 30
0.0
 11
48.05935769966833
 21
202.7967095822217
 31
0.0
  0
LINE
  5
1A9
330
1F
100
AcDbEntity
  8
0
 62
     2
100
AcDbLine
 10
59.23935769966833
 20
198.6167095822217
 30
0.0
 11
48.05935769966832
 21
198.6167095822217
 31
0.0
  0
LINE
  5
1AA
330
1F
100
AcDbEntity
  8
0
 62
     2
100
AcDbLine
 10
59.23935769966832
 20
202.7967095822217
 30
0.0
 11
59.23935769966832
 21
198.6167095822217
 31
0.0
  0
LINE
  5
1AB
330
1F
100
AcDbEntity
  8
0
 62
     2
100
AcDbLine
 10
48.05935769966833
 20
202.7967095822217
 30
0.0
 11
59.23935769966833
 21
202.7967095822217
 31
0.0
  0
LINE
  5
1AC
330
1F
100
AcDbEntity
  8
0
 62
     2
100
AcDbLine
 10
48.05935769966833
 20
217.6167095822217
 30
0.0
 11
48.05935769966833
 21
221.7967095822217
 31
0.0
  0
LINE
  5
1AD
330
1F
100
AcDbEntity
  8
0
 62
     2
100
AcDbLine
 10
59.23935769966833
 20
217.6167095822217
 30
0.0
 11
48.05935769966833
 21
217.6167095822217
 31
0.0
  0
LINE
  5
1AE
330
1F
100
AcDbEntity
  8
0
 62
     2
100
AcDbLine
 10
59.23935769966833
 20
221.7967095822217
 30
0.0
 11
59.23935769966833
 21
217.6167095822217
 31
0.0
  0
LINE
  5
1AF
330
1F
100
AcDbEntity
  8
0
 62
     2
100
AcDbLine
 10
48.05935769966833
 20
221.7967095822217
 30
0.0
 11
59.23935769966833
 21
221.7967095822217
 31
0.0
  0
LINE
  5
1B0
330
1F
100
AcDbEntity
  8
0
 62
     2
100
AcDbLine
 10
48.05935769966833
 20
236.6167095822217
 30
0.0
 11
48.05935769966833
 21
240.7967095822218
 31
0.0
  0
LINE
  5
1B1
330
1F
100
AcDbEntity
  8
0
 62
     2
100
AcDbLine
 10
59.23935769966833
 20
236.6167095822217
 30
0.0
 11
48.05935769966833
 21
236.6167095822217
 31
0.0
  0
LINE
  5
1B2
330
1F
100
AcDbEntity
  8
0
 62
     2
100
AcDbLine
 10
59.23935769966833
 20
240.7967095822218
 30
0.0
 11
59.23935769966833
 21
236.6167095822217
 31
0.0
  0
LINE
  5
1B3
330
1F
100
AcDbEntity
  8
0
 62
     2
100
AcDbLine
 10
48.05935769966832
 20
240.7967095822218
 30
0.0
 11
59.23935769966832
 21
240.7967095822218
 31
0.0
  0
LINE
  5
1B4
330
1F
100
AcDbEntity
  8
0
 62
     2
100
AcDbLine
 10
84.02957236928071
 20
214.4173443179587
 30
0.0
 11
79.84957236928072
 21
214.4173443179587
 31
0.0
  0
LINE
  5
1B5
330
1F
100
AcDbEntity
  8
0
 62
     2
100
AcDbLine
 10
84.02957236928071
 20
225.5973443179586
 30
0.0
 11
84.02957236928071
 21
214.4173443179587
 31
0.0
  0
LINE
  5
1B6
330
1F
100
AcDbEntity
  8
0
 62
     2
100
AcDbLine
 10
79.84957236928072
 20
225.5973443179587
 30
0.0
 11
84.02957236928071
 21
225.5973443179586
 31
0.0
  0
LINE
  5
1B7
330
1F
100
AcDbEntity
  8
0
 62
     2
100
AcDbLine
 10
79.84957236928072
 20
214.4173443179587
 30
0.0
 11
79.84957236928072
 21
225.5973443179587
 31
0.0
  0
LINE
  5
1B8
330
1F
100
AcDbEntity
  8
0
 62
     2
100
AcDbLine
 10
99.02957236928071
 20
214.4173443179587
 30
0.0
 11
94.84957236928072
 21
214.4173443179587
 31
0.0
  0
LINE
  5
1B9
330
1F
100
AcDbEntity
  8
0
 62
     2
100
AcDbLine
 10
99.02957236928071
 20
225.5973443179586
 30
0.0
 11
99.02957236928071
 21
214.4173443179587
 31
0.0
  0
LINE
  5
1BA
330
1F
100
AcDbEntity
  8
0
 62
     2
100
AcDbLine
 10
94.84957236928072
 20
225.5973443179586
 30
0.0
 11
99.02957236928071
 21
225.5973443179586
 31
0.0
  0
LINE
  5
1BB
330
1F
100
AcDbEntity
  8
0
 62
     2
100
AcDbLine
 10
94.84957236928072
 20
214.4173443179587
 30
0.0
 11
94.84957236928072
 21
225.5973443179586
 31
0.0
  0
LINE
  5
1BC
330
1F
100
AcDbEntity
  8
0
 62
     2
100
AcDbLine
 10
112.0295723692807
 20
214.4173443179587
 30
0.0
 11
107.8495723692807
 21
214.4173443179587
 31
0.0
  0
LINE
  5
1BD
330
1F
100
AcDbEntity
  8
0
 62
     2
100
AcDbLine
 10
112.0295723692807
 20
225.5973443179586
 30
0.0
 11
112.0295723692807
 21
214.4173443179587
 31
0.0
  0
LINE
  5
1BE
330
1F
100
AcDbEntity
  8
0
 62
     2
100
AcDbLine
 10
107.8495723692807
 20
225.5973443179586
 30
0.0
 11
112.0295723692807
 21
225.5973443179586
 31
0.0
  0
LINE
  5
1BF
330
1F
100
AcDbEntity
  8
0
 62
     2
100
AcDbLine
 10
107.8495723692807
 20
214.4173443179587
 30
0.0
 11
107.8495723692807
 21
225.5973443179586
 31
0.0
  0
LWPOLYLINE
  5
1C0
330
1F
100
AcDbEntity
  8
0
 62
     2
100
AcDbPolyline
 90
       17
 70
     0
 43
0.0
 10
66.9493384041512
 20
229.9942017956412
 10
67.0473919498511
 20
229.9990276798237
 10
67.14450275419603
 20
230.0134547088558
 10
67.2397262611319
 20
230.0373519821796
 10
67.33191809649996
 20
230.0703772116318
 10
67.42065524226845
 20
230.1123846226497
 10
67.50484543110558
 20
230.1629020099888
 10
67.58368245763599
 20
230.2214265240066
 10
67.65639673040107
 20
230.2874090243417
 10
67.72230576434575
 20
230.3601940851205
 10
67.78075853043448
 20
230.4390952735128
 10
67.83121108600197
 20
230.5233411306982
 10
67.87326220653202
 20
230.6123565232855
 10
67.90630181915532
 20
230.7048330248357
 10
67.93013788844516
 20
230.8000990319493
 10
67.9445275712126
 20
230.8972438273357
 10
67.94934183105906
 20
230.995340105344
  0
LWPOLYLINE
  5
1C1
330
1F
100
AcDbEntity
  8
0
 62
     2
100
AcDbPolyline
 90
       17
 70
     0
 43
0.0
 10
66.9493384041512
 20
210.0192174392108
 10
67.04739194985109
 20
210.0143915550284
 10
67.14450275419603
 20
209.9999645259962
 10
67.2397262611319
 20
209.9760672526725
 10
67.33191809649998
 20
209.9430420232203
 10
67.42065524226845
 20
209.9010346122023
 10
67.5048454311056
 20
209.8505172248633
 10
67.583682457636
 20
209.7919927108455
 10
67.65639673040107
 20
209.7260102105103
 10
67.72230576434575
 20
209.6532251497316
 10
67.7807585304345
 20
209.5743239613392
 10
67.83121108600197
 20
209.4900781041539
 10
67.87326220653202
 20
209.4010627115665
 10
67.9063018191553
 20
209.3085862100164
 10
67.93013788844516
 20
209.2133202029027
 10
67.9445275712126
 20
209.1161754075164
 10
67.94934183105906
 20
209.0180791295081
  0
CIRCLE
  5
1C2
330
1F
100
AcDbEntity
  8
0
 62
     2
100
AcDbCircle
 10
38.64934539912002
 20
214.0067095121329
 30
0.0
 40
1.35
  0
CIRCLE
  5
1C3
330
1F
100
AcDbEntity
  8
0
 62
     2
100
AcDbCircle
 10
38.64934539912002
 20
226.0067097227192
 30
0.0
 40
1.35
  0
CIRCLE
  5
1C4
330
1F
100
AcDbEntity
  8
0
 62
     2
100
AcDbCircle
 10
38.64934539912002
 20
202.0067097227192
 30
0.0
 40
1.35
  0
CIRCLE
  5
1C5
330
1F
100
AcDbEntity
  8
0
 62
     2
100
AcDbCircle
 10
71.42934539912004
 20
205.0067097227192
 30
0.0
 40
1.35
  0
CIRCLE
  5
1C6
330
1F
100
AcDbEntity
  8
0
 62
     2
100
AcDbCircle
 10
83.42934539912004
 20
205.0067097227192
 30
0.0
 40
1.35
  0
CIRCLE
  5
1C7
330
1F
100
AcDbEntity
  8
0
 62
     2
100
AcDbCircle
 10
95.42934539912004
 20
205.0067097227192
 30
0.0
 40
1.35
  0
CIRCLE
  5
1C8
330
1F
100
AcDbEntity
  8
0
 62
     2
100
AcDbCircle
 10
107.42934539912
 20
205.0067097227192
 30
0.0
 40
1.35
  0
CIRCLE
  5
1C9
330
1F
100
AcDbEntity
  8
0
 62
     2
100
AcDbCircle
 10
38.64934539911999
 20
238.0067095121329
 30
0.0
 40
1.35
  0
CIRCLE
  5
1CA
330
1F
100
AcDbEntity
  8
0
 62
     2
100
AcDbCircle
 10
107.42934539912
 20
235.0067095121329
 30
0.0
 40
1.35
  0
CIRCLE
  5
1CB
330
1F
100
AcDbEntity
  8
0
 62
     2
100
AcDbCircle
 10
95.42934539912001
 20
235.0067095121329
 30
0.0
 40
1.35
  0
CIRCLE
  5
1CC
330
1F
100
AcDbEntity
  8
0
 62
     2
100
AcDbCircle
 10
83.42934539912002
 20
235.0067095121329
 30
0.0
 40
1.35
  0
CIRCLE
  5
1CD
330
1F
100
AcDbEntity
  8
0
 62
     2
100
AcDbCircle
 10
71.42934539912004
 20
235.0067095121329
 30
0.0
 40
1.35
  0
ARC
  5
1CE
330
1F
100
AcDbEntity
  8
0
 62
     2
100
AcDbCircle
 10
69.5254521805403
 20
202.0067091212647
 30
0.0
 40
3.5
100
AcDbArc
 50
270.0
 51
283.4957332807946
  0
ARC
  5
1CF
330
1F
100
AcDbEntity
  8
0
 62
     2
100
AcDbCircle
 10
69.52545268370154
 20
238.0067081084303
 30
0.0
 40
3.5
100
AcDbArc
 50
76.50427073351656
 51
89.9999983118762
  0
ARC
  5
1D0
330
1F
100
AcDbEntity
  8
0
 62
     2
100
AcDbCircle
 10
107.449341832128
 20
235.0067091212646
 30
0.0
 40
3.5
100
AcDbArc
 50
0.0
 51
89.99999999999994
  0
ARC
  5
1D1
330
1F
100
AcDbEntity
  8
0
 62
     2
100
AcDbCircle
 10
107.449341832128
 20
205.0067091212648
 30
0.0
 40
3.5
100
AcDbArc
 50
270.0
 51
359.9999999999999
  0
ARC
  5
1D2
330
1F
100
AcDbEntity
  8
0
 62
     2
100
AcDbCircle
 10
38.64934183212804
 20
238.0067090181431
 30
0.0
 40
3.5
100
AcDbArc
 50
89.99999831187608
 51
180.0
  0
ARC
  5
1D3
330
1F
100
AcDbEntity
  8
0
 62
     2
100
AcDbCircle
 10
38.64934183212804
 20
202.0067091212647
 30
0.0
 40
3.5
100
AcDbArc
 50
180.0
 51
270.0
  0
LWPOLYLINE
  5
1D4
330
1F
100
AcDbEntity
  8
0
 62
     2
100
AcDbPolyline
 90
       13
 70
     0
 43
0.0
 10
47.64935769664597
 20
240.7157827860057
 10
47.6154829637585
 20
240.7218799294454
 10
46.86586447191365
 20
240.8608135498493
 10
46.53812677121293
 20
240.923295524012
 10
45.52906516199712
 20
241.1175655444674
 10
44.99022682676309
 20
241.2184846762274
 10
44.59833555146609
 20
241.2882193627648
 10
43.75479799274173
 20
241.4189582941231
 10
43.63370897530132
 20
241.4344795620787
 10
43.52039036518271
 20
241.448007845817
 10
43.04479327900373
 20
241.4918161876171
 10
43.00652597038102
 20
241.4942466039753
 10
42.62258116236032
 20
241.5067089010287
  0
LWPOLYLINE
  5
1D5
330
1F
100
AcDbEntity
  8
0
 62
     2
100
AcDbPolyline
 90
       13
 70
     0
 43
0.0
 10
64.67610250207403
 20
241.5067082512587
 10
64.29215837617085
 20
241.4942459768328
 10
64.25389113600329
 20
241.4918155624816
 10
63.77829468356714
 20
241.4480072484398
 10
63.66497611618446
 20
241.43447897189
 10
63.54388708408807
 20
241.4189577109258
 10
62.70034869615192
 20
241.2882188290465
 10
62.30845703484476
 20
241.2184841660022
 10
61.76961849903152
 20
241.1175650660691
 10
60.7605572218196
 20
240.9232951054314
 10
60.43281968670006
 20
240.8608131501223
 10
59.68320151299412
 20
240.7218795739303
 10
59.64935770269067
 20
240.7157879965442
  0
LWPOLYLINE
  5
1D6
330
1F
100
AcDbEntity
  8
0
 62
     2
100
AcDbPolyline
 90
       13
 70
     0
 43
0.0
 10
47.64935769664596
 20
199.297635162374
 10
47.61548255692779
 20
199.2915379459435
 10
46.86586421123238
 20
199.1526043474764
 10
46.53812660171704
 20
199.0901223846976
 10
45.52906516441328
 20
198.8958523926669
 10
44.99022673996302
 20
198.7949332764922
 10
44.59833526776353
 20
198.7251986001335
 10
43.75479729071333
 20
198.5944596944577
 10
43.63370826720558
 20
198.5789384304753
 10
43.52038968057127
 20
198.5654101507929
 10
43.04479289744876
 20
198.5216018220124
 10
43.00652562912458
 20
198.519171407061
 10
42.62258116277249
 20
198.5067091213142
  0
LWPOLYLINE
  5
1D7
330
1F
100
AcDbEntity
  8
0
 62
     2
100
AcDbPolyline
 90
       13
 70
     0
 43
0.0
 10
64.67610250148357
 20
198.5067091213142
 10
64.29215803513554
 20
198.519171407061
 10
64.25389076681174
 20
198.5216018220124
 10
63.77829398369288
 20
198.5654101507929
 10
63.66497539705885
 20
198.5789384304753
 10
63.54388637355104
 20
198.5944596944577
 10
62.70034839649589
 20
198.7251986001334
 10
62.30845692429416
 20
198.7949332764922
 10
61.76961849984279
 20
198.8958523926669
 10
60.7605570625411
 20
199.0901223846976
 10
60.43281945302673
 20
199.1526043474764
 10
59.68320110733334
 20
199.2915379459435
 10
59.64935770269067
 20
199.2976294503496
  0
LINE
  5
1D8
330
1F
100
AcDbEntity
  8
0
 62
     2
100
AcDbLine
 10
110.949341832128
 20
207.2164789705612
 30
0.0
 11
110.949341832128
 21
205.0067091212648
 31
0.0
  0
LINE
  5
1D9
330
1F
100
AcDbEntity
  8
0
 62
     2
100
AcDbLine
 10
67.94934183105906
 20
232.7969402642909
 30
0.0
 11
67.94934183105906
 21
230.995340105344
 31
0.0
  0
LINE
  5
1DA
330
1F
100
AcDbEntity
  8
0
 62
     2
100
AcDbLine
 10
110.9493418310591
 20
232.7969402642909
 30
0.0
 11
67.94934183105906
 21
232.7969402642909
 31
0.0
  0
LINE
  5
1DB
330
1F
100
AcDbEntity
  8
0
 62
     2
100
AcDbLine
 10
67.94934183105906
 20
209.0180791295081
 30
0.0
 11
67.94934183105906
 21
207.2164789705612
 31
0.0
  0
LINE
  5
1DC
330
1F
100
AcDbEntity
  8
0
 62
     2
100
AcDbLine
 10
110.949341831059
 20
207.2164789705612
 30
0.0
 11
67.94934183105906
 21
207.2164789705612
 31
0.0
  0
LINE
  5
1DD
330
1F
100
AcDbEntity
  8
0
 62
     2
100
AcDbLine
 10
110.949341831059
 20
226.007344320981
 30
0.0
 11
110.9493418310591
 21
232.7969402642909
 31
0.0
  0
LINE
  5
1DE
330
1F
100
AcDbEntity
  8
0
 62
     2
100
AcDbLine
 10
110.949341831059
 20
207.2164789705612
 30
0.0
 11
110.949341831059
 21
214.0073443149363
 31
0.0
  0
LINE
  5
1DF
330
1F
100
AcDbEntity
  8
0
 62
     2
100
AcDbLine
 10
66.43957240380828
 20
210.0204551056917
 30
0.0
 11
66.43957233475314
 21
198.5067100431788
 31
0.0
  0
LWPOLYLINE
  5
1E0
330
1F
100
AcDbEntity
  8
0
 62
     2
100
AcDbPolyline
 90
       21
 70
     0
 43
0.0
 10
63.6430398879153
 20
214.0073443149363
 10
63.85173060956659
 20
213.6628427645786
 10
64.29216127037309
 20
212.9760456995851
 10
64.31889028551117
 20
212.9356441020858
 10
64.324172843802
 20
212.9276749371889
 10
64.58720249188536
 20
212.5369642662727
 10
64.76666680329343
 20
212.2766057560563
 10
64.93787712332376
 20
212.0323465851992
 10
65.18078052090488
 20
211.6920154494958
 10
65.474974873759
 20
211.2885748470692
 10
65.54969292763194
 20
211.1874977101001
 10
65.86388023643455
 20
210.7679155271918
 10
65.89814819961296
 20
210.7226478182623
 10
65.92497923760365
 20
210.6872686114403
 10
66.08398891903006
 20
210.4787575034646
 10
66.11578686422602
 20
210.4373075569456
 10
66.20340299600349
 20
210.3235341713907
 10
66.2999140878012
 20
210.1988569881037
 10
66.3874121153514
 20
210.0857236121121
 10
66.411087804386
 20
210.0548624221794
 10
66.43957233475314
 20
210.0192174397069
  0
LWPOLYLINE
  5
1E1
330
1F
100
AcDbEntity
  8
0
 62
     2
100
AcDbPolyline
 90
       11
 70
     0
 43
0.0
 10
62.04957236928072
 20
222.5940277514881
 10
61.88401450304013
 20
221.9852870307255
 10
61.87745816961684
 20
221.9576150116834
 10
61.77014282677505
 20
221.4383771154703
 10
61.70178874965091
 20
220.9868839998059
 10
61.63933100420311
 20
220.0066739214967
 10
61.70313808398303
 20
219.0265369523283
 10
61.7700142613643
 20
218.5840974255185
 10
61.8785679792756
 20
218.0558043456049
 10
61.88435109563745
 20
218.0312556690741
 10
62.04957236928072
 20
217.4198313195089
  0
LWPOLYLINE
  5
1E2
330
1F
100
AcDbEntity
  8
0
 62
     2
100
AcDbPolyline
 90
       21
 70
     0
 43
0.0
 10
66.43957233475314
 20
229.9942017951451
 10
66.41123374350985
 20
229.9585568157764
 10
66.38754296022981
 20
229.9276953901832
 10
66.29991575568674
 20
229.8145622391457
 10
66.20336364547175
 20
229.6898816184343
 10
66.11575381086979
 20
229.5761118307496
 10
66.08387458174292
 20
229.5345497062574
 10
65.92486167654423
 20
229.326005853255
 10
65.89814219443514
 20
229.2907710208227
 10
65.86387648207597
 20
229.2455035484128
 10
65.54969153931518
 20
228.8259213118789
 10
65.47497217263428
 20
228.7248449298258
 10
65.18077024526072
 20
228.3214038704622
 10
64.93787309480517
 20
227.9810820236755
 10
64.76666136710847
 20
227.7368135156119
 10
64.58714943291992
 20
227.4763733845709
 10
64.32414042276847
 20
227.0856848287202
 10
64.31885822590752
 20
227.0777163433326
 10
64.29216180006317
 20
227.0373650140525
 10
63.85171605209049
 20
226.3506401505944
 10
63.64373485612354
 20
226.007344320981
  0
LINE
  5
1E3
330
1F
100
AcDbEntity
  8
0
 62
     2
100
AcDbLine
 10
66.43957233475314
 20
210.0192174397069
 30
0.0
 11
66.94934183105904
 21
210.0192174397069
 31
0.0
  0
LINE
  5
1E4
330
1F
100
AcDbEntity
  8
0
 62
     2
100
AcDbLine
 10
66.43957233475314
 20
229.9942017951451
 30
0.0
 11
66.94934183105906
 21
229.9942017951451
 31
0.0
  0
LINE
  5
1E5
330
1F
100
AcDbEntity
  8
0
 62
     2
100
AcDbLine
 10
66.43957233475314
 20
241.5067081993506
 30
0.0
 11
69.52545278682317
 21
241.5067081084303
 31
0.0
  0
LINE
  5
1E6
330
1F
100
AcDbEntity
  8
0
 62
     2
100
AcDbLine
 10
40.85911132950291
 20
198.5067091212647
 30
0.0
 11
38.64934183212806
 21
198.5067091212647
 31
0.0
  0
LINE
  5
1E7
330
1F
100
AcDbEntity
  8
0
 62
     2
100
AcDbLine
 10
40.85911132950292
 20
241.5067100431788
 30
0.0
 11
40.85911132950292
 21
198.5067100431788
 31
0.0
  0
LINE
  5
1E8
330
1F
100
AcDbEntity
  8
0
 62
     2
100
AcDbLine
 10
66.43957233475314
 20
241.5067100431788
 30
0.0
 11
66.43957233475314
 21
229.9942017951451
 31
0.0
  0
LINE
  5
1E9
330
1F
100
AcDbEntity
  8
0
 62
     2
100
AcDbLine
 10
42.62255843741917
 20
241.5067085761933
 30
0.0
 11
40.85911132950292
 21
241.5067085761933
 31
0.0
  0
LINE
  5
1EA
330
1F
100
AcDbEntity
  8
0
 62
     2
100
AcDbLine
 10
40.85911132950292
 20
198.5067100431788
 30
0.0
 11
42.62255843741917
 21
198.5067100431788
 31
0.0
  0
LINE
  5
1EB
330
1F
100
AcDbEntity
  8
0
 62
     2
100
AcDbLine
 10
66.43957233475314
 20
241.5067085761933
 30
0.0
 11
64.67612522683689
 21
241.5067085761933
 31
0.0
  0
LINE
  5
1EC
330
1F
100
AcDbEntity
  8
0
 62
     2
100
AcDbLine
 10
64.67612522683689
 20
198.5067100431788
 30
0.0
 11
66.43957233475315
 21
198.5067100431788
 31
0.0
  0
LINE
  5
1ED
330
1F
100
AcDbEntity
  8
0
 62
     2
100
AcDbLine
 10
107.449341832128
 20
201.5067091212648
 30
0.0
 11
82.43957233475493
 21
201.5067091212648
 31
0.0
  0
LINE
  5
1EE
330
1F
100
AcDbEntity
  8
0
 62
     2
100
AcDbLine
 10
110.949341832128
 20
235.0067091212646
 30
0.0
 11
110.949341832128
 21
232.7969402642909
 31
0.0
  0
LINE
  5
1EF
330
1F
100
AcDbEntity
  8
0
 62
     2
100
AcDbLine
 10
82.43957235274598
 20
238.5067091212647
 30
0.0
 11
107.449341832128
 21
238.5067091212646
 31
0.0
  0
LINE
  5
1F0
330
1F
100
AcDbEntity
  8
0
 62
     2
100
AcDbLine
 10
70.342257778916
 20
241.4100637225899
 30
0.0
 11
82.439572352746
 21
238.5067091212647
 31
0.0
  0
LINE
  5
1F1
330
1F
100
AcDbEntity
  8
0
 62
     2
100
AcDbLine
 10
38.64934193524967
 20
241.5067090181431
 30
0.0
 11
40.85911132950291
 21
241.5067089530359
 31
0.0
  0
LINE
  5
1F2
330
1F
100
AcDbEntity
  8
0
 62
     2
100
AcDbLine
 10
35.14934183212804
 20
202.0067091212647
 30
0.0
 11
35.14934183212804
 21
238.0067090181431
 31
0.0
  0
LINE
  5
1F3
330
1F
100
AcDbEntity
  8
0
 62
     2
100
AcDbLine
 10
69.52545218054031
 20
198.5067091212647
 30
0.0
 11
66.43957233475314
 21
198.5067091212647
 31
0.0
  0
LINE
  5
1F4
330
1F
100
AcDbEntity
  8
0
 62
     2
100
AcDbLine
 10
82.43957233475493
 20
201.5067091212648
 30
0.0
 11
70.34225751420387
 21
198.6033535643328
 31
0.0
  0
LINE
  5
1F5
330
1F
100
AcDbEntity
  8
0
 62
     2
100
AcDbLine
 10
66.94934183105903
 20
214.0075823483846
 30
0.0
 11
66.94934183105902
 21
210.0192174397051
 31
0.0
  0
LINE
  5
1F6
330
1F
100
AcDbEntity
  8
0
 62
     2
100
AcDbLine
 10
66.94934183105903
 20
229.994201795147
 30
0.0
 11
66.94934183105903
 21
226.007582312886
 31
0.0
  0
LINE
  5
1F7
330
1F
100
AcDbEntity
  8
0
 62
     2
100
AcDbLine
 10
67.94934183105904
 20
230.995340078252
 30
0.0
 11
67.94934183105906
 21
209.0180791566
 31
0.0
  0
LINE
  5
1F8
330
1F
100
AcDbEntity
  8
0
 62
     2
100
AcDbLine
 10
47.64935769664597
 20
236.2067095822217
 30
0.0
 11
47.64935769664597
 21
241.2067095822217
 31
0.0
  0
LINE
  5
1F9
330
1F
100
AcDbEntity
  8
0
 62
     2
100
AcDbLine
 10
59.64935770269068
 20
236.2067095822217
 30
0.0
 11
59.64935770269067
 21
241.2067095822217
 31
0.0
  0
LINE
  5
1FA
330
1F
100
AcDbEntity
  8
0
 62
     2
100
AcDbLine
 10
47.64935769664598
 20
236.2067095822217
 30
0.0
 11
59.64935770269068
 21
236.2067095822217
 31
0.0
  0
LINE
  5
1FB
330
1F
100
AcDbEntity
  8
0
 62
     2
100
AcDbLine
 10
59.64935770269067
 20
241.2067095822217
 30
0.0
 11
47.64935769664597
 21
241.2067095822217
 31
0.0
  0
LINE
  5
1FC
330
1F
100
AcDbEntity
  8
0
 62
     2
100
AcDbLine
 10
47.64935769664597
 20
217.2067095822217
 30
0.0
 11
47.64935769664597
 21
222.2067095822217
 31
0.0
  0
LINE
  5
1FD
330
1F
100
AcDbEntity
  8
0
 62
     2
100
AcDbLine
 10
59.64935770269068
 20
217.2067095822217
 30
0.0
 11
59.64935770269068
 21
222.2067095822217
 31
0.0
  0
LINE
  5
1FE
330
1F
100
AcDbEntity
  8
0
 62
     2
100
AcDbLine
 10
47.64935769664598
 20
217.2067095822217
 30
0.0
 11
59.64935770269068
 21
217.2067095822217
 31
0.0
  0
LINE
  5
1FF
330
1F
100
AcDbEntity
  8
0
 62
     2
100
AcDbLine
 10
59.64935770269068
 20
222.2067095822217
 30
0.0
 11
47.64935769664598
 21
222.2067095822217
 31
0.0
  0
LINE
  5
200
330
1F
100
AcDbEntity
  8
0
 62
     2
100
AcDbLine
 10
47.64935769664596
 20
198.2067095822217
 30
0.0
 11
47.64935769664596
 21
203.2067095822217
 31
0.0
  0
LINE
  5
201
330
1F
100
AcDbEntity
  8
0
 62
     2
100
AcDbLine
 10
59.64935770269067
 20
198.2067095822217
 30
0.0
 11
59.64935770269066
 21
203.2067095822217
 31
0.0
  0
LINE
  5
202
330
1F
100
AcDbEntity
  8
0
 62
     2
100
AcDbLine
 10
47.64935769664597
 20
198.2067095822217
 30
0.0
 11
59.64935770269067
 21
198.2067095822217
 31
0.0
  0
LINE
  5
203
330
1F
100
AcDbEntity
  8
0
 62
     2
100
AcDbLine
 10
59.64935770269066
 20
203.2067095822217
 30
0.0
 11
47.64935769664596
 21
203.2067095822217
 31
0.0
  0
LINE
  5
204
330
1F
100
AcDbEntity
  8
0
 62
     2
100
AcDbLine
 10
66.63957236928071
 20
214.4173443179587
 30
0.0
 11
62.45957236928071
 21
214.4173443179587
 31
0.0
  0
LINE
  5
205
330
1F
100
AcDbEntity
  8
0
 62
     2
100
AcDbLine
 10
66.63957236928071
 20
225.5973443179587
 30
0.0
 11
66.63957236928071
 21
214.4173443179587
 31
0.0
  0
LINE
  5
206
330
1F
100
AcDbEntity
  8
0
 62
     2
100
AcDbLine
 10
62.45957236928072
 20
225.5973443179587
 30
0.0
 11
66.63957236928073
 21
225.5973443179587
 31
0.0
  0
LINE
  5
207
330
1F
100
AcDbEntity
  8
0
 62
     2
100
AcDbLine
 10
62.45957236928072
 20
214.4173443179587
 30
0.0
 11
62.45957236928072
 21
225.5973443179587
 31
0.0
  0
LINE
  5
208
330
1F
100
AcDbEntity
  8
0
 62
     2
100
AcDbLine
 10
67.04957236928072
 20
214.0073443149363
 30
0.0
 11
62.04957236928072
 21
214.0073443149363
 31
0.0
  0
LINE
  5
209
330
1F
100
AcDbEntity
  8
0
 62
     2
100
AcDbLine
 10
67.04957236928072
 20
226.007344320981
 30
0.0
 11
62.04957236928073
 21
226.007344320981
 31
0.0
  0
LINE
  5
20A
330
1F
100
AcDbEntity
  8
0
 62
     2
100
AcDbLine
 10
62.04957236928073
 20
226.007344320981
 30
0.0
 11
62.04957236928071
 21
214.0073443149363
 31
0.0
  0
LINE
  5
20B
330
1F
100
AcDbEntity
  8
0
 62
     2
100
AcDbLine
 10
67.04957236928072
 20
214.0073443149363
 30
0.0
 11
67.04957236928072
 21
226.007344320981
 31
0.0
  0
LINE
  5
20C
330
1F
100
AcDbEntity
  8
0
 62
     2
100
AcDbLine
 10
84.43957236928071
 20
214.0073443149363
 30
0.0
 11
79.43957236928071
 21
214.0073443149363
 31
0.0
  0
LINE
  5
20D
330
1F
100
AcDbEntity
  8
0
 62
     2
100
AcDbLine
 10
84.43957236928071
 20
226.007344320981
 30
0.0
 11
79.43957236928073
 21
226.007344320981
 31
0.0
  0
LINE
  5
20E
330
1F
100
AcDbEntity
  8
0
 62
     2
100
AcDbLine
 10
84.43957236928071
 20
214.0073443149363
 30
0.0
 11
84.43957236928071
 21
226.007344320981
 31
0.0
  0
LINE
  5
20F
330
1F
100
AcDbEntity
  8
0
 62
     2
100
AcDbLine
 10
79.43957236928071
 20
226.007344320981
 30
0.0
 11
79.43957236928071
 21
214.0073443149363
 31
0.0
  0
LINE
  5
210
330
1F
100
AcDbEntity
  8
0
 62
     2
100
AcDbLine
 10
99.43957236928071
 20
214.0073443149363
 30
0.0
 11
94.43957236928071
 21
214.0073443149363
 31
0.0
  0
LINE
  5
211
330
1F
100
AcDbEntity
  8
0
 62
     2
100
AcDbLine
 10
99.43957236928073
 20
226.007344320981
 30
0.0
 11
94.43957236928073
 21
226.007344320981
 31
0.0
  0
LINE
  5
212
330
1F
100
AcDbEntity
  8
0
 62
     2
100
AcDbLine
 10
99.43957236928071
 20
214.0073443149363
 30
0.0
 11
99.43957236928073
 21
226.007344320981
 31
0.0
  0
LINE
  5
213
330
1F
100
AcDbEntity
  8
0
 62
     2
100
AcDbLine
 10
94.43957236928071
 20
226.007344320981
 30
0.0
 11
94.43957236928071
 21
214.0073443149363
 31
0.0
  0
LINE
  5
214
330
1F
100
AcDbEntity
  8
0
 62
     2
100
AcDbLine
 10
112.4395723692807
 20
214.0073443149363
 30
0.0
 11
107.4395723692807
 21
214.0073443149363
 31
0.0
  0
LINE
  5
215
330
1F
100
AcDbEntity
  8
0
 62
     2
100
AcDbLine
 10
112.4395723692807
 20
226.007344320981
 30
0.0
 11
107.4395723692807
 21
226.007344320981
 31
0.0
  0
LINE
  5
216
330
1F
100
AcDbEntity
  8
0
 62
     2
100
AcDbLine
 10
112.4395723692807
 20
214.0073443149363
 30
0.0
 11
112.4395723692807
 21
226.007344320981
 31
0.0
  0
LINE
  5
217
330
1F
100
AcDbEntity
  8
0
 62
     2
100
AcDbLine
 10
107.4395723692807
 20
226.007344320981
 30
0.0
 11
107.4395723692807
 21
214.0073443149363
 31
0.0
  0
LINE
  5
218
330
1F
100
AcDbEntity
  8
0
 62
     2
100
AcDbLine
 10
62.45957236928072
 20
216.7655255405785
 30
0.0
 11
63.56134343918423
 21
214.4173443179587
 31
0.0
  0
LINE
  5
219
330
1F
100
AcDbEntity
  8
0
 62
     2
100
AcDbLine
 10
63.55066983993149
 20
225.5973443179587
 30
0.0
 11
62.45957236928072
 21
223.2550288972126
 31
0.0
  0
LINE
  5
21A
330
1F
100
AcDbEntity
  8
0
 62
     2
100
AcDbLine
 10
62.55957236928071
 20
222.4987271935317
 30
0.0
 11
64.00297033226751
 21
225.5973443179587
 31
0.0
  0
LINE
  5
21B
330
1F
100
AcDbEntity
  8
0
 62
     2
100
AcDbLine
 10
62.55957236928072
 20
217.5176276192963
 30
0.0
 11
62.55957236928072
 21
222.4987271935317
 31
0.0
  0
LINE
  5
21C
330
1F
100
AcDbEntity
  8
0
 62
     2
100
AcDbLine
 10
64.0142311566923
 20
214.4173443179587
 30
0.0
 11
62.55957236928072
 21
217.5176276192963
 31
0.0
  0
LINE
  5
21D
330
1F
100
AcDbEntity
  8
0
 62
     2
100
AcDbLine
 10
144.4395723692807
 20
213.5067098075527
 30
0.0
 11
144.4579137596092
 21
213.069139184331
 31
0.0
  0
LINE
  5
21E
330
1F
100
AcDbEntity
  8
0
 62
     2
100
AcDbLine
 10
144.4395723692807
 20
213.5067098075527
 30
0.0
 11
144.4579742388928
 21
213.0611997403422
 31
0.0
  0
LINE
  5
21F
330
1F
100
AcDbEntity
  8
0
 62
     2
100
AcDbLine
 10
144.4395723692807
 20
213.5067098075527
 30
0.0
 11
144.4580366437304
 21
213.053341298702
 31
0.0
  0
LINE
  5
220
330
1F
100
AcDbEntity
  8
0
 62
     2
100
AcDbLine
 10
144.4395723692807
 20
213.5067098075527
 30
0.0
 11
144.4581014873957
 21
213.0455473576521
 31
0.0
  0
LINE
  5
221
330
1F
100
AcDbEntity
  8
0
 62
     2
100
AcDbLine
 10
144.4395723692807
 20
213.5067098075527
 30
0.0
 11
144.4581660945186
 21
213.0378377589304
 31
0.0
  0
LINE
  5
222
330
1F
100
AcDbEntity
  8
0
 62
     2
100
AcDbLine
 10
144.4395723692807
 20
213.5067098075527
 30
0.0
 11
144.4582652402011
 21
212.9569809701501
 31
0.0
  0
LINE
  5
223
330
1F
100
AcDbEntity
  8
0
 62
     2
100
AcDbLine
 10
144.4395723692807
 20
213.5067098075527
 30
0.0
 11
144.4582296709646
 21
212.9511814717865
 31
0.0
  0
LINE
  5
224
330
1F
100
AcDbEntity
  8
0
 62
     2
100
AcDbLine
 10
144.4395723692807
 20
213.5067098075527
 30
0.0
 11
144.4575976491596
 21
212.9635023735113
 31
0.0
  0
LINE
  5
225
330
1F
100
AcDbEntity
  8
0
 62
     2
100
AcDbLine
 10
144.4395723692807
 20
213.5067098075527
 30
0.0
 11
144.4575848526831
 21
212.9575596722669
 31
0.0
  0
LINE
  5
226
330
1F
100
AcDbEntity
  8
0
 62
     2
100
AcDbLine
 10
144.4395723692807
 20
213.5067098075527
 30
0.0
 11
144.4575764815033
 21
212.9516776524761
 31
0.0
  0
LINE
  5
227
330
1F
100
AcDbEntity
  8
0
 62
     2
100
AcDbLine
 10
144.4395723692807
 20
213.5067098075527
 30
0.0
 11
144.4572949423942
 21
212.9544964132494
 31
0.0
  0
LINE
  5
228
330
1F
100
AcDbEntity
  8
0
 62
     2
100
AcDbLine
 10
144.4395723692807
 20
213.5067098075527
 30
0.0
 11
144.4581003690417
 21
212.9234556539443
 31
0.0
  0
LINE
  5
229
330
1F
100
AcDbEntity
  8
0
 62
     2
100
AcDbLine
 10
144.4395723692807
 20
213.5067098075527
 30
0.0
 11
144.4580860891675
 21
212.918139779775
 31
0.0
  0
LINE
  5
22A
330
1F
100
AcDbEntity
  8
0
 62
     2
100
AcDbLine
 10
144.4395723692807
 20
213.5067098075527
 30
0.0
 11
144.457574572132
 21
212.9289573398017
 31
0.0
  0
LINE
  5
22B
330
1F
100
AcDbEntity
  8
0
 62
     2
100
AcDbLine
 10
144.4395723692807
 20
213.5067098075527
 30
0.0
 11
144.4573332586218
 21
212.9314823282563
 31
0.0
  0
LINE
  5
22C
330
1F
100
AcDbEntity
  8
0
 62
     2
100
AcDbLine
 10
144.4395723692807
 20
213.5067098075527
 30
0.0
 11
144.4575874189891
 21
212.9181011608715
 31
0.0
  0
LINE
  5
22D
330
1F
100
AcDbEntity
  8
0
 62
     2
100
AcDbLine
 10
144.4395723692807
 20
213.5067098075527
 30
0.0
 11
144.4580569550188
 21
212.8976148089203
 31
0.0
  0
LINE
  5
22E
330
1F
100
AcDbEntity
  8
0
 62
     2
100
AcDbLine
 10
144.4395723692807
 20
213.5067098075527
 30
0.0
 11
144.4580549425143
 21
212.8926649678381
 31
0.0
  0
LINE
  5
22F
330
1F
100
AcDbEntity
  8
0
 62
     2
100
AcDbLine
 10
144.4395723692807
 20
213.5067098075527
 30
0.0
 11
144.4580543483011
 21
212.887786395479
 31
0.0
  0
LINE
  5
230
330
1F
100
AcDbEntity
  8
0
 62
     2
100
AcDbLine
 10
144.4395723692807
 20
213.5067098075527
 30
0.0
 11
144.4580549423467
 21
212.8829784519989
 31
0.0
  0
LINE
  5
231
330
1F
100
AcDbEntity
  8
0
 62
     2
100
AcDbLine
 10
144.4395723692807
 20
213.5067098075527
 30
0.0
 11
144.4580569546995
 21
212.878240522036
 31
0.0
  0
LINE
  5
232
330
1F
100
AcDbEntity
  8
0
 62
     2
100
AcDbLine
 10
144.4395723692807
 20
213.5067098075527
 30
0.0
 11
144.4580607304199
 21
212.8735719963483
 31
0.0
  0
LINE
  5
233
330
1F
100
AcDbEntity
  8
0
 62
     2
100
AcDbLine
 10
144.4395723692807
 20
213.5067098075527
 30
0.0
 11
144.4573613474861
 21
212.8815511795349
 31
0.0
  0
LINE
  5
234
330
1F
100
AcDbEntity
  8
0
 62
     2
100
AcDbLine
 10
144.4395723692807
 20
213.5067098075527
 30
0.0
 11
144.4581181366513
 21
212.8512491085707
 31
0.0
  0
LINE
  5
235
330
1F
100
AcDbEntity
  8
0
 62
     2
100
AcDbLine
 10
144.4395723692807
 20
213.5067098075527
 30
0.0
 11
144.4581397388463
 21
212.8469842144539
 31
0.0
  0
LINE
  5
236
330
1F
100
AcDbEntity
  8
0
 62
     2
100
AcDbLine
 10
144.4395723692807
 20
213.5067098075527
 30
0.0
 11
144.458165519832
 21
212.8427844599188
 31
0.0
  0
LINE
  5
237
330
1F
100
AcDbEntity
  8
0
 62
     2
100
AcDbLine
 10
144.4395723692807
 20
213.5067098075527
 30
0.0
 11
144.4578763635924
 21
212.850107218811
 31
0.0
  0
LINE
  5
238
330
1F
100
AcDbEntity
  8
0
 62
     2
100
AcDbLine
 10
144.4395723692807
 20
213.5067098075527
 30
0.0
 11
144.457760466038
 21
212.8514814882678
 31
0.0
  0
LINE
  5
239
330
1F
100
AcDbEntity
  8
0
 62
     2
100
AcDbLine
 10
144.4395723692807
 20
213.5067098075527
 30
0.0
 11
144.4576514125211
 21
212.8527746037117
 31
0.0
  0
LINE
  5
23A
330
1F
100
AcDbEntity
  8
0
 62
     2
100
AcDbLine
 10
144.4395723692807
 20
213.5067098075527
 30
0.0
 11
144.4577334782859
 21
212.8049971277485
 31
0.0
  0
LINE
  5
23B
330
1F
100
AcDbEntity
  8
0
 62
     2
100
AcDbLine
 10
144.4395723692807
 20
213.5067098075527
 30
0.0
 11
144.4575440891543
 21
212.807379340592
 31
0.0
  0
LINE
  5
23C
330
1F
100
AcDbEntity
  8
0
 62
     2
100
AcDbLine
 10
144.4395723692807
 20
213.5067098075527
 30
0.0
 11
144.4573681237181
 21
212.8095927047827
 31
0.0
  0
LINE
  5
23D
330
1F
100
AcDbEntity
  8
0
 62
     2
100
AcDbLine
 10
144.4395723692807
 20
213.5067098075527
 30
0.0
 11
144.45721030915
 21
212.8115777600377
 31
0.0
  0
LINE
  5
23E
330
1F
100
AcDbEntity
  8
0
 62
     2
100
AcDbLine
 10
144.4395723692807
 20
213.5067098075527
 30
0.0
 11
144.4579137541977
 21
212.7799401419572
 31
0.0
  0
LWPOLYLINE
  5
23F
330
1F
100
AcDbEntity
  8
0
 62
     2
100
AcDbPolyline
 90
        4
 70
     0
 43
0.0
 10
154.2159828721224
 20
199.4468260016137
 10
154.935645524987
 20
199.1987846447752
 10
155.667277503367
 20
198.9872540063934
 10
156.0827485007491
 20
198.8897191525068
  0
LINE
  5
240
330
1F
100
AcDbEntity
  8
0
 62
     2
100
AcDbLine
 10
158.685547729513
 20
198.5241982578967
 30
0.0
 11
159.4395723692807
 21
198.5067098075527
 31
0.0
  0
LWPOLYLINE
  5
241
330
1F
100
AcDbEntity
  8
0
 62
     2
100
AcDbPolyline
 90
        5
 70
     0
 43
0.0
 10
155.6609843880791
 20
198.989716402111
 10
156.4021531894781
 20
198.813990589018
 10
157.1517944121057
 20
198.6771164420543
 10
157.908702679263
 20
198.5804181187345
 10
158.6744861333418
 20
198.5244548147321
  0
LINE
  5
242
330
1F
100
AcDbEntity
  8
0
 62
     2
100
AcDbLine
 10
144.4395723692807
 20
226.5067093656028
 30
0.0
 11
144.4579137595647
 21
227.2334791151554
 31
0.0
  0
LINE
  5
243
330
1F
100
AcDbEntity
  8
0
 62
     2
100
AcDbLine
 10
144.4395723692807
 20
226.5067093656028
 30
0.0
 11
144.457974238843
 21
227.231948639892
 31
0.0
  0
LINE
  5
244
330
1F
100
AcDbEntity
  8
0
 62
     2
100
AcDbLine
 10
144.4395723692807
 20
226.5067093656028
 30
0.0
 11
144.4580366436755
 21
227.2300143881471
 31
0.0
  0
LINE
  5
245
330
1F
100
AcDbEntity
  8
0
 62
     2
100
AcDbLine
 10
144.4395723692807
 20
226.5067093656028
 30
0.0
 11
144.4574048306546
 21
227.2006207187892
 31
0.0
  0
LINE
  5
246
330
1F
100
AcDbEntity
  8
0
 62
     2
100
AcDbLine
 10
144.4395723692807
 20
226.5067093656028
 30
0.0
 11
144.4575913588504
 21
227.2029306217727
 31
0.0
  0
LINE
  5
247
330
1F
100
AcDbEntity
  8
0
 62
     2
100
AcDbLine
 10
144.4571512840739
 20
227.1425543663136
 30
0.0
 11
144.4582652400974
 21
227.1828471475733
 31
0.0
  0
LINE
  5
248
330
1F
100
AcDbEntity
  8
0
 62
     2
100
AcDbLine
 10
144.457256405899
 20
227.1437787502754
 30
0.0
 11
144.4582296708592
 21
227.1788407286375
 31
0.0
  0
LINE
  5
249
330
1F
100
AcDbEntity
  8
0
 62
     2
100
AcDbLine
 10
144.4567190527503
 20
227.1056881324515
 30
0.0
 11
144.4580860890552
 21
227.1534423072805
 31
0.0
  0
LINE
  5
24A
330
1F
100
AcDbEntity
  8
0
 62
     2
100
AcDbLine
 10
144.456827841993
 20
227.1056881324515
 30
0.0
 11
144.4580749527761
 21
227.1489783332723
 31
0.0
  0
LINE
  5
24B
330
1F
100
AcDbEntity
  8
0
 62
     2
100
AcDbLine
 10
144.4569426226381
 20
227.1056881324515
 30
0.0
 11
144.4580666150319
 21
227.144446782895
 31
0.0
  0
LINE
  5
24C
330
1F
100
AcDbEntity
  8
0
 62
     2
100
AcDbLine
 10
144.4395723692807
 20
226.5067093656028
 30
0.0
 11
144.4580549424001
 21
227.1304405813505
 31
0.0
  0
LINE
  5
24D
330
1F
100
AcDbEntity
  8
0
 62
     2
100
AcDbLine
 10
144.4567153342301
 20
227.0807918238939
 30
0.0
 11
144.4580543481868
 21
227.1256326332989
 31
0.0
  0
LINE
  5
24E
330
1F
100
AcDbEntity
  8
0
 62
     2
100
AcDbLine
 10
144.4571261904163
 20
227.0851341344041
 30
0.0
 11
144.4580569545854
 21
227.1158042116003
 31
0.0
  0
LINE
  5
24F
330
1F
100
AcDbEntity
  8
0
 62
     2
100
AcDbLine
 10
144.4395723692807
 20
226.5067093656028
 30
0.0
 11
144.4575779943305
 21
227.0677421742429
 31
0.0
  0
LINE
  5
250
330
1F
100
AcDbEntity
  8
0
 62
     2
100
AcDbLine
 10
144.4395723692807
 20
226.5067093656028
 30
0.0
 11
144.4581957752038
 21
227.0679417098622
 31
0.0
  0
LINE
  5
251
330
1F
100
AcDbEntity
  8
0
 62
     2
100
AcDbLine
 10
144.4395723692807
 20
226.5067093656028
 30
0.0
 11
144.4582296696876
 21
227.0622375293268
 31
0.0
  0
LINE
  5
252
330
1F
100
AcDbEntity
  8
0
 62
     2
100
AcDbLine
 10
144.4395723692807
 20
226.5067093656028
 30
0.0
 11
144.4582652387321
 21
227.05643803069
 31
0.0
  0
LINE
  5
253
330
1F
100
AcDbEntity
  8
0
 62
     2
100
AcDbLine
 10
144.4395723692807
 20
226.5067093656028
 30
0.0
 11
144.4581660884406
 21
226.9755812787851
 31
0.0
  0
LINE
  5
254
330
1F
100
AcDbEntity
  8
0
 62
     2
100
AcDbLine
 10
144.4395723692807
 20
226.5067093656028
 30
0.0
 11
144.4581014813383
 21
226.9678716906148
 31
0.0
  0
LINE
  5
255
330
1F
100
AcDbEntity
  8
0
 62
     2
100
AcDbLine
 10
144.4395723692807
 20
226.5067093656028
 30
0.0
 11
144.4580366378076
 21
226.9600777615185
 31
0.0
  0
LINE
  5
256
330
1F
100
AcDbEntity
  8
0
 62
     2
100
AcDbLine
 10
144.4395723692807
 20
226.5067093656028
 30
0.0
 11
144.457974233218
 21
226.952219333197
 31
0.0
  0
LINE
  5
257
330
1F
100
AcDbEntity
  8
0
 62
     2
100
AcDbLine
 10
144.4395723692807
 20
226.5067093656028
 30
0.0
 11
144.4579137541532
 21
226.9442799021778
 31
0.0
  0
LWPOLYLINE
  5
258
330
1F
100
AcDbEntity
  8
0
 62
     2
100
AcDbPolyline
 90
        7
 70
     0
 43
0.0
 10
154.2185251159094
 20
240.5685858147796
 10
154.9356471596089
 20
240.8146354452647
 10
155.6672790355263
 20
241.0261659864751
 10
156.4021560107809
 20
241.1994296465078
 10
157.1517974603825
 20
241.3363036135964
 10
157.9087056456713
 20
241.4330017596033
 10
158.6716931031398
 20
241.4881965413827
  0
LWPOLYLINE
  5
259
330
1F
100
AcDbEntity
  8
0
 62
     2
100
AcDbPolyline
 90
        3
 70
     0
 43
0.0
 10
157.913447747512
 20
241.4323383478445
 10
158.6744873332069
 20
241.4889648017818
 10
159.4395723692807
 20
241.5049621128182
  0
ARC
  5
25A
330
1F
100
AcDbEntity
  8
0
 62
     2
100
AcDbCircle
 10
159.4395723692807
 20
216.5067098075529
 30
0.0
 40
14.99999999999998
100
AcDbArc
 50
197.1232136830918
 51
197.1428571428571
  0
LINE
  5
25B
330
1F
100
AcDbEntity
  8
0
 62
     2
100
AcDbLine
 10
144.4640794916926
 20
227.2840131537072
 30
0.0
 11
144.4653510259005
 21
227.3243430225036
 31
0.0
  0
LINE
  5
25C
330
1F
100
AcDbEntity
  8
0
 62
     2
100
AcDbLine
 10
144.4625059721492
 20
227.2341050691762
 30
0.0
 11
144.4640414413687
 21
227.2828062930796
 31
0.0
  0
LINE
  5
25D
330
1F
100
AcDbEntity
  8
0
 62
     2
100
AcDbLine
 10
144.4614923373944
 20
227.2019551227474
 30
0.0
 11
144.4624809856586
 21
227.2333125605028
 31
0.0
  0
LINE
  5
25E
330
1F
100
AcDbEntity
  8
0
 62
     2
100
AcDbLine
 10
144.4594017070589
 20
227.1356455837596
 30
0.0
 11
144.4610519199216
 21
227.1879861875948
 31
0.0
  0
LINE
  5
25F
330
1F
100
AcDbEntity
  8
0
 62
     2
100
AcDbLine
 10
144.4589082438126
 20
227.1199941700148
 30
0.0
 11
144.4596314470616
 21
227.1429323591442
 31
0.0
  0
LINE
  5
260
330
1F
100
AcDbEntity
  8
0
 62
     2
100
AcDbLine
 10
144.4652717848476
 20
227.2989317031938
 30
0.0
 11
144.4666320285095
 21
227.3408632456743
 31
0.0
  0
LINE
  5
261
330
1F
100
AcDbEntity
  8
0
 62
     2
100
AcDbLine
 10
144.4635963817138
 20
227.2472848992834
 30
0.0
 11
144.4652235684491
 21
227.2974453606964
 31
0.0
  0
LINE
  5
262
330
1F
100
AcDbEntity
  8
0
 62
     2
100
AcDbLine
 10
144.4625183429672
 20
227.214052744808
 30
0.0
 11
144.4635634862315
 21
227.2462708469109
 31
0.0
  0
LINE
  5
263
330
1F
100
AcDbEntity
  8
0
 62
     2
100
AcDbLine
 10
144.4597714894278
 20
227.1293768818741
 30
0.0
 11
144.4620497777993
 21
227.1996085236777
 31
0.0
  0
LINE
  5
264
330
1F
100
AcDbEntity
  8
0
 62
     2
100
AcDbLine
 10
144.4597714894278
 20
227.1293768818741
 30
0.0
 11
144.4605314999213
 21
227.1528053404567
 31
0.0
  0
LINE
  5
265
330
1F
100
AcDbEntity
  8
0
 62
     2
100
AcDbLine
 10
144.4395723692807
 20
226.5067088348089
 30
0.0
 11
144.4589676036952
 21
227.1045959035187
 31
0.0
  0
LINE
  5
266
330
1F
100
AcDbEntity
  8
0
 62
     2
100
AcDbLine
 10
144.4675849034683
 20
212.6431816047027
 30
0.0
 11
144.4684690996882
 21
212.6159249356839
 31
0.0
  0
LINE
  5
267
330
1F
100
AcDbEntity
  8
0
 62
     2
100
AcDbLine
 10
144.4627451102667
 20
212.7923754583396
 30
0.0
 11
144.4650430271664
 21
212.721538737984
 31
0.0
  0
LINE
  5
268
330
1F
100
AcDbEntity
  8
0
 62
     2
100
AcDbLine
 10
144.461315842099
 20
212.8364347842107
 30
0.0
 11
144.4627451102667
 21
212.7923754583396
 31
0.0
  0
LINE
  5
269
330
1F
100
AcDbEntity
  8
0
 62
     2
100
AcDbLine
 10
144.4662358575744
 20
212.6610109858531
 30
0.0
 11
144.4675817622927
 21
212.61832227154
 31
0.0
  0
LINE
  5
26A
330
1F
100
AcDbEntity
  8
0
 62
     2
100
AcDbLine
 10
144.4617054886779
 20
212.8047028987584
 30
0.0
 11
144.4638651623267
 21
212.7362034796317
 31
0.0
  0
LINE
  5
26B
330
1F
100
AcDbEntity
  8
0
 62
     2
100
AcDbLine
 10
144.4603618974937
 20
212.8473182335867
 30
0.0
 11
144.4617054886779
 21
212.8047028987584
 31
0.0
  0
LINE
  5
26C
330
1F
100
AcDbEntity
  8
0
 62
     2
100
AcDbLine
 10
144.4587761294718
 20
212.8976148089203
 30
0.0
 11
144.4601255124252
 21
212.8548157737328
 31
0.0
  0
LINE
  5
26D
330
1F
100
AcDbEntity
  8
0
 62
     2
100
AcDbLine
 10
151.4553016600244
 20
200.9568366557881
 30
0.0
 11
151.4642218347454
 21
200.9510900332538
 31
0.0
  0
LINE
  5
26E
330
1F
100
AcDbEntity
  8
0
 62
     2
100
AcDbLine
 10
154.500891286926
 20
199.3453913508644
 30
0.0
 11
155.6395723692807
 21
198.2067102685097
 31
0.0
  0
LINE
  5
26F
330
1F
100
AcDbEntity
  8
0
 62
     2
100
AcDbLine
 10
154.4959516031423
 20
199.3503310346481
 30
0.0
 11
154.4967465172894
 21
199.3495361205011
 31
0.0
  0
LINE
  5
270
330
1F
100
AcDbEntity
  8
0
 62
     2
100
AcDbLine
 10
155.3737840624719
 20
240.9409219617009
 30
0.0
 11
155.6395723692807
 21
241.2067102685097
 31
0.0
  0
LINE
  5
271
330
1F
100
AcDbEntity
  8
0
 62
     2
100
AcDbLine
 10
154.8024775992529
 20
240.3696154984818
 30
0.0
 11
154.8032702582883
 21
240.3704081575172
 31
0.0
  0
LINE
  5
272
330
1F
100
AcDbEntity
  8
0
 62
     2
100
AcDbLine
 10
156.9686156324364
 20
240.7134912617488
 30
0.0
 11
156.9694856965748
 21
240.7142075076859
 31
0.0
  0
LINE
  5
273
330
1F
100
AcDbEntity
  8
0
 62
     2
100
AcDbLine
 10
156.9520176274896
 20
198.7135929272743
 30
0.0
 11
157.5677572750152
 21
198.2067095822217
 31
0.0
  0
LINE
  5
274
330
1F
100
AcDbEntity
  8
0
 62
     2
100
AcDbLine
 10
156.8710067865981
 20
198.7802819023657
 30
0.0
 11
156.8719988071612
 21
198.7794652606188
 31
0.0
  0
LINE
  5
275
330
1F
100
AcDbEntity
  8
0
 62
     2
100
AcDbLine
 10
147.6650287006093
 20
204.3685402487332
 30
0.0
 11
147.6896971547057
 21
204.3359156781056
 31
0.0
  0
LINE
  5
276
330
1F
100
AcDbEntity
  8
0
 62
     2
100
AcDbLine
 10
146.7396967385744
 20
206.4209146789878
 30
0.0
 11
146.7020755071412
 21
206.4704771641133
 31
0.0
  0
LINE
  5
277
330
1F
100
AcDbEntity
  8
0
 62
     2
100
AcDbLine
 10
148.1640885777306
 20
204.5859941744776
 30
0.0
 11
148.148500206518
 21
204.6052376472775
 31
0.0
  0
LINE
  5
278
330
1F
100
AcDbEntity
  8
0
 62
     2
100
AcDbLine
 10
149.268603155899
 20
203.0428703368776
 30
0.0
 11
149.2691468505779
 21
203.0451323900563
 31
0.0
  0
LWPOLYLINE
  5
279
330
1F
100
AcDbEntity
  8
0
 62
     2
100
AcDbPolyline
 90
        7
 70
     0
 43
0.0
 10
154.1460090665686
 20
200.0386968855226
 10
154.1107386497609
 20
200.0241565919268
 10
154.099685147558
 20
200.0207158696823
 10
154.0828695932811
 20
200.0163410367248
 10
154.0521986695735
 20
200.0106935529029
 10
154.044780859793
 20
200.009730121372
 10
153.9920389579333
 20
200.0067104093453
  0
LWPOLYLINE
  5
27A
330
1F
100
AcDbEntity
  8
0
 62
     2
100
AcDbPolyline
 90
      120
 70
     0
 43
0.0
 10
150.4242892034668
 20
203.9677725338272
 10
150.4262527088709
 20
203.9682724407273
 10
150.4846602186091
 20
203.9813225150902
 10
150.5173862135928
 20
203.9872270230591
 10
150.5889654949772
 20
203.9970884194523
 10
150.6054044351575
 20
203.9988158771554
 10
150.621946132942
 20
204.0003663679709
 10
150.7019440913883
 20
204.0053877206201
 10
150.7377659692973
 20
204.0064018983215
 10
150.7460053925091
 20
204.0065339421741
 10
150.7717719990412
 20
204.0067104090071
 10
150.8652763646169
 20
204.0044994709741
 10
150.9092145021181
 20
204.002012236554
 10
150.970673379807
 20
203.997084859778
 10
151.0062750271122
 20
203.9934912972915
 10
151.1002713690839
 20
203.98153276105
 10
151.1616658209837
 20
203.9718765996336
 10
151.1823675854654
 20
203.9683047205552
 10
151.3286065334834
 20
203.9387385649573
 10
151.3342649190299
 20
203.9374468191535
 10
151.3488478991131
 20
203.9340684045956
 10
151.4042075068502
 20
203.9206046431277
 10
151.5273378388982
 20
203.8871330005706
 10
151.6130814912147
 20
203.8610450391741
 10
151.6334766653638
 20
203.854512118231
 10
151.7478488091107
 20
203.8155914336059
 10
151.8681299472473
 20
203.7705531108658
 10
152.0025640877904
 20
203.715333930997
 10
152.0082052812339
 20
203.712905330998
 10
152.0125943643093
 20
203.7110095963765
 10
152.1055284512134
 20
203.6696001157756
 10
152.3386661906366
 20
203.5549458191273
 10
152.3428762737283
 20
203.5527314463196
 10
152.5776253645822
 20
203.4208662258202
 10
152.6628045586037
 20
203.3687788973209
 10
152.806260673966
 20
203.2755752954417
 10
152.9384916009641
 20
203.1830477662772
 10
153.0260506289923
 20
203.117890923904
 10
153.0604719944334
 20
203.0913501710387
 10
153.206090412723
 20
202.9727061699119
 10
153.2331966095066
 20
202.9493975002169
 10
153.2587594832227
 20
202.9270357859292
 10
153.3011856224441
 20
202.8890732441321
 10
153.3255996605673
 20
202.8667261708063
 10
153.4246194061176
 20
202.7719949500575
 10
153.5880388213306
 20
202.5984230426956
 10
153.5977046586971
 20
202.5873393754316
 10
153.6949981062038
 20
202.4694962815185
 10
153.7502431173046
 20
202.3968905113035
 10
153.7634128692557
 20
202.3788942733943
 10
153.8698580079731
 20
202.2220340648172
 10
153.8819624129401
 20
202.2027075208269
 10
153.8878789984028
 20
202.1931314968734
 10
153.9737027294471
 20
202.0429373548031
 10
153.9810794641804
 20
202.0288543368711
 10
153.9821257459776
 20
202.0268389024338
 10
153.9924470517735
 20
202.0067096850294
 10
154.0524987419917
 20
201.8802586965317
 10
154.0613221257292
 20
201.8603048740816
 10
154.0826914089118
 20
201.8105565615052
 10
154.1103587815394
 20
201.7431839700586
 10
154.1228965870278
 20
201.7114440508455
 10
154.1584799355531
 20
201.616528882752
 10
154.1588715010998
 20
201.6154398314994
 10
154.1729043475284
 20
201.5756821209119
 10
154.1995308094399
 20
201.495991922986
 10
154.2137097406256
 20
201.4511939451193
 10
154.2214231901778
 20
201.4261407784309
 10
154.2342002633047
 20
201.383624296066
 10
154.2482939388971
 20
201.3353098852879
 10
154.2646325274387
 20
201.2773113335778
 10
154.2744767691851
 20
201.2412402151483
 10
154.2784455228831
 20
201.2264412737787
 10
154.2915588480276
 20
201.176423195725
 10
154.3047470918514
 20
201.124153106238
 10
154.3152851849377
 20
201.0805674186085
 10
154.3191883199706
 20
201.063916548309
 10
154.3274649595382
 20
201.0275039229248
 10
154.335762274294
 20
200.9891616645695
 10
154.3464655792
 20
200.9360870316723
 10
154.3527972840922
 20
200.9021167533281
 10
154.3539843342136
 20
200.8954775908377
 10
154.3617207780751
 20
200.8495220363794
 10
154.366356941873
 20
200.8190678567461
 10
154.3732158729092
 20
200.7675720653752
 10
154.376340802902
 20
200.7399570604132
 10
154.3765558527864
 20
200.7379118935266
 10
154.3809063228479
 20
200.6899787110416
 10
154.3826412005048
 20
200.6645074126917
 10
154.3846641620516
 20
200.616476867678
 10
154.3849892254269
 20
200.5924328665517
 10
154.3841605271381
 20
200.5469330181814
 10
154.3829642929058
 20
200.5240262355432
 10
154.3792668751935
 20
200.4811631932968
 10
154.3768184441758
 20
200.4607366474455
 10
154.3765953569305
 20
200.4590447333988
 10
154.3704328232264
 20
200.419246384896
 10
154.36629444876
 20
200.3974474517814
 10
154.3580902330455
 20
200.3609023416396
 10
154.3536911598316
 20
200.3438251753882
 10
154.35249386108
 20
200.3394120636771
 10
154.3426837726905
 20
200.3062881538972
 10
154.3355168213209
 20
200.284886668593
 10
154.324455204241
 20
200.2554570984864
 10
154.3192344765864
 20
200.2428340619052
 10
154.3154221940584
 20
200.2340625055588
 10
154.3033097903424
 20
200.2083951981684
 10
154.2920995150163
 20
200.1872482637716
 10
154.2791222360677
 20
200.1654331075092
 10
154.2749451017784
 20
200.1589514521353
 10
154.2649776421666
 20
200.1444403024792
 10
154.2513663976855
 20
200.126565135525
 10
154.2337525236425
 20
200.1062202878408
 10
154.2206655560735
 20
200.0928299350234
 10
154.2199927989089
 20
200.0921774536435
 10
154.1984392509821
 20
200.0729597211255
 10
154.185274042379
 20
200.0627436202542
 10
154.1584907310997
 20
200.0453546915995
 10
154.1581121508609
 20
200.0451398735608
 10
154.1460090665686
 20
200.0386968855226
  0
LWPOLYLINE
  5
27B
330
1F
100
AcDbEntity
  8
0
 62
     2
100
AcDbPolyline
 90
      120
 70
     0
 43
0.0
 10
153.99203425544
 20
200.0067104095388
 10
153.980693356545
 20
200.0068349430287
 10
153.9798965612659
 20
200.0068528057169
 10
153.9736352611432
 20
200.0070333742844
 10
153.9010130644716
 20
200.0136144243475
 10
153.8889073001125
 20
200.0153840943931
 10
153.8828435964901
 20
200.0163306534046
 10
153.8789689260162
 20
200.0169556377563
 10
153.8117553245811
 20
200.0300243273287
 10
153.8017011964892
 20
200.0323064343528
 10
153.7633966149861
 20
200.0416913812883
 10
153.7502929676644
 20
200.0451398325216
 10
153.6771669230177
 20
200.0663950269304
 10
153.5977034083873
 20
200.0928028399931
 10
153.5877781197653
 20
200.0963082599827
 10
153.5207032834784
 20
200.1210409828621
 10
153.4252100084878
 20
200.1589512645736
 10
153.325741729914
 20
200.201230856616
 10
153.3110361734285
 20
200.2077063983884
 10
153.3022729165264
 20
200.2115921447087
 10
153.233343843121
 20
200.2428452365886
 10
153.1640581347534
 20
200.275458016743
 10
153.049553380369
 20
200.3318160303815
 10
153.0259182915048
 20
200.3438108528935
 10
153.0064306201525
 20
200.3537906553207
 10
152.931318170096
 20
200.3929973280348
 10
152.8097897406568
 20
200.4588265594744
 10
152.8063555704028
 20
200.4607284341407
 10
152.662814318208
 20
200.5422330543892
 10
152.5774171622395
 20
200.5925736248923
 10
152.559347539184
 20
200.603402019006
 10
152.4320703383117
 20
200.6814253046594
 10
152.342819386026
 20
200.7379589448327
 10
152.2872782787532
 20
200.7738929366922
 10
152.1053972578924
 20
200.8956155350952
 10
152.0492215235826
 20
200.9344760713901
 10
152.0125407223771
 20
200.9601774989373
 10
152.0025166135762
 20
200.96724636153
 10
151.8680116535261
 20
201.0639980259028
 10
151.7976645693454
 20
201.1160361554364
 10
151.6743386469438
 20
201.2097174784536
 10
151.6335783428974
 20
201.2413769301518
 10
151.6128293304288
 20
201.2576279027602
 10
151.5530839669231
 20
201.3049345682298
 10
151.434169255319
 20
201.4014072929588
 10
151.4042967179618
 20
201.4261411734551
 10
151.3487974809998
 20
201.4726457324931
 10
151.3283425710141
 20
201.4899706926728
 10
151.3153821060312
 20
201.5010006263446
 10
151.1825096311921
 20
201.6165280122506
 10
151.1005519512674
 20
201.6901255491507
 10
150.9911334890899
 20
201.7914043278196
 10
150.9706967646735
 20
201.8107322221988
 10
150.9091654363668
 20
201.8697729377347
 10
150.8861711203113
 20
201.8921795891769
 10
150.7879063493705
 20
201.9902411602638
 10
150.7717160208398
 20
202.0067851509789
 10
150.7594449478692
 20
202.0194028198217
 10
150.7459018675159
 20
202.0334091503241
 10
150.7019744282042
 20
202.0794494921983
 10
150.6054300703288
 20
202.1843048864766
 10
150.5889275150524
 20
202.2027996550227
 10
150.5812391008949
 20
202.2114795525373
 10
150.4847533922146
 20
202.3242779896855
 10
150.4406518103783
 20
202.3786484314531
 10
150.4261612197322
 20
202.3969752595507
 10
150.3815988709428
 20
202.4549679848321
 10
150.3284833180873
 20
202.527776141292
 10
150.2940726575154
 20
202.5774897257758
 10
150.2874775782266
 20
202.5872798984168
 10
150.2392453765247
 20
202.6618460164038
 10
150.2203630749003
 20
202.6926514829277
 10
150.1745083996592
 20
202.7721630717559
 10
150.1677127636245
 20
202.784609561603
 10
150.1588069932209
 20
202.8012208686188
 10
150.1110085879334
 20
202.8973894775064
 10
150.1078685661427
 20
202.9042078897981
 10
150.0878612818196
 20
202.9495270120064
 10
150.0702425866593
 20
202.9926610032517
 10
150.0667596894442
 20
203.0016243810857
 10
150.0665009800469
 20
203.0022966241882
 10
150.0345208807519
 20
203.0941009802859
 10
150.032820581531
 20
203.0996012537225
 10
150.0273414007102
 20
203.1179094074516
 10
150.0103692791024
 20
203.1821125686646
 10
150.0083358873827
 20
203.190849154317
 10
149.9937333587325
 20
203.2656986271424
 10
149.9922088860311
 20
203.275473915679
 10
149.9920953151914
 20
203.2762262498695
 10
149.9840114778767
 20
203.3453780833691
 10
149.9831611304547
 20
203.3564937828344
 10
149.9808607044788
 20
203.4208991341241
 10
149.9809349053629
 20
203.4317447463511
 10
149.9840414306796
 20
203.4926680270727
 10
149.9849947593625
 20
203.502418492728
 10
149.9921921352837
 20
203.5526918438465
 10
149.9937178003369
 20
203.560684754551
 10
149.9953761092197
 20
203.5687690890072
 10
150.0103958752019
 20
203.6249216872314
 10
150.0123268074568
 20
203.6307192070832
 10
150.0273950800654
 20
203.6696509721842
 10
150.0345528827637
 20
203.685255147871
 10
150.0361370506612
 20
203.6885169487317
 10
150.0667703787285
 20
203.7416629825389
 10
150.0670016073815
 20
203.7420074309208
 10
150.0702322980218
 20
203.746749279409
 10
150.0878653359641
 20
203.770551129733
 10
150.1053095336307
 20
203.7912302184156
 10
150.1078834203275
 20
203.7940782688943
 10
150.1514466039135
 20
203.8360461457599
 10
150.1587426247091
 20
203.8421153709309
 10
150.1744879439323
 20
203.8544510941066
 10
150.2058845513083
 20
203.876349095902
 10
150.2203635626269
 20
203.8854035428186
 10
150.269193299992
 20
203.9119661652622
 10
150.2874664770921
 20
203.9205568086932
 10
150.2941845226397
 20
203.9235529769734
 10
150.3417984545614
 20
203.9425540264911
 10
150.3816544670257
 20
203.9558223356703
 10
150.4242892034668
 20
203.9677725338272
  0
LWPOLYLINE
  5
27C
330
1F
100
AcDbEntity
  8
0
 62
     2
100
AcDbPolyline
 90
       74
 70
     0
 43
0.0
 10
149.9236737920006
 20
216.3547827578649
 10
149.8088852865754
 20
216.3567101984198
 10
149.5403762962111
 20
216.3453983509091
 10
149.4943551419588
 20
216.3410446010895
 10
149.3437296820514
 20
216.3213509388845
 10
149.2865556061703
 20
216.3115625599136
 10
149.1978521721328
 20
216.2936718255178
 10
149.0569608559684
 20
216.2579702486419
 10
149.0484970470029
 20
216.2555218336376
 10
148.8329949049045
 20
216.1802666374393
 10
148.8271082679074
 20
216.1778362465169
 10
148.79101337393
 20
216.1624601678026
 10
148.6663441767888
 20
216.1026982071774
 10
148.6228466326384
 20
216.0792252905187
 10
148.4361168543618
 20
215.9605992160278
 10
148.4345691388481
 20
215.9594816052347
 10
148.327829051521
 20
215.8762507120947
 10
148.2674571094848
 20
215.8232849303637
 10
148.2273981292454
 20
215.7854926834156
 10
148.1334270706672
 20
215.6874246644812
 10
148.1167402865392
 20
215.6684750326764
 10
147.9839652268115
 20
215.4975559787105
 10
147.9654650538035
 20
215.4704251176386
 10
147.8917478250272
 20
215.3521496789812
 10
147.8692591679531
 20
215.3123433809891
 10
147.8444049265604
 20
215.2659682240647
 10
147.7724250757803
 20
215.1145043241585
 10
147.7654137295589
 20
215.0981062656209
 10
147.7130203168406
 20
214.9632947938711
 10
147.6934531895838
 20
214.9060949497559
 10
147.632178467569
 20
214.6889928964116
 10
147.6302539854259
 20
214.6808423180665
 10
147.6000088333882
 20
214.534457085948
 10
147.5884522793714
 20
214.465180831318
 10
147.5622676028786
 20
214.2369849414646
 10
147.5620983217693
 20
214.234742996863
 10
147.5545118216561
 20
214.0828428963096
 10
147.5535635044369
 20
214.0067059956568
 10
147.5545118185461
 20
213.9305694487151
 10
147.5620983690604
 20
213.778672164611
 10
147.5622676519122
 20
213.7764302825861
 10
147.5884517286421
 20
213.5482434290804
 10
147.6000072635316
 20
213.4789704275729
 10
147.6302495532495
 20
213.3325918169887
 10
147.6321738681222
 20
213.324441577401
 10
147.693445277508
 20
213.1073460538975
 10
147.7130122972978
 20
213.0501467914493
 10
147.7654066564616
 20
212.9153336160597
 10
147.772418157634
 20
212.8989350465044
 10
147.8444047792446
 20
212.747454919621
 10
147.8692547404618
 20
212.7010868629633
 10
147.8917440378316
 20
212.6612784715153
 10
147.9654634475119
 20
212.5429975277235
 10
147.9839641801381
 20
212.5158657024765
 10
148.1167420776427
 20
212.344943887942
 10
148.1334289712027
 20
212.3259941840802
 10
148.227399994154
 20
212.2279262930654
 10
148.267457424779
 20
212.1901354648467
 10
148.3278301930721
 20
212.1371688786819
 10
148.4345693761504
 20
212.0539386377484
 10
148.4361170800664
 20
212.0528210346614
 10
148.6228466248417
 20
211.9341951069624
 10
148.6663436124061
 20
211.9107224870931
 10
148.7910128950667
 20
211.8509604512068
 10
148.8271078447835
 20
211.8355843390252
 10
148.8329948900231
 20
211.8331537787419
 10
149.0484970185521
 20
211.7578985728364
 10
149.0569608394628
 20
211.7554501537247
 10
149.1978522782091
 20
211.7197485428917
 10
149.2865557312091
 20
211.7018578085102
 10
149.343729803388
 20
211.6920694335276
 10
149.4943552201851
 20
211.6723757852494
 10
149.5403763574719
 20
211.6680220389414
 10
149.8088852867698
 20
211.6567101984219
  0
LWPOLYLINE
  5
27D
330
1F
100
AcDbEntity
  8
0
 62
     2
100
AcDbPolyline
 90
      120
 70
     0
 43
0.0
 10
149.8088885341753
 20
211.6567101984209
 10
149.9236737920007
 20
211.6586376389768
 10
150.0907831770992
 20
211.6680233329611
 10
150.0935904584516
 20
211.6682446967111
 10
150.1908684319666
 20
211.677165093117
 10
150.2892377840707
 20
211.6885895582845
 10
150.384416105774
 20
211.7018598777157
 10
150.3886310661564
 20
211.7024967666306
 10
150.4889794844334
 20
211.7188647351111
 10
150.5902142451109
 20
211.7376708221976
 10
150.6876099366054
 20
211.7578751603567
 10
150.6922652212369
 20
211.7588918119233
 10
150.795051686163
 20
211.7825045317362
 10
150.8984878536075
 20
211.8084857847846
 10
150.9980736970843
 20
211.8355653861543
 10
151.1059274682431
 20
211.8671443727313
 10
151.1069660257881
 20
211.8674597386755
 10
151.2118327078828
 20
211.9004048115135
 10
151.312867420935
 20
211.9342051896251
 10
151.3169813949077
 20
211.9356242799759
 10
151.4223006037419
 20
211.9730953471345
 10
151.5276788507829
 20
212.0127951186793
 10
151.6282188435424
 20
212.0527482588428
 10
151.6330034029938
 20
212.0547005848102
 10
151.7381427384453
 20
212.0987895694744
 10
151.8429508234356
 20
212.1450406108337
 10
151.9402544354834
 20
212.190097579748
 10
151.9472812481841
 20
212.1934321185938
 10
152.0509874115619
 20
212.2439422200032
 10
152.1539046667098
 20
212.2965498216383
 10
152.2444929715899
 20
212.3450180459374
 10
152.2558357769616
 20
212.3512356810016
 10
152.3565800829228
 20
212.4079804662261
 10
152.3686229521142
 20
212.4149521344413
 10
152.5353297187334
 20
212.5159042985368
 10
152.5537007642051
 20
212.5275663634328
 10
152.6496185806593
 20
212.5903626699335
 10
152.7434106116533
 20
212.6551265590961
 10
152.8069727558888
 20
212.7011167831982
 10
152.8347967946688
 20
212.7218294406731
 10
152.9234950415917
 20
212.7904406116794
 10
153.0091824231039
 20
212.8609280829602
 10
153.0530421132881
 20
212.89885045618
 10
153.0914981274775
 20
212.9332583175743
 10
153.170079910197
 20
213.0073949508153
 10
153.244565526747
 20
213.0832984165397
 10
153.2670111253684
 20
213.1074459930952
 10
153.3145926865666
 20
213.1609255678888
 10
153.3797759308255
 20
213.2402133152416
 10
153.439669097174
 20
213.3210510257828
 10
153.4421677803657
 20
213.3246301040423
 10
153.493816202641
 20
213.4033141169495
 10
153.541761264255
 20
213.4868711171045
 10
153.5724014535075
 20
213.5482177997047
 10
153.5830482990449
 20
213.5715841606883
 10
153.6172213240394
 20
213.6573095256213
 10
153.6438793497869
 20
213.7438911930701
 10
153.6518768715032
 20
213.7763850592836
 10
153.662920854724
 20
213.8311300341978
 10
153.6743457576864
 20
213.9188095593362
 10
153.6781540586738
 20
214.0067101984208
 10
153.6743457576864
 20
214.0946108375055
 10
153.662920854724
 20
214.1822903626439
 10
153.6518768715032
 20
214.2370353375581
 10
153.6438793497869
 20
214.2695292037716
 10
153.6172213240394
 20
214.3561108712204
 10
153.583048299045
 20
214.4418362361534
 10
153.5724014535076
 20
214.465202597137
 10
153.5417612642551
 20
214.5265492797372
 10
153.493816202641
 20
214.6101062798922
 10
153.4421677803657
 20
214.6887902927994
 10
153.4396690971741
 20
214.6923693710589
 10
153.3797759308255
 20
214.7732070816001
 10
153.3145926865667
 20
214.8524948289529
 10
153.2670111253684
 20
214.9059744037465
 10
153.2445655267471
 20
214.930121980302
 10
153.1700799101971
 20
215.0060254460264
 10
153.0914981274776
 20
215.0801620792674
 10
153.0530421132881
 20
215.1145699406617
 10
153.0091824231039
 20
215.1524923138815
 10
152.9234950415917
 20
215.2229797851623
 10
152.8347967946689
 20
215.2915909561686
 10
152.8069727558889
 20
215.3123036136435
 10
152.7434106116534
 20
215.3582938377455
 10
152.6496185806594
 20
215.4230577269082
 10
152.5537007642051
 20
215.4858540334089
 10
152.5353297187334
 20
215.4975160983049
 10
152.3686229521141
 20
215.5984682624004
 10
152.3565800829229
 20
215.6054399306156
 10
152.2558357769617
 20
215.6621847158401
 10
152.2444929715899
 20
215.6684023509043
 10
152.1539046667098
 20
215.7168705752034
 10
152.0509874115619
 20
215.7694781768385
 10
151.9472812481842
 20
215.8199882782479
 10
151.9402544354835
 20
215.8233228170937
 10
151.8429508234357
 20
215.868379786008
 10
151.7381427384453
 20
215.9146308273673
 10
151.6330034029938
 20
215.9587198120315
 10
151.6282188435424
 20
215.9606721379989
 10
151.5276788507829
 20
216.0006252781624
 10
151.4223006037419
 20
216.0403250497071
 10
151.3169813949077
 20
216.0777961168658
 10
151.312867420935
 20
216.0792152072166
 10
151.2118327078828
 20
216.1130155853282
 10
151.1069660257881
 20
216.1459606581662
 10
151.1059274682432
 20
216.1462760241104
 10
150.9980736970843
 20
216.1778550106874
 10
150.8984878536075
 20
216.2049346120571
 10
150.795051686163
 20
216.2309158651055
 10
150.6922652212369
 20
216.2545285849184
 10
150.6876099366054
 20
216.2555452364849
 10
150.5902142451109
 20
216.2757495746441
 10
150.4889794844335
 20
216.2945556617306
 10
150.3886310661567
 20
216.3109236302111
 10
150.3844161057742
 20
216.3115605191261
 10
150.289237784071
 20
216.3248308385572
 10
150.190868431967
 20
216.3362553037247
 10
150.0935904584519
 20
216.3451757001306
 10
150.0907831770996
 20
216.3453970638806
 10
149.9236737920006
 20
216.3547827578649
  0
LWPOLYLINE
  5
27E
330
1F
100
AcDbEntity
  8
0
 62
     2
100
AcDbPolyline
 90
       58
 70
     0
 43
0.0
 10
152.8997581589075
 20
226.0463758415776
 10
152.9005500423237
 20
226.0067104090072
 10
152.8997581589075
 20
225.9670449764368
 10
152.893423091578
 20
225.887810822966
 10
152.8811022370142
 20
225.8106104376071
 10
152.880752956919
 20
225.8088661668104
 10
152.8617477549305
 20
225.7304018869192
 10
152.8364389193164
 20
225.6526014556196
 10
152.8224846973967
 20
225.6164510099175
 10
152.8050571198492
 20
225.5756173764345
 10
152.7679108458497
 20
225.4995874614858
 10
152.7261803554788
 20
225.4260796713967
 10
152.7253087652955
 20
225.4246449306617
 10
152.6775595461644
 20
225.3509179485774
 10
152.6249718564339
 20
225.2785291674209
 10
152.5957494632875
 20
225.2413717029315
 10
152.5678543640817
 20
225.2075953022291
 10
152.5065155372331
 20
225.1382261729478
 10
152.441257930001
 20
225.0705084830133
 10
152.434572718134
 20
225.063874180645
 10
152.3687140651124
 20
225.0011318211263
 10
152.2466819707093
 20
224.8954785086557
 10
152.2249289497835
 20
224.8778672911933
 10
152.1469520071544
 20
224.8173376610195
 10
152.0665337638333
 20
224.7587314097399
 10
152.0367159397003
 20
224.7378878547686
 10
151.9839485152864
 20
224.7020908441701
 10
151.8994158253244
 20
224.6474513902533
 10
151.813146495078
 20
224.5948458210583
 10
151.8092419445138
 20
224.5925357730162
 10
151.7253513256778
 20
224.5443052156261
 10
151.6362411182545
 20
224.4958591848097
 10
151.5682780260985
 20
224.4607183724351
 10
151.5460195814362
 20
224.4495362672579
 10
151.4548593959511
 20
224.4053646773938
 10
151.3629247599861
 20
224.3633717774525
 10
151.3180127130029
 20
224.3437573332142
 10
151.2703798715206
 20
224.3235840016262
 10
151.1773833085909
 20
224.2860271440567
 10
151.1061220873555
 20
224.2588557182848
 10
151.0624314813037
 20
224.2428764904556
 10
150.9905756933785
 20
224.2177081371186
 10
150.8970267694157
 20
224.1869955063825
 10
150.8048622573091
 20
224.1589951732749
 10
150.8035513394756
 20
224.1586130571912
 10
150.7102584866615
 20
224.1325850290559
 10
150.6172530697053
 20
224.1089351390004
 10
150.5479941465171
 20
224.0928266062975
 10
150.524639947339
 20
224.0876864412944
 10
150.4325227527223
 20
224.0688614128205
 10
150.3409938623456
 20
224.0524822676484
 10
150.2949988207899
 20
224.0451434810259
 10
150.2501395968955
 20
224.0385705498712
 10
150.1600462187147
 20
224.0271468553786
 10
150.070799095103
 20
224.0182308364831
 10
150.0478546118411
 20
224.0163345768942
 10
149.9236271609119
 20
224.0089736773517
 10
149.8088869931854
 20
224.0067104090074
  0
LWPOLYLINE
  5
27F
330
1F
100
AcDbEntity
  8
0
 62
     2
100
AcDbPolyline
 90
      120
 70
     0
 43
0.0
 10
149.8088868011244
 20
224.0067104090074
 10
149.5795667705153
 20
224.0163373661776
 10
149.5423144663845
 20
224.0198180552021
 10
149.4140136566447
 20
224.0362676804999
 10
149.361323504488
 20
224.0451322541989
 10
149.2893533794567
 20
224.0593543167488
 10
149.168569199604
 20
224.0890897366067
 10
149.1553417684156
 20
224.0928201984898
 10
148.9626220781792
 20
224.1589363609139
 10
148.8330002542988
 20
224.2173353911028
 10
148.7838814428294
 20
224.2428322632385
 10
148.7283914772343
 20
224.2740955924415
 10
148.6300432651305
 20
224.3365663424046
 10
148.6196458142823
 20
224.3437439325604
 10
148.4704839470515
 20
224.4606435241747
 10
148.4486378015915
 20
224.4802075234473
 10
148.3658819297913
 20
224.5610341768154
 10
148.3366185847415
 20
224.5924353197461
 10
148.2182775570754
 20
224.737871343886
 10
148.2170087268192
 20
224.739616583237
 10
148.1511686681086
 20
224.8368393065715
 10
148.1156628985766
 20
224.8954915945639
 10
148.0912117288332
 20
224.9389248909507
 10
148.0372461143712
 20
225.0455120983515
 10
148.0287247765944
 20
225.0639440468507
 10
147.9576673981657
 20
225.2413318156077
 10
147.9477165650997
 20
225.270596962003
 10
147.9123264796274
 20
225.3882104215468
 10
147.902415695852
 20
225.4261322256433
 10
147.8629301102302
 20
225.6166179773834
 10
147.8443778710866
 20
225.7553699931995
 10
147.8392700415644
 20
225.8107410759519
 10
147.8313979424263
 20
226.0067104090072
 10
147.8392700415644
 20
226.2026797420625
 10
147.8443778710866
 20
226.2580508248149
 10
147.8629301102302
 20
226.396802840631
 10
147.902415695852
 20
226.5872885923711
 10
147.9123264796274
 20
226.6252103964675
 10
147.9477165650997
 20
226.7428238560115
 10
147.9576673981656
 20
226.7720890024067
 10
148.0287247765944
 20
226.9494767711637
 10
148.0372461143711
 20
226.9679087196629
 10
148.0912117288332
 20
227.0744959270637
 10
148.1156628985766
 20
227.1179292234505
 10
148.1511686681086
 20
227.1765815114429
 10
148.2170087268192
 20
227.2738042347775
 10
148.2182775570754
 20
227.2755494741285
 10
148.3366185847415
 20
227.4209854982682
 10
148.3658819297912
 20
227.4523866411989
 10
148.4486378015915
 20
227.5332132945671
 10
148.4704839470515
 20
227.5527772938397
 10
148.6196458142822
 20
227.669676885454
 10
148.6300432651304
 20
227.6768544756098
 10
148.7283914772343
 20
227.7393252255729
 10
148.7838814428294
 20
227.7705885547758
 10
148.8330002542988
 20
227.7960854269116
 10
148.9626220781793
 20
227.8544844571005
 10
149.1553417684156
 20
227.9206006195245
 10
149.1685691996039
 20
227.9243310814077
 10
149.2893533794567
 20
227.9540665012656
 10
149.3613235044879
 20
227.9682885638155
 10
149.4140136566446
 20
227.9771531375145
 10
149.5423144663845
 20
227.9936027628123
 10
149.5795667705152
 20
227.9970834518368
 10
149.8088869931854
 20
228.006710409007
 10
149.923627160912
 20
228.0044471406626
 10
150.0478546118413
 20
227.9970862411202
 10
150.0707990951031
 20
227.9951899815313
 10
150.1600462187148
 20
227.9862739626358
 10
150.2501395968956
 20
227.9748502681432
 10
150.2949988207901
 20
227.9682773369885
 10
150.3409938623457
 20
227.960938550366
 10
150.4325227527223
 20
227.9445594051939
 10
150.524639947339
 20
227.92573437672
 10
150.5479941465171
 20
227.9205942117169
 10
150.6172530697053
 20
227.9044856790139
 10
150.7102584866615
 20
227.8808357889584
 10
150.8035513394756
 20
227.8548077608232
 10
150.8048622573091
 20
227.8544256447395
 10
150.8970267694157
 20
227.8264253116319
 10
150.9905756933785
 20
227.7957126808957
 10
151.0624314813037
 20
227.7705443275588
 10
151.1061220873555
 20
227.7545650997296
 10
151.1773833085909
 20
227.7273936739577
 10
151.2703798715206
 20
227.6898368163882
 10
151.3180127130029
 20
227.6696634848001
 10
151.3629247599861
 20
227.6500490405619
 10
151.4548593959511
 20
227.6080561406206
 10
151.5460195814362
 20
227.5638845507565
 10
151.5682780260985
 20
227.5527024455793
 10
151.6362411182545
 20
227.5175616332047
 10
151.7253513256778
 20
227.4691156023883
 10
151.8092419445138
 20
227.4208850449982
 10
151.813146495078
 20
227.4185749969561
 10
151.8994158253244
 20
227.3659694277611
 10
151.9839485152864
 20
227.3113299738443
 10
152.0367159397003
 20
227.2755329632457
 10
152.0665337638333
 20
227.2546894082744
 10
152.1469520071544
 20
227.1960831569949
 10
152.2249289497835
 20
227.1355535268211
 10
152.2466819707093
 20
227.1179423093587
 10
152.3687140651124
 20
227.0122889968881
 10
152.434572718134
 20
226.9495466373694
 10
152.441257930001
 20
226.9429123350011
 10
152.506515537233
 20
226.8751946450666
 10
152.5678543640817
 20
226.8058255157853
 10
152.5957494632875
 20
226.7720491150829
 10
152.6249718564339
 20
226.7348916505935
 10
152.6775595461643
 20
226.6625028694369
 10
152.7253087652955
 20
226.5887758873527
 10
152.7261803554788
 20
226.5873411466176
 10
152.7679108458496
 20
226.5138333565286
 10
152.8050571198492
 20
226.4378034415799
 10
152.8224846973967
 20
226.3969698080969
 10
152.8364389193164
 20
226.3608193623947
 10
152.8617477549305
 20
226.2830189310952
 10
152.880752956919
 20
226.2045546512039
 10
152.8811022370142
 20
226.2028103804073
 10
152.893423091578
 20
226.1256099950484
 10
152.8997581589075
 20
226.0463758415776
  0
LWPOLYLINE
  5
280
330
1F
100
AcDbEntity
  8
0
 62
     2
100
AcDbPolyline
 90
       31
 70
     0
 43
0.0
 10
149.7096831503317
 20
236.116737685388
 10
149.723152589017
 20
236.0785512942914
 10
149.7336619208014
 20
236.0536143786753
 10
149.7340385098276
 20
236.0527807822327
 10
149.750403506841
 20
236.0197119254071
 10
149.7657419452221
 20
235.993149048332
 10
149.7850549834953
 20
235.9641137512115
 10
149.8069660242353
 20
235.9356199913491
 10
149.8081038998144
 20
235.9342465211035
 10
149.8278390572079
 20
235.9118325609719
 10
149.8588994190279
 20
235.8810751624699
 10
149.8795283318214
 20
235.863094179687
 10
149.9152516424382
 20
235.8356169292931
 10
149.9232276324991
 20
235.8300259320429
 10
149.9411244817826
 20
235.8181126217601
 10
150.0023356362983
 20
235.7829897640982
 10
150.0136766151097
 20
235.7772986018152
 10
150.0560942429157
 20
235.7579004788544
 10
150.0948731513781
 20
235.7424454849747
 10
150.0985749157796
 20
235.741071216142
 10
150.0993054835216
 20
235.7408019623307
 10
150.1967203604363
 20
235.7100866122332
 10
150.217162354542
 20
235.7047977844657
 10
150.2291345533705
 20
235.7018648083802
 10
150.308962660815
 20
235.685149439205
 10
150.3603894953267
 20
235.6767414701
 10
150.4292449344958
 20
235.6680323300192
 10
150.4365602001371
 20
235.6672665429001
 10
150.5337982696261
 20
235.6597569235703
 10
150.5807080079464
 20
235.6577944749437
 10
150.6515505301801
 20
235.6567101985063
  0
LWPOLYLINE
  5
281
330
1F
100
AcDbEntity
  8
0
 62
     2
100
AcDbPolyline
 90
      120
 70
     0
 43
0.0
 10
154.8490923118866
 20
240.2555192527809
 10
154.8368114058366
 20
240.2707503846777
 10
154.8306692709856
 20
240.2776622139886
 10
154.8059696961436
 20
240.3010848077021
 10
154.8004280295976
 20
240.3054701146426
 10
154.79206621539
 20
240.3115554573971
 10
154.7677688310286
 20
240.3260659040968
 10
154.7634985720077
 20
240.3281904230118
 10
154.7182912630924
 20
240.3447241675042
 10
154.7171558227856
 20
240.3450230233406
 10
154.7157196422927
 20
240.3453941313857
 10
154.7047183943207
 20
240.3479914524319
 10
154.6589274435723
 20
240.354832506308
 10
154.6535153337047
 20
240.3552821993428
 10
154.6147706406418
 20
240.3567101979177
 10
154.5855718058918
 20
240.3560107551207
 10
154.5667698745688
 20
240.3548871164076
 10
154.490793427751
 20
240.3460923130463
 10
154.4863036666504
 20
240.3453943455705
 10
154.4432582522863
 20
240.3378874787211
 10
154.363652217626
 20
240.3208233806852
 10
154.325682249416
 20
240.3115556290225
 10
154.2391673142584
 20
240.2883288121972
 10
154.1806675384018
 20
240.2711539779318
 10
154.1303494036535
 20
240.2555200390023
 10
154.0509788973106
 20
240.2293436826376
 10
153.9081458079995
 20
240.1778551814649
 10
153.9004365713755
 20
240.1749238715825
 10
153.8480515135307
 20
240.1546226026855
 10
153.7133448156283
 20
240.0995978783801
 10
153.6655778979052
 20
240.0792051271354
 10
153.5723962594514
 20
240.0382491635726
 10
153.4257590002765
 20
239.9709194496759
 10
153.4041110391016
 20
239.9606903286079
 10
153.3744945685687
 20
239.9465767831882
 10
153.2536920457774
 20
239.8875914367655
 10
153.1269727308428
 20
239.8232772309356
 10
153.1196078226493
 20
239.8194622902802
 10
152.962315847104
 20
239.7359463741541
 10
152.8497930569035
 20
239.6737812616429
 10
152.8400876865681
 20
239.6683234076621
 10
152.7428819191266
 20
239.6128047171918
 10
152.7006163751196
 20
239.5881734894731
 10
152.5493038472982
 20
239.4974813449643
 10
152.3589083083442
 20
239.3778147001299
 10
152.2584085757739
 20
239.3122205371008
 10
152.0756714024012
 20
239.1887279766954
 10
152.0591643733377
 20
239.1772976626486
 10
152.0359786377472
 20
239.1611626884659
 10
151.9695671466129
 20
239.1144186352518
 10
151.8058186711607
 20
238.9956367726531
 10
151.6865959531622
 20
238.9059116116573
 10
151.6830030445111
 20
238.9031658588007
 10
151.5833740824777
 20
238.826070429793
 10
151.5733039626008
 20
238.818176004979
 10
151.4313851750671
 20
238.7049430419918
 10
151.4116027815232
 20
238.6888603129204
 10
151.3850757978394
 20
238.667176229188
 10
151.3838864033325
 20
238.6662007813439
 10
151.3811121987853
 20
238.6639245255847
 10
151.2029342348526
 20
238.5144831161006
 10
151.1457872481836
 20
238.4651542239229
 10
151.1393571087634
 20
238.459560205588
 10
151.0365120549115
 20
238.3688693772581
 10
150.9281361904351
 20
238.27073178108
 10
150.8915325835961
 20
238.2369558604961
 10
150.8833264536836
 20
238.2293381944158
 10
150.7435068362135
 20
238.0968392987681
 10
150.7414025424317
 20
238.0948041216761
 10
150.7338999988039
 20
238.087537517865
 10
150.6516380289125
 20
238.0067443512792
 10
150.610459361596
 20
237.965483563687
 10
150.580605836452
 20
237.9352031926364
 10
150.4892982062994
 20
237.8404970828667
 10
150.4364896894601
 20
237.7841279081223
 10
150.429327975322
 20
237.776384433966
 10
150.3777906681304
 20
237.7199093195879
 10
150.3090755803208
 20
237.6423548730906
 10
150.2756034810948
 20
237.6035226721679
 10
150.2290925872972
 20
237.5482477813849
 10
150.1966842096215
 20
237.5087143378317
 10
150.1822410743559
 20
237.4907967835538
 10
150.0985069289515
 20
237.3826284860507
 10
150.0979856392677
 20
237.381928899149
 10
150.0948651330395
 20
237.3777334881635
 10
150.0561505411636
 20
237.324540943646
 10
150.02283823643
 20
237.2768994430225
 10
150.0136711449504
 20
237.2634486860536
 10
149.9561706076894
 20
237.175138638808
 10
149.9411953803048
 20
237.1508510292958
 10
149.9153051195608
 20
237.1073632079244
 10
149.8978063675015
 20
237.0767664506755
 10
149.8795905331553
 20
237.0437412384813
 10
149.8473027219501
 20
236.9817407978292
 10
149.8278470044725
 20
236.9418056797352
 10
149.8081695207973
 20
236.8989700610446
 10
149.8039985789993
 20
236.8895242099954
 10
149.7850752388019
 20
236.8447686686102
 10
149.7676711577287
 20
236.8003068633062
 10
149.7503726614587
 20
236.7519898418298
 10
149.7379336321
 20
236.713858587506
 10
149.7339984792383
 20
236.7010475424016
 10
149.7231415866541
 20
236.6633492402232
 10
149.7145095272849
 20
236.6302390839426
 10
149.7027534759385
 20
236.578507105823
 10
149.6970508671906
 20
236.549198485491
 10
149.6914289148788
 20
236.5158782451973
 10
149.6886906791825
 20
236.497239088119
 10
149.6853161784684
 20
236.4708033346513
 10
149.6805148996266
 20
236.419526430096
 10
149.6790576835312
 20
236.3949525215453
 10
149.6778635439222
 20
236.3450436253485
 10
149.6781532694075
 20
236.3215720586977
 10
149.6805427287022
 20
236.273716603057
 10
149.6826223495416
 20
236.2507434510597
 10
149.6886959269098
 20
236.2055473699238
 10
149.6914076267865
 20
236.190211288169
 10
149.6928876701102
 20
236.1825862720239
 10
149.7027603460269
 20
236.1404519863833
 10
149.7096831503317
 20
236.116737685388
  0
LWPOLYLINE
  5
282
330
1F
100
AcDbEntity
  8
0
 62
     2
100
AcDbPolyline
 90
      120
 70
     0
 43
0.0
 10
150.6515860455463
 20
235.6567101984707
 10
150.733864383399
 20
235.6581010452634
 10
150.7434839526719
 20
235.6584401935939
 10
150.7472584023316
 20
235.6585830804489
 10
150.8915818847601
 20
235.6680260511718
 10
150.9277851362022
 20
235.6715571691626
 10
151.0169874018828
 20
235.6821292770402
 10
151.1392509100703
 20
235.7007379533169
 10
151.1458049276965
 20
235.7018646324222
 10
151.3810288674595
 20
235.7504855457138
 10
151.3852409301524
 20
235.7514956246411
 10
151.3883857453407
 20
235.7522528491945
 10
151.4115060994085
 20
235.7579003099658
 10
151.4594212373406
 20
235.7700502554971
 10
151.6398468680346
 20
235.8210315379309
 10
151.6830672819819
 20
235.8344326519447
 10
151.6867430786614
 20
235.8355930605482
 10
151.9694023514773
 20
235.9341951316811
 10
152.0357786962847
 20
235.9599258188401
 10
152.0757738912313
 20
235.9758822233308
 10
152.205588915955
 20
236.0299564472837
 10
152.2578491901894
 20
236.0526968603716
 10
152.5217527594996
 20
236.1761244599557
 10
152.5498723696566
 20
236.1901354831652
 10
152.7007855488972
 20
236.2682417421299
 10
152.8406269377209
 20
236.3450485297973
 10
152.8492226397265
 20
236.3499093066997
 10
153.1268175688701
 20
236.5158482342827
 10
153.2512054560218
 20
236.5963196920356
 10
153.3387867514569
 20
236.6555374102979
 10
153.3744808979048
 20
236.6803206794787
 10
153.4040893108584
 20
236.7011740642591
 10
153.6668455019986
 20
236.8990009340943
 10
153.7004791756237
 20
236.926143929417
 10
153.9066518368565
 20
237.1034036423374
 10
153.9111584963916
 20
237.1075132331261
 10
153.9554670627193
 20
237.1485318919709
 10
154.0517052413437
 20
237.2418447767157
 10
154.1316750097001
 20
237.3245415767502
 10
154.149301893993
 20
237.3435047786803
 10
154.1812257969418
 20
237.378608773109
 10
154.3005793520686
 20
237.5196876106649
 10
154.3230825781795
 20
237.5482489889465
 10
154.359447712699
 20
237.5959080769144
 10
154.4215428281579
 20
237.682058388681
 10
154.4843301885836
 20
237.7763706084354
 10
154.4884038669046
 20
237.7827810365474
 10
154.5197885165015
 20
237.8335305818389
 10
154.5857176780309
 20
237.9494190867036
 10
154.5996844131542
 20
237.9759401651642
 10
154.6153658832217
 20
238.0067124771247
 10
154.6600089412534
 20
238.1009731167907
 10
154.6643042210177
 20
238.1106276617608
 10
154.7049195036645
 20
238.2079815402665
 10
154.7161401585752
 20
238.2370518932433
 10
154.7165903633243
 20
238.2382402061459
 10
154.7176005658389
 20
238.2409129592939
 10
154.7594165357293
 20
238.3600221138765
 10
154.7631586683374
 20
238.3715759989957
 10
154.7916413607273
 20
238.4651727376099
 10
154.7948702113107
 20
238.4764604273611
 10
154.7999769803346
 20
238.4946137392789
 10
154.8246486103762
 20
238.5877222316063
 10
154.8304687717133
 20
238.6110238606018
 10
154.8491049460918
 20
238.688965065514
 10
154.8504116111263
 20
238.6946107352089
 10
154.8565709101387
 20
238.7215383878786
 10
154.8732216855452
 20
238.7969751929461
 10
154.8796071196919
 20
238.8269319561137
 10
154.8937744896518
 20
238.8953758587842
 10
154.8959297333552
 20
238.9060172587904
 10
154.9002648093627
 20
238.9275939655815
 10
154.9126050608486
 20
238.9901736969454
 10
154.9191423763725
 20
239.0240014269149
 10
154.9299475251091
 20
239.0811395935975
 10
154.9361011936991
 20
239.1144929516565
 10
154.9364314260397
 20
239.1163018293704
 10
154.9458645889338
 20
239.1689036258126
 10
154.952132518374
 20
239.2049990001715
 10
154.9602647282448
 20
239.2535319822853
 10
154.9661354623184
 20
239.2901255892423
 10
154.969569372039
 20
239.312334849478
 10
154.9729790802488
 20
239.3351271243549
 10
154.9782101028278
 20
239.3719267954685
 10
154.9837110779921
 20
239.413963490226
 10
154.9880243136919
 20
239.4505383098764
 10
154.9921366939802
 20
239.4900423008248
 10
154.992843412605
 20
239.4974790997132
 10
154.9953468971393
 20
239.5260334420193
 10
154.9980883034304
 20
239.5633614957255
 10
155.0000721561381
 20
239.5986435568486
 10
155.001380432733
 20
239.6341871687032
 10
155.0018825869093
 20
239.6684062862074
 10
155.0015346080041
 20
239.7024412223668
 10
155.0003213195621
 20
239.7353645240945
 10
154.9982501578974
 20
239.7682806086463
 10
154.9955033146749
 20
239.7995282811323
 10
154.9929234654717
 20
239.8232163108627
 10
154.9919110939181
 20
239.831584331451
 10
154.9879515092227
 20
239.860914300559
 10
154.9829951839232
 20
239.8922984906306
 10
154.9780844117763
 20
239.9194658463083
 10
154.9717767534885
 20
239.9503471073621
 10
154.9695065314578
 20
239.9605996668396
 10
154.966099466291
 20
239.9752770564172
 10
154.9584066629267
 20
240.0057890082214
 10
154.952197484778
 20
240.0282335915051
 10
154.9431111128052
 20
240.0582470337088
 10
154.9365182702083
 20
240.0782570674385
 10
154.9361879228644
 20
240.0792249313291
 10
154.925972446262
 20
240.1076855136441
 10
154.919211573307
 20
240.1251041419752
 10
154.9070716649653
 20
240.1539313082085
 10
154.9002837730178
 20
240.1687791056216
 10
154.8959386780526
 20
240.1778265907286
 10
154.8862614764359
 20
240.1967510493983
 10
154.8795423779319
 20
240.2089423125895
 10
154.8630592425492
 20
240.2358141336944
 10
154.8565457333244
 20
240.2453323503515
 10
154.8490923118866
 20
240.2555192527809
  0
LINE
  5
283
330
1F
100
AcDbEntity
  8
0
 62
     2
100
AcDbLine
 10
146.2976712546745
 20
232.9068791272909
 30
0.0
 11
146.2837308761364
 21
232.8893335669978
 31
0.0
  0
LINE
  5
284
330
1F
100
AcDbEntity
  8
0
 62
     2
100
AcDbLine
 10
165.4395723692807
 20
241.506709704431
 30
0.0
 11
165.4395723692807
 21
238.006709704431
 31
0.0
  0
LINE
  5
285
330
1F
100
AcDbEntity
  8
0
 62
     2
100
AcDbLine
 10
165.4395723692807
 20
241.506709704431
 30
0.0
 11
159.4395723692807
 21
241.506709704431
 31
0.0
  0
LINE
  5
286
330
1F
100
AcDbEntity
  8
0
 62
     2
100
AcDbLine
 10
165.4395723692807
 20
238.006709704431
 30
0.0
 11
159.4395723692807
 21
238.006709704431
 31
0.0
  0
LINE
  5
287
330
1F
100
AcDbEntity
  8
0
 62
     2
100
AcDbLine
 10
165.4395723692807
 20
202.0067098075527
 30
0.0
 11
165.4395723692807
 21
198.5067098075527
 31
0.0
  0
LINE
  5
288
330
1F
100
AcDbEntity
  8
0
 62
     2
100
AcDbLine
 10
165.4395723692807
 20
198.5067098075527
 30
0.0
 11
159.4395723692807
 21
198.5067098075527
 31
0.0
  0
LINE
  5
289
330
1F
100
AcDbEntity
  8
0
 62
     2
100
AcDbLine
 10
165.4395723692807
 20
202.0067098075527
 30
0.0
 11
159.4395723692807
 21
202.0067098075527
 31
0.0
  0
LINE
  5
28A
330
1F
100
AcDbEntity
  8
0
 62
     2
100
AcDbLine
 10
144.4395723692807
 20
213.5067098075527
 30
0.0
 11
144.4395723692807
 21
226.5067093656029
 31
0.0
  0
LINE
  5
28B
330
1F
100
AcDbEntity
  8
0
 62
     2
100
AcDbLine
 10
159.4395723692807
 20
202.0067098075527
 30
0.0
 11
159.4395723692807
 21
238.006709704431
 31
0.0
  0
LINE
  5
28C
330
1F
100
AcDbEntity
  8
0
 62
     2
100
AcDbLine
 10
165.4395723692807
 20
202.0067098075527
 30
0.0
 11
165.4395723692807
 21
238.006709704431
 31
0.0
  0
LINE
  5
28D
330
1F
100
AcDbEntity
  8
0
 62
     2
100
AcDbLine
 10
145.3894072927808
 20
208.3313800299489
 30
0.0
 11
145.4105075726562
 21
208.2709362278232
 31
0.0
  0
LINE
  5
28E
330
1F
100
AcDbEntity
  8
0
 62
     2
100
AcDbLine
 10
145.0852346394313
 20
209.2131120629606
 30
0.0
 11
145.1151898944773
 21
209.116902414504
 31
0.0
  0
LINE
  5
28F
330
1F
100
AcDbEntity
  8
0
 62
     2
100
AcDbLine
 10
144.7285779734892
 20
210.6179774052586
 30
0.0
 11
144.7406778472424
 21
210.5641844753509
 31
0.0
  0
LINE
  5
290
330
1F
100
AcDbEntity
  8
0
 62
     2
100
AcDbLine
 10
144.7155740400456
 20
210.6839365242921
 30
0.0
 11
144.7295859075126
 21
210.6123008112089
 31
0.0
  0
LINE
  5
291
330
1F
100
AcDbEntity
  8
0
 62
     2
100
AcDbLine
 10
144.6590153011782
 20
211.0097481387936
 30
0.0
 11
144.6708254216124
 21
210.932723812336
 31
0.0
  0
LINE
  5
292
330
1F
100
AcDbEntity
  8
0
 62
     2
100
AcDbLine
 10
144.5893266430797
 20
211.4642500197582
 30
0.0
 11
144.5993449205591
 21
211.3989118989986
 31
0.0
  0
LINE
  5
293
330
1F
100
AcDbEntity
  8
0
 62
     2
100
AcDbLine
 10
144.5675314858538
 20
211.6063956748096
 30
0.0
 11
144.5785053505935
 21
211.5348253174269
 31
0.0
  0
LWPOLYLINE
  5
294
330
1F
100
AcDbEntity
  8
0
 62
     2
100
AcDbPolyline
 90
        3
 70
     0
 43
0.0
 10
144.5193908585961
 20
211.9890241619876
 10
144.5472701237236
 20
211.7385380843544
 10
144.5666066585113
 20
211.6124272985801
  0
LWPOLYLINE
  5
295
330
1F
100
AcDbEntity
  8
0
 62
     2
100
AcDbPolyline
 90
        3
 70
     0
 43
0.0
 10
144.4660799024536
 20
212.6245635248123
 10
144.5036012554144
 20
212.1414557037008
 10
144.5117928878791
 20
212.057289443521
  0
LINE
  5
296
330
1F
100
AcDbEntity
  8
0
 62
     2
100
AcDbLine
 10
145.6635095025563
 20
232.3590657556585
 30
0.0
 11
145.6758066902841
 21
232.3876972875685
 31
0.0
  0
LWPOLYLINE
  5
297
330
1F
100
AcDbEntity
  8
0
 62
     2
100
AcDbPolyline
 90
        3
 70
     0
 43
0.0
 10
145.5100531850668
 20
231.9902867919811
 10
145.5813649032322
 20
232.1678085537004
 10
145.6105638749268
 20
232.2357924950954
  0
LWPOLYLINE
  5
298
330
1F
100
AcDbEntity
  8
0
 62
     2
100
AcDbPolyline
 90
        3
 70
     0
 43
0.0
 10
144.6739836227189
 20
229.1012930868231
 10
144.682788090321
 20
229.1587149274044
 10
144.6974979818973
 20
229.2349490185808
  0
LINE
  5
299
330
1F
100
AcDbEntity
  8
0
 62
     2
100
AcDbLine
 10
144.6113694492009
 20
228.6929298271253
 30
0.0
 11
144.6198725977621
 21
228.7483864956246
 31
0.0
  0
LINE
  5
29A
330
1F
100
AcDbEntity
  8
0
 62
     2
100
AcDbLine
 10
144.5934375603626
 20
228.5759798752676
 30
0.0
 11
144.6087399394265
 21
228.6757804323072
 31
0.0
  0
LWPOLYLINE
  5
29B
330
1F
100
AcDbEntity
  8
0
 62
     2
100
AcDbPolyline
 90
        3
 70
     0
 43
0.0
 10
144.4644829869861
 20
227.3357104630697
 10
144.4660799519008
 20
227.3888559342188
 10
144.49668403061
 20
227.7686223294152
  0
LINE
  5
29C
330
1F
100
AcDbEntity
  8
0
 62
     2
100
AcDbLine
 10
144.4622366556749
 20
227.2609546968075
 30
0.0
 11
144.4633760716429
 21
227.2988733748545
 31
0.0
  0
LINE
  5
29D
330
1F
100
AcDbEntity
  8
0
 62
     2
100
AcDbLine
 10
144.4608160787828
 20
227.2136792510314
 30
0.0
 11
144.4622128098303
 21
227.2601611298146
 31
0.0
  0
LINE
  5
29E
330
1F
100
AcDbEntity
  8
0
 62
     2
100
AcDbLine
 10
144.4598993887646
 20
227.1831726804306
 30
0.0
 11
144.460802150612
 21
227.2132157347717
 31
0.0
  0
LINE
  5
29F
330
1F
100
AcDbEntity
  8
0
 62
     2
100
AcDbLine
 10
144.4580237754708
 20
227.1207540566575
 30
0.0
 11
144.4591381480367
 21
227.1578393141394
 31
0.0
  0
ARC
  5
2A0
330
1F
100
AcDbEntity
  8
0
 62
     2
100
AcDbCircle
 10
159.4395723692807
 20
226.5067124016901
 30
0.0
 40
15.0
100
AcDbArc
 50
90.0
 51
92.71258114866701
  0
ARC
  5
2A1
330
1F
100
AcDbEntity
  8
0
 62
     2
100
AcDbCircle
 10
159.4395723692807
 20
226.5067124016901
 30
0.0
 40
15.0
100
AcDbArc
 50
110.3695086858778
 51
126.8699424776969
  0
LWPOLYLINE
  5
2A2
330
1F
100
AcDbEntity
  8
0
 62
     2
100
AcDbPolyline
 90
       45
 70
     0
 43
0.0
 10
145.7039778999342
 20
229.5340786940055
 10
145.9626787732857
 20
229.8341865817829
 10
146.2111165063821
 20
230.1005217102685
 10
146.3163414559855
 20
230.2080219369245
 10
146.4155010150418
 20
230.306789039892
 10
146.7035781261181
 20
230.5814092263284
 10
146.9675282043127
 20
230.8192095098614
 10
147.1232866801018
 20
230.9542223143199
 10
147.2703025152753
 20
231.0784355935286
 10
147.574477638816
 20
231.3265821371389
 10
147.8443715787438
 20
231.5379673395508
 10
148.0556920798073
 20
231.698410912916
 10
148.2590464589272
 20
231.8490270717275
 10
148.5657256667831
 20
232.0698531574392
 10
148.8330144658837
 20
232.2567397751129
 10
149.1031676133285
 20
232.440896761249
 10
149.3702789349902
 20
232.6187471320869
 10
149.6666342716958
 20
232.8116060852798
 10
149.9237762243215
 20
232.9754790180805
 10
150.2546318027412
 20
233.182020242822
 10
150.5914969599753
 20
233.3877841399926
 10
150.8656623925779
 20
233.5521779821163
 10
151.1060853460478
 20
233.6942485997657
 10
151.498187353512
 20
233.9220964062839
 10
151.9093345727289
 20
234.1563479401485
 10
152.1510651683587
 20
234.2920468614919
 10
152.3685586777453
 20
234.4129527773099
 10
152.8228351304849
 20
234.662138534115
 10
153.3106654770683
 20
234.9251671634004
 10
153.512518367433
 20
235.0327513706176
 10
153.6992586601391
 20
235.1316767503666
 10
154.2185252286704
 20
235.403941789456
 10
154.7819242882359
 20
235.6951771849181
 10
154.9390401544776
 20
235.7757058864946
 10
155.0854381165959
 20
235.8504924446077
 10
155.6712859437309
 20
236.1475642628357
 10
156.3054363030209
 20
236.4656574913911
 10
156.4129775869196
 20
236.5192908266397
 10
156.5132014586548
 20
236.5692016596673
 10
157.1619134169324
 20
236.8907275967421
 10
157.8630094340554
 20
237.2358052423893
 10
157.9168561181722
 20
237.2622275684168
 10
157.9693257490543
 20
237.2879648252883
 10
158.6765365221998
 20
237.6341277414714
 10
159.4395723692807
 20
238.006709704431
  0
LWPOLYLINE
  5
2A3
330
1F
100
AcDbEntity
  8
0
 62
     2
100
AcDbPolyline
 90
       17
 70
     0
 43
0.0
 10
144.4395723692807
 20
226.5067093656028
 10
144.4555579843885
 20
226.8544405549229
 10
144.5096214813861
 20
227.2146633178225
 10
144.5117942914079
 20
227.2254240978169
 10
144.5164425821215
 20
227.2479361692311
 10
144.602118784289
 20
227.5838198235825
 10
144.72777878537
 20
227.9441732249639
 10
144.7333903722624
 20
227.9582277401481
 10
144.7536678441412
 20
228.0079315152599
 10
144.9037711529256
 20
228.3342984312418
 10
145.0846468328269
 20
228.6628822364376
 10
145.1129869122153
 20
228.7099835452437
 10
145.1508661798211
 20
228.7714425328696
 10
145.3599376065582
 20
229.0851458372557
 10
145.5814164824581
 20
229.3817567064464
 10
145.6435132631715
 20
229.4598533282142
 10
145.7039778999342
 20
229.5340786940055
  0
ARC
  5
2A4
330
1F
100
AcDbEntity
  8
0
 62
     2
100
AcDbCircle
 10
159.4395723692807
 20
226.5067124016901
 30
0.0
 40
15.0
100
AcDbArc
 50
126.8699424776969
 51
180.0000115969991
  0
LWPOLYLINE
  5
2A5
330
1F
100
AcDbEntity
  8
0
 62
     2
100
AcDbPolyline
 90
       45
 70
     0
 43
0.0
 10
145.7039782316829
 20
210.4793401657768
 10
145.9626787733702
 20
210.1792326893236
 10
146.2111167053224
 20
209.9128973627672
 10
146.3163417427616
 20
209.8053970561906
 10
146.4155013862949
 20
209.7066298798094
 10
146.7035781261065
 20
209.4320100668943
 10
146.9675282043544
 20
209.1942097903181
 10
147.1232869681194
 20
209.0591967435585
 10
147.270302908567
 20
208.9349833859739
 10
147.5744776386498
 20
208.6868371781569
 10
147.8443717319572
 20
208.4754518639704
 10
148.0556923565454
 20
208.3150082057918
 10
148.2590468570349
 20
208.1643919673794
 10
148.5657256664587
 20
207.9435661798545
 10
148.833014465477
 20
207.7566795677384
 10
149.1031676128383
 20
207.5725225870778
 10
149.3702793218457
 20
207.3946719664268
 10
149.6666342712448
 20
207.2018132739294
 10
149.9237762238166
 20
207.0379403459855
 10
150.2546318021676
 20
206.8313991273645
 10
150.5914973208364
 20
206.6256350177695
 10
150.8656623920162
 20
206.4612413989562
 10
151.1060854183893
 20
206.3191707426907
 10
151.4981875466289
 20
206.0913228742443
 10
151.909334894677
 20
205.8570712766981
 10
152.1510654822457
 20
205.7213723657606
 10
152.3685588908249
 20
205.6004665108675
 10
152.822835129904
 20
205.3512808796433
 10
153.3106657491197
 20
205.0882521123197
 10
153.5125186317308
 20
204.9806679133287
 10
153.6992588549702
 20
204.8817425739904
 10
154.218525228023
 20
204.609477646178
 10
154.7819245009168
 20
204.3182421497586
 10
154.9390403604606
 20
204.237713454364
 10
155.0854383162861
 20
204.1629269019943
 10
155.6712861177872
 20
203.8658551065979
 10
156.3054364486427
 20
203.5477619025067
 10
156.4129777276646
 20
203.4941285713808
 10
156.5132015948426
 20
203.4442177421888
 10
157.1619135233704
 20
203.1226918298022
 10
157.8630095079528
 20
202.7776142106131
 10
157.9168561895578
 20
202.7511918866099
 10
157.969325815489
 20
202.7254546329372
 10
158.676536521731
 20
202.3792917597636
 10
159.4395723692807
 20
202.0067098075527
  0
ARC
  5
2A6
330
1F
100
AcDbEntity
  8
0
 62
     2
100
AcDbCircle
 10
159.4395723692807
 20
213.5067098075526
 30
0.0
 40
15.0
100
AcDbArc
 50
233.1300805369762
 51
252.5398468242465
  0
ARC
  5
2A7
330
1F
100
AcDbEntity
  8
0
 62
     2
100
AcDbCircle
 10
159.4395723692807
 20
213.5067098075526
 30
0.0
 40
15.0
100
AcDbArc
 50
182.7211870376148
 51
233.1300805369762
  0
LWPOLYLINE
  5
2A8
330
1F
100
AcDbEntity
  8
0
 62
     2
100
AcDbPolyline
 90
       17
 70
     0
 43
0.0
 10
144.4395723692807
 20
213.5067098075527
 10
144.4555579844556
 20
213.1589786278245
 10
144.5096214815865
 20
212.7987558751927
 10
144.5117942981031
 20
212.7879950635972
 10
144.5164426030203
 20
212.7654829260367
 10
144.6021187845932
 20
212.429599380293
 10
144.727778785683
 20
212.0692459897564
 10
144.7333903725746
 20
212.0551914749958
 10
144.7536679278705
 20
212.0054875002514
 10
144.9037711531633
 20
211.6791207952848
 10
145.0846469682212
 20
211.3505367728001
 10
145.1129870702835
 20
211.3034354328567
 10
145.1508663686994
 20
211.2419764046059
 10
145.3599376067318
 20
210.9282734116168
 10
145.5814166913713
 20
210.6316622853226
 10
145.643513533754
 20
210.55356559588
 10
145.7039782316829
 20
210.4793401657768
  0
LWPOLYLINE
  5
2A9
330
1F
100
AcDbEntity
  8
0
 62
     2
100
AcDbPolyline
 90
      103
 70
     0
 43
0.0
 10
159.4395723692807
 20
202.0067098075527
 10
159.4395723692807
 20
201.9027445616884
 10
159.4395723692807
 20
201.8023527297979
 10
159.4395723692807
 20
201.7055375155836
 10
159.4395723692807
 20
201.6635355209302
 10
159.4395723692807
 20
201.6178578535009
 10
159.4395723692807
 20
201.6120888336436
 10
159.4395723692807
 20
201.521810348233
 10
159.4395723692807
 20
201.4343666023026
 10
159.4395723692807
 20
201.3496402465585
 10
159.4395723692807
 20
201.3238082308655
 10
159.4395723692807
 20
201.2674177709766
 10
159.4395723692807
 20
201.2521810455505
 10
159.4395723692807
 20
201.187509683219
 10
159.4395723692807
 20
201.1096576123009
 10
159.4395723692807
 20
201.0337899299349
 10
159.4395723692807
 20
200.9908007840201
 10
159.4395723692807
 20
200.9598188043828
 10
159.4395723692807
 20
200.9102000325945
 10
159.4395723692807
 20
200.8876580073334
 10
159.4395723692807
 20
200.8172025034816
 10
159.4395723692807
 20
200.7483554666413
 10
159.4395723692807
 20
200.6810365292482
 10
159.4395723692807
 20
200.6673159088197
 10
159.4395723692807
 20
200.6151539945856
 10
159.4395723692807
 20
200.5915033679044
 10
159.4395723692807
 20
200.5506408882023
 10
159.4395723692807
 20
200.4874403688547
 10
159.4395723692807
 20
200.4255146835777
 10
159.4395723692807
 20
200.3648223120971
 10
159.4395723692807
 20
200.3566435806533
 10
159.4395723692807
 20
200.3053198421671
 10
159.4395723692807
 20
200.29516464034
 10
159.4395723692807
 20
200.2469660658893
 10
159.4395723692807
 20
200.1897119946524
 10
159.4395723692807
 20
200.1335181583545
 10
159.4395723692807
 20
200.078341379527
 10
159.4395723692807
 20
200.0622792202938
 10
159.4395723692807
 20
200.0241891016145
 10
159.4395723692807
 20
200.0203612975779
 10
159.4395723692807
 20
199.9708831663123
 10
159.4395723692807
 20
199.9185575816732
 10
159.4395723692807
 20
199.8671498391431
 10
159.4395723692807
 20
199.8166855138124
 10
159.4395723692807
 20
199.7863385144985
 10
159.4395723692807
 20
199.7670465484923
 10
159.4395723692807
 20
199.7659504013237
 10
159.4395723692807
 20
199.7182953025776
 10
159.4395723692807
 20
199.6704562190469
 10
159.4395723692807
 20
199.6234349235228
 10
159.4395723692807
 20
199.5772290463792
 10
159.4395723692807
 20
199.5318354709908
 10
159.4395723692807
 20
199.4872363107336
 10
159.4395723692807
 20
199.443522207862
 10
159.4395723692807
 20
199.4005410329404
 10
159.4395723692807
 20
199.3583919530208
 10
159.4395723692807
 20
199.3179919020895
 10
159.4395723692807
 20
199.3170765667207
 10
159.4395723692807
 20
199.3011451067466
 10
159.4395723692807
 20
199.2765504844327
 10
159.4395723692807
 20
199.2368119361152
 10
159.4395723692807
 20
199.1978727848888
 10
159.4395723692807
 20
199.1597318626754
 10
159.4395723692807
 20
199.1249901987642
 10
159.4395723692807
 20
199.1223880169002
 10
159.4395723692807
 20
199.096530753626
 10
159.4395723692807
 20
199.0858401611338
 10
159.4395723692807
 20
199.0500970213984
 10
159.4395723692807
 20
199.0151755208624
 10
159.4395723692807
 20
198.9810932033511
 10
159.4395723692807
 20
198.9535424263264
 10
159.4395723692807
 20
198.9478676190159
 10
159.4395723692807
 20
198.9198728826696
 10
159.4395723692807
 20
198.9155156806189
 10
159.4395723692807
 20
198.8840561625487
 10
159.4395723692807
 20
198.8535060198784
 10
159.4395723692807
 20
198.8238827913061
 10
159.4395723692807
 20
198.8055379320097
 10
159.4395723692807
 20
198.795203838183
 10
159.4395723692807
 20
198.7731309796283
 10
159.4395723692807
 20
198.7674872147282
 10
159.4395723692807
 20
198.7407699572908
 10
159.4395723692807
 20
198.715099096517
 10
159.4395723692807
 20
198.6905228763488
 10
159.4395723692807
 20
198.6830145453575
 10
159.4395723692807
 20
198.6670883761496
 10
159.4395723692807
 20
198.6575564160028
 10
159.4395723692807
 20
198.6448451843
 10
159.4395723692807
 20
198.6238423919427
 10
159.4395723692807
 20
198.6041272827171
 10
159.4395723692807
 20
198.589118455703
 10
159.4395723692807
 20
198.585766601111
 10
159.4395723692807
 20
198.5739771956088
 10
159.4395723692807
 20
198.5689023364739
 10
159.4395723692807
 20
198.5537055407536
 10
159.4395723692807
 20
198.5403380605482
 10
159.4395723692807
 20
198.5289545518323
 10
159.4395723692807
 20
198.5283206621667
 10
159.4395723692807
 20
198.5235733976625
 10
159.4395723692807
 20
198.5197475656783
 10
159.4395723692807
 20
198.5128576613667
 10
159.4395723692807
 20
198.5084569480482
 10
159.4395723692807
 20
198.5067098075527
  0
LWPOLYLINE
  5
2AA
330
1F
100
AcDbEntity
  8
0
 62
     2
100
AcDbPolyline
 90
      103
 70
     0
 43
0.0
 10
159.4395723692807
 20
241.506709704431
 10
159.4395723692807
 20
241.5049654936197
 10
159.4395723692807
 20
241.5005629054893
 10
159.4395723692807
 20
241.4936703313493
 10
159.4395723692807
 20
241.489845150794
 10
159.4395723692807
 20
241.4850988394945
 10
159.4395723692807
 20
241.4844554906023
 10
159.4395723692807
 20
241.4730880262663
 10
159.4395723692807
 20
241.4597158529571
 10
159.4395723692807
 20
241.4445155725754
 10
159.4395723692807
 20
241.4394410789764
 10
159.4395723692807
 20
241.4276525824239
 10
159.4395723692807
 20
241.4243009663077
 10
159.4395723692807
 20
241.409297678847
 10
159.4395723692807
 20
241.3895795826961
 10
159.4395723692807
 20
241.3685738238239
 10
159.4395723692807
 20
241.3558621763048
 10
159.4395723692807
 20
241.3463298959306
 10
159.4395723692807
 20
241.3304047282538
 10
159.4395723692807
 20
241.3228981851599
 10
159.4395723692807
 20
241.298322797753
 10
159.4395723692807
 20
241.272649691094
 10
159.4395723692807
 20
241.2459310379509
 10
159.4395723692807
 20
241.2402873170282
 10
159.4395723692807
 20
241.2182146369842
 10
159.4395723692807
 20
241.2078811402915
 10
159.4395723692807
 20
241.1895377607765
 10
159.4395723692807
 20
241.1599137720482
 10
159.4395723692807
 20
241.1293624923806
 10
159.4395723692807
 20
241.0979022709512
 10
159.4395723692807
 20
241.0935450997894
 10
159.4395723692807
 20
241.0655505673499
 10
159.4395723692807
 20
241.0598764338311
 10
159.4395723692807
 20
241.0323260978864
 10
159.4395723692807
 20
240.9982430469564
 10
159.4395723692807
 20
240.9633210279528
 10
159.4395723692807
 20
240.9275775869605
 10
159.4395723692807
 20
240.9168970122614
 10
159.4395723692807
 20
240.8910642679684
 10
159.4395723692807
 20
240.8884284590252
 10
159.4395723692807
 20
240.8536863580781
 10
159.4395723692807
 20
240.8155450664088
 10
159.4395723692807
 20
240.7766057091734
 10
159.4395723692807
 20
240.7368986659164
 10
159.4395723692807
 20
240.7122840882693
 10
159.4395723692807
 20
240.6963395641508
 10
159.4395723692807
 20
240.6954265785577
 10
159.4395723692807
 20
240.6549869687747
 10
159.4395723692807
 20
240.6128749924246
 10
159.4395723692807
 20
240.5699324052796
 10
159.4395723692807
 20
240.5261659050061
 10
159.4395723692807
 20
240.4815828726339
 10
159.4395723692807
 20
240.4361725312618
 10
159.4395723692807
 20
240.3900223214009
 10
159.4395723692807
 20
240.3429593971484
 10
159.4395723692807
 20
240.2950772283675
 10
159.4395723692807
 20
240.2474678610034
 10
159.4395723692807
 20
240.2463688903922
 10
159.4395723692807
 20
240.2270927868735
 10
159.4395723692807
 20
240.1967709466476
 10
159.4395723692807
 20
240.1462672397234
 10
159.4395723692807
 20
240.0948596786987
 10
159.4395723692807
 20
240.0425345216191
 10
159.4395723692807
 20
239.9930569558912
 10
159.4395723692807
 20
239.9892780503259
 10
159.4395723692807
 20
239.951152612123
 10
159.4395723692807
 20
239.9350754442272
 10
159.4395723692807
 20
239.8798990284703
 10
159.4395723692807
 20
239.8237059445154
 10
159.4395723692807
 20
239.7664530629324
 10
159.4395723692807
 20
239.7182536868885
 10
159.4395723692807
 20
239.708097266064
 10
159.4395723692807
 20
239.6567730469924
 10
159.4395723692807
 20
239.6485942385763
 10
159.4395723692807
 20
239.5879031096208
 10
159.4395723692807
 20
239.5259796978834
 10
159.4395723692807
 20
239.4627808702077
 10
159.4395723692807
 20
239.4219151109914
 10
159.4395723692807
 20
239.3982630827436
 10
159.4395723692807
 20
239.3461006213324
 10
159.4395723692807
 20
239.3323798560351
 10
159.4395723692807
 20
239.2650643418282
 10
159.4395723692807
 20
239.1962235394262
 10
159.4395723692807
 20
239.1257660236263
 10
159.4395723692807
 20
239.1032186684996
 10
159.4395723692807
 20
239.0535966509514
 10
159.4395723692807
 20
239.0226155934143
 10
159.4395723692807
 20
238.9796277381829
 10
159.4395723692807
 20
238.9037710882822
 10
159.4395723692807
 20
238.8259322855625
 10
159.4395723692807
 20
238.7612379735689
 10
159.4395723692807
 20
238.7460001483598
 10
159.4395723692807
 20
238.6896050343158
 10
159.4395723692807
 20
238.6637708692446
 10
159.4395723692807
 20
238.5790641659416
 10
159.4395723692807
 20
238.4916562189161
 10
159.4395723692807
 20
238.4012463305791
 10
159.4395723692807
 20
238.3955614915466
 10
159.4395723692807
 20
238.3498739869941
 10
159.4395723692807
 20
238.3078628823544
 10
159.4395723692807
 20
238.2110849245652
 10
159.4395723692807
 20
238.1107712228497
 10
159.4395723692807
 20
238.006709704431
  0
LINE
  5
2AB
330
1F
100
AcDbEntity
  8
0
 62
     2
100
AcDbLine
 10
154.75680243161
 20
240.3567101984208
 30
0.0
 11
154.7588298758683
 21
240.3567101984208
 31
0.0
  0
LINE
  5
2AC
330
1F
100
AcDbEntity
  8
0
 62
     2
100
AcDbLine
 10
150.7410986481494
 20
235.6567101984209
 30
0.0
 11
150.7436748377382
 21
235.6567101984209
 31
0.0
  0
LINE
  5
2AD
330
1F
100
AcDbEntity
  8
0
 62
     2
100
AcDbLine
 10
150.812717236375
 20
228.0067104090072
 30
0.0
 11
150.8114212225743
 21
228.0067104090072
 31
0.0
  0
LINE
  5
2AE
330
1F
100
AcDbEntity
  8
0
 62
     2
100
AcDbLine
 10
152.4017910129005
 20
216.3567101984208
 30
0.0
 11
152.4029748787547
 21
216.3567101984208
 31
0.0
  0
LINE
  5
2AF
330
1F
100
AcDbEntity
  8
0
 62
     2
100
AcDbLine
 10
151.127522797028
 20
216.3567101984208
 30
0.0
 11
151.128725251396
 21
216.3567101984208
 31
0.0
  0
LINE
  5
2B0
330
1F
100
AcDbEntity
  8
0
 62
     2
100
AcDbLine
 10
151.1101594729313
 20
216.3567101984208
 30
0.0
 11
151.1113718214148
 21
216.3567101984208
 31
0.0
  0
LINE
  5
2B1
330
1F
100
AcDbEntity
  8
0
 62
     2
100
AcDbLine
 10
154.06190280865
 20
200.0067104090072
 30
0.0
 11
154.0513465174401
 21
200.0067104090072
 31
0.0
  0
LINE
  5
2B2
330
1F
100
AcDbEntity
  8
0
 62
     2
100
AcDbLine
 10
150.3018721188392
 20
203.0067104090072
 30
0.0
 11
150.2717344216222
 21
203.0067104090072
 31
0.0
  0
LINE
  5
2B3
330
1F
100
AcDbEntity
  8
0
 62
     2
100
AcDbLine
 10
156.4726536358964
 20
241.2067102685097
 30
0.0
 11
156.4756962533777
 21
241.2067102685097
 31
0.0
  0
LINE
  5
2B4
330
1F
100
AcDbEntity
  8
0
 62
     2
100
AcDbLine
 10
155.6395723694351
 20
241.2067102685097
 30
0.0
 11
156.4422064326168
 21
241.2067102685097
 31
0.0
  0
LINE
  5
2B5
330
1F
100
AcDbEntity
  8
0
 62
     2
100
AcDbLine
 10
164.066653317653
 20
241.2067103882034
 30
0.0
 11
164.0246405594005
 21
241.2067103918662
 31
0.0
  0
LINE
  5
2B6
330
1F
100
AcDbEntity
  8
0
 62
     2
100
AcDbLine
 10
157.5677567172019
 20
198.2067102685097
 30
0.0
 11
155.6395723695508
 21
198.2067102685097
 31
0.0
  0
LINE
  5
2B7
330
1F
100
AcDbEntity
  8
0
 62
     2
100
AcDbLine
 10
165.4395714860544
 20
198.2067102685097
 30
0.0
 11
165.4395714860544
 21
198.5067098075527
 31
0.0
  0
LINE
  5
2B8
330
1F
100
AcDbEntity
  8
0
 62
     2
100
AcDbLine
 10
157.5676661243698
 20
198.2067095822217
 30
0.0
 11
165.4395714860544
 21
198.2067102685097
 31
0.0
  0
INSERT
  5
2BC
330
1F
100
AcDbEntity
  8
Outline
100
AcDbBlockReference
  2
Sheet Border
 10
0.0
 20
0.0
 30
0.0
  0
ENDSEC
  0
SECTION
  2
OBJECTS
  0
DICTIONARY
  5
C
330
0
100
AcDbDictionary
281
     1
  3
ACAD_DETAILVIEWSTYLE
350
2C6
  3
ACAD_GROUP
350
D
  3
ACAD_LAYOUT
350
1A
  3
ACAD_MATERIAL
350
43
  3
ACAD_MLEADERSTYLE
350
6B
  3
ACAD_MLINESTYLE
350
17
  3
ACAD_PLOTSETTINGS
350
19
  3
ACAD_PLOTSTYLENAME
350
E
  3
ACAD_SCALELIST
350
47
  3
ACAD_SECTIONVIEWSTYLE
350
2C7
  3
ACAD_TABLESTYLE
350
69
  3
ACAD_VISUALSTYLE
350
2A
  3
ACDB_RECOMPOSE_DATA
350
2C3
  3
AcDbVariableDictionary
350
2BF
  0
SUN
  5
6D
330
29
100
AcDbSun
 90
        1
290
     0
 63
     7
421
 16777215
 40
1.0
291
     1
 91
  2455826
 92
 54000000
292
     0
 70
     2
 71
   256
280
     1
  0
DICTIONARY
  5
2C6
102
{ACAD_REACTORS
330
C
102
}
330
C
100
AcDbDictionary
281
     1
  0
DICTIONARY
  5
D
102
{ACAD_REACTORS
330
C
102
}
330
C
100
AcDbDictionary
281
     1
  0
DICTIONARY
  5
1A
102
{ACAD_REACTORS
330
C
102
}
330
C
100
AcDbDictionary
281
     1
  3
Layout1
350
1E
  3
Layout2
350
26
  3
Model
350
22
  0
DICTIONARY
  5
43
102
{ACAD_REACTORS
330
C
102
}
330
C
100
AcDbDictionary
281
     1
  3
ByBlock
350
45
  3
ByLayer
350
44
  3
Global
350
46
  0
DICTIONARY
  5
6B
102
{ACAD_REACTORS
330
C
102
}
330
C
100
AcDbDictionary
281
     1
  3
Standard
350
6C
  0
DICTIONARY
  5
17
102
{ACAD_REACTORS
330
C
102
}
330
C
100
AcDbDictionary
281
     1
  3
Standard
350
18
  0
DICTIONARY
  5
19
102
{ACAD_REACTORS
330
C
102
}
330
C
100
AcDbDictionary
281
     1
  0
ACDBDICTIONARYWDFLT
  5
E
102
{ACAD_REACTORS
330
C
102
}
330
C
100
AcDbDictionary
281
     1
  3
Normal
350
F
100
AcDbDictionaryWithDefault
340
F
  0
DICTIONARY
  5
47
102
{ACAD_REACTORS
330
C
102
}
330
C
100
AcDbDictionary
281
     1
  3
A0
350
48
  3
A1
350
49
  3
A2
350
4A
  3
A3
350
4B
  3
A4
350
4C
  3
A5
350
4D
  3
A6
350
4E
  3
A7
350
4F
  3
A8
350
50
  3
A9
350
51
  3
B0
350
52
  3
B1
350
53
  3
B2
350
54
  3
B3
350
55
  3
B4
350
56
  3
B5
350
57
  3
B6
350
58
  3
B7
350
59
  3
B8
350
5A
  3
B9
350
5B
  3
C0
350
5C
  3
C1
350
5D
  3
C2
350
5E
  3
C3
350
5F
  3
C4
350
60
  3
C5
350
61
  3
C6
350
62
  3
C7
350
63
  3
C8
350
64
  3
C9
350
65
  3
D0
350
66
  3
D1
350
67
  3
D2
350
68
  0
DICTIONARY
  5
2C7
102
{ACAD_REACTORS
330
C
102
}
330
C
100
AcDbDictionary
281
     1
  0
DICTIONARY
  5
69
102
{ACAD_REACTORS
330
C
102
}
330
C
100
AcDbDictionary
281
     1
  3
Standard
350
6A
  0
DICTIONARY
  5
2A
102
{ACAD_REACTORS
330
C
102
}
330
C
100
AcDbDictionary
281
     1
  3
2dWireframe
350
2F
  3
Basic
350
32
  3
Brighten
350
36
  3
ColorChange
350
3A
  3
Conceptual
350
34
  3
Dim
350
35
  3
EdgeColorOff
350
3D
  3
Facepattern
350
39
  3
Flat
350
2B
  3
FlatWithEdges
350
2C
  3
Gouraud
350
2D
  3
GouraudWithEdges
350
2E
  3
Hidden
350
31
  3
JitterOff
350
3B
  3
Linepattern
350
38
  3
OverhangOff
350
3C
  3
Realistic
350
33
  3
Shaded
350
42
  3
Shaded with edges
350
41
  3
Shades of Gray
350
3E
  3
Sketchy
350
3F
  3
Thicken
350
37
  3
Wireframe
350
30
  3
X-Ray
350
40
  0
XRECORD
  5
2C3
102
{ACAD_REACTORS
330
C
102
}
330
C
100
AcDbXrecord
280
     1
 90
        1
330
6A
  0
DICTIONARY
  5
2BF
102
{ACAD_REACTORS
330
C
102
}
330
C
100
AcDbDictionary
281
     1
  3
CANNOSCALE
350
2C0
  3
CMLEADERSTYLE
350
2C5
  3
CTABLESTYLE
350
2C4
  0
LAYOUT
  5
1E
102
{ACAD_REACTORS
330
1A
102
}
330
1A
100
AcDbPlotSettings
  1

  2
none_device
  4

  6

 40
0.0
 41
0.0
 42
0.0
 43
0.0
 44
0.0
 45
0.0
 46
0.0
 47
0.0
 48
0.0
 49
0.0
140
0.0
141
0.0
142
1.0
143
1.0
 70
   688
 72
     1
 73
     0
 74
     5
  7

 75
    16
 76
     0
 77
     2
 78
   300
147
1.0
148
0.0
149
0.0
100
AcDbLayout
  1
Layout1
 70
     1
 71
     1
 10
0.0
 20
0.0
 11
420.0
 21
297.0
 12
0.0
 22
0.0
 32
0.0
 14
1.000000000000000E+20
 24
1.000000000000000E+20
 34
1.000000000000000E+20
 15
-1.000000000000000E+20
 25
-1.000000000000000E+20
 35
-1.000000000000000E+20
146
0.0
 13
0.0
 23
0.0
 33
0.0
 16
1.0
 26
0.0
 36
0.0
 17
0.0
 27
1.0
 37
0.0
 76
     0
330
1B
  0
LAYOUT
  5
26
102
{ACAD_REACTORS
330
1A
102
}
330
1A
100
AcDbPlotSettings
  1

  2
none_device
  4

  6

 40
0.0
 41
0.0
 42
0.0
 43
0.0
 44
0.0
 45
0.0
 46
0.0
 47
0.0
 48
0.0
 49
0.0
140
0.0
141
0.0
142
1.0
143
1.0
 70
   688
 72
     1
 73
     0
 74
     5
  7

 75
    16
 76
     0
 77
     2
 78
   300
147
1.0
148
0.0
149
0.0
100
AcDbLayout
  1
Layout2
 70
     1
 71
     2
 10
0.0
 20
0.0
 11
0.0
 21
0.0
 12
0.0
 22
0.0
 32
0.0
 14
0.0
 24
0.0
 34
0.0
 15
0.0
 25
0.0
 35
0.0
146
0.0
 13
0.0
 23
0.0
 33
0.0
 16
1.0
 26
0.0
 36
0.0
 17
0.0
 27
1.0
 37
0.0
 76
     0
330
23
  0
LAYOUT
  5
22
102
{ACAD_REACTORS
330
1A
102
}
330
1A
100
AcDbPlotSettings
  1

  2
none_device
  4
Letter_(8.50_x_11.00_Inches)
  6

 40
6.35
 41
6.35
 42
6.35000508
 43
6.35000508
 44
215.9
 45
279.4
 46
0.0
 47
0.0
 48
0.0
 49
0.0
140
0.0
141
0.0
142
1.0
143
1.0
 70
  1712
 72
     1
 73
     0
 74
     0
  7

 75
     0
 76
     0
 77
     2
 78
   300
147
1.0
148
0.0
149
0.0
100
AcDbLayout
  1
Model
 70
     1
 71
     0
 10
0.0
 20
0.0
 11
210.0
 21
297.0
 12
0.0
 22
0.0
 32
0.0
 14
0.0
 24
0.0
 34
0.0
 15
210.0
 25
297.0
 35
0.0
146
0.0
 13
0.0
 23
0.0
 33
0.0
 16
1.0
 26
0.0
 36
0.0
 17
0.0
 27
1.0
 37
0.0
 76
     0
330
1F
331
29
  0
MATERIAL
  5
45
102
{ACAD_REACTORS
330
43
102
}
330
43
100
AcDbMaterial
  1
ByBlock
 72
     1
 94
      127
  0
MATERIAL
  5
44
102
{ACAD_REACTORS
330
43
102
}
330
43
100
AcDbMaterial
  1
ByLayer
 72
     1
 94
      127
  0
MATERIAL
  5
46
102
{ACAD_REACTORS
330
43
102
}
330
43
100
AcDbMaterial
  1
Global
 72
     1
 94
      127
  0
MLEADERSTYLE
  5
6C
102
{ACAD_REACTORS
330
6B
102
}
330
6B
100
AcDbMLeaderStyle
179
     2
170
     2
171
     1
172
     0
 90
        2
 40
0.0
 41
0.0
173
     1
 91
-1056964608
340
14
 92
       -2
290
     1
 42
2.0
291
     1
 43
8.0
  3
Standard
341
0
 44
4.0
300

342
11
174
     1
178
     6
175
     1
176
     0
 93
-1056964608
 45
4.0
292
     0
297
     0
 46
4.0
343
0
 94
-1056964608
 47
1.0
 49
1.0
140
1.0
293
     1
141
0.0
294
     1
177
     0
142
1.0
295
     0
296
     0
143
3.75
271
     0
272
     9
273
     9
298
     0
  0
MLINESTYLE
  5
18
102
{ACAD_REACTORS
330
17
102
}
330
17
100
AcDbMlineStyle
  2
Standard
 70
     0
  3

 62
   256
 51
90.0
 52
90.0
 71
     2
 49
0.5
 62
   256
  6
BYLAYER
 49
-0.5
 62
   256
  6
BYLAYER
  0
ACDBPLACEHOLDER
  5
F
102
{ACAD_REACTORS
330
E
102
}
330
E
  0
SCALE
  5
48
102
{ACAD_REACTORS
330
47
102
}
330
47
100
AcDbScale
 70
     0
300
1:1
140
1.0
141
1.0
290
     1
  0
SCALE
  5
49
102
{ACAD_REACTORS
330
47
102
}
330
47
100
AcDbScale
 70
     0
300
1:2
140
1.0
141
2.0
290
     0
  0
SCALE
  5
4A
102
{ACAD_REACTORS
330
47
102
}
330
47
100
AcDbScale
 70
     0
300
1:4
140
1.0
141
4.0
290
     0
  0
SCALE
  5
4B
102
{ACAD_REACTORS
330
47
102
}
330
47
100
AcDbScale
 70
     0
300
1:5
140
1.0
141
5.0
290
     0
  0
SCALE
  5
4C
102
{ACAD_REACTORS
330
47
102
}
330
47
100
AcDbScale
 70
     0
300
1:8
140
1.0
141
8.0
290
     0
  0
SCALE
  5
4D
102
{ACAD_REACTORS
330
47
102
}
330
47
100
AcDbScale
 70
     0
300
1:10
140
1.0
141
10.0
290
     0
  0
SCALE
  5
4E
102
{ACAD_REACTORS
330
47
102
}
330
47
100
AcDbScale
 70
     0
300
1:16
140
1.0
141
16.0
290
     0
  0
SCALE
  5
4F
102
{ACAD_REACTORS
330
47
102
}
330
47
100
AcDbScale
 70
     0
300
1:20
140
1.0
141
20.0
290
     0
  0
SCALE
  5
50
102
{ACAD_REACTORS
330
47
102
}
330
47
100
AcDbScale
 70
     0
300
1:30
140
1.0
141
30.0
290
     0
  0
SCALE
  5
51
102
{ACAD_REACTORS
330
47
102
}
330
47
100
AcDbScale
 70
     0
300
1:40
140
1.0
141
40.0
290
     0
  0
SCALE
  5
52
102
{ACAD_REACTORS
330
47
102
}
330
47
100
AcDbScale
 70
     0
300
1:50
140
1.0
141
50.0
290
     0
  0
SCALE
  5
53
102
{ACAD_REACTORS
330
47
102
}
330
47
100
AcDbScale
 70
     0
300
1:100
140
1.0
141
100.0
290
     0
  0
SCALE
  5
54
102
{ACAD_REACTORS
330
47
102
}
330
47
100
AcDbScale
 70
     0
300
2:1
140
2.0
141
1.0
290
     0
  0
SCALE
  5
55
102
{ACAD_REACTORS
330
47
102
}
330
47
100
AcDbScale
 70
     0
300
4:1
140
4.0
141
1.0
290
     0
  0
SCALE
  5
56
102
{ACAD_REACTORS
330
47
102
}
330
47
100
AcDbScale
 70
     0
300
8:1
140
8.0
141
1.0
290
     0
  0
SCALE
  5
57
102
{ACAD_REACTORS
330
47
102
}
330
47
100
AcDbScale
 70
     0
300
10:1
140
10.0
141
1.0
290
     0
  0
SCALE
  5
58
102
{ACAD_REACTORS
330
47
102
}
330
47
100
AcDbScale
 70
     0
300
100:1
140
100.0
141
1.0
290
     0
  0
SCALE
  5
59
102
{ACAD_REACTORS
330
47
102
}
330
47
100
AcDbScale
 70
     0
300
1/128" = 1'-0"
140
0.0078125
141
12.0
290
     0
  0
SCALE
  5
5A
102
{ACAD_REACTORS
330
47
102
}
330
47
100
AcDbScale
 70
     0
300
1/64" = 1'-0"
140
0.015625
141
12.0
290
     0
  0
SCALE
  5
5B
102
{ACAD_REACTORS
330
47
102
}
330
47
100
AcDbScale
 70
     0
300
1/32" = 1'-0"
140
0.03125
141
12.0
290
     0
  0
SCALE
  5
5C
102
{ACAD_REACTORS
330
47
102
}
330
47
100
AcDbScale
 70
     0
300
1/16" = 1'-0"
140
0.0625
141
12.0
290
     0
  0
SCALE
  5
5D
102
{ACAD_REACTORS
330
47
102
}
330
47
100
AcDbScale
 70
     0
300
3/32" = 1'-0"
140
0.09375
141
12.0
290
     0
  0
SCALE
  5
5E
102
{ACAD_REACTORS
330
47
102
}
330
47
100
AcDbScale
 70
     0
300
1/8" = 1'-0"
140
0.125
141
12.0
290
     0
  0
SCALE
  5
5F
102
{ACAD_REACTORS
330
47
102
}
330
47
100
AcDbScale
 70
     0
300
3/16" = 1'-0"
140
0.1875
141
12.0
290
     0
  0
SCALE
  5
60
102
{ACAD_REACTORS
330
47
102
}
330
47
100
AcDbScale
 70
     0
300
1/4" = 1'-0"
140
0.25
141
12.0
290
     0
  0
SCALE
  5
61
102
{ACAD_REACTORS
330
47
102
}
330
47
100
AcDbScale
 70
     0
300
3/8" = 1'-0"
140
0.375
141
12.0
290
     0
  0
SCALE
  5
62
102
{ACAD_REACTORS
330
47
102
}
330
47
100
AcDbScale
 70
     0
300
1/2" = 1'-0"
140
0.5
141
12.0
290
     0
  0
SCALE
  5
63
102
{ACAD_REACTORS
330
47
102
}
330
47
100
AcDbScale
 70
     0
300
3/4" = 1'-0"
140
0.75
141
12.0
290
     0
  0
SCALE
  5
64
102
{ACAD_REACTORS
330
47
102
}
330
47
100
AcDbScale
 70
     0
300
1" = 1'-0"
140
1.0
141
12.0
290
     0
  0
SCALE
  5
65
102
{ACAD_REACTORS
330
47
102
}
330
47
100
AcDbScale
 70
     0
300
1-1/2" = 1'-0"
140
1.5
141
12.0
290
     0
  0
SCALE
  5
66
102
{ACAD_REACTORS
330
47
102
}
330
47
100
AcDbScale
 70
     0
300
3" = 1'-0"
140
3.0
141
12.0
290
     0
  0
SCALE
  5
67
102
{ACAD_REACTORS
330
47
102
}
330
47
100
AcDbScale
 70
     0
300
6" = 1'-0"
140
6.0
141
12.0
290
     0
  0
SCALE
  5
68
102
{ACAD_REACTORS
330
47
102
}
330
47
100
AcDbScale
 70
     0
300
1'-0" = 1'-0"
140
12.0
141
12.0
290
     0
  0
TABLESTYLE
  5
6A
102
{ACAD_REACTORS
330
69
102
}
102
{ACAD_XDICTIONARY
360
2C1
102
}
330
69
100
AcDbTableStyle
  3
Standard
 70
     0
 71
     0
 40
0.06
 41
0.06
280
     0
281
     0
  7
Standard
140
4.5
170
     2
 62
     0
 63
   257
283
     0
 90
        4
 91
        0
  1

274
    -2
284
     1
 64
     0
275
    -2
285
     1
 65
     0
276
    -2
286
     1
 66
     0
277
    -2
287
     1
 67
     0
278
    -2
288
     1
 68
     0
279
    -2
289
     1
 69
     0
  7
Standard
140
6.0
170
     5
 62
     0
 63
   257
283
     0
 90
        4
 91
        0
  1

274
    -2
284
     1
 64
     0
275
    -2
285
     1
 65
     0
276
    -2
286
     1
 66
     0
277
    -2
287
     1
 67
     0
278
    -2
288
     1
 68
     0
279
    -2
289
     1
 69
     0
  7
Standard
140
4.5
170
     5
 62
     0
 63
   257
283
     0
 90
        4
 91
        0
  1

274
    -2
284
     1
 64
     0
275
    -2
285
     1
 65
     0
276
    -2
286
     1
 66
     0
277
    -2
287
     1
 67
     0
278
    -2
288
     1
 68
     0
279
    -2
289
     1
 69
     0
  0
VISUALSTYLE
  5
2F
102
{ACAD_REACTORS
330
2A
102
}
330
2A
100
AcDbVisualStyle
  2
2dWireframe
 70
     4
177
     3
291
     0
 70
    58
 90
        0
176
     1
 90
        2
176
     1
 90
        0
176
     1
 90
        0
176
     1
 40
0.6
176
     1
 40
30.0
176
     1
 62
     7
420
 16777215
176
     1
 90
        1
176
     1
 90
        4
176
     1
 62
     7
176
     1
 62
   257
176
     1
 90
        1
176
     1
 90
        1
176
     1
 40
1.0
176
     1
 90
        0
176
     1
 62
   257
176
     1
 40
1.0
176
     1
 90
        1
176
     1
 90
        6
176
     1
 90
        2
176
     1
 62
     7
176
     1
 90
        5
176
     1
 90
        0
176
     1
 90
        0
176
     1
290
     0
176
     1
 90
        1
176
     1
 40
0.0
176
     1
 90
        0
176
     1
290
     1
176
     1
290
     1
176
     1
290
     0
176
     1
290
     0
176
     1
290
     0
176
     1
290
     0
176
     1
290
     0
176
     1
290
     0
176
     1
290
     0
176
     1
 90
       50
176
     1
 40
0.0
176
     1
 40
1.0
176
     1
 90
        0
176
     1
 62
   178
420
        0
176
     1
 90
       50
176
     1
 90
        3
176
     1
 62
     5
420
      255
176
     1
290
     0
176
     1
 90
       50
176
     1
 90
       50
176
     1
 90
       50
176
     1
290
     0
176
     1
 90
       50
176
     1
 62
   256
176
     0
 40
1.0
176
     0
 90
        2
176
     1
  1
strokes_ogs.tif
176
     1
290
     0
176
     1
 40
1.0
176
     1
 40
1.0
176
     1
  0
VISUALSTYLE
  5
32
102
{ACAD_REACTORS
330
2A
102
}
330
2A
100
AcDbVisualStyle
  2
Basic
 70
     7
177
     3
291
     1
 70
    58
 90
        1
176
     1
 90
        0
176
     1
 90
        1
176
     1
 90
        0
176
     1
 40
0.6
176
     1
 40
30.0
176
     1
 62
     7
420
 16777215
176
     1
 90
        0
176
     1
 90
        4
176
     1
 62
     7
176
     1
 62
   257
176
     1
 90
        1
176
     1
 90
        1
176
     1
 40
1.0
176
     1
 90
        8
176
     1
 62
     7
176
     1
 40
1.0
176
     1
 90
        1
176
     1
 90
        6
176
     1
 90
        2
176
     1
 62
     7
176
     1
 90
        5
176
     1
 90
        0
176
     1
 90
        0
176
     1
290
     0
176
     1
 90
        1
176
     1
 40
0.0
176
     1
 90
        0
176
     1
290
     0
176
     1
290
     1
176
     1
290
     1
176
     1
290
     0
176
     1
290
     0
176
     1
290
     0
176
     1
290
     0
176
     1
290
     0
176
     1
290
     0
176
     1
 90
       50
176
     1
 40
0.0
176
     1
 40
1.0
176
     1
 90
        0
176
     1
 62
   178
420
        0
176
     1
 90
       50
176
     1
 90
        3
176
     1
 62
     5
420
      255
176
     1
290
     0
176
     1
 90
       50
176
     1
 90
       50
176
     1
 90
       50
176
     1
290
     0
176
     1
 90
       50
176
     1
 62
   256
176
     0
 40
1.0
176
     0
 90
        2
176
     1
  1
strokes_ogs.tif
176
     1
290
     0
176
     1
 40
1.0
176
     1
 40
1.0
176
     1
  0
VISUALSTYLE
  5
36
102
{ACAD_REACTORS
330
2A
102
}
330
2A
100
AcDbVisualStyle
  2
Brighten
 70
    12
177
     3
291
     1
 70
    58
 90
        2
176
     1
 90
        2
176
     1
 90
        0
176
     1
 90
        0
176
     1
 40
0.6
176
     1
 40
30.0
176
     1
 62
     7
420
 16777215
176
     1
 90
        1
176
     1
 90
        4
176
     1
 62
     7
176
     1
 62
   257
176
     1
 90
        1
176
     1
 90
        1
176
     1
 40
1.0
176
     1
 90
        8
176
     1
 62
     7
176
     1
 40
1.0
176
     1
 90
        1
176
     1
 90
        6
176
     1
 90
        2
176
     1
 62
     7
176
     1
 90
        5
176
     1
 90
        0
176
     1
 90
        0
176
     1
290
     0
176
     1
 90
        1
176
     1
 40
50.0
176
     1
 90
        0
176
     1
290
     0
176
     1
290
     1
176
     1
290
     1
176
     1
290
     0
176
     1
290
     0
176
     1
290
     0
176
     1
290
     0
176
     1
290
     0
176
     1
290
     0
176
     1
 90
       50
176
     1
 40
0.0
176
     1
 40
1.0
176
     1
 90
        0
176
     1
 62
   178
420
        0
176
     1
 90
       50
176
     1
 90
        3
176
     1
 62
     5
420
      255
176
     1
290
     0
176
     1
 90
       50
176
     1
 90
       50
176
     1
 90
       50
176
     1
290
     0
176
     1
 90
       50
176
     1
 62
   256
176
     0
 40
1.0
176
     0
 90
        2
176
     1
  1
strokes_ogs.tif
176
     1
290
     0
176
     1
 40
1.0
176
     1
 40
1.0
176
     1
  0
VISUALSTYLE
  5
3A
102
{ACAD_REACTORS
330
2A
102
}
330
2A
100
AcDbVisualStyle
  2
ColorChange
 70
    16
177
     3
291
     1
 70
    58
 90
        2
176
     1
 90
        2
176
     1
 90
        3
176
     1
 90
        0
176
     1
 40
0.6
176
     1
 40
30.0
176
     1
 62
     8
420
  8421504
176
     1
 90
        1
176
     1
 90
        4
176
     1
 62
     7
176
     1
 62
   257
176
     1
 90
        1
176
     1
 90
        1
176
     1
 40
1.0
176
     1
 90
        8
176
     1
 62
     8
420
  8421504
176
     1
 40
1.0
176
     1
 90
        1
176
     1
 90
        6
176
     1
 90
        2
176
     1
 62
     7
176
     1
 90
        5
176
     1
 90
        0
176
     1
 90
        0
176
     1
290
     0
176
     1
 90
        1
176
     1
 40
0.0
176
     1
 90
        0
176
     1
290
     0
176
     1
290
     1
176
     1
290
     1
176
     1
290
     0
176
     1
290
     0
176
     1
290
     0
176
     1
290
     0
176
     1
290
     0
176
     1
290
     0
176
     1
 90
       50
176
     1
 40
0.0
176
     1
 40
1.0
176
     1
 90
        0
176
     1
 62
   178
420
        0
176
     1
 90
       50
176
     1
 90
        3
176
     1
 62
     5
420
      255
176
     1
290
     0
176
     1
 90
       50
176
     1
 90
       50
176
     1
 90
       50
176
     1
290
     0
176
     1
 90
       50
176
     1
 62
   256
176
     0
 40
1.0
176
     0
 90
        2
176
     1
  1
strokes_ogs.tif
176
     1
290
     0
176
     1
 40
1.0
176
     1
 40
1.0
176
     1
  0
VISUALSTYLE
  5
34
102
{ACAD_REACTORS
330
2A
102
}
330
2A
100
AcDbVisualStyle
  2
Conceptual
 70
     9
177
     3
291
     0
 70
    58
 90
        3
176
     1
 90
        2
176
     1
 90
        0
176
     1
 90
        0
176
     1
 40
0.6
176
     1
 40
30.0
176
     1
 62
     7
420
 16777215
176
     1
 90
        2
176
     1
 90
        2
176
     1
 62
     7
176
     1
 62
   257
176
     1
 90
        1
176
     1
 90
        1
176
     1
 40
179.0
176
     1
 90
        8
176
     1
 62
     7
176
     1
 40
1.0
176
     1
 90
        1
176
     1
 90
        6
176
     1
 90
        2
176
     1
 62
     7
176
     1
 90
        3
176
     1
 90
        0
176
     1
 90
        0
176
     1
290
     0
176
     1
 90
        1
176
     1
 40
0.0
176
     1
 90
        0
176
     1
290
     0
176
     1
290
     1
176
     1
290
     1
176
     1
290
     0
176
     1
290
     0
176
     1
290
     0
176
     1
290
     0
176
     1
290
     0
176
     1
290
     0
176
     1
 90
       50
176
     1
 40
0.0
176
     1
 40
1.0
176
     1
 90
        0
176
     1
 62
   178
420
        0
176
     1
 90
       50
176
     1
 90
        3
176
     1
 62
     5
420
      255
176
     1
290
     0
176
     1
 90
       50
176
     1
 90
       50
176
     1
 90
       50
176
     1
290
     0
176
     1
 90
       50
176
     1
 62
   256
176
     0
 40
1.0
176
     0
 90
        2
176
     1
  1
strokes_ogs.tif
176
     1
290
     0
176
     1
 40
1.0
176
     1
 40
1.0
176
     1
  0
VISUALSTYLE
  5
35
102
{ACAD_REACTORS
330
2A
102
}
330
2A
100
AcDbVisualStyle
  2
Dim
 70
    11
177
     3
291
     1
 70
    58
 90
        2
176
     1
 90
        2
176
     1
 90
        0
176
     1
 90
        0
176
     1
 40
0.6
176
     1
 40
30.0
176
     1
 62
     7
420
 16777215
176
     1
 90
        1
176
     1
 90
        4
176
     1
 62
     7
176
     1
 62
   257
176
     1
 90
        1
176
     1
 90
        1
176
     1
 40
1.0
176
     1
 90
        8
176
     1
 62
     7
176
     1
 40
1.0
176
     1
 90
        1
176
     1
 90
        6
176
     1
 90
        2
176
     1
 62
     7
176
     1
 90
        5
176
     1
 90
        0
176
     1
 90
        0
176
     1
290
     0
176
     1
 90
        1
176
     1
 40
-50.0
176
     1
 90
        0
176
     1
290
     0
176
     1
290
     1
176
     1
290
     1
176
     1
290
     0
176
     1
290
     0
176
     1
290
     0
176
     1
290
     0
176
     1
290
     0
176
     1
290
     0
176
     1
 90
       50
176
     1
 40
0.0
176
     1
 40
1.0
176
     1
 90
        0
176
     1
 62
   178
420
        0
176
     1
 90
       50
176
     1
 90
        3
176
     1
 62
     5
420
      255
176
     1
290
     0
176
     1
 90
       50
176
     1
 90
       50
176
     1
 90
       50
176
     1
290
     0
176
     1
 90
       50
176
     1
 62
   256
176
     0
 40
1.0
176
     0
 90
        2
176
     1
  1
strokes_ogs.tif
176
     1
290
     0
176
     1
 40
1.0
176
     1
 40
1.0
176
     1
  0
VISUALSTYLE
  5
3D
102
{ACAD_REACTORS
330
2A
102
}
330
2A
100
AcDbVisualStyle
  2
EdgeColorOff
 70
    22
177
     3
291
     1
 70
    58
 90
        2
176
     0
 90
        2
176
     0
 90
        0
176
     0
 90
        0
176
     0
 40
0.6
176
     0
 40
30.0
176
     0
 62
     7
420
 16777215
176
     0
 90
        1
176
     0
 90
        4
176
     0
 62
     7
176
     0
 62
   257
176
     0
 90
        1
176
     0
 90
        1
176
     0
 40
1.0
176
     0
 90
        8
176
     2
 62
     7
176
     0
 40
1.0
176
     0
 90
        1
176
     0
 90
        6
176
     0
 90
        2
176
     0
 62
     7
176
     0
 90
        5
176
     0
 90
        0
176
     0
 90
        0
176
     0
290
     0
176
     0
 90
        1
176
     0
 40
0.0
176
     0
 90
        0
176
     0
290
     0
176
     0
290
     1
176
     0
290
     1
176
     0
290
     0
176
     0
290
     0
176
     0
290
     0
176
     0
290
     0
176
     0
290
     0
176
     0
290
     0
176
     0
 90
       50
176
     0
 40
0.0
176
     0
 40
1.0
176
     0
 90
        0
176
     0
 62
   178
420
        0
176
     0
 90
       50
176
     0
 90
        3
176
     0
 62
     5
420
      255
176
     0
290
     0
176
     0
 90
       50
176
     0
 90
       50
176
     0
 90
       50
176
     0
290
     0
176
     0
 90
       50
176
     0
 62
   256
176
     0
 40
1.0
176
     0
 90
        2
176
     0
  1
strokes_ogs.tif
176
     0
290
     0
176
     0
 40
1.0
176
     0
 40
1.0
176
     0
  0
VISUALSTYLE
  5
39
102
{ACAD_REACTORS
330
2A
102
}
330
2A
100
AcDbVisualStyle
  2
Facepattern
 70
    15
177
     3
291
     1
 70
    58
 90
        2
176
     1
 90
        2
176
     1
 90
        0
176
     1
 90
        0
176
     1
 40
0.6
176
     1
 40
30.0
176
     1
 62
     7
420
 16777215
176
     1
 90
        1
176
     1
 90
        4
176
     1
 62
     7
176
     1
 62
   257
176
     1
 90
        1
176
     1
 90
        1
176
     1
 40
1.0
176
     1
 90
        8
176
     1
 62
     7
176
     1
 40
1.0
176
     1
 90
        1
176
     1
 90
        6
176
     1
 90
        2
176
     1
 62
     7
176
     1
 90
        5
176
     1
 90
        0
176
     1
 90
        0
176
     1
290
     0
176
     1
 90
        1
176
     1
 40
0.0
176
     1
 90
        0
176
     1
290
     0
176
     1
290
     1
176
     1
290
     1
176
     1
290
     0
176
     1
290
     0
176
     1
290
     0
176
     1
290
     0
176
     1
290
     0
176
     1
290
     0
176
     1
 90
       50
176
     1
 40
0.0
176
     1
 40
1.0
176
     1
 90
        0
176
     1
 62
   178
420
        0
176
     1
 90
       50
176
     1
 90
        3
176
     1
 62
     5
420
      255
176
     1
290
     0
176
     1
 90
       50
176
     1
 90
       50
176
     1
 90
       50
176
     1
290
     0
176
     1
 90
       50
176
     1
 62
   256
176
     0
 40
1.0
176
     0
 90
        2
176
     1
  1
strokes_ogs.tif
176
     1
290
     0
176
     1
 40
1.0
176
     1
 40
1.0
176
     1
  0
VISUALSTYLE
  5
2B
102
{ACAD_REACTORS
330
2A
102
}
330
2A
100
AcDbVisualStyle
  2
Flat
 70
     0
177
     3
291
     1
 70
    58
 90
        2
176
     1
 90
        1
176
     1
 90
        1
176
     1
 90
        2
176
     1
 40
0.6
176
     1
 40
30.0
176
     1
 62
     7
420
 16777215
176
     1
 90
        0
176
     1
 90
        0
176
     1
 62
     7
176
     1
 62
   257
176
     1
 90
        1
176
     1
 90
        1
176
     1
 40
1.0
176
     1
 90
        8
176
     1
 62
     7
176
     1
 40
1.0
176
     1
 90
        1
176
     1
 90
        6
176
     1
 90
        2
176
     1
 62
     7
176
     1
 90
        5
176
     1
 90
        0
176
     1
 90
        0
176
     1
290
     0
176
     1
 90
       13
176
     1
 40
0.0
176
     1
 90
        0
176
     1
290
     0
176
     1
290
     1
176
     1
290
     1
176
     1
290
     0
176
     1
290
     0
176
     1
290
     0
176
     1
290
     0
176
     1
290
     0
176
     1
290
     0
176
     1
 90
       50
176
     1
 40
0.0
176
     1
 40
1.0
176
     1
 90
        0
176
     1
 62
   178
420
        0
176
     1
 90
       50
176
     1
 90
        3
176
     1
 62
     5
420
      255
176
     1
290
     0
176
     1
 90
       50
176
     1
 90
       50
176
     1
 90
       50
176
     1
290
     0
176
     1
 90
       50
176
     1
 62
   256
176
     0
 40
1.0
176
     0
 90
        2
176
     1
  1
strokes_ogs.tif
176
     1
290
     0
176
     1
 40
1.0
176
     1
 40
1.0
176
     1
  0
VISUALSTYLE
  5
2C
102
{ACAD_REACTORS
330
2A
102
}
330
2A
100
AcDbVisualStyle
  2
FlatWithEdges
 70
     1
177
     3
291
     1
 70
    58
 90
        2
176
     1
 90
        1
176
     1
 90
        1
176
     1
 90
        2
176
     1
 40
0.6
176
     1
 40
30.0
176
     1
 62
     7
420
 16777215
176
     1
 90
        1
176
     1
 90
        0
176
     1
 62
     7
176
     1
 62
   257
176
     1
 90
        1
176
     1
 90
        1
176
     1
 40
1.0
176
     1
 90
        0
176
     1
 62
   257
176
     1
 40
1.0
176
     1
 90
        1
176
     1
 90
        6
176
     1
 90
        2
176
     1
 62
     7
176
     1
 90
        5
176
     1
 90
        0
176
     1
 90
        0
176
     1
290
     0
176
     1
 90
       13
176
     1
 40
0.0
176
     1
 90
        0
176
     1
290
     0
176
     1
290
     1
176
     1
290
     1
176
     1
290
     0
176
     1
290
     0
176
     1
290
     0
176
     1
290
     0
176
     1
290
     0
176
     1
290
     0
176
     1
 90
       50
176
     1
 40
0.0
176
     1
 40
1.0
176
     1
 90
        0
176
     1
 62
   178
420
        0
176
     1
 90
       50
176
     1
 90
        3
176
     1
 62
     5
420
      255
176
     1
290
     0
176
     1
 90
       50
176
     1
 90
       50
176
     1
 90
       50
176
     1
290
     0
176
     1
 90
       50
176
     1
 62
   256
176
     0
 40
1.0
176
     0
 90
        2
176
     1
  1
strokes_ogs.tif
176
     1
290
     0
176
     1
 40
1.0
176
     1
 40
1.0
176
     1
  0
VISUALSTYLE
  5
2D
102
{ACAD_REACTORS
330
2A
102
}
330
2A
100
AcDbVisualStyle
  2
Gouraud
 70
     2
177
     3
291
     1
 70
    58
 90
        2
176
     1
 90
        2
176
     1
 90
        1
176
     1
 90
        2
176
     1
 40
0.6
176
     1
 40
30.0
176
     1
 62
     7
420
 16777215
176
     1
 90
        0
176
     1
 90
        0
176
     1
 62
     7
176
     1
 62
   257
176
     1
 90
        1
176
     1
 90
        1
176
     1
 40
1.0
176
     1
 90
        0
176
     1
 62
     7
176
     1
 40
1.0
176
     1
 90
        1
176
     1
 90
        6
176
     1
 90
        2
176
     1
 62
     7
176
     1
 90
        5
176
     1
 90
        0
176
     1
 90
        0
176
     1
290
     0
176
     1
 90
       13
176
     1
 40
0.0
176
     1
 90
        0
176
     1
290
     0
176
     1
290
     1
176
     1
290
     1
176
     1
290
     0
176
     1
290
     0
176
     1
290
     0
176
     1
290
     0
176
     1
290
     0
176
     1
290
     0
176
     1
 90
       50
176
     1
 40
0.0
176
     1
 40
1.0
176
     1
 90
        0
176
     1
 62
   178
420
        0
176
     1
 90
       50
176
     1
 90
        3
176
     1
 62
     5
420
      255
176
     1
290
     0
176
     1
 90
       50
176
     1
 90
       50
176
     1
 90
       50
176
     1
290
     0
176
     1
 90
       50
176
     1
 62
   256
176
     0
 40
1.0
176
     0
 90
        2
176
     1
  1
strokes_ogs.tif
176
     1
290
     0
176
     1
 40
1.0
176
     1
 40
1.0
176
     1
  0
VISUALSTYLE
  5
2E
102
{ACAD_REACTORS
330
2A
102
}
330
2A
100
AcDbVisualStyle
  2
GouraudWithEdges
 70
     3
177
     3
291
     1
 70
    58
 90
        2
176
     1
 90
        2
176
     1
 90
        1
176
     1
 90
        2
176
     1
 40
0.6
176
     1
 40
30.0
176
     1
 62
     7
420
 16777215
176
     1
 90
        1
176
     1
 90
        0
176
     1
 62
     7
176
     1
 62
   257
176
     1
 90
        1
176
     1
 90
        1
176
     1
 40
1.0
176
     1
 90
        0
176
     1
 62
   257
176
     1
 40
1.0
176
     1
 90
        1
176
     1
 90
        6
176
     1
 90
        2
176
     1
 62
     7
176
     1
 90
        5
176
     1
 90
        0
176
     1
 90
        0
176
     1
290
     0
176
     1
 90
       13
176
     1
 40
0.0
176
     1
 90
        0
176
     1
290
     0
176
     1
290
     1
176
     1
290
     1
176
     1
290
     0
176
     1
290
     0
176
     1
290
     0
176
     1
290
     0
176
     1
290
     0
176
     1
290
     0
176
     1
 90
       50
176
     1
 40
0.0
176
     1
 40
1.0
176
     1
 90
        0
176
     1
 62
   178
420
        0
176
     1
 90
       50
176
     1
 90
        3
176
     1
 62
     5
420
      255
176
     1
290
     0
176
     1
 90
       50
176
     1
 90
       50
176
     1
 90
       50
176
     1
290
     0
176
     1
 90
       50
176
     1
 62
   256
176
     0
 40
1.0
176
     0
 90
        2
176
     1
  1
strokes_ogs.tif
176
     1
290
     0
176
     1
 40
1.0
176
     1
 40
1.0
176
     1
  0
VISUALSTYLE
  5
31
102
{ACAD_REACTORS
330
2A
102
}
330
2A
100
AcDbVisualStyle
  2
Hidden
 70
     6
177
     3
291
     0
 70
    58
 90
        1
176
     1
 90
        2
176
     1
 90
        2
176
     1
 90
        0
176
     1
 40
0.6
176
     1
 40
30.0
176
     1
 62
     7
420
 16777215
176
     1
 90
        2
176
     1
 90
        2
176
     1
 62
     7
176
     1
 62
   257
176
     1
 90
        2
176
     1
 90
        1
176
     1
 40
40.0
176
     1
 90
        0
176
     1
 62
   257
176
     1
 40
1.0
176
     1
 90
        1
176
     1
 90
        6
176
     1
 90
        2
176
     1
 62
     7
176
     1
 90
        3
176
     1
 90
        0
176
     1
 90
        0
176
     1
290
     0
176
     1
 90
        1
176
     1
 40
0.0
176
     1
 90
        0
176
     1
290
     0
176
     1
290
     1
176
     1
290
     1
176
     1
290
     0
176
     1
290
     0
176
     1
290
     0
176
     1
290
     0
176
     1
290
     0
176
     1
290
     0
176
     1
 90
       50
176
     1
 40
0.0
176
     1
 40
1.0
176
     1
 90
        0
176
     1
 62
   178
420
        0
176
     1
 90
       50
176
     1
 90
        3
176
     1
 62
     5
420
      255
176
     1
290
     0
176
     1
 90
       50
176
     1
 90
       50
176
     1
 90
       50
176
     1
290
     0
176
     1
 90
       50
176
     1
 62
   256
176
     0
 40
1.0
176
     0
 90
        2
176
     1
  1
strokes_ogs.tif
176
     1
290
     0
176
     1
 40
1.0
176
     1
 40
1.0
176
     1
  0
VISUALSTYLE
  5
3B
102
{ACAD_REACTORS
330
2A
102
}
330
2A
100
AcDbVisualStyle
  2
JitterOff
 70
    20
177
     3
291
     1
 70
    58
 90
        2
176
     0
 90
        2
176
     0
 90
        0
176
     0
 90
        0
176
     0
 40
0.6
176
     0
 40
30.0
176
     0
 62
     7
420
 16777215
176
     0
 90
        1
176
     0
 90
        4
176
     0
 62
     7
176
     0
 62
   257
176
     0
 90
        1
176
     0
 90
        1
176
     0
 40
1.0
176
     0
 90
       10
176
     2
 62
     7
176
     0
 40
1.0
176
     0
 90
        1
176
     0
 90
        6
176
     0
 90
        2
176
     0
 62
     7
176
     0
 90
        5
176
     0
 90
        0
176
     0
 90
        0
176
     0
290
     0
176
     0
 90
        1
176
     0
 40
0.0
176
     0
 90
        0
176
     0
290
     0
176
     0
290
     1
176
     0
290
     1
176
     0
290
     0
176
     0
290
     0
176
     0
290
     0
176
     0
290
     0
176
     0
290
     0
176
     0
290
     0
176
     0
 90
       50
176
     0
 40
0.0
176
     0
 40
1.0
176
     0
 90
        0
176
     0
 62
   178
420
        0
176
     0
 90
       50
176
     0
 90
        3
176
     0
 62
     5
420
      255
176
     0
290
     0
176
     0
 90
       50
176
     0
 90
       50
176
     0
 90
       50
176
     0
290
     0
176
     0
 90
       50
176
     0
 62
   256
176
     0
 40
1.0
176
     0
 90
        2
176
     0
  1
strokes_ogs.tif
176
     0
290
     0
176
     0
 40
1.0
176
     0
 40
1.0
176
     0
  0
VISUALSTYLE
  5
38
102
{ACAD_REACTORS
330
2A
102
}
330
2A
100
AcDbVisualStyle
  2
Linepattern
 70
    14
177
     3
291
     1
 70
    58
 90
        2
176
     1
 90
        2
176
     1
 90
        0
176
     1
 90
        0
176
     1
 40
0.6
176
     1
 40
30.0
176
     1
 62
     7
420
 16777215
176
     1
 90
        1
176
     1
 90
        4
176
     1
 62
     7
176
     1
 62
   257
176
     1
 90
        7
176
     1
 90
        7
176
     1
 40
1.0
176
     1
 90
        8
176
     1
 62
     7
176
     1
 40
1.0
176
     1
 90
        1
176
     1
 90
        6
176
     1
 90
        2
176
     1
 62
     7
176
     1
 90
        5
176
     1
 90
        0
176
     1
 90
        0
176
     1
290
     0
176
     1
 90
        1
176
     1
 40
0.0
176
     1
 90
        0
176
     1
290
     0
176
     1
290
     1
176
     1
290
     1
176
     1
290
     0
176
     1
290
     0
176
     1
290
     0
176
     1
290
     0
176
     1
290
     0
176
     1
290
     0
176
     1
 90
       50
176
     1
 40
0.0
176
     1
 40
1.0
176
     1
 90
        0
176
     1
 62
   178
420
        0
176
     1
 90
       50
176
     1
 90
        3
176
     1
 62
     5
420
      255
176
     1
290
     0
176
     1
 90
       50
176
     1
 90
       50
176
     1
 90
       50
176
     1
290
     0
176
     1
 90
       50
176
     1
 62
   256
176
     0
 40
1.0
176
     0
 90
        2
176
     1
  1
strokes_ogs.tif
176
     1
290
     0
176
     1
 40
1.0
176
     1
 40
1.0
176
     1
  0
VISUALSTYLE
  5
3C
102
{ACAD_REACTORS
330
2A
102
}
330
2A
100
AcDbVisualStyle
  2
OverhangOff
 70
    21
177
     3
291
     1
 70
    58
 90
        2
176
     0
 90
        2
176
     0
 90
        0
176
     0
 90
        0
176
     0
 40
0.6
176
     0
 40
30.0
176
     0
 62
     7
420
 16777215
176
     0
 90
        1
176
     0
 90
        4
176
     0
 62
     7
176
     0
 62
   257
176
     0
 90
        1
176
     0
 90
        1
176
     0
 40
1.0
176
     0
 90
        9
176
     2
 62
     7
176
     0
 40
1.0
176
     0
 90
        1
176
     0
 90
        6
176
     0
 90
        2
176
     0
 62
     7
176
     0
 90
        5
176
     0
 90
        0
176
     0
 90
        0
176
     0
290
     0
176
     0
 90
        1
176
     0
 40
0.0
176
     0
 90
        0
176
     0
290
     0
176
     0
290
     1
176
     0
290
     1
176
     0
290
     0
176
     0
290
     0
176
     0
290
     0
176
     0
290
     0
176
     0
290
     0
176
     0
290
     0
176
     0
 90
       50
176
     0
 40
0.0
176
     0
 40
1.0
176
     0
 90
        0
176
     0
 62
   178
420
        0
176
     0
 90
       50
176
     0
 90
        3
176
     0
 62
     5
420
      255
176
     0
290
     0
176
     0
 90
       50
176
     0
 90
       50
176
     0
 90
       50
176
     0
290
     0
176
     0
 90
       50
176
     0
 62
   256
176
     0
 40
1.0
176
     0
 90
        2
176
     0
  1
strokes_ogs.tif
176
     0
290
     0
176
     0
 40
1.0
176
     0
 40
1.0
176
     0
  0
VISUALSTYLE
  5
33
102
{ACAD_REACTORS
330
2A
102
}
330
2A
100
AcDbVisualStyle
  2
Realistic
 70
     8
177
     3
291
     0
 70
    58
 90
        2
176
     1
 90
        3
176
     1
 90
        0
176
     1
 90
        2
176
     1
 40
0.6
176
     1
 40
30.0
176
     1
 62
     7
420
 16777215
176
     1
 90
        0
176
     1
 90
        0
176
     1
 62
     7
176
     1
 62
   257
176
     1
 90
        1
176
     1
 90
        1
176
     1
 40
1.0
176
     1
 90
        8
176
     1
 62
   257
176
     1
 40
1.0
176
     1
 90
        1
176
     1
 90
        6
176
     1
 90
        2
176
     1
 62
     7
176
     1
 90
        3
176
     1
 90
        0
176
     1
 90
        0
176
     1
290
     0
176
     1
 90
       13
176
     1
 40
0.0
176
     1
 90
        0
176
     1
290
     0
176
     1
290
     1
176
     1
290
     1
176
     1
290
     0
176
     1
290
     0
176
     1
290
     0
176
     1
290
     0
176
     1
290
     0
176
     1
290
     0
176
     1
 90
       50
176
     1
 40
0.0
176
     1
 40
1.0
176
     1
 90
        0
176
     1
 62
   178
420
        0
176
     1
 90
       50
176
     1
 90
        3
176
     1
 62
     5
420
      255
176
     1
290
     0
176
     1
 90
       50
176
     1
 90
       50
176
     1
 90
       50
176
     1
290
     0
176
     1
 90
       50
176
     1
 62
   256
176
     0
 40
1.0
176
     0
 90
        2
176
     1
  1
strokes_ogs.tif
176
     1
290
     0
176
     1
 40
1.0
176
     1
 40
1.0
176
     1
  0
VISUALSTYLE
  5
42
102
{ACAD_REACTORS
330
2A
102
}
330
2A
100
AcDbVisualStyle
  2
Shaded
 70
    27
177
     3
291
     0
 70
    58
 90
        2
176
     1
 90
        2
176
     1
 90
        1
176
     1
 90
        2
176
     1
 40
0.6
176
     1
 40
30.0
176
     1
 62
     7
420
 16777215
176
     1
 90
        0
176
     1
 90
        4
176
     1
 62
     7
176
     1
 62
   257
176
     1
 90
        1
176
     1
 90
        1
176
     1
 40
1.0
176
     1
 90
        8
176
     1
 62
   257
176
     1
 40
1.0
176
     1
 90
        1
176
     1
 90
        6
176
     1
 90
        2
176
     1
 62
     8
420
  7895160
176
     1
 90
        3
176
     1
 90
        0
176
     1
 90
        0
176
     1
290
     0
176
     1
 90
        5
176
     1
 40
0.0
176
     1
 90
        0
176
     1
290
     0
176
     1
290
     1
176
     1
290
     1
176
     1
290
     0
176
     1
290
     0
176
     1
290
     0
176
     1
290
     0
176
     1
290
     0
176
     1
290
     0
176
     1
 90
       50
176
     1
 40
0.0
176
     1
 40
1.0
176
     1
 90
        0
176
     1
 62
   178
420
        0
176
     1
 90
       50
176
     1
 90
        3
176
     1
 62
     5
420
      255
176
     1
290
     0
176
     1
 90
       50
176
     1
 90
       50
176
     1
 90
       50
176
     1
290
     0
176
     1
 90
       50
176
     1
 62
   256
176
     0
 40
1.0
176
     0
 90
        2
176
     1
  1
strokes_ogs.tif
176
     1
290
     0
176
     1
 40
1.0
176
     1
 40
1.0
176
     1
  0
VISUALSTYLE
  5
41
102
{ACAD_REACTORS
330
2A
102
}
330
2A
100
AcDbVisualStyle
  2
Shaded with edges
 70
    26
177
     3
291
     0
 70
    58
 90
        2
176
     1
 90
        2
176
     1
 90
        1
176
     1
 90
        2
176
     1
 40
0.6
176
     1
 40
30.0
176
     1
 62
     7
420
 16777215
176
     1
 90
        1
176
     1
 90
       10
176
     1
 62
     7
176
     1
 62
   257
176
     1
 90
        2
176
     1
 90
        1
176
     1
 40
1.0
176
     1
 90
        8
176
     1
 62
   257
176
     1
 40
1.0
176
     1
 90
        1
176
     1
 90
        6
176
     1
 90
        2
176
     1
 62
     7
176
     1
 90
        3
176
     1
 90
        0
176
     1
 90
        0
176
     1
290
     0
176
     1
 90
        5
176
     1
 40
0.0
176
     1
 90
        0
176
     1
290
     0
176
     1
290
     1
176
     1
290
     1
176
     1
290
     0
176
     1
290
     0
176
     1
290
     0
176
     1
290
     0
176
     1
290
     0
176
     1
290
     0
176
     1
 90
       50
176
     1
 40
0.0
176
     1
 40
1.0
176
     1
 90
        0
176
     1
 62
   178
420
        0
176
     1
 90
       50
176
     1
 90
        3
176
     1
 62
     5
420
      255
176
     1
290
     0
176
     1
 90
       50
176
     1
 90
       50
176
     1
 90
       50
176
     1
290
     0
176
     1
 90
       50
176
     1
 62
   256
176
     0
 40
1.0
176
     0
 90
        2
176
     1
  1
strokes_ogs.tif
176
     1
290
     0
176
     1
 40
1.0
176
     1
 40
1.0
176
     1
  0
VISUALSTYLE
  5
3E
102
{ACAD_REACTORS
330
2A
102
}
330
2A
100
AcDbVisualStyle
  2
Shades of Gray
 70
    23
177
     3
291
     0
 70
    58
 90
        2
176
     1
 90
        2
176
     1
 90
        3
176
     1
 90
        0
176
     1
 40
0.6
176
     1
 40
30.0
176
     1
 62
     7
420
 16777215
176
     1
 90
        2
176
     1
 90
        2
176
     1
 62
     7
176
     1
 62
     7
176
     1
 90
        1
176
     1
 90
        1
176
     1
 40
40.0
176
     1
 90
        8
176
     1
 62
     7
176
     1
 40
1.0
176
     1
 90
        1
176
     1
 90
        6
176
     1
 90
        2
176
     1
 62
     7
176
     1
 90
        3
176
     1
 90
        0
176
     1
 90
        0
176
     1
290
     0
176
     1
 90
        1
176
     1
 40
0.0
176
     1
 90
        0
176
     1
290
     0
176
     1
290
     1
176
     1
290
     1
176
     1
290
     0
176
     1
290
     0
176
     1
290
     0
176
     1
290
     0
176
     1
290
     0
176
     1
290
     0
176
     1
 90
       50
176
     1
 40
0.0
176
     1
 40
1.0
176
     1
 90
        0
176
     1
 62
   178
420
        0
176
     1
 90
       50
176
     1
 90
        3
176
     1
 62
     5
420
      255
176
     1
290
     0
176
     1
 90
       50
176
     1
 90
       50
176
     1
 90
       50
176
     1
290
     0
176
     1
 90
       50
176
     1
 62
   256
176
     0
 40
1.0
176
     0
 90
        2
176
     1
  1
strokes_ogs.tif
176
     1
290
     0
176
     1
 40
1.0
176
     1
 40
1.0
176
     1
  0
VISUALSTYLE
  5
3F
102
{ACAD_REACTORS
330
2A
102
}
330
2A
100
AcDbVisualStyle
  2
Sketchy
 70
    24
177
     3
291
     0
 70
    58
 90
        1
176
     1
 90
        2
176
     1
 90
        2
176
     1
 90
        0
176
     1
 40
0.6
176
     1
 40
30.0
176
     1
 62
     7
420
 16777215
176
     1
 90
        2
176
     1
 90
        2
176
     1
 62
     7
176
     1
 62
     7
176
     1
 90
        1
176
     1
 90
        1
176
     1
 40
40.0
176
     1
 90
       11
176
     1
 62
     7
176
     1
 40
1.0
176
     1
 90
        1
176
     1
 90
        6
176
     1
 90
        2
176
     1
 62
     7
176
     1
 90
        6
176
     1
 90
        0
176
     1
 90
        0
176
     1
290
     0
176
     1
 90
        1
176
     1
 40
0.0
176
     1
 90
        0
176
     1
290
     0
176
     1
290
     1
176
     1
290
     1
176
     1
290
     0
176
     1
290
     0
176
     1
290
     0
176
     1
290
     0
176
     1
290
     0
176
     1
290
     0
176
     1
 90
       50
176
     1
 40
0.0
176
     1
 40
1.0
176
     1
 90
        0
176
     1
 62
   178
420
        0
176
     1
 90
       50
176
     1
 90
        3
176
     1
 62
     5
420
      255
176
     1
290
     0
176
     1
 90
       50
176
     1
 90
       50
176
     1
 90
       50
176
     1
290
     0
176
     1
 90
       50
176
     1
 62
   256
176
     0
 40
1.0
176
     0
 90
        2
176
     1
  1
strokes_ogs.tif
176
     1
290
     0
176
     1
 40
1.0
176
     1
 40
1.0
176
     1
  0
VISUALSTYLE
  5
37
102
{ACAD_REACTORS
330
2A
102
}
330
2A
100
AcDbVisualStyle
  2
Thicken
 70
    13
177
     3
291
     1
 70
    58
 90
        2
176
     1
 90
        2
176
     1
 90
        0
176
     1
 90
        0
176
     1
 40
0.6
176
     1
 40
30.0
176
     1
 62
     7
420
 16777215
176
     1
 90
        1
176
     1
 90
        4
176
     1
 62
     7
176
     1
 62
   257
176
     1
 90
        1
176
     1
 90
        1
176
     1
 40
1.0
176
     1
 90
       12
176
     1
 62
     7
176
     1
 40
1.0
176
     1
 90
        1
176
     1
 90
        6
176
     1
 90
        2
176
     1
 62
     7
176
     1
 90
        5
176
     1
 90
        0
176
     1
 90
        0
176
     1
290
     0
176
     1
 90
        1
176
     1
 40
0.0
176
     1
 90
        0
176
     1
290
     0
176
     1
290
     1
176
     1
290
     1
176
     1
290
     0
176
     1
290
     0
176
     1
290
     0
176
     1
290
     0
176
     1
290
     0
176
     1
290
     0
176
     1
 90
       50
176
     1
 40
0.0
176
     1
 40
1.0
176
     1
 90
        0
176
     1
 62
   178
420
        0
176
     1
 90
       50
176
     1
 90
        3
176
     1
 62
     5
420
      255
176
     1
290
     0
176
     1
 90
       50
176
     1
 90
       50
176
     1
 90
       50
176
     1
290
     0
176
     1
 90
       50
176
     1
 62
   256
176
     0
 40
1.0
176
     0
 90
        2
176
     1
  1
strokes_ogs.tif
176
     1
290
     0
176
     1
 40
1.0
176
     1
 40
1.0
176
     1
  0
VISUALSTYLE
  5
30
102
{ACAD_REACTORS
330
2A
102
}
330
2A
100
AcDbVisualStyle
  2
Wireframe
 70
     5
177
     3
291
     0
 70
    58
 90
        0
176
     1
 90
        2
176
     1
 90
        0
176
     1
 90
        0
176
     1
 40
0.6
176
     1
 40
30.0
176
     1
 62
     7
420
 16777215
176
     1
 90
        1
176
     1
 90
        4
176
     1
 62
     7
176
     1
 62
   257
176
     1
 90
        1
176
     1
 90
        1
176
     1
 40
1.0
176
     1
 90
        0
176
     1
 62
   257
176
     1
 40
1.0
176
     1
 90
        1
176
     1
 90
        6
176
     1
 90
        2
176
     1
 62
     7
176
     1
 90
        3
176
     1
 90
        0
176
     1
 90
        0
176
     1
290
     0
176
     1
 90
        1
176
     1
 40
0.0
176
     1
 90
        0
176
     1
290
     0
176
     1
290
     1
176
     1
290
     1
176
     1
290
     0
176
     1
290
     0
176
     1
290
     0
176
     1
290
     0
176
     1
290
     0
176
     1
290
     0
176
     1
 90
       50
176
     1
 40
0.0
176
     1
 40
1.0
176
     1
 90
        0
176
     1
 62
   178
420
        0
176
     1
 90
       50
176
     1
 90
        3
176
     1
 62
     5
420
      255
176
     1
290
     0
176
     1
 90
       50
176
     1
 90
       50
176
     1
 90
       50
176
     1
290
     0
176
     1
 90
       50
176
     1
 62
   256
176
     0
 40
1.0
176
     0
 90
        2
176
     1
  1
strokes_ogs.tif
176
     1
290
     0
176
     1
 40
1.0
176
     1
 40
1.0
176
     1
  0
VISUALSTYLE
  5
40
102
{ACAD_REACTORS
330
2A
102
}
330
2A
100
AcDbVisualStyle
  2
X-Ray
 70
    25
177
     3
291
     0
 70
    58
 90
        2
176
     1
 90
        2
176
     1
 90
        1
176
     1
 90
        1
176
     1
 40
0.5
176
     1
 40
30.0
176
     1
 62
     7
420
 16777215
176
     1
 90
        1
176
     1
 90
        0
176
     1
 62
     7
176
     1
 62
   257
176
     1
 90
        1
176
     1
 90
        1
176
     1
 40
1.0
176
     1
 90
        8
176
     1
 62
     7
176
     1
 40
1.0
176
     1
 90
        1
176
     1
 90
        6
176
     1
 90
        2
176
     1
 62
     7
176
     1
 90
        3
176
     1
 90
        0
176
     1
 90
        0
176
     1
290
     0
176
     1
 90
       13
176
     1
 40
0.0
176
     1
 90
        0
176
     1
290
     0
176
     1
290
     1
176
     1
290
     1
176
     1
290
     0
176
     1
290
     0
176
     1
290
     0
176
     1
290
     0
176
     1
290
     0
176
     1
290
     0
176
     1
 90
       50
176
     1
 40
0.0
176
     1
 40
1.0
176
     1
 90
        0
176
     1
 62
   178
420
        0
176
     1
 90
       50
176
     1
 90
        3
176
     1
 62
     5
420
      255
176
     1
290
     0
176
     1
 90
       50
176
     1
 90
       50
176
     1
 90
       50
176
     1
290
     0
176
     1
 90
       50
176
     1
 62
   256
176
     0
 40
1.0
176
     0
 90
        2
176
     1
  1
strokes_ogs.tif
176
     1
290
     0
176
     1
 40
1.0
176
     1
 40
1.0
176
     1
  0
DICTIONARYVAR
  5
2C0
102
{ACAD_REACTORS
330
2BF
102
}
330
2BF
100
DictionaryVariables
280
     0
  1
1:1
  0
DICTIONARYVAR
  5
2C5
102
{ACAD_REACTORS
330
2BF
102
}
330
2BF
100
DictionaryVariables
280
     0
  1
Standard
  0
DICTIONARYVAR
  5
2C4
102
{ACAD_REACTORS
330
2BF
102
}
330
2BF
100
DictionaryVariables
280
     0
  1
Standard
  0
DICTIONARY
  5
2C1
330
6A
100
AcDbDictionary
280
     1
281
     1
  3
ACAD_ROUNDTRIP_2008_TABLESTYLE_CELLSTYLEMAP
360
2C2
  0
CELLSTYLEMAP
  5
2C2
102
{ACAD_REACTORS
330
2C1
102
}
330
2C1
100
AcDbCellStyleMap
 90
        3
300
CELLSTYLE
  1
TABLEFORMAT_BEGIN
 90
        5
170
     1
 91
        0
 92
    32768
 62
   257
 93
        1
300
CONTENTFORMAT
  1
CONTENTFORMAT_BEGIN
 90
        0
 91
        0
 92
        4
 93
        0
300

 40
0.0
140
1.0
 94
        5
 62
     0
340
11
144
6.0
309
CONTENTFORMAT_END
171
     1
301
MARGIN
  1
CELLMARGIN_BEGIN
 40
1.5
 40
1.5
 40
1.5
 40
1.5
 40
1.5
 40
1.5
309
CELLMARGIN_END
 94
        6
 95
        1
302
GRIDFORMAT
  1
GRIDFORMAT_BEGIN
 90
        0
 91
        1
 62
     0
 92
       -2
340
14
 93
        0
 40
0.045
309
GRIDFORMAT_END
 95
        2
302
GRIDFORMAT
  1
GRIDFORMAT_BEGIN
 90
        0
 91
        1
 62
     0
 92
       -2
340
14
 93
        0
 40
0.045
309
GRIDFORMAT_END
 95
        4
302
GRIDFORMAT
  1
GRIDFORMAT_BEGIN
 90
        0
 91
        1
 62
     0
 92
       -2
340
14
 93
        0
 40
0.045
309
GRIDFORMAT_END
 95
        8
302
GRIDFORMAT
  1
GRIDFORMAT_BEGIN
 90
        0
 91
        1
 62
     0
 92
       -2
340
14
 93
        0
 40
0.045
309
GRIDFORMAT_END
 95
       16
302
GRIDFORMAT
  1
GRIDFORMAT_BEGIN
 90
        0
 91
        1
 62
     0
 92
       -2
340
14
 93
        0
 40
0.045
309
GRIDFORMAT_END
 95
       32
302
GRIDFORMAT
  1
GRIDFORMAT_BEGIN
 90
        0
 91
        1
 62
     0
 92
       -2
340
14
 93
        0
 40
0.045
309
GRIDFORMAT_END
309
TABLEFORMAT_END
  1
CELLSTYLE_BEGIN
 90
        1
 91
        1
300
_TITLE
309
CELLSTYLE_END
300
CELLSTYLE
  1
TABLEFORMAT_BEGIN
 90
        5
170
     1
 91
        0
 92
        0
 62
   257
 93
        1
300
CONTENTFORMAT
  1
CONTENTFORMAT_BEGIN
 90
        0
 91
        0
 92
        4
 93
        0
300

 40
0.0
140
1.0
 94
        5
 62
     0
340
11
144
4.5
309
CONTENTFORMAT_END
171
     1
301
MARGIN
  1
CELLMARGIN_BEGIN
 40
1.5
 40
1.5
 40
1.5
 40
1.5
 40
1.5
 40
1.5
309
CELLMARGIN_END
 94
        6
 95
        1
302
GRIDFORMAT
  1
GRIDFORMAT_BEGIN
 90
        0
 91
        1
 62
     0
 92
       -2
340
14
 93
        0
 40
0.045
309
GRIDFORMAT_END
 95
        2
302
GRIDFORMAT
  1
GRIDFORMAT_BEGIN
 90
        0
 91
        1
 62
     0
 92
       -2
340
14
 93
        0
 40
0.045
309
GRIDFORMAT_END
 95
        4
302
GRIDFORMAT
  1
GRIDFORMAT_BEGIN
 90
        0
 91
        1
 62
     0
 92
       -2
340
14
 93
        0
 40
0.045
309
GRIDFORMAT_END
 95
        8
302
GRIDFORMAT
  1
GRIDFORMAT_BEGIN
 90
        0
 91
        1
 62
     0
 92
       -2
340
14
 93
        0
 40
0.045
309
GRIDFORMAT_END
 95
       16
302
GRIDFORMAT
  1
GRIDFORMAT_BEGIN
 90
        0
 91
        1
 62
     0
 92
       -2
340
14
 93
        0
 40
0.045
309
GRIDFORMAT_END
 95
       32
302
GRIDFORMAT
  1
GRIDFORMAT_BEGIN
 90
        0
 91
        1
 62
     0
 92
       -2
340
14
 93
        0
 40
0.045
309
GRIDFORMAT_END
309
TABLEFORMAT_END
  1
CELLSTYLE_BEGIN
 90
        2
 91
        1
300
_HEADER
309
CELLSTYLE_END
300
CELLSTYLE
  1
TABLEFORMAT_BEGIN
 90
        5
170
     1
 91
        0
 92
        0
 62
   257
 93
        1
300
CONTENTFORMAT
  1
CONTENTFORMAT_BEGIN
 90
        0
 91
        0
 92
        4
 93
        0
300

 40
0.0
140
1.0
 94
        2
 62
     0
340
11
144
4.5
309
CONTENTFORMAT_END
171
     1
301
MARGIN
  1
CELLMARGIN_BEGIN
 40
1.5
 40
1.5
 40
1.5
 40
1.5
 40
1.5
 40
1.5
309
CELLMARGIN_END
 94
        6
 95
        1
302
GRIDFORMAT
  1
GRIDFORMAT_BEGIN
 90
        0
 91
        1
 62
     0
 92
       -2
340
14
 93
        0
 40
0.045
309
GRIDFORMAT_END
 95
        2
302
GRIDFORMAT
  1
GRIDFORMAT_BEGIN
 90
        0
 91
        1
 62
     0
 92
       -2
340
14
 93
        0
 40
0.045
309
GRIDFORMAT_END
 95
        4
302
GRIDFORMAT
  1
GRIDFORMAT_BEGIN
 90
        0
 91
        1
 62
     0
 92
       -2
340
14
 93
        0
 40
0.045
309
GRIDFORMAT_END
 95
        8
302
GRIDFORMAT
  1
GRIDFORMAT_BEGIN
 90
        0
 91
        1
 62
     0
 92
       -2
340
14
 93
        0
 40
0.045
309
GRIDFORMAT_END
 95
       16
302
GRIDFORMAT
  1
GRIDFORMAT_BEGIN
 90
        0
 91
        1
 62
     0
 92
       -2
340
14
 93
        0
 40
0.045
309
GRIDFORMAT_END
 95
       32
302
GRIDFORMAT
  1
GRIDFORMAT_BEGIN
 90
        0
 91
        1
 62
     0
 92
       -2
340
14
 93
        0
 40
0.045
309
GRIDFORMAT_END
309
TABLEFORMAT_END
  1
CELLSTYLE_BEGIN
 90
        3
 91
        2
300
_DATA
309
CELLSTYLE_END
  0
ENDSEC
  0
EOF
