  0
SECTION
  2
HEADER
  9
$ACADVER
  1
AC1027
  9
$ACADMAINTVER
 70
     8
  9
$DWGCODEPAGE
  3
ANSI_1252
  9
$REQUIREDVERSIONS
160
                 0
  9
$INSBASE
 10
0.0
 20
0.0
 30
0.0
  9
$EXTMIN
 10
0.0
 20
0.0
 30
0.0
  9
$EXTMAX
 10
210.0
 20
297.0
 30
0.0
  9
$LIMMIN
 10
0.0
 20
0.0
  9
$LIMMAX
 10
210.0
 20
297.0
  9
$ORTHOMODE
 70
     0
  9
$REGENMODE
 70
     1
  9
$FILLMODE
 70
     1
  9
$QTEXTMODE
 70
     0
  9
$MIRRTEXT
 70
     1
  9
$LTSCALE
 40
1.0
  9
$ATTMODE
 70
     1
  9
$TEXTSIZE
 40
2.5
  9
$TRACEWID
 40
1.0
  9
$TEXTSTYLE
  7
Standard
  9
$CLAYER
  8
Outline
  9
$CELTYPE
  6
ByLayer
  9
$CECOLOR
 62
   256
  9
$CELTSCALE
 40
1.0
  9
$DISPSILH
 70
     0
  9
$DIMSCALE
 40
1.0
  9
$DIMASZ
 40
2.5
  9
$DIMEXO
 40
0.625
  9
$DIMDLI
 40
3.75
  9
$DIMRND
 40
0.0
  9
$DIMDLE
 40
0.0
  9
$DIMEXE
 40
1.25
  9
$DIMTP
 40
0.0
  9
$DIMTM
 40
0.0
  9
$DIMTXT
 40
2.5
  9
$DIMCEN
 40
2.5
  9
$DIMTSZ
 40
0.0
  9
$DIMTOL
 70
     0
  9
$DIMLIM
 70
     0
  9
$DIMTIH
 70
     0
  9
$DIMTOH
 70
     0
  9
$DIMSE1
 70
     0
  9
$DIMSE2
 70
     0
  9
$DIMTAD
 70
     1
  9
$DIMZIN
 70
     8
  9
$DIMBLK
  1

  9
$DIMASO
 70
     1
  9
$DIMSHO
 70
     1
  9
$DIMPOST
  1

  9
$DIMAPOST
  1

  9
$DIMALT
 70
     0
  9
$DIMALTD
 70
     3
  9
$DIMALTF
 40
0.03937007874016
  9
$DIMLFAC
 40
1.0
  9
$DIMTOFL
 70
     1
  9
$DIMTVP
 40
0.0
  9
$DIMTIX
 70
     0
  9
$DIMSOXD
 70
     0
  9
$DIMSAH
 70
     0
  9
$DIMBLK1
  1

  9
$DIMBLK2
  1

  9
$DIMSTYLE
  2
ISO-25
  9
$DIMCLRD
 70
     0
  9
$DIMCLRE
 70
     0
  9
$DIMCLRT
 70
     0
  9
$DIMTFAC
 40
1.0
  9
$DIMGAP
 40
0.625
  9
$DIMJUST
 70
     0
  9
$DIMSD1
 70
     0
  9
$DIMSD2
 70
     0
  9
$DIMTOLJ
 70
     0
  9
$DIMTZIN
 70
     8
  9
$DIMALTZ
 70
     0
  9
$DIMALTTZ
 70
     0
  9
$DIMUPT
 70
     0
  9
$DIMDEC
 70
     2
  9
$DIMTDEC
 70
     2
  9
$DIMALTU
 70
     2
  9
$DIMALTTD
 70
     3
  9
$DIMTXSTY
  7
Standard
  9
$DIMAUNIT
 70
     0
  9
$DIMADEC
 70
     0
  9
$DIMALTRND
 40
0.0
  9
$DIMAZIN
 70
     0
  9
$DIMDSEP
 70
    44
  9
$DIMATFIT
 70
     3
  9
$DIMFRAC
 70
     0
  9
$DIMLDRBLK
  1

  9
$DIMLUNIT
 70
     2
  9
$DIMLWD
 70
    -2
  9
$DIMLWE
 70
    -2
  9
$DIMTMOVE
 70
     0
  9
$DIMFXL
 40
1.0
  9
$DIMFXLON
 70
     0
  9
$DIMJOGANG
 40
0.7853981633974483
  9
$DIMTFILL
 70
     0
  9
$DIMTFILLCLR
 70
     0
  9
$DIMARCSYM
 70
     0
  9
$DIMLTYPE
  6

  9
$DIMLTEX1
  6

  9
$DIMLTEX2
  6

  9
$DIMTXTDIRECTION
 70
     0
  9
$LUNITS
 70
     2
  9
$LUPREC
 70
     4
  9
$SKETCHINC
 40
1.0
  9
$FILLETRAD
 40
10.0
  9
$AUNITS
 70
     0
  9
$AUPREC
 70
     0
  9
$MENU
  1
.
  9
$ELEVATION
 40
0.0
  9
$PELEVATION
 40
0.0
  9
$THICKNESS
 40
0.0
  9
$LIMCHECK
 70
     0
  9
$CHAMFERA
 40
0.0
  9
$CHAMFERB
 40
0.0
  9
$CHAMFERC
 40
0.0
  9
$CHAMFERD
 40
0.0
  9
$SKPOLY
 70
     0
  9
$TDCREATE
 40
2457184.564143518
  9
$TDUCREATE
 40
2457184.855810185
  9
$TDUPDATE
 40
2457184.564143518
  9
$TDUUPDATE
 40
2457184.855810185
  9
$TDINDWG
 40
0.0000000116
  9
$TDUSRTIMER
 40
0.0000000116
  9
$USRTIMER
 70
     1
  9
$ANGBASE
 50
0.0
  9
$ANGDIR
 70
     0
  9
$PDMODE
 70
     0
  9
$PDSIZE
 40
0.0
  9
$PLINEWID
 40
0.0
  9
$SPLFRAME
 70
     0
  9
$SPLINETYPE
 70
     6
  9
$SPLINESEGS
 70
     8
  9
$HANDSEED
  5
328
  9
$SURFTAB1
 70
     6
  9
$SURFTAB2
 70
     6
  9
$SURFTYPE
 70
     6
  9
$SURFU
 70
     6
  9
$SURFV
 70
     6
  9
$UCSBASE
  2

  9
$UCSNAME
  2

  9
$UCSORG
 10
0.0
 20
0.0
 30
0.0
  9
$UCSXDIR
 10
1.0
 20
0.0
 30
0.0
  9
$UCSYDIR
 10
0.0
 20
1.0
 30
0.0
  9
$UCSORTHOREF
  2

  9
$UCSORTHOVIEW
 70
     0
  9
$UCSORGTOP
 10
0.0
 20
0.0
 30
0.0
  9
$UCSORGBOTTOM
 10
0.0
 20
0.0
 30
0.0
  9
$UCSORGLEFT
 10
0.0
 20
0.0
 30
0.0
  9
$UCSORGRIGHT
 10
0.0
 20
0.0
 30
0.0
  9
$UCSORGFRONT
 10
0.0
 20
0.0
 30
0.0
  9
$UCSORGBACK
 10
0.0
 20
0.0
 30
0.0
  9
$PUCSBASE
  2

  9
$PUCSNAME
  2

  9
$PUCSORG
 10
0.0
 20
0.0
 30
0.0
  9
$PUCSXDIR
 10
1.0
 20
0.0
 30
0.0
  9
$PUCSYDIR
 10
0.0
 20
1.0
 30
0.0
  9
$PUCSORTHOREF
  2

  9
$PUCSORTHOVIEW
 70
     0
  9
$PUCSORGTOP
 10
0.0
 20
0.0
 30
0.0
  9
$PUCSORGBOTTOM
 10
0.0
 20
0.0
 30
0.0
  9
$PUCSORGLEFT
 10
0.0
 20
0.0
 30
0.0
  9
$PUCSORGRIGHT
 10
0.0
 20
0.0
 30
0.0
  9
$PUCSORGFRONT
 10
0.0
 20
0.0
 30
0.0
  9
$PUCSORGBACK
 10
0.0
 20
0.0
 30
0.0
  9
$USERI1
 70
     0
  9
$USERI2
 70
     0
  9
$USERI3
 70
     0
  9
$USERI4
 70
     0
  9
$USERI5
 70
     0
  9
$USERR1
 40
0.0
  9
$USERR2
 40
0.0
  9
$USERR3
 40
0.0
  9
$USERR4
 40
0.0
  9
$USERR5
 40
0.0
  9
$WORLDVIEW
 70
     1
  9
$SHADEDGE
 70
     3
  9
$SHADEDIF
 70
    70
  9
$TILEMODE
 70
     1
  9
$MAXACTVP
 70
    64
  9
$PINSBASE
 10
0.0
 20
0.0
 30
0.0
  9
$PLIMCHECK
 70
     0
  9
$PEXTMIN
 10
1.000000000000000E+20
 20
1.000000000000000E+20
 30
1.000000000000000E+20
  9
$PEXTMAX
 10
-1.000000000000000E+20
 20
-1.000000000000000E+20
 30
-1.000000000000000E+20
  9
$PLIMMIN
 10
0.0
 20
0.0
  9
$PLIMMAX
 10
420.0
 20
297.0
  9
$UNITMODE
 70
     0
  9
$VISRETAIN
 70
     1
  9
$PLINEGEN
 70
     0
  9
$PSLTSCALE
 70
     1
  9
$TREEDEPTH
 70
  3020
  9
$CMLSTYLE
  2
Standard
  9
$CMLJUST
 70
     0
  9
$CMLSCALE
 40
20.0
  9
$PROXYGRAPHICS
 70
     1
  9
$MEASUREMENT
 70
     1
  9
$CELWEIGHT
370
    -1
  9
$ENDCAPS
280
     0
  9
$JOINSTYLE
280
     0
  9
$LWDISPLAY
290
     0
  9
$INSUNITS
 70
     4
  9
$HYPERLINKBASE
  1

  9
$STYLESHEET
  1

  9
$XEDIT
290
     1
  9
$CEPSNTYPE
380
     0
  9
$PSTYLEMODE
290
     1
  9
$FINGERPRINTGUID
  2
{a69ef4ce-767c-4a15-bbce-efb93509f5be}
  9
$VERSIONGUID
  2
{FAEB1C32-E019-11D5-929B-00C0DF256EC4}
  9
$EXTNAMES
290
     1
  9
$PSVPSCALE
 40
0.0
  9
$OLESTARTUP
290
     0
  9
$SORTENTS
280
   127
  9
$INDEXCTL
280
     0
  9
$HIDETEXT
280
     1
  9
$XCLIPFRAME
280
     2
  9
$HALOGAP
280
     0
  9
$OBSCOLOR
 70
   257
  9
$OBSLTYPE
280
     0
  9
$INTERSECTIONDISPLAY
280
     0
  9
$INTERSECTIONCOLOR
 70
   257
  9
$DIMASSOC
280
     2
  9
$PROJECTNAME
  1

  9
$CAMERADISPLAY
290
     0
  9
$LENSLENGTH
 40
50.0
  9
$CAMERAHEIGHT
 40
0.0
  9
$STEPSPERSEC
 40
2.0
  9
$STEPSIZE
 40
6.0
  9
$3DDWFPREC
 40
2.0
  9
$PSOLWIDTH
 40
5.0
  9
$PSOLHEIGHT
 40
80.0
  9
$LOFTANG1
 40
1.570796326794897
  9
$LOFTANG2
 40
1.570796326794897
  9
$LOFTMAG1
 40
0.0
  9
$LOFTMAG2
 40
0.0
  9
$LOFTPARAM
 70
     7
  9
$LOFTNORMALS
280
     1
  9
$LATITUDE
 40
37.795
  9
$LONGITUDE
 40
-122.394
  9
$NORTHDIRECTION
 40
0.0
  9
$TIMEZONE
 70
 -8000
  9
$LIGHTGLYPHDISPLAY
280
     1
  9
$TILEMODELIGHTSYNCH
280
     1
  9
$CMATERIAL
347
44
  9
$SOLIDHIST
280
     0
  9
$SHOWHIST
280
     1
  9
$DWFFRAME
280
     2
  9
$DGNFRAME
280
     2
  9
$REALWORLDSCALE
290
     1
  9
$INTERFERECOLOR
 62
   256
  9
$CSHADOW
280
     0
  9
$SHADOWPLANELOCATION
 40
0.0
  0
ENDSEC
  0
SECTION
  2
CLASSES
  0
CLASS
  1
ACDBDICTIONARYWDFLT
  2
AcDbDictionaryWithDefault
  3
ObjectDBX Classes
 90
        0
 91
        4
280
     0
281
     0
  0
CLASS
  1
VISUALSTYLE
  2
AcDbVisualStyle
  3
ObjectDBX Classes
 90
     4095
 91
        4
280
     0
281
     0
  0
CLASS
  1
MATERIAL
  2
AcDbMaterial
  3
ObjectDBX Classes
 90
     1153
 91
        4
280
     0
281
     0
  0
CLASS
  1
SCALE
  2
AcDbScale
  3
ObjectDBX Classes
 90
     1153
 91
        4
280
     0
281
     0
  0
CLASS
  1
TABLESTYLE
  2
AcDbTableStyle
  3
ObjectDBX Classes
 90
     4095
 91
        4
280
     0
281
     0
  0
CLASS
  1
MLEADERSTYLE
  2
AcDbMLeaderStyle
  3
ACDB_MLEADERSTYLE_CLASS
 90
     4095
 91
        4
280
     0
281
     0
  0
CLASS
  1
SUN
  2
AcDbSun
  3
SCENEOE
 90
     1153
 91
        4
280
     0
281
     0
  0
CLASS
  1
DICTIONARYVAR
  2
AcDbDictionaryVar
  3
ObjectDBX Classes
 90
        0
 91
        4
280
     0
281
     0
  0
CLASS
  1
CELLSTYLEMAP
  2
AcDbCellStyleMap
  3
ObjectDBX Classes
 90
     1152
 91
        4
280
     0
281
     0
  0
ENDSEC
  0
SECTION
  2
TABLES
  0
TABLE
  2
VPORT
  5
8
330
0
100
AcDbSymbolTable
 70
     1
  0
VPORT
  5
29
330
8
100
AcDbSymbolTableRecord
100
AcDbViewportTableRecord
  2
*Active
 70
     0
 10
0.0
 20
0.0
 11
1.0
 21
1.0
 12
115.2541445102288
 22
99.01290650532151
 13
0.0
 23
0.0
 14
10.0
 24
10.0
 15
10.0
 25
10.0
 16
0.0
 26
0.0
 36
1.0
 17
0.0
 27
0.0
 37
0.0
 40
212.791219768153
 41
1.861723446893788
 42
50.0
 43
0.0
 44
0.0
 50
0.0
 51
0.0
 71
     0
 72
   100
 73
     1
 74
     3
 75
     0
 76
     0
 77
     0
 78
     0
281
     0
 65
     1
110
0.0
120
0.0
130
0.0
111
1.0
121
0.0
131
0.0
112
0.0
122
1.0
132
0.0
 79
     0
146
0.0
348
2F
 60
     3
 61
     5
292
     1
282
     1
141
0.0
142
0.0
 63
   250
361
6D
  0
ENDTAB
  0
TABLE
  2
LTYPE
  5
5
330
0
100
AcDbSymbolTable
 70
     7
  0
LTYPE
  5
14
330
5
100
AcDbSymbolTableRecord
100
AcDbLinetypeTableRecord
  2
ByBlock
 70
     0
  3

 72
    65
 73
     0
 40
0.0
  0
LTYPE
  5
15
330
5
100
AcDbSymbolTableRecord
100
AcDbLinetypeTableRecord
  2
ByLayer
 70
     0
  3

 72
    65
 73
     0
 40
0.0
  0
LTYPE
  5
16
330
5
100
AcDbSymbolTableRecord
100
AcDbLinetypeTableRecord
  2
Continuous
 70
     0
  3
Solid line
 72
    65
 73
     0
 40
0.0
  0
LTYPE
  5
6E
330
5
100
AcDbSymbolTableRecord
100
AcDbLinetypeTableRecord
  2
DOT
 70
     0
  3
Dot . . . . . . . . . . . . . . . . . . . . . . . .
 72
    65
 73
     2
 40
2.032
 49
1.016
 74
     0
 49
-1.016
 74
     0
  0
LTYPE
  5
6F
330
5
100
AcDbSymbolTableRecord
100
AcDbLinetypeTableRecord
  2
CENTER
 70
     0
  3
Center ____ _ ____ _ ____ _ ____ _ ____ _ ____
 72
    65
 73
     4
 40
13.208
 49
8.128
 74
     0
 49
-1.524
 74
     0
 49
2.032
 74
     0
 49
-1.524
 74
     0
  0
LTYPE
  5
70
330
5
100
AcDbSymbolTableRecord
100
AcDbLinetypeTableRecord
  2
HIDDEN2
 70
     0
  3
Hidden (.5x) _ _ _ _ _ _ _ _ _ _ _ _ _ _ _ _ _
 72
    65
 73
     2
 40
4.762499999999999
 49
3.175
 74
     0
 49
-1.5875
 74
     0
  0
LTYPE
  5
71
330
5
100
AcDbSymbolTableRecord
100
AcDbLinetypeTableRecord
  2
DASHED
 70
     0
  3
Dashed __ __ __ __ __ __ __ __ __ __ __ __ __ _
 72
    65
 73
     2
 40
9.652
 49
8.128
 74
     0
 49
-1.524
 74
     0
  0
LTYPE
  5
72
330
5
100
AcDbSymbolTableRecord
100
AcDbLinetypeTableRecord
  2
PHANTOM2
 70
     0
  3
Phantom (.5x) ___ _ _ ___ _ _ ___ _ _ ___ _ _
 72
    65
 73
     6
 40
14.732
 49
8.128
 74
     0
 49
-1.524
 74
     0
 49
1.016
 74
     0
 49
-1.524
 74
     0
 49
1.016
 74
     0
 49
-1.524
 74
     0
  0
LTYPE
  5
73
330
5
100
AcDbSymbolTableRecord
100
AcDbLinetypeTableRecord
  2
DASHDOT
 70
     0
  3
Dash dot __ . __ . __ . __ . __ . __ . __ . __
 72
    65
 73
     4
 40
11.176
 49
8.128
 74
     0
 49
-1.524
 74
     0
 49
0.0
 74
     0
 49
-1.524
 74
     0
  0
ENDTAB
  0
TABLE
  2
LAYER
  5
2
330
0
100
AcDbSymbolTable
 70
     8
  0
LAYER
  5
10
330
2
100
AcDbSymbolTableRecord
100
AcDbLayerTableRecord
  2
0
 70
     0
 62
     7
  6
Continuous
370
    -3
390
F
347
46
348
0
  0
LAYER
  5
74
330
2
100
AcDbSymbolTableRecord
100
AcDbLayerTableRecord
  2
Outline
 70
     0
 62
     7
  6
Continuous
370
    -3
390
F
347
46
348
0
  0
LAYER
  5
75
330
2
100
AcDbSymbolTableRecord
100
AcDbLayerTableRecord
  2
Axis
 70
     0
 62
     5
  6
DASHDOT
370
    -3
390
F
347
46
348
0
  0
LAYER
  5
76
330
2
100
AcDbSymbolTableRecord
100
AcDbLayerTableRecord
  2
Dimension
 70
     0
 62
     7
  6
Continuous
370
    -3
390
F
347
46
348
0
  0
LAYER
  5
77
330
2
100
AcDbSymbolTableRecord
100
AcDbLayerTableRecord
  2
Hatch
 70
     0
 62
     5
  6
Continuous
370
    -3
390
F
347
46
348
0
  0
LAYER
  5
78
330
2
100
AcDbSymbolTableRecord
100
AcDbLayerTableRecord
  2
Auxiliary
 70
     0
 62
     1
  6
DOT
370
    -3
390
F
347
46
348
0
  0
LAYER
  5
79
330
2
100
AcDbSymbolTableRecord
100
AcDbLayerTableRecord
  2
Invisible
 70
     0
 62
     6
  6
DOT
370
    -3
390
F
347
46
348
0
  0
LAYER
  5
2B8
330
2
100
AcDbSymbolTableRecord
100
AcDbLayerTableRecord
  2
Defpoints
 70
     0
 62
     7
  6
Continuous
290
     0
370
    -3
390
F
347
46
348
0
  0
ENDTAB
  0
TABLE
  2
STYLE
  5
3
330
0
100
AcDbSymbolTable
 70
    33
  0
STYLE
  5
11
330
3
100
AcDbSymbolTableRecord
100
AcDbTextStyleTableRecord
  2
Standard
 70
     0
 40
0.0
 41
1.0
 50
0.0
 71
     0
 42
2.5
  3
txt
  4

  0
STYLE
  5
7A
330
3
100
AcDbSymbolTableRecord
100
AcDbTextStyleTableRecord
  2
VCDSTYLE01
 70
     0
 40
0.0
 41
1.0
 50
0.0
 71
     0
 42
2.5
  3
txt
  4

  0
STYLE
  5
7B
330
3
100
AcDbSymbolTableRecord
100
AcDbTextStyleTableRecord
  2
VCDSTYLE02
 70
     0
 40
0.0
 41
1.0
 50
0.0
 71
     0
 42
2.5
  3
txt
  4

  0
STYLE
  5
7C
330
3
100
AcDbSymbolTableRecord
100
AcDbTextStyleTableRecord
  2
VCDSTYLE03
 70
     0
 40
0.0
 41
1.0
 50
0.0
 71
     0
 42
2.5
  3
txt
  4

  0
STYLE
  5
7D
330
3
100
AcDbSymbolTableRecord
100
AcDbTextStyleTableRecord
  2
VCDSTYLE04
 70
     0
 40
0.0
 41
1.0
 50
0.0
 71
     0
 42
2.5
  3
txt
  4

  0
STYLE
  5
7E
330
3
100
AcDbSymbolTableRecord
100
AcDbTextStyleTableRecord
  2
VCDSTYLE05
 70
     0
 40
0.0
 41
1.0
 50
0.0
 71
     0
 42
2.5
  3
txt
  4

  0
STYLE
  5
7F
330
3
100
AcDbSymbolTableRecord
100
AcDbTextStyleTableRecord
  2
VCDSTYLE06
 70
     0
 40
0.0
 41
1.0
 50
0.0
 71
     0
 42
2.5
  3
txt
  4

  0
STYLE
  5
80
330
3
100
AcDbSymbolTableRecord
100
AcDbTextStyleTableRecord
  2
VCDSTYLE07
 70
     0
 40
0.0
 41
1.0
 50
0.0
 71
     0
 42
2.5
  3
txt
  4

  0
STYLE
  5
81
330
3
100
AcDbSymbolTableRecord
100
AcDbTextStyleTableRecord
  2
VCDSTYLE08
 70
     0
 40
0.0
 41
1.0
 50
0.0
 71
     0
 42
2.5
  3
txt
  4

  0
STYLE
  5
82
330
3
100
AcDbSymbolTableRecord
100
AcDbTextStyleTableRecord
  2
VCDSTYLE09
 70
     0
 40
0.0
 41
1.0
 50
0.0
 71
     0
 42
2.5
  3
txt
  4

  0
STYLE
  5
83
330
3
100
AcDbSymbolTableRecord
100
AcDbTextStyleTableRecord
  2
VCDSTYLE10
 70
     0
 40
0.0
 41
1.0
 50
0.0
 71
     0
 42
2.5
  3
Sans Serif.ttf
  4

1001
ACAD
1000
Sans Serif
1071
        0
  0
STYLE
  5
84
330
3
100
AcDbSymbolTableRecord
100
AcDbTextStyleTableRecord
  2
VCDSTYLE11
 70
     0
 40
0.0
 41
1.0
 50
0.0
 71
     0
 42
2.5
  3
Sans Serif.ttf
  4

1001
ACAD
1000
Sans Serif
1071
 16777216
  0
STYLE
  5
85
330
3
100
AcDbSymbolTableRecord
100
AcDbTextStyleTableRecord
  2
VCDSTYLE12
 70
     0
 40
0.0
 41
1.0
 50
0.0
 71
     0
 42
2.5
  3
DejaVu Sans.ttf
  4

1001
ACAD
1000
DejaVu Sans
1071
        0
  0
STYLE
  5
86
330
3
100
AcDbSymbolTableRecord
100
AcDbTextStyleTableRecord
  2
VCDSTYLE13
 70
     0
 40
0.0
 41
1.0
 50
0.0
 71
     0
 42
2.5
  3
DejaVu Sans.ttf
  4

1001
ACAD
1000
DejaVu Sans
1071
 16777216
  0
STYLE
  5
87
330
3
100
AcDbSymbolTableRecord
100
AcDbTextStyleTableRecord
  2
VCDSTYLE14
 70
     0
 40
0.0
 41
1.0
 50
0.0
 71
     0
 42
2.5
  3
DejaVu Sans Mono.ttf
  4

1001
ACAD
1000
DejaVu Sans Mono
1071
        0
  0
STYLE
  5
88
330
3
100
AcDbSymbolTableRecord
100
AcDbTextStyleTableRecord
  2
VCDSTYLE15
 70
     0
 40
0.0
 41
1.0
 50
0.0
 71
     0
 42
2.5
  3
DejaVu Sans Mono.ttf
  4

1001
ACAD
1000
DejaVu Sans Mono
1071
 16777216
  0
STYLE
  5
89
330
3
100
AcDbSymbolTableRecord
100
AcDbTextStyleTableRecord
  2
VCDSTYLE16
 70
     0
 40
0.0
 41
1.0
 50
0.0
 71
     0
 42
2.5
  3
UnDotum.ttf
  4

1001
ACAD
1000
UnDotum
1071
        0
  0
STYLE
  5
8A
330
3
100
AcDbSymbolTableRecord
100
AcDbTextStyleTableRecord
  2
VCDSTYLE17
 70
     0
 40
0.0
 41
1.0
 50
0.0
 71
     0
 42
2.5
  3
UnDotum.ttf
  4

1001
ACAD
1000
UnDotum
1071
 16777216
  0
STYLE
  5
8B
330
3
100
AcDbSymbolTableRecord
100
AcDbTextStyleTableRecord
  2
VCDSTYLE18
 70
     0
 40
0.0
 41
1.0
 50
0.0
 71
     0
 42
2.5
  3
Sans Serif.ttf
  4

1001
ACAD
1000
Sans Serif
1071
        0
  0
STYLE
  5
8C
330
3
100
AcDbSymbolTableRecord
100
AcDbTextStyleTableRecord
  2
VCDSTYLE19
 70
     0
 40
0.0
 41
1.0
 50
0.0
 71
     0
 42
2.5
  3
Sans Serif.ttf
  4

1001
ACAD
1000
Sans Serif
1071
 16777216
  0
STYLE
  5
8D
330
3
100
AcDbSymbolTableRecord
100
AcDbTextStyleTableRecord
  2
VCDSTYLE20
 70
     0
 40
0.0
 41
1.0
 50
0.0
 71
     0
 42
2.5
  3
Sans Serif.ttf
  4

1001
ACAD
1000
Sans Serif
1071
        0
  0
STYLE
  5
8E
330
3
100
AcDbSymbolTableRecord
100
AcDbTextStyleTableRecord
  2
VCDSTYLE21
 70
     0
 40
0.0
 41
1.0
 50
0.0
 71
     0
 42
2.5
  3
Sans Serif.ttf
  4

1001
ACAD
1000
Sans Serif
1071
 16777216
  0
STYLE
  5
8F
330
3
100
AcDbSymbolTableRecord
100
AcDbTextStyleTableRecord
  2
VCDSTYLE22
 70
     0
 40
0.0
 41
1.0
 50
0.0
 71
     0
 42
2.5
  3
Monospace.ttf
  4

1001
ACAD
1000
Monospace
1071
        0
  0
STYLE
  5
90
330
3
100
AcDbSymbolTableRecord
100
AcDbTextStyleTableRecord
  2
VCDSTYLE23
 70
     0
 40
0.0
 41
1.0
 50
0.0
 71
     0
 42
2.5
  3
Monospace.ttf
  4

1001
ACAD
1000
Monospace
1071
 16777216
  0
STYLE
  5
91
330
3
100
AcDbSymbolTableRecord
100
AcDbTextStyleTableRecord
  2
VCDSTYLE24
 70
     0
 40
0.0
 41
1.0
 50
0.0
 71
     0
 42
2.5
  3
URW Gothic L.ttf
  4

1001
ACAD
1000
URW Gothic L
1071
        0
  0
STYLE
  5
92
330
3
100
AcDbSymbolTableRecord
100
AcDbTextStyleTableRecord
  2
VCDSTYLE25
 70
     0
 40
0.0
 41
1.0
 50
0.0
 71
     0
 42
2.5
  3
URW Gothic L.ttf
  4

1001
ACAD
1000
URW Gothic L
1071
 16777216
  0
STYLE
  5
93
330
3
100
AcDbSymbolTableRecord
100
AcDbTextStyleTableRecord
  2
VCDSTYLE26
 70
     0
 40
0.0
 41
1.0
 50
0.0
 71
     0
 42
2.5
  3
Waree.ttf
  4

1001
ACAD
1000
Waree
1071
        0
  0
STYLE
  5
94
330
3
100
AcDbSymbolTableRecord
100
AcDbTextStyleTableRecord
  2
VCDSTYLE27
 70
     0
 40
0.0
 41
1.0
 50
0.0
 71
     0
 42
2.5
  3
Waree.ttf
  4

1001
ACAD
1000
Waree
1071
 16777216
  0
STYLE
  5
95
330
3
100
AcDbSymbolTableRecord
100
AcDbTextStyleTableRecord
  2
VCDSTYLE28
 70
     0
 40
0.0
 41
1.0
 50
0.0
 71
     0
 42
2.5
  3
Nimbus Mono L.ttf
  4

1001
ACAD
1000
Nimbus Mono L
1071
        0
  0
STYLE
  5
96
330
3
100
AcDbSymbolTableRecord
100
AcDbTextStyleTableRecord
  2
VCDSTYLE29
 70
     0
 40
0.0
 41
1.0
 50
0.0
 71
     0
 42
2.5
  3
Nimbus Sans L.ttf
  4

1001
ACAD
1000
Nimbus Sans L
1071
        0
  0
STYLE
  5
97
330
3
100
AcDbSymbolTableRecord
100
AcDbTextStyleTableRecord
  2
VCDSTYLE30
 70
     0
 40
0.0
 41
1.0
 50
0.0
 71
     0
 42
2.5
  3
Nimbus Sans L.ttf
  4

1001
ACAD
1000
Nimbus Sans L
1071
 16777216
  0
STYLE
  5
98
330
3
100
AcDbSymbolTableRecord
100
AcDbTextStyleTableRecord
  2
VCDSTYLE31
 70
     0
 40
0.0
 41
1.0
 50
0.0
 71
     0
 42
2.5
  3
Serif.ttf
  4

1001
ACAD
1000
Serif
1071
        0
  0
STYLE
  5
99
330
3
100
AcDbSymbolTableRecord
100
AcDbTextStyleTableRecord
  2
VCDSTYLE32
 70
     0
 40
0.0
 41
1.0
 50
0.0
 71
     0
 42
2.5
  3
Serif.ttf
  4

1001
ACAD
1000
Serif
1071
 16777216
  0
ENDTAB
  0
TABLE
  2
VIEW
  5
6
330
0
100
AcDbSymbolTable
 70
     0
  0
ENDTAB
  0
TABLE
  2
UCS
  5
7
330
0
100
AcDbSymbolTable
 70
     0
  0
ENDTAB
  0
TABLE
  2
APPID
  5
9
330
0
100
AcDbSymbolTable
 70
     1
  0
APPID
  5
12
330
9
100
AcDbSymbolTableRecord
100
AcDbRegAppTableRecord
  2
ACAD
 70
     0
  0
ENDTAB
  0
TABLE
  2
DIMSTYLE
  5
A
330
0
100
AcDbSymbolTable
 70
     3
100
AcDbDimStyleTable
  0
DIMSTYLE
105
27
330
A
100
AcDbSymbolTableRecord
100
AcDbDimStyleTableRecord
  2
ISO-25
 70
     0
 41
2.5
 42
0.625
 43
3.75
 44
1.25
 73
     0
 74
     0
 77
     1
 78
     8
140
2.5
141
2.5
143
0.03937007874016
147
0.625
171
     3
172
     1
178
     0
271
     2
272
     2
274
     3
278
    44
283
     0
284
     8
340
11
  0
DIMSTYLE
105
2B6
102
{ACAD_REACTORS
330
2B7
330
308
330
318
102
}
330
A
100
AcDbSymbolTableRecord
100
AcDbDimStyleTableRecord
  2
VCDDIMSTYLE01
 70
     0
 41
6.8
 42
0.0
 43
7.0
 44
1.0
 78
     8
 79
     2
140
4.0
147
1.0
172
     1
173
     1
178
     0
179
     5
271
     5
288
     1
289
     0
340
7B
  0
DIMSTYLE
105
2C8
102
{ACAD_REACTORS
330
2C9
330
2D9
330
2E8
330
2F9
102
}
330
A
100
AcDbSymbolTableRecord
100
AcDbDimStyleTableRecord
  2
VCDDIMSTYLE02
 70
     0
 41
6.8
 42
0.0
 43
7.0
 44
1.0
 78
     8
 79
     2
140
4.0
147
1.0
172
     1
173
     1
178
     0
179
     5
271
     5
288
     1
289
     0
340
7B
  0
ENDTAB
  0
TABLE
  2
BLOCK_RECORD
  5
1
330
0
100
AcDbSymbolTable
 70
    22
  0
BLOCK_RECORD
  5
1F
330
1
100
AcDbSymbolTableRecord
100
AcDbBlockTableRecord
  2
*Model_Space
340
22
 70
     0
280
     1
281
     0
  0
BLOCK_RECORD
  5
1B
330
1
100
AcDbSymbolTableRecord
100
AcDbBlockTableRecord
  2
*Paper_Space
340
1E
 70
     0
280
     1
281
     0
  0
BLOCK_RECORD
  5
23
330
1
100
AcDbSymbolTableRecord
100
AcDbBlockTableRecord
  2
*Paper_Space0
340
26
 70
     0
280
     1
281
     0
  0
BLOCK_RECORD
  5
9A
330
1
100
AcDbSymbolTableRecord
100
AcDbBlockTableRecord
  2
$AttrValue elphel_parts
340
0
102
{BLKREFS
331
9C
102
}
 70
     0
280
     1
281
     0
  0
BLOCK_RECORD
  5
9F
330
1
100
AcDbSymbolTableRecord
100
AcDbBlockTableRecord
  2
$AttrValue elphel_parts(1)
340
0
102
{BLKREFS
331
A1
102
}
 70
     0
280
     1
281
     0
  0
BLOCK_RECORD
  5
A4
330
1
100
AcDbSymbolTableRecord
100
AcDbBlockTableRecord
  2
$AttrValue elphel_parts(2)
340
0
102
{BLKREFS
331
A6
102
}
 70
     0
280
     1
281
     0
  0
BLOCK_RECORD
  5
A9
330
1
100
AcDbSymbolTableRecord
100
AcDbBlockTableRecord
  2
$AttrValue elphel_parts(3)
340
0
102
{BLKREFS
331
AB
102
}
 70
     0
280
     1
281
     0
  0
BLOCK_RECORD
  5
AE
330
1
100
AcDbSymbolTableRecord
100
AcDbBlockTableRecord
  2
$AttrValue elphel_parts(4)
340
0
102
{BLKREFS
331
B0
102
}
 70
     0
280
     1
281
     0
  0
BLOCK_RECORD
  5
B3
330
1
100
AcDbSymbolTableRecord
100
AcDbBlockTableRecord
  2
$AttrValue elphel_parts(5)
340
0
102
{BLKREFS
331
B5
102
}
 70
     0
280
     1
281
     0
  0
BLOCK_RECORD
  5
B8
330
1
100
AcDbSymbolTableRecord
100
AcDbBlockTableRecord
  2
$AttrValue elphel_parts(6)
340
0
102
{BLKREFS
331
BA
102
}
 70
     0
280
     1
281
     0
  0
BLOCK_RECORD
  5
BD
330
1
100
AcDbSymbolTableRecord
100
AcDbBlockTableRecord
  2
$AttrValue elphel_parts(7)
340
0
102
{BLKREFS
331
BF
102
}
 70
     0
280
     1
281
     0
  0
BLOCK_RECORD
  5
C2
330
1
100
AcDbSymbolTableRecord
100
AcDbBlockTableRecord
  2
$AttrValue elphel_parts(8)
340
0
102
{BLKREFS
331
C4
102
}
 70
     0
280
     1
281
     0
  0
BLOCK_RECORD
  5
C7
330
1
100
AcDbSymbolTableRecord
100
AcDbBlockTableRecord
  2
$AttrValue elphel_parts(9)
340
0
102
{BLKREFS
331
C9
102
}
 70
     0
280
     1
281
     0
  0
BLOCK_RECORD
  5
CC
330
1
100
AcDbSymbolTableRecord
100
AcDbBlockTableRecord
  2
$AttrValue elphel_parts(10)
340
0
102
{BLKREFS
331
CE
102
}
 70
     0
280
     1
281
     0
  0
BLOCK_RECORD
  5
D1
330
1
100
AcDbSymbolTableRecord
100
AcDbBlockTableRecord
  2
$AttrValue elphel_parts(11)
340
0
102
{BLKREFS
331
D3
102
}
 70
     0
280
     1
281
     0
  0
BLOCK_RECORD
  5
E3
330
1
100
AcDbSymbolTableRecord
100
AcDbBlockTableRecord
  2
$TitleBlock elphel_parts
340
0
102
{BLKREFS
331
111
102
}
 70
     0
280
     1
281
     0
  0
BLOCK_RECORD
  5
2A7
330
1
100
AcDbSymbolTableRecord
100
AcDbBlockTableRecord
  2
Sheet Border
340
0
102
{BLKREFS
331
2AA
102
}
 70
     0
280
     1
281
     0
  0
BLOCK_RECORD
  5
2AD
330
1
100
AcDbSymbolTableRecord
100
AcDbBlockTableRecord
  2
*D15
340
0
 70
     0
280
     1
281
     0
  0
BLOCK_RECORD
  5
2BF
330
1
100
AcDbSymbolTableRecord
100
AcDbBlockTableRecord
  2
*D16
340
0
 70
     0
280
     1
281
     0
  0
BLOCK_RECORD
  5
2D0
330
1
100
AcDbSymbolTableRecord
100
AcDbBlockTableRecord
  2
*D17
340
0
 70
     0
280
     1
281
     0
  0
BLOCK_RECORD
  5
2E0
330
1
100
AcDbSymbolTableRecord
100
AcDbBlockTableRecord
  2
*D18
340
0
 70
     0
280
     1
281
     0
  0
BLOCK_RECORD
  5
2EE
330
1
100
AcDbSymbolTableRecord
100
AcDbBlockTableRecord
  2
*D19
340
0
 70
     0
280
     1
281
     0
  0
BLOCK_RECORD
  5
2FF
330
1
100
AcDbSymbolTableRecord
100
AcDbBlockTableRecord
  2
*D20
340
0
 70
     0
280
     1
281
     0
  0
BLOCK_RECORD
  5
30F
330
1
100
AcDbSymbolTableRecord
100
AcDbBlockTableRecord
  2
*D21
340
0
 70
     0
280
     1
281
     0
  0
ENDTAB
  0
ENDSEC
  0
SECTION
  2
BLOCKS
  0
BLOCK
  5
20
330
1F
100
AcDbEntity
  8
0
100
AcDbBlockBegin
  2
*Model_Space
 70
     0
 10
0.0
 20
0.0
 30
0.0
  3
*Model_Space
  1

  0
ENDBLK
  5
21
330
1F
100
AcDbEntity
  8
0
100
AcDbBlockEnd
  0
BLOCK
  5
1C
330
1B
100
AcDbEntity
 67
     1
  8
0
100
AcDbBlockBegin
  2
*Paper_Space
 70
     0
 10
0.0
 20
0.0
 30
0.0
  3
*Paper_Space
  1

  0
ENDBLK
  5
1D
330
1B
100
AcDbEntity
 67
     1
  8
0
100
AcDbBlockEnd
  0
BLOCK
  5
24
330
23
100
AcDbEntity
  8
0
100
AcDbBlockBegin
  2
*Paper_Space0
 70
     0
 10
0.0
 20
0.0
 30
0.0
  3
*Paper_Space0
  1

  0
ENDBLK
  5
25
330
23
100
AcDbEntity
  8
0
100
AcDbBlockEnd
  0
BLOCK
  5
9D
330
9A
100
AcDbEntity
  8
0
100
AcDbBlockBegin
  2
$AttrValue elphel_parts
 70
     0
 10
0.0
 20
0.0
 30
0.0
  3
$AttrValue elphel_parts
  1

  0
TEXT
  5
9B
330
9A
100
AcDbEntity
  8
0
 62
     2
100
AcDbText
 10
0.0
 20
0.0
 30
0.0
 40
3.0
  1
1:1
  7
VCDSTYLE22
100
AcDbText
  0
ENDBLK
  5
9E
330
9A
100
AcDbEntity
  8
0
100
AcDbBlockEnd
  0
BLOCK
  5
A2
330
9F
100
AcDbEntity
  8
0
100
AcDbBlockBegin
  2
$AttrValue elphel_parts(1)
 70
     0
 10
0.0
 20
0.0
 30
0.0
  3
$AttrValue elphel_parts(1)
  1

  0
TEXT
  5
A0
330
9F
100
AcDbEntity
  8
0
 62
     2
100
AcDbText
 10
0.0
 20
0.0
 30
0.0
 40
2.0
  1
02/17/2015
  7
VCDSTYLE03
100
AcDbText
  0
ENDBLK
  5
A3
330
9F
100
AcDbEntity
  8
0
100
AcDbBlockEnd
  0
BLOCK
  5
A7
330
A4
100
AcDbEntity
  8
0
100
AcDbBlockBegin
  2
$AttrValue elphel_parts(2)
 70
     0
 10
0.0
 20
0.0
 30
0.0
  3
$AttrValue elphel_parts(2)
  1

  0
TEXT
  5
A5
330
A4
100
AcDbEntity
  8
0
 62
     2
100
AcDbText
 10
0.0
 20
0.0
 30
0.0
 40
2.0
  1
Black Anodize
  7
VCDSTYLE04
100
AcDbText
  0
ENDBLK
  5
A8
330
A4
100
AcDbEntity
  8
0
100
AcDbBlockEnd
  0
BLOCK
  5
AC
330
A9
100
AcDbEntity
  8
0
100
AcDbBlockBegin
  2
$AttrValue elphel_parts(3)
 70
     0
 10
0.0
 20
0.0
 30
0.0
  3
$AttrValue elphel_parts(3)
  1

  0
TEXT
  5
AA
330
A9
100
AcDbEntity
  8
0
 62
     2
100
AcDbText
 10
0.0
 20
0.0
 30
0.0
 40
2.0
  1
Aluminum 6061-T6
  7
VCDSTYLE04
100
AcDbText
  0
ENDBLK
  5
AD
330
A9
100
AcDbEntity
  8
0
100
AcDbBlockEnd
  0
BLOCK
  5
B1
330
AE
100
AcDbEntity
  8
0
100
AcDbBlockBegin
  2
$AttrValue elphel_parts(4)
 70
     0
 10
0.0
 20
0.0
 30
0.0
  3
$AttrValue elphel_parts(4)
  1

  0
TEXT
  5
AF
330
AE
100
AcDbEntity
  8
0
 62
     2
100
AcDbText
 10
0.0
 20
0.0
 30
0.0
 40
2.0
  1
2.7
  7
VCDSTYLE04
100
AcDbText
  0
ENDBLK
  5
B2
330
AE
100
AcDbEntity
  8
0
100
AcDbBlockEnd
  0
BLOCK
  5
B6
330
B3
100
AcDbEntity
  8
0
100
AcDbBlockBegin
  2
$AttrValue elphel_parts(5)
 70
     0
 10
0.0
 20
0.0
 30
0.0
  3
$AttrValue elphel_parts(5)
  1

  0
TEXT
  5
B4
330
B3
100
AcDbEntity
  8
0
100
AcDbText
 10
0.0
 20
0.0
 30
0.0
 40
1.5
  1
2015
  7
VCDSTYLE10
100
AcDbText
  0
ENDBLK
  5
B7
330
B3
100
AcDbEntity
  8
0
100
AcDbBlockEnd
  0
BLOCK
  5
BB
330
B8
100
AcDbEntity
  8
0
100
AcDbBlockBegin
  2
$AttrValue elphel_parts(6)
 70
     0
 10
0.0
 20
0.0
 30
0.0
  3
$AttrValue elphel_parts(6)
  1

  0
TEXT
  5
B9
330
B8
100
AcDbEntity
  8
0
 62
     2
100
AcDbText
 10
0.0
 20
0.0
 30
0.0
 40
2.0
  1
Protect 2.413H6 and M1.6 from anodizing
  7
VCDSTYLE03
100
AcDbText
  0
ENDBLK
  5
BC
330
B8
100
AcDbEntity
  8
0
100
AcDbBlockEnd
  0
BLOCK
  5
C0
330
BD
100
AcDbEntity
  8
0
100
AcDbBlockBegin
  2
$AttrValue elphel_parts(7)
 70
     0
 10
0.0
 20
0.0
 30
0.0
  3
$AttrValue elphel_parts(7)
  1

  0
TEXT
  5
BE
330
BD
100
AcDbEntity
  8
0
 62
     2
100
AcDbText
 10
0.0
 20
0.0
 30
0.0
 40
2.0
  1
0.095" gauge 13 tubing 
  7
VCDSTYLE03
100
AcDbText
  0
ENDBLK
  5
C1
330
BD
100
AcDbEntity
  8
0
100
AcDbBlockEnd
  0
BLOCK
  5
C5
330
C2
100
AcDbEntity
  8
0
100
AcDbBlockBegin
  2
$AttrValue elphel_parts(8)
 70
     0
 10
0.0
 20
0.0
 30
0.0
  3
$AttrValue elphel_parts(8)
  1

  0
TEXT
  5
C3
330
C2
100
AcDbEntity
  8
0
 62
     2
100
AcDbText
 10
0.0
 20
0.0
 30
0.0
 40
2.0
  1
Holes 2.413H6 - press fit for
  7
VCDSTYLE03
100
AcDbText
  0
ENDBLK
  5
C6
330
C2
100
AcDbEntity
  8
0
100
AcDbBlockEnd
  0
BLOCK
  5
CA
330
C7
100
AcDbEntity
  8
0
100
AcDbBlockBegin
  2
$AttrValue elphel_parts(9)
 70
     0
 10
0.0
 20
0.0
 30
0.0
  3
$AttrValue elphel_parts(9)
  1

  0
TEXT
  5
C8
330
C7
100
AcDbEntity
  8
0
 62
     2
100
AcDbText
 10
0.0
 20
0.0
 30
0.0
 40
3.0
  1
SFE Plate
  7
VCDSTYLE04
100
AcDbText
  0
ENDBLK
  5
CB
330
C7
100
AcDbEntity
  8
0
100
AcDbBlockEnd
  0
BLOCK
  5
CF
330
CC
100
AcDbEntity
  8
0
100
AcDbBlockBegin
  2
$AttrValue elphel_parts(10)
 70
     0
 10
0.0
 20
0.0
 30
0.0
  3
$AttrValue elphel_parts(10)
  1

  0
TEXT
  5
CD
330
CC
100
AcDbEntity
  8
Auxiliary
  6
Continuous
100
AcDbText
 10
0.0
 20
0.0
 30
0.0
 40
8.0
  1
G
  7
VCDSTYLE22
100
AcDbText
  0
ENDBLK
  5
D0
330
CC
100
AcDbEntity
  8
0
100
AcDbBlockEnd
  0
BLOCK
  5
D4
330
D1
100
AcDbEntity
  8
0
100
AcDbBlockBegin
  2
$AttrValue elphel_parts(11)
 70
     0
 10
0.0
 20
0.0
 30
0.0
  3
$AttrValue elphel_parts(11)
  1

  0
TEXT
  5
D2
330
D1
100
AcDbEntity
  8
0
 62
     2
100
AcDbText
 10
0.0
 20
0.0
 30
0.0
 40
7.0
  1
0353-19-65
  7
VCDSTYLE22
100
AcDbText
  0
ENDBLK
  5
D5
330
D1
100
AcDbEntity
  8
0
100
AcDbBlockEnd
  0
BLOCK
  5
112
330
E3
100
AcDbEntity
  8
0
100
AcDbBlockBegin
  2
$TitleBlock elphel_parts
 70
     0
 10
0.0
 20
0.0
 30
0.0
  3
$TitleBlock elphel_parts
  1

  0
TEXT
  5
E4
330
E3
100
AcDbEntity
  8
Outline
 62
     2
100
AcDbText
 10
-168.3495635986328
 20
16.18584442138672
 30
0.0
 40
1.841060042381287
  1
Surface
  7
VCDSTYLE02
100
AcDbText
  0
LWPOLYLINE
  5
E5
330
E3
100
AcDbEntity
  8
Outline
 62
     2
100
AcDbPolyline
 90
        5
 70
     0
 43
0.0
 10
-0.4602650136366151
 20
0.4602650136366293
 10
-82.38743744095697
 20
0.4602650136366293
 10
-82.38743744095697
 20
15.18874545000888
 10
-0.4602650136366151
 20
15.18874545000888
 10
-0.4602650136366151
 20
0.0
  0
LINE
  5
E6
330
E3
100
AcDbEntity
  8
Outline
 62
     2
100
AcDbLine
 10
0.0000000000000568
 20
15.64901046364552
 30
0.0
 11
0.0000000000000568
 21
0.0
 31
0.0
  0
LINE
  5
E7
330
E3
100
AcDbEntity
  8
Outline
 62
     2
100
AcDbLine
 10
-97.57618289096607
 20
15.64901046364552
 30
0.0
 11
-97.57618289096607
 21
19.56126307955689
 31
0.0
  0
LINE
  5
E8
330
E3
100
AcDbEntity
  8
Outline
 62
     2
100
AcDbLine
 10
-170.298055045554
 20
15.64901046364552
 30
0.0
 11
-82.84770245459381
 21
15.64901046364552
 31
0.0
  0
LINE
  5
E9
330
E3
100
AcDbEntity
  8
Outline
 62
     2
100
AcDbLine
 10
-170.298055045554
 20
0.0
 30
0.0
 11
-82.84770245459381
 21
0.0
 31
0.0
  0
LINE
  5
EA
330
E3
100
AcDbEntity
  8
Outline
 62
     2
100
AcDbLine
 10
-82.84770245459381
 20
0.0
 30
0.0
 11
-82.84770245459381
 21
15.64901046364552
 31
0.0
  0
LINE
  5
EB
330
E3
100
AcDbEntity
  8
Outline
 62
     2
100
AcDbLine
 10
-170.298055045554
 20
19.56126307955689
 30
0.0
 11
0.0000000000000568
 21
19.56126307955689
 31
0.0
  0
LINE
  5
EC
330
E3
100
AcDbEntity
  8
Outline
 62
     2
100
AcDbLine
 10
0.0000000000000568
 20
0.0
 30
0.0
 11
-82.84770245459381
 21
0.0
 31
0.0
  0
LINE
  5
ED
330
E3
100
AcDbEntity
  8
Outline
 62
     2
100
AcDbLine
 10
-82.84770245459381
 20
15.64901046364552
 30
0.0
 11
0.0000000000000568
 21
15.64901046364552
 31
0.0
  0
TEXT
  5
EE
330
E3
100
AcDbEntity
  8
Outline
 62
     2
100
AcDbText
 10
-81.25203704833984
 20
44.91454315185547
 30
0.0
 40
0.9205300211906433
  1
Description
  7
VCDSTYLE02
100
AcDbText
  0
LINE
  5
EF
330
E3
100
AcDbEntity
  8
Outline
 62
     2
100
AcDbLine
 10
-170.298055045554
 20
27.38576831137964
 30
0.0
 11
0.0000000000000568
 21
27.38576831137964
 31
0.0
  0
LINE
  5
F0
330
E3
100
AcDbEntity
  8
Outline
 62
     2
100
AcDbLine
 10
0.0000000000000568
 20
46.94703139093654
 30
0.0
 11
-170.298055045554
 21
46.94703139093654
 31
0.0
  0
LINE
  5
F1
330
E3
100
AcDbEntity
  8
Outline
 62
     2
100
AcDbLine
 10
-170.298055045554
 20
27.38576831137964
 30
0.0
 11
-82.84770245459381
 21
27.38576831137964
 31
0.0
  0
LINE
  5
F2
330
E3
100
AcDbEntity
  8
Outline
 62
     2
100
AcDbLine
 10
-170.298055045554
 20
31.29802092729101
 30
0.0
 11
-170.298055045554
 21
46.94703139093654
 31
0.0
  0
LINE
  5
F3
330
E3
100
AcDbEntity
  8
Outline
 62
     2
100
AcDbLine
 10
-82.84770245459381
 20
46.94703139093654
 30
0.0
 11
-82.84770245459381
 21
31.29802092729101
 31
0.0
  0
LINE
  5
F4
330
E3
100
AcDbEntity
  8
Outline
 62
     2
100
AcDbLine
 10
0.0000000000000568
 20
31.29802092729101
 30
0.0
 11
0.0000000000000568
 21
46.94703139093654
 31
0.0
  0
LINE
  5
F5
330
E3
100
AcDbEntity
  8
Outline
 62
     2
100
AcDbLine
 10
-157.0483207857146
 20
46.94703139093654
 30
0.0
 11
-157.0483207857146
 21
31.29802092729101
 31
0.0
  0
TEXT
  5
F6
330
E3
100
AcDbEntity
  8
Outline
 62
     2
100
AcDbText
 10
-168.3495635986328
 20
28.04717826843262
 30
0.0
 40
1.841060042381287
  1
Material
  7
VCDSTYLE02
100
AcDbText
  0
LINE
  5
F7
330
E3
100
AcDbEntity
  8
Outline
 62
     2
100
AcDbLine
 10
-170.298055045554
 20
0.0
 30
0.0
 11
-170.298055045554
 21
31.29802092729101
 31
0.0
  0
LINE
  5
F8
330
E3
100
AcDbEntity
  8
Outline
 62
     2
100
AcDbLine
 10
-150.9056121242796
 20
15.64901046364552
 30
0.0
 11
-150.9056121242796
 21
31.29802092729101
 31
0.0
  0
LINE
  5
F9
330
E3
100
AcDbEntity
  8
Outline
 62
     2
100
AcDbLine
 10
-82.84770245459381
 20
31.29802092729101
 30
0.0
 11
-82.84770245459381
 21
15.64901046364552
 31
0.0
  0
LINE
  5
FA
330
E3
100
AcDbEntity
  8
Outline
100
AcDbLine
 10
-170.298055045554
 20
23.47351569546827
 30
0.0
 11
-82.84770245459381
 21
23.47351569546827
 31
0.0
  0
LINE
  5
FB
330
E3
100
AcDbEntity
  8
Outline
 62
     2
100
AcDbLine
 10
-170.298055045554
 20
23.47351569546827
 30
0.0
 11
0.0000000000000568
 21
23.47351569546827
 31
0.0
  0
TEXT
  5
FC
330
E3
100
AcDbEntity
  8
Outline
 62
     2
100
AcDbText
 10
-168.3495635986328
 20
24.13492584228516
 30
0.0
 40
1.841060042381287
  1
Finish
  7
VCDSTYLE02
100
AcDbText
  0
LINE
  5
FD
330
E3
100
AcDbEntity
  8
Outline
 62
     2
100
AcDbLine
 10
0.0000000000000568
 20
15.64901046364552
 30
0.0
 11
0.0000000000000568
 21
31.29802092729101
 31
0.0
  0
TEXT
  5
FE
330
E3
100
AcDbEntity
  8
Outline
 62
     2
100
AcDbText
 10
-81.25203704833984
 20
12.55433559417725
 30
0.0
 40
0.9205300211906433
  1
Notes
  7
VCDSTYLE02
100
AcDbText
  0
LINE
  5
FF
330
E3
100
AcDbEntity
  8
Outline
 62
     2
100
AcDbLine
 10
-170.298055045554
 20
31.29802092729101
 30
0.0
 11
-82.84770245459381
 21
31.29802092729101
 31
0.0
  0
TEXT
  5
100
330
E3
100
AcDbEntity
  8
Outline
 62
     2
100
AcDbText
 10
-168.3495635986328
 20
20.20714569091797
 30
0.0
 40
1.841060042381287
  1
Weight(g)
  7
VCDSTYLE02
100
AcDbText
  0
TEXT
  5
101
330
E3
100
AcDbEntity
  8
Outline
 62
     2
100
AcDbText
 10
-156.5416564941406
 20
45.10939788818359
 30
0.0
 40
0.9205300211906433
  1
Part #
  7
VCDSTYLE02
100
AcDbText
  0
TEXT
  5
102
330
E3
100
AcDbEntity
  8
Outline
 62
     2
100
AcDbText
 10
-169.0979461669922
 20
45.19255065917969
 30
0.0
 40
0.9205300211906433
  1
Revision
  7
VCDSTYLE02
100
AcDbText
  0
LINE
  5
103
330
E3
100
AcDbEntity
  8
Outline
 62
     2
100
AcDbLine
 10
-59.83011277766059
 20
27.38576831137964
 30
0.0
 11
-59.83011277766059
 21
15.64901046364552
 31
0.0
  0
TEXT
  5
104
330
E3
100
AcDbEntity
  8
Outline
 62
     2
100
AcDbText
 10
-82.25203704833984
 20
24.13492584228516
 30
0.0
 40
1.841060042381287
  1
Serial No.
  7
VCDSTYLE02
100
AcDbText
  0
TEXT
  5
105
330
E3
100
AcDbEntity
  8
Outline
 62
     2
100
AcDbText
 10
-82.25203704833984
 20
16.18584442138672
 30
0.0
 40
1.841060042381287
  1
Date
  7
VCDSTYLE02
100
AcDbText
  0
TEXT
  5
106
330
E3
100
AcDbEntity
  8
Outline
 62
     2
100
AcDbText
 10
-82.25203704833984
 20
20.20714569091797
 30
0.0
 40
1.841060042381287
  1
Assembly No.
  7
VCDSTYLE02
100
AcDbText
  0
LINE
  5
107
330
E3
100
AcDbEntity
  8
Outline
 62
     2
100
AcDbLine
 10
-14.79493342379411
 20
19.56126307955689
 30
0.0
 11
-14.79493342379411
 21
15.64901046364552
 31
0.0
  0
LINE
  5
108
330
E3
100
AcDbEntity
  8
Outline
 62
     2
100
AcDbLine
 10
-26.81252310072733
 20
19.56126307955689
 30
0.0
 11
-26.81252310072733
 21
15.64901046364552
 31
0.0
  0
TEXT
  5
109
330
E3
100
AcDbEntity
  8
Outline
 62
     2
100
AcDbText
 10
-25.21685791015625
 20
16.18584442138672
 30
0.0
 40
1.841060042381287
  1
Scale
  7
VCDSTYLE02
100
AcDbText
  0
TEXT
  5
10A
330
E3
100
AcDbEntity
  8
Outline
100
AcDbText
 10
-167.9451904296875
 20
7.327913532257082
 30
0.0
 40
1.2
  1
Permission is also granted to copy, distribute and/or modify this document under the terms of the
 50
360.0
  7
VCDSTYLE12
100
AcDbText
  0
TEXT
  5
10B
330
E3
100
AcDbEntity
  8
Outline
100
AcDbText
 10
-167.9451904296875
 20
5.407913532257083
 30
0.0
 40
1.2
  1
GNU Free Documentation License, Version 1.3 or any later version published by the Free Software
 50
360.0
  7
VCDSTYLE12
100
AcDbText
  0
TEXT
  5
10C
330
E3
100
AcDbEntity
  8
Outline
100
AcDbText
 10
-167.9451904296875
 20
3.487913532257082
 30
0.0
 40
1.2
  1
Foundation; with no Invariant Sections, no Front-Cover Texts, and no Back-Cover Texts.  A copy of
 50
360.0
  7
VCDSTYLE12
100
AcDbText
  0
TEXT
  5
10D
330
E3
100
AcDbEntity
  8
Outline
100
AcDbText
 10
-167.9451904296875
 20
1.56791353225708
 30
0.0
 40
1.2
  1
the license is included in the section entitled "GNU Free Documentation License".
 50
360.0
  7
VCDSTYLE12
100
AcDbText
  0
TEXT
  5
10E
330
E3
100
AcDbEntity
  8
Outline
100
AcDbText
 10
-168.0283508300781
 20
12.77079420089722
 30
0.0
 40
1.5
  1
Copyright (c)                 Elphel, Inc.
 50
360.0
  7
VCDSTYLE12
100
AcDbText
  0
TEXT
  5
10F
330
E3
100
AcDbEntity
  8
Outline
100
AcDbText
 10
-168.0283508300781
 20
10.37079420089722
 30
0.0
 40
1.5
  1
Licensed under CERN OHL v.1.1 or later - see http://ohwr.org/cernohl
 50
360.0
  7
VCDSTYLE12
100
AcDbText
  0
TEXT
  5
110
330
E3
100
AcDbEntity
  8
Outline
100
AcDbText
 10
-168.0283508300781
 20
7.97079420089722
 30
0.0
 40
1.5
  1
 
 50
360.0
  7
VCDSTYLE12
100
AcDbText
  0
ENDBLK
  5
113
330
E3
100
AcDbEntity
  8
0
100
AcDbBlockEnd
  0
BLOCK
  5
2AB
330
2A7
100
AcDbEntity
  8
0
100
AcDbBlockBegin
  2
Sheet Border
 70
     0
 10
0.0
 20
0.0
 30
0.0
  3
Sheet Border
  1

  0
LWPOLYLINE
  5
2A8
330
2A7
100
AcDbEntity
  8
Outline
 62
     2
100
AcDbPolyline
 90
        5
 70
     0
 43
0.0
 10
5.0
 20
5.0
 10
205.0
 20
5.0
 10
205.0
 20
292.0
 10
5.0
 20
292.0
 10
5.0
 20
5.0
  0
LWPOLYLINE
  5
2A9
330
2A7
100
AcDbEntity
  8
Outline
 62
     2
100
AcDbPolyline
 90
        5
 70
     0
 43
0.0
 10
0.0
 20
0.0
 10
210.0
 20
0.0
 10
210.0
 20
297.0
 10
0.0
 20
297.0
 10
0.0
 20
0.0
  0
ENDBLK
  5
2AC
330
2A7
100
AcDbEntity
  8
0
100
AcDbBlockEnd
  0
BLOCK
  5
2BD
330
2AD
100
AcDbEntity
  8
0
100
AcDbBlockBegin
  2
*D15
 70
     1
 10
0.0
 20
0.0
 30
0.0
  3
*D15
  1

  0
LINE
  5
2AE
330
2AD
100
AcDbEntity
  8
Dimension
 62
     0
370
    -2
100
AcDbLine
 10
94.70877772368598
 20
159.5229978474445
 30
0.0
 11
94.70877772368598
 21
134.4300900526718
 31
0.0
  0
LINE
  5
2AF
330
2AD
100
AcDbEntity
  8
Dimension
 62
     0
370
    -2
100
AcDbLine
 10
98.70877772368566
 20
159.5229978474413
 30
0.0
 11
98.70877772368566
 21
134.4300900526718
 31
0.0
  0
LINE
  5
2B0
330
2AD
100
AcDbEntity
  8
Dimension
 62
     0
370
    -2
100
AcDbLine
 10
98.70877772368566
 20
135.4300900526718
 30
0.0
 11
112.3087777236856
 21
135.4300900526718
 31
0.0
  0
LINE
  5
2B1
330
2AD
100
AcDbEntity
  8
Dimension
 62
     0
370
    -2
100
AcDbLine
 10
94.70877772368598
 20
135.4300900526718
 30
0.0
 11
98.70877772368566
 21
135.4300900526718
 31
0.0
  0
LINE
  5
2B2
330
2AD
100
AcDbEntity
  8
Dimension
 62
     0
370
    -2
100
AcDbLine
 10
87.90877772368599
 20
135.4300900526718
 30
0.0
 11
81.10877772368599
 21
135.4300900526718
 31
0.0
  0
LINE
  5
2B3
330
2AD
100
AcDbEntity
  8
Dimension
 62
     0
370
    -2
100
AcDbLine
 10
105.5087777236857
 20
135.4300900526718
 30
0.0
 11
112.3087777236857
 21
135.4300900526718
 31
0.0
  0
SOLID
  5
2B4
330
2AD
100
AcDbEntity
  8
Dimension
 62
     0
100
AcDbTrace
 10
87.90877772368599
 20
134.2967567193385
 30
0.0
 11
87.90877772368599
 21
136.5634233860052
 31
0.0
 12
94.70877772368598
 22
135.4300900526718
 32
0.0
 13
94.70877772368598
 23
135.4300900526718
 33
0.0
  0
SOLID
  5
2B5
330
2AD
100
AcDbEntity
  8
Dimension
 62
     0
100
AcDbTrace
 10
105.5087777236857
 20
136.5634233860052
 30
0.0
 11
105.5087777236857
 21
134.2967567193385
 31
0.0
 12
98.70877772368566
 22
135.4300900526718
 32
0.0
 13
98.70877772368566
 23
135.4300900526718
 33
0.0
  0
MTEXT
  5
2B9
330
2AD
100
AcDbEntity
  8
Dimension
 62
     0
100
AcDbMText
 10
148.3563967713047
 20
135.4300900526718
 30
0.0
 40
4.0
 41
0.0
 46
0.0
 71
     5
 72
     1
  1
\A1;M4x0.5 THRU 3 HOLES
  7
VCDSTYLE02
 73
     1
 44
1.0
  0
POINT
  5
2BA
330
2AD
100
AcDbEntity
  8
Defpoints
 62
     0
100
AcDbPoint
 10
94.70877772368598
 20
159.5229978474445
 30
0.0
  0
POINT
  5
2BB
330
2AD
100
AcDbEntity
  8
Defpoints
 62
     0
100
AcDbPoint
 10
98.70877772368566
 20
159.5229978474413
 30
0.0
  0
POINT
  5
2BC
330
2AD
100
AcDbEntity
  8
Defpoints
 62
     0
100
AcDbPoint
 10
98.70877772368566
 20
135.4300900526718
 30
0.0
  0
ENDBLK
  5
2BE
330
2AD
100
AcDbEntity
  8
0
100
AcDbBlockEnd
  0
BLOCK
  5
2CE
330
2BF
100
AcDbEntity
  8
0
100
AcDbBlockBegin
  2
*D16
 70
     1
 10
0.0
 20
0.0
 30
0.0
  3
*D16
  1

  0
LINE
  5
2C0
330
2BF
100
AcDbEntity
  8
Dimension
 62
     0
370
    -2
100
AcDbLine
 10
168.6517440610978
 20
175.1861609642984
 30
0.0
 11
161.8517440610978
 21
175.1861609642984
 31
0.0
  0
LINE
  5
2C1
330
2BF
100
AcDbEntity
  8
Dimension
 62
     0
370
    -2
100
AcDbLine
 10
161.8517440610978
 20
175.1861609642984
 30
0.0
 11
161.8517440610978
 21
159.5229978474491
 31
0.0
  0
LINE
  5
2C2
330
2BF
100
AcDbEntity
  8
Dimension
 62
     0
370
    -2
100
AcDbLine
 10
162.1587783491923
 20
155.5229978474434
 30
0.0
 11
160.8517440610978
 21
155.5229978474434
 31
0.0
  0
LINE
  5
2C3
330
2BF
100
AcDbEntity
  8
Dimension
 62
     0
370
    -2
100
AcDbLine
 10
160.9045885966545
 20
159.5229978474491
 30
0.0
 11
162.8517440610978
 21
159.5229978474491
 31
0.0
  0
LINE
  5
2C4
330
2BF
100
AcDbEntity
  8
Dimension
 62
     0
370
    -2
100
AcDbLine
 10
161.8517440610978
 20
155.5229978474434
 30
0.0
 11
161.8517440610978
 21
159.5229978474491
 31
0.0
  0
LINE
  5
2C5
330
2BF
100
AcDbEntity
  8
Dimension
 62
     0
370
    -2
100
AcDbLine
 10
161.8517440610978
 20
148.7229978474434
 30
0.0
 11
161.8517440610978
 21
141.9229978474434
 31
0.0
  0
SOLID
  5
2C6
330
2BF
100
AcDbEntity
  8
Dimension
 62
     0
100
AcDbTrace
 10
162.9850773944311
 20
148.7229978474434
 30
0.0
 11
160.7184107277645
 21
148.7229978474434
 31
0.0
 12
161.8517440610978
 22
155.5229978474434
 32
0.0
 13
161.8517440610978
 23
155.5229978474434
 33
0.0
  0
SOLID
  5
2C7
330
2BF
100
AcDbEntity
  8
Dimension
 62
     0
100
AcDbTrace
 10
160.7184107277645
 20
166.3229978474491
 30
0.0
 11
162.9850773944311
 21
166.3229978474491
 31
0.0
 12
161.8517440610978
 22
159.5229978474491
 32
0.0
 13
161.8517440610978
 23
159.5229978474491
 33
0.0
  0
MTEXT
  5
2CA
330
2BF
100
AcDbEntity
  8
Dimension
 62
     0
100
AcDbMText
 10
171.0803154896692
 20
175.1861609642984
 30
0.0
 40
4.0
 41
0.0
 46
0.0
 71
     5
 72
     1
  1
\A1;4
  7
VCDSTYLE02
 73
     1
 44
1.0
  0
POINT
  5
2CB
330
2BF
100
AcDbEntity
  8
Defpoints
 62
     0
100
AcDbPoint
 10
162.1587783491923
 20
155.5229978474434
 30
0.0
  0
POINT
  5
2CC
330
2BF
100
AcDbEntity
  8
Defpoints
 62
     0
100
AcDbPoint
 10
160.9045885966545
 20
159.5229978474491
 30
0.0
  0
POINT
  5
2CD
330
2BF
100
AcDbEntity
  8
Defpoints
 62
     0
100
AcDbPoint
 10
171.0803154896692
 20
159.5229978474491
 30
0.0
  0
ENDBLK
  5
2CF
330
2BF
100
AcDbEntity
  8
0
100
AcDbBlockEnd
  0
BLOCK
  5
2DE
330
2D0
100
AcDbEntity
  8
0
100
AcDbBlockBegin
  2
*D17
 70
     1
 10
0.0
 20
0.0
 30
0.0
  3
*D17
  1

  0
LINE
  5
2D1
330
2D0
100
AcDbEntity
  8
Dimension
 62
     0
370
    -2
100
AcDbLine
 10
82.65877853204334
 20
94.02299748981739
 30
0.0
 11
82.65877853204334
 21
84.43657570031465
 31
0.0
  0
LINE
  5
2D2
330
2D0
100
AcDbEntity
  8
Dimension
 62
     0
370
    -2
100
AcDbLine
 10
99.15877853204339
 20
94.02299784744343
 30
0.0
 11
99.15877853204339
 21
84.43657570031465
 31
0.0
  0
LINE
  5
2D3
330
2D0
100
AcDbEntity
  8
Dimension
 62
     0
370
    -2
100
AcDbLine
 10
99.15877853204339
 20
85.43657570031465
 30
0.0
 11
112.7587785320434
 21
85.43657570031465
 31
0.0
  0
LINE
  5
2D4
330
2D0
100
AcDbEntity
  8
Dimension
 62
     0
370
    -2
100
AcDbLine
 10
82.65877853204334
 20
85.43657570031465
 30
0.0
 11
99.15877853204339
 21
85.43657570031465
 31
0.0
  0
LINE
  5
2D5
330
2D0
100
AcDbEntity
  8
Dimension
 62
     0
370
    -2
100
AcDbLine
 10
75.85877853204335
 20
85.43657570031465
 30
0.0
 11
69.05877853204335
 21
85.43657570031465
 31
0.0
  0
LINE
  5
2D6
330
2D0
100
AcDbEntity
  8
Dimension
 62
     0
370
    -2
100
AcDbLine
 10
105.9587785320434
 20
85.43657570031465
 30
0.0
 11
112.7587785320434
 21
85.43657570031465
 31
0.0
  0
SOLID
  5
2D7
330
2D0
100
AcDbEntity
  8
Dimension
 62
     0
100
AcDbTrace
 10
75.85877853204335
 20
84.30324236698131
 30
0.0
 11
75.85877853204335
 21
86.56990903364799
 31
0.0
 12
82.65877853204334
 22
85.43657570031465
 32
0.0
 13
82.65877853204334
 23
85.43657570031465
 33
0.0
  0
SOLID
  5
2D8
330
2D0
100
AcDbEntity
  8
Dimension
 62
     0
100
AcDbTrace
 10
105.9587785320434
 20
86.56990903364799
 30
0.0
 11
105.9587785320434
 21
84.30324236698131
 31
0.0
 12
99.15877853204339
 22
85.43657570031465
 32
0.0
 13
99.15877853204339
 23
85.43657570031465
 33
0.0
  0
MTEXT
  5
2DA
330
2D0
100
AcDbEntity
  8
Dimension
 62
     0
100
AcDbMText
 10
119.5683023415672
 20
85.43657570031465
 30
0.0
 40
4.0
 41
0.0
 46
0.0
 71
     5
 72
     1
  1
\A1;16.5
  7
VCDSTYLE02
 73
     1
 44
1.0
  0
POINT
  5
2DB
330
2D0
100
AcDbEntity
  8
Defpoints
 62
     0
100
AcDbPoint
 10
82.65877853204334
 20
94.02299748981739
 30
0.0
  0
POINT
  5
2DC
330
2D0
100
AcDbEntity
  8
Defpoints
 62
     0
100
AcDbPoint
 10
99.15877853204339
 20
94.02299784744343
 30
0.0
  0
POINT
  5
2DD
330
2D0
100
AcDbEntity
  8
Defpoints
 62
     0
100
AcDbPoint
 10
99.15877853204339
 20
85.43657570031465
 30
0.0
  0
ENDBLK
  5
2DF
330
2D0
100
AcDbEntity
  8
0
100
AcDbBlockEnd
  0
BLOCK
  5
2EC
330
2E0
100
AcDbEntity
  8
0
100
AcDbBlockBegin
  2
*D18
 70
     1
 10
0.0
 20
0.0
 30
0.0
  3
*D18
  1

  0
LINE
  5
2E1
330
2E0
100
AcDbEntity
  8
Dimension
 62
     0
370
    -2
100
AcDbLine
 10
87.16447144523704
 20
123.5229978474442
 30
0.0
 11
67.7218728802144
 21
123.5229978474442
 31
0.0
  0
LINE
  5
2E2
330
2E0
100
AcDbEntity
  8
Dimension
 62
     0
370
    -2
100
AcDbLine
 10
86.74102618929214
 20
92.52299784744444
 30
0.0
 11
67.7218728802144
 21
92.52299784744444
 31
0.0
  0
LINE
  5
2E3
330
2E0
100
AcDbEntity
  8
Dimension
 62
     0
370
    -2
100
AcDbLine
 10
68.7218728802144
 20
116.7229978474442
 30
0.0
 11
68.7218728802144
 21
108.7733129513504
 31
0.0
  0
LINE
  5
2E4
330
2E0
100
AcDbEntity
  8
Dimension
 62
     0
370
    -2
100
AcDbLine
 10
68.7218728802144
 20
99.32299784744444
 30
0.0
 11
68.7218728802144
 21
102.7733129513504
 31
0.0
  0
SOLID
  5
2E5
330
2E0
100
AcDbEntity
  8
Dimension
 62
     0
100
AcDbTrace
 10
69.85520621354775
 20
116.7229978474442
 30
0.0
 11
67.58853954688107
 21
116.7229978474442
 31
0.0
 12
68.7218728802144
 22
123.5229978474442
 32
0.0
 13
68.7218728802144
 23
123.5229978474442
 33
0.0
  0
SOLID
  5
2E6
330
2E0
100
AcDbEntity
  8
Dimension
 62
     0
100
AcDbTrace
 10
67.58853954688107
 20
99.32299784744444
 30
0.0
 11
69.85520621354775
 21
99.32299784744444
 31
0.0
 12
68.7218728802144
 22
92.52299784744444
 32
0.0
 13
68.7218728802144
 23
92.52299784744444
 33
0.0
  0
MTEXT
  5
2E7
330
2E0
100
AcDbEntity
  8
Dimension
 62
     0
100
AcDbMText
 10
68.7218728802144
 20
105.7733129513504
 30
0.0
 40
4.0
 41
0.0
 46
0.0
 71
     5
 72
     1
  1
\A1;31
  7
VCDSTYLE02
 73
     1
 44
1.0
  0
POINT
  5
2E9
330
2E0
100
AcDbEntity
  8
Defpoints
 62
     0
100
AcDbPoint
 10
87.16447144523704
 20
123.5229978474442
 30
0.0
  0
POINT
  5
2EA
330
2E0
100
AcDbEntity
  8
Defpoints
 62
     0
100
AcDbPoint
 10
86.74102618929214
 20
92.52299784744444
 30
0.0
  0
POINT
  5
2EB
330
2E0
100
AcDbEntity
  8
Defpoints
 62
     0
100
AcDbPoint
 10
68.7218728802144
 20
92.52299784744444
 30
0.0
  0
ENDBLK
  5
2ED
330
2E0
100
AcDbEntity
  8
0
100
AcDbBlockEnd
  0
BLOCK
  5
2FC
330
2EE
100
AcDbEntity
  8
0
100
AcDbBlockBegin
  2
*D19
 70
     1
 10
0.0
 20
0.0
 30
0.0
  3
*D19
  1

  0
LINE
  5
2EF
330
2EE
100
AcDbEntity
  8
Dimension
 62
     0
370
    -2
100
AcDbLine
 10
20.19877968165865
 20
155.7229978474431
 30
0.0
 11
20.19877968165865
 21
174.5941768292416
 31
0.0
  0
LINE
  5
2F0
330
2EE
100
AcDbEntity
  8
Dimension
 62
     0
370
    -2
100
AcDbLine
 10
22.61877968165862
 20
155.7229978474431
 30
0.0
 11
22.61877968165862
 21
174.5941768292416
 31
0.0
  0
LINE
  5
2F1
330
2EE
100
AcDbEntity
  8
Dimension
 62
     0
370
    -2
100
AcDbLine
 10
22.61877968165862
 20
173.5941768292416
 30
0.0
 11
36.21877968165862
 21
173.5941768292416
 31
0.0
  0
LINE
  5
2F2
330
2EE
100
AcDbEntity
  8
Dimension
 62
     0
370
    -2
100
AcDbLine
 10
20.19877968165865
 20
173.5941768292416
 30
0.0
 11
22.61877968165862
 21
173.5941768292416
 31
0.0
  0
LINE
  5
2F3
330
2EE
100
AcDbEntity
  8
Dimension
 62
     0
370
    -2
100
AcDbLine
 10
13.39877968165865
 20
173.5941768292416
 30
0.0
 11
6.598779681658649
 21
173.5941768292416
 31
0.0
  0
LINE
  5
2F4
330
2EE
100
AcDbEntity
  8
Dimension
 62
     0
370
    -2
100
AcDbLine
 10
29.41877968165862
 20
173.5941768292416
 30
0.0
 11
36.21877968165862
 21
173.5941768292416
 31
0.0
  0
SOLID
  5
2F5
330
2EE
100
AcDbEntity
  8
Dimension
 62
     0
100
AcDbTrace
 10
13.39877968165865
 20
172.4608434959083
 30
0.0
 11
13.39877968165865
 21
174.7275101625749
 31
0.0
 12
20.19877968165865
 22
173.5941768292416
 32
0.0
 13
20.19877968165865
 23
173.5941768292416
 33
0.0
  0
SOLID
  5
2F6
330
2EE
100
AcDbEntity
  8
Dimension
 62
     0
100
AcDbTrace
 10
29.41877968165862
 20
174.7275101625749
 30
0.0
 11
29.41877968165862
 21
172.4608434959083
 31
0.0
 12
22.61877968165862
 22
173.5941768292416
 32
0.0
 13
22.61877968165862
 23
173.5941768292416
 33
0.0
  0
MTEXT
  5
2F7
330
2EE
100
AcDbEntity
  8
Dimension
 62
     0
100
AcDbMText
 10
84.36852307151115
 20
173.5941768292416
 30
0.0
 40
4.0
 41
0.0
 46
0.0
 71
     5
 72
     1
  1
\A1;ø2.413H6 {H2;S+0.008^ +0.000;}
  7
VCDSTYLE02
 73
     1
 44
1.0
  0
POINT
  5
2F8
330
2EE
100
AcDbEntity
  8
Defpoints
 62
     0
100
AcDbPoint
 10
20.19877968165865
 20
155.7229978474431
 30
0.0
  0
POINT
  5
2FA
330
2EE
100
AcDbEntity
  8
Defpoints
 62
     0
100
AcDbPoint
 10
22.61877968165862
 20
155.7229978474431
 30
0.0
  0
POINT
  5
2FB
330
2EE
100
AcDbEntity
  8
Defpoints
 62
     0
100
AcDbPoint
 10
22.61877968165862
 20
173.5941768292416
 30
0.0
  0
ENDBLK
  5
2FD
330
2EE
100
AcDbEntity
  8
0
100
AcDbBlockEnd
  0
BLOCK
  5
30D
330
2FF
100
AcDbEntity
  8
0
100
AcDbBlockBegin
  2
*D20
 70
     1
 10
0.0
 20
0.0
 30
0.0
  3
*D20
  1

  0
LINE
  5
300
330
2FF
100
AcDbEntity
  8
Dimension
 62
     0
370
    -2
100
AcDbLine
 10
94.85877772368532
 20
159.3729978474475
 30
0.0
 11
94.85877772368532
 21
165.3808540357672
 31
0.0
  0
LINE
  5
301
330
2FF
100
AcDbEntity
  8
Dimension
 62
     0
370
    -2
100
AcDbLine
 10
98.5587777236854
 20
159.3729978474383
 30
0.0
 11
98.5587777236854
 21
165.3808540357672
 31
0.0
  0
LINE
  5
302
330
2FF
100
AcDbEntity
  8
Dimension
 62
     0
370
    -2
100
AcDbLine
 10
98.5587777236854
 20
164.3808540357672
 30
0.0
 11
112.1587777236854
 21
164.3808540357672
 31
0.0
  0
LINE
  5
303
330
2FF
100
AcDbEntity
  8
Dimension
 62
     0
370
    -2
100
AcDbLine
 10
94.85877772368532
 20
164.3808540357672
 30
0.0
 11
98.5587777236854
 21
164.3808540357672
 31
0.0
  0
LINE
  5
304
330
2FF
100
AcDbEntity
  8
Dimension
 62
     0
370
    -2
100
AcDbLine
 10
88.05877772368532
 20
164.3808540357672
 30
0.0
 11
81.25877772368533
 21
164.3808540357672
 31
0.0
  0
LINE
  5
305
330
2FF
100
AcDbEntity
  8
Dimension
 62
     0
370
    -2
100
AcDbLine
 10
105.3587777236854
 20
164.3808540357672
 30
0.0
 11
112.1587777236854
 21
164.3808540357672
 31
0.0
  0
SOLID
  5
306
330
2FF
100
AcDbEntity
  8
Dimension
 62
     0
100
AcDbTrace
 10
88.05877772368532
 20
163.2475207024339
 30
0.0
 11
88.05877772368532
 21
165.5141873691005
 31
0.0
 12
94.85877772368532
 22
164.3808540357672
 32
0.0
 13
94.85877772368532
 23
164.3808540357672
 33
0.0
  0
SOLID
  5
307
330
2FF
100
AcDbEntity
  8
Dimension
 62
     0
100
AcDbTrace
 10
105.3587777236854
 20
165.5141873691005
 30
0.0
 11
105.3587777236854
 21
163.2475207024339
 31
0.0
 12
98.5587777236854
 22
164.3808540357672
 32
0.0
 13
98.5587777236854
 23
164.3808540357672
 33
0.0
  0
MTEXT
  5
309
330
2FF
100
AcDbEntity
  8
Dimension
 62
     0
100
AcDbMText
 10
119.1656639706808
 20
164.3808540357672
 30
0.0
 40
4.0
 41
0.0
 46
0.0
 71
     5
 72
     1
  1
\A1;ø3.7
  7
VCDSTYLE02
 73
     1
 44
1.0
  0
POINT
  5
30A
330
2FF
100
AcDbEntity
  8
Defpoints
 62
     0
100
AcDbPoint
 10
94.85877772368532
 20
159.3729978474475
 30
0.0
  0
POINT
  5
30B
330
2FF
100
AcDbEntity
  8
Defpoints
 62
     0
100
AcDbPoint
 10
98.5587777236854
 20
159.3729978474383
 30
0.0
  0
POINT
  5
30C
330
2FF
100
AcDbEntity
  8
Defpoints
 62
     0
100
AcDbPoint
 10
98.5587777236854
 20
164.3808540357672
 30
0.0
  0
ENDBLK
  5
30E
330
2FF
100
AcDbEntity
  8
0
100
AcDbBlockEnd
  0
BLOCK
  5
31D
330
30F
100
AcDbEntity
  8
0
100
AcDbBlockBegin
  2
*D21
 70
     1
 10
0.0
 20
0.0
 30
0.0
  3
*D21
  1

  0
LINE
  5
310
330
30F
100
AcDbEntity
  8
Dimension
 62
     0
370
    -2
100
AcDbLine
 10
95.10877833950319
 20
218.5229980449897
 30
0.0
 11
95.10877833950319
 21
231.0704444898699
 31
0.0
  0
LINE
  5
311
330
30F
100
AcDbEntity
  8
Dimension
 62
     0
370
    -2
100
AcDbLine
 10
96.70877833950318
 20
218.5229980449897
 30
0.0
 11
96.70877833950318
 21
231.0704444898699
 31
0.0
  0
LINE
  5
312
330
30F
100
AcDbEntity
  8
Dimension
 62
     0
370
    -2
100
AcDbLine
 10
96.70877833950318
 20
230.0704444898699
 30
0.0
 11
110.3087783395032
 21
230.0704444898699
 31
0.0
  0
LINE
  5
313
330
30F
100
AcDbEntity
  8
Dimension
 62
     0
370
    -2
100
AcDbLine
 10
95.10877833950319
 20
230.0704444898699
 30
0.0
 11
96.70877833950318
 21
230.0704444898699
 31
0.0
  0
LINE
  5
314
330
30F
100
AcDbEntity
  8
Dimension
 62
     0
370
    -2
100
AcDbLine
 10
88.30877833950319
 20
230.0704444898699
 30
0.0
 11
81.5087783395032
 21
230.0704444898699
 31
0.0
  0
LINE
  5
315
330
30F
100
AcDbEntity
  8
Dimension
 62
     0
370
    -2
100
AcDbLine
 10
103.5087783395032
 20
230.0704444898699
 30
0.0
 11
110.3087783395032
 21
230.0704444898699
 31
0.0
  0
SOLID
  5
316
330
30F
100
AcDbEntity
  8
Dimension
 62
     0
100
AcDbTrace
 10
88.30877833950319
 20
228.9371111565366
 30
0.0
 11
88.30877833950319
 21
231.2037778232033
 31
0.0
 12
95.10877833950319
 22
230.0704444898699
 32
0.0
 13
95.10877833950319
 23
230.0704444898699
 33
0.0
  0
SOLID
  5
317
330
30F
100
AcDbEntity
  8
Dimension
 62
     0
100
AcDbTrace
 10
103.5087783395032
 20
231.2037778232033
 30
0.0
 11
103.5087783395032
 21
228.9371111565366
 31
0.0
 12
96.70877833950318
 22
230.0704444898699
 32
0.0
 13
96.70877833950318
 23
230.0704444898699
 33
0.0
  0
MTEXT
  5
319
330
30F
100
AcDbEntity
  8
Dimension
 62
     0
100
AcDbMText
 10
142.8325878633127
 20
230.0704444898699
 30
0.0
 40
4.0
 41
0.0
 46
0.0
 71
     5
 72
     1
  1
\A1;M1.6 THRU 4 HOLES
  7
VCDSTYLE02
 73
     1
 44
1.0
  0
POINT
  5
31A
330
30F
100
AcDbEntity
  8
Defpoints
 62
     0
100
AcDbPoint
 10
95.10877833950319
 20
218.5229980449897
 30
0.0
  0
POINT
  5
31B
330
30F
100
AcDbEntity
  8
Defpoints
 62
     0
100
AcDbPoint
 10
96.70877833950318
 20
218.5229980449897
 30
0.0
  0
POINT
  5
31C
330
30F
100
AcDbEntity
  8
Defpoints
 62
     0
100
AcDbPoint
 10
96.70877833950318
 20
230.0704444898699
 30
0.0
  0
ENDBLK
  5
31E
330
30F
100
AcDbEntity
  8
0
100
AcDbBlockEnd
  0
ENDSEC
  0
SECTION
  2
ENTITIES
  0
INSERT
  5
9C
330
1F
100
AcDbEntity
  8
Outline
100
AcDbBlockReference
  2
$AttrValue elphel_parts
 10
188.2343
 20
26.0346
 30
0.0
  0
INSERT
  5
A1
330
1F
100
AcDbEntity
  8
Outline
100
AcDbBlockReference
  2
$AttrValue elphel_parts(1)
 10
145.3357000000001
 20
26.4917
 30
0.0
  0
INSERT
  5
A6
330
1F
100
AcDbEntity
  8
Outline
100
AcDbBlockReference
  2
$AttrValue elphel_parts(2)
 10
50.43000000000006
 20
34.4112
 30
0.0
  0
INSERT
  5
AB
330
1F
100
AcDbEntity
  8
Outline
100
AcDbBlockReference
  2
$AttrValue elphel_parts(3)
 10
50.43000000000006
 20
38.1451
 30
0.0
  0
INSERT
  5
B0
330
1F
100
AcDbEntity
  8
Outline
100
AcDbBlockReference
  2
$AttrValue elphel_parts(4)
 10
50.43000000000006
 20
30.3694
 30
0.0
  0
INSERT
  5
B5
330
1F
100
AcDbEntity
  8
Outline
100
AcDbBlockReference
  2
$AttrValue elphel_parts(5)
 10
47.37900000000005
 20
22.801
 30
0.0
  0
INSERT
  5
BA
330
1F
100
AcDbEntity
  8
Outline
100
AcDbBlockReference
  2
$AttrValue elphel_parts(6)
 10
125.5787000000001
 20
12.54951
 30
0.0
  0
INSERT
  5
BF
330
1F
100
AcDbEntity
  8
Outline
100
AcDbBlockReference
  2
$AttrValue elphel_parts(7)
 10
125.5787000000001
 20
16.91462
 30
0.0
  0
INSERT
  5
C4
330
1F
100
AcDbEntity
  8
Outline
100
AcDbBlockReference
  2
$AttrValue elphel_parts(8)
 10
125.5787000000001
 20
21.3666
 30
0.0
  0
INSERT
  5
C9
330
1F
100
AcDbEntity
  8
Outline
100
AcDbBlockReference
  2
$AttrValue elphel_parts(9)
 10
119.3813000000001
 20
49.8706
 30
0.0
  0
INSERT
  5
CE
330
1F
100
AcDbEntity
  8
Outline
100
AcDbBlockReference
  2
$AttrValue elphel_parts(10)
 10
32.70900000000006
 20
44.4461
 30
0.0
  0
INSERT
  5
D3
330
1F
100
AcDbEntity
  8
Outline
100
AcDbBlockReference
  2
$AttrValue elphel_parts(11)
 10
44.76700000000005
 20
44.7335
 30
0.0
  0
TEXT
  5
D6
330
1F
100
AcDbEntity
  8
Outline
100
AcDbText
 10
30.09474121748276
 20
60.63276777967727
 30
0.0
 40
2.5
  1
Note: protect surfaces 1, 2 and 3 from anodizing.
  7
VCDSTYLE10
100
AcDbText
  0
CIRCLE
  5
D7
330
1F
100
AcDbEntity
  8
Dimension
 62
     2
100
AcDbCircle
 10
83.2541308740503
 20
216.2978437808544
 30
0.0
 40
0.35
  0
TEXT
  5
D8
330
1F
100
AcDbEntity
  8
Dimension
 62
     2
100
AcDbText
 10
70.66727906973199
 20
219.9150593322958
 30
0.0
 40
4.199999999999999
  1
3
  7
VCDSTYLE02
100
AcDbText
  0
LINE
  5
D9
330
1F
100
AcDbEntity
  8
Dimension
100
AcDbLine
 10
83.2541308740503
 20
216.2978437808544
 30
0.0
 11
75.84026894987134
 21
220.339728560012
 31
0.0
  0
CIRCLE
  5
DA
330
1F
100
AcDbEntity
  8
Dimension
100
AcDbCircle
 10
72.767279069732
 20
222.0150593322958
 30
0.0
 40
3.5
  0
CIRCLE
  5
DB
330
1F
100
AcDbEntity
  8
Dimension
 62
     2
100
AcDbCircle
 10
91.82682251367457
 20
197.5154864252148
 30
0.0
 40
0.35
  0
TEXT
  5
DC
330
1F
100
AcDbEntity
  8
Dimension
 62
     2
100
AcDbText
 10
106.9230555149925
 20
204.8616403461996
 30
0.0
 40
4.199999999999999
  1
2
  7
VCDSTYLE02
100
AcDbText
  0
LINE
  5
DD
330
1F
100
AcDbEntity
  8
Dimension
100
AcDbLine
 10
91.82682251367457
 20
197.5154864252148
 30
0.0
 11
105.9554133296261
 21
205.276537553323
 31
0.0
  0
CIRCLE
  5
DE
330
1F
100
AcDbEntity
  8
Dimension
100
AcDbCircle
 10
109.0230555149925
 20
206.9616403461996
 30
0.0
 40
3.5
  0
CIRCLE
  5
DF
330
1F
100
AcDbEntity
  8
Dimension
 62
     2
100
AcDbCircle
 10
98.52571444825423
 20
216.3825571664196
 30
0.0
 40
0.35
  0
TEXT
  5
E0
330
1F
100
AcDbEntity
  8
Dimension
 62
     2
100
AcDbText
 10
106.7009341147726
 20
219.9779925159276
 30
0.0
 40
4.199999999999999
  1
1
  7
VCDSTYLE02
100
AcDbText
  0
LINE
  5
E1
330
1F
100
AcDbEntity
  8
Dimension
100
AcDbLine
 10
98.52571444825423
 20
216.3825571664196
 30
0.0
 11
105.7397383696397
 21
220.3812071405838
 31
0.0
  0
CIRCLE
  5
E2
330
1F
100
AcDbEntity
  8
Dimension
100
AcDbCircle
 10
108.8009341147726
 20
222.0779925159276
 30
0.0
 40
3.5
  0
INSERT
  5
111
330
1F
100
AcDbEntity
  8
Axis
100
AcDbBlockReference
  2
$TitleBlock elphel_parts
 10
200.0
 20
10.0
 30
0.0
  0
LINE
  5
114
330
1F
100
AcDbEntity
  8
0
 62
     2
100
AcDbLine
 10
98.56328777333962
 20
115.7521779803795
 30
0.0
 11
99.15877777429736
 21
115.7521779803795
 31
0.0
  0
LINE
  5
115
330
1F
100
AcDbEntity
  8
0
 62
     2
100
AcDbLine
 10
98.40877872456699
 20
117.0938187668795
 30
0.0
 11
99.15877777429736
 21
117.0938187668795
 31
0.0
  0
ARC
  5
116
330
1F
100
AcDbEntity
  8
0
 62
     2
100
AcDbCircle
 10
96.15877851292848
 20
120.5229979681078
 30
0.0
 40
3.0
100
AcDbArc
 50
0.0
 51
41.4096159983431
  0
LINE
  5
117
330
1F
100
AcDbEntity
  8
0
 62
     2
100
AcDbLine
 10
98.40877872456699
 20
117.7909469629935
 30
0.0
 11
98.40877872456699
 21
121.2550485781314
 31
0.0
  0
LINE
  5
118
330
1F
100
AcDbEntity
  8
0
 62
     2
100
AcDbLine
 10
99.15877851292848
 20
114.9617484404094
 30
0.0
 11
99.15877851292848
 21
115.7521779803795
 31
0.0
  0
LINE
  5
119
330
1F
100
AcDbEntity
  8
0
 62
     2
100
AcDbLine
 10
99.15877851292848
 20
117.0938187668795
 30
0.0
 11
99.15877851292848
 21
120.5229979681078
 31
0.0
  0
ARC
  5
11A
330
1F
100
AcDbEntity
  8
0
 62
     2
100
AcDbCircle
 10
100.408778724567
 20
116.5229977705625
 30
0.0
 40
2.0
100
AcDbArc
 50
180.0
 51
231.3178047796582
  0
LINE
  5
11B
330
1F
100
AcDbEntity
  8
0
 62
     2
100
AcDbLine
 10
98.40877872456699
 20
117.7909469629935
 30
0.0
 11
98.40877872456699
 21
116.5229977705625
 31
0.0
  0
LINE
  5
11C
330
1F
100
AcDbEntity
  8
0
 62
     2
100
AcDbLine
 10
98.40877872456699
 20
122.5073112114306
 30
0.0
 11
98.40877872456699
 21
121.2550485781314
 31
0.0
  0
ARC
  5
11D
330
1F
100
AcDbEntity
  8
0
 62
     2
100
AcDbCircle
 10
85.65877851292848
 20
120.5229979681078
 30
0.0
 40
3.0
100
AcDbArc
 50
138.5903717798024
 51
179.9999999999996
  0
LINE
  5
11E
330
1F
100
AcDbEntity
  8
0
 62
     2
100
AcDbLine
 10
83.40877872456699
 20
121.2550485781314
 30
0.0
 11
83.40877872456699
 21
117.7909469629936
 31
0.0
  0
LINE
  5
11F
330
1F
100
AcDbEntity
  8
0
 62
     2
100
AcDbLine
 10
82.65877851292848
 20
120.5229979681078
 30
0.0
 11
82.65877851292848
 21
116.5229977705625
 31
0.0
  0
LINE
  5
120
330
1F
100
AcDbEntity
  8
0
 62
     2
100
AcDbLine
 10
82.65877851292848
 20
116.5229977705625
 30
0.0
 11
82.65877851292848
 21
114.9617481015165
 31
0.0
  0
ARC
  5
121
330
1F
100
AcDbEntity
  8
0
 62
     2
100
AcDbCircle
 10
81.40877872456699
 20
116.5229977705625
 30
0.0
 40
2.0
100
AcDbArc
 50
308.68217968664
 51
0.0000000000006616
  0
LINE
  5
122
330
1F
100
AcDbEntity
  8
0
 62
     2
100
AcDbLine
 10
83.40877872456699
 20
121.2550485781313
 30
0.0
 11
83.40877872456699
 21
122.5073116913817
 31
0.0
  0
LINE
  5
123
330
1F
100
AcDbEntity
  8
0
 62
     2
100
AcDbLine
 10
83.40877872456699
 20
116.5229977705625
 30
0.0
 11
83.40877872456699
 21
117.7909469629936
 31
0.0
  0
ARC
  5
124
330
1F
100
AcDbEntity
  8
0
 62
     2
100
AcDbCircle
 10
90.90877852261846
 20
108.0229971767316
 30
0.0
 40
7.3
100
AcDbArc
 50
230.5936335701689
 51
309.4063664298319
  0
ARC
  5
125
330
1F
100
AcDbEntity
  8
0
 62
     2
100
AcDbCircle
 10
90.90877852261846
 20
108.0229971767316
 30
0.0
 40
7.3
100
AcDbArc
 50
202.3832335461128
 51
219.4063664298229
  0
ARC
  5
126
330
1F
100
AcDbEntity
  8
0
 62
     2
100
AcDbCircle
 10
90.90877852261846
 20
108.0229971767316
 30
0.0
 40
7.3
100
AcDbArc
 50
50.59363357017196
 51
129.4063664298244
  0
ARC
  5
127
330
1F
100
AcDbEntity
  8
0
 62
     2
100
AcDbCircle
 10
90.90877852261846
 20
108.0229971767316
 30
0.0
 40
7.3
100
AcDbArc
 50
22.38322522130934
 51
39.40636642982161
  0
ARC
  5
128
330
1F
100
AcDbEntity
  8
0
 62
     2
100
AcDbCircle
 10
90.90877852261846
 20
108.0229971767316
 30
0.0
 40
7.3
100
AcDbArc
 50
309.4063664298313
 51
320.5936335701787
  0
ARC
  5
129
330
1F
100
AcDbEntity
  8
0
 62
     2
100
AcDbCircle
 10
90.90877852261846
 20
108.0229971767316
 30
0.0
 40
7.3
100
AcDbArc
 50
39.40636642982141
 51
50.59363357017182
  0
ARC
  5
12A
330
1F
100
AcDbEntity
  8
0
 62
     2
100
AcDbCircle
 10
90.90877852261846
 20
108.0229971767316
 30
0.0
 40
7.3
100
AcDbArc
 50
219.406366429823
 51
230.5936335701687
  0
ARC
  5
12B
330
1F
100
AcDbEntity
  8
0
 62
     2
100
AcDbCircle
 10
90.90877852261846
 20
108.0229971767316
 30
0.0
 40
7.3
100
AcDbArc
 50
129.4063664298246
 51
140.5936335701734
  0
ARC
  5
12C
330
1F
100
AcDbEntity
  8
0
 62
     2
100
AcDbCircle
 10
95.87844843672858
 20
103.0533272626224
 30
0.0
 40
0.7499999999999998
100
AcDbArc
 50
243.4263899223937
 51
26.57361007761703
  0
ARC
  5
12D
330
1F
100
AcDbEntity
  8
0
 62
     2
100
AcDbCircle
 10
85.93910860850869
 20
103.0533272626225
 30
0.0
 40
0.7499999999999998
100
AcDbArc
 50
153.4263899224092
 51
296.5736100775832
  0
ARC
  5
12E
330
1F
100
AcDbEntity
  8
0
 62
     2
100
AcDbCircle
 10
85.93910860850869
 20
112.9926670908416
 30
0.0
 40
0.7499999999999998
100
AcDbArc
 50
63.42638992236547
 51
206.5736100776288
  0
ARC
  5
12F
330
1F
100
AcDbEntity
  8
0
 62
     2
100
AcDbCircle
 10
95.8784484367288
 20
112.9926670908414
 30
0.0
 40
0.7500000000000004
100
AcDbArc
 50
333.4263899223392
 51
116.573610077651
  0
LINE
  5
130
330
1F
100
AcDbEntity
  8
0
 62
     2
100
AcDbLine
 10
97.65877872456801
 20
110.8028348111416
 30
0.0
 11
97.65877872456818
 21
113.1229973404745
 31
0.0
  0
LINE
  5
131
330
1F
100
AcDbEntity
  8
0
 62
     2
100
AcDbLine
 10
84.15877872456619
 20
105.243158561579
 30
0.0
 11
84.15877872456596
 21
102.9229972543318
 31
0.0
  0
ARC
  5
132
330
1F
100
AcDbEntity
  8
0
 62
     2
100
AcDbCircle
 10
90.90877852261846
 20
108.0229971767316
 30
0.0
 40
7.3
100
AcDbArc
 50
140.5936335701734
 51
157.6167664538758
  0
ARC
  5
133
330
1F
100
AcDbEntity
  8
0
 62
     2
100
AcDbCircle
 10
90.90877852261846
 20
108.0229971767316
 30
0.0
 40
7.3
100
AcDbArc
 50
320.5936335701792
 51
337.6167747786812
  0
ARC
  5
134
330
1F
100
AcDbEntity
  8
0
 62
     2
100
AcDbCircle
 10
90.90877852261846
 20
108.0229971767316
 30
0.0
 40
7.3
100
AcDbArc
 50
337.6167747786804
 51
22.38322522131
  0
ARC
  5
135
330
1F
100
AcDbEntity
  8
0
 62
     2
100
AcDbCircle
 10
90.90877852261846
 20
108.0229971767316
 30
0.0
 40
7.3
100
AcDbArc
 50
157.616766453877
 51
202.3832335461114
  0
ARC
  5
136
330
1F
100
AcDbEntity
  8
0
 62
     6
100
AcDbCircle
 10
85.10877810874987
 20
99.52299722125841
 30
0.0
 40
2.0
100
AcDbArc
 50
257.6972037545542
 51
108.1948693035226
  0
ARC
  5
137
330
1F
100
AcDbEntity
  8
0
 62
     6
100
AcDbCircle
 10
96.70877810874978
 20
99.52299722125841
 30
0.0
 40
2.0
100
AcDbArc
 50
71.80513069647972
 51
282.3028126064441
  0
LINE
  5
138
330
1F
100
AcDbEntity
  8
0
 62
     2
100
AcDbLine
 10
86.11749016605862
 20
93.52299729741043
 30
0.0
 11
84.90877872453981
 21
93.52299729741011
 31
0.0
  0
ARC
  5
139
330
1F
100
AcDbEntity
  8
0
 62
     2
100
AcDbCircle
 10
97.40878338022569
 20
94.27299962702327
 30
0.0
 40
0.5
100
AcDbArc
 50
262.5768226644321
 51
90.0
  0
ARC
  5
13A
330
1F
100
AcDbEntity
  8
0
 62
     2
100
AcDbCircle
 10
84.4087786039913
 20
94.27299768067584
 30
0.0
 40
0.5
100
AcDbArc
 50
90.0
 51
277.4227607613082
  0
ARC
  5
13B
330
1F
100
AcDbEntity
  8
0
 62
     2
100
AcDbCircle
 10
84.90877872453981
 20
92.27299729741011
 30
0.0
 40
1.25
100
AcDbArc
 50
89.99999999566965
 51
165.0909654983084
  0
LINE
  5
13C
330
1F
100
AcDbEntity
  8
0
 62
     2
100
AcDbLine
 10
95.7000664752521
 20
93.52299729741154
 30
0.0
 11
86.11749016605862
 21
93.52299729741029
 31
0.0
  0
ARC
  5
13D
330
1F
100
AcDbEntity
  8
0
 62
     2
100
AcDbCircle
 10
96.90877872456767
 20
92.27299729741165
 30
0.0
 40
1.25
100
AcDbArc
 50
14.90904043158011
 51
90.00000000222059
  0
CIRCLE
  5
13E
330
1F
100
AcDbEntity
  8
0
 62
     2
100
AcDbCircle
 10
96.70877810874995
 20
99.52299722125841
 30
0.0
 40
1.85
  0
ARC
  5
13F
330
1F
100
AcDbEntity
  8
0
 62
     2
100
AcDbCircle
 10
96.70877810874978
 20
99.52299722125841
 30
0.0
 40
2.0
100
AcDbArc
 50
282.3028126064456
 51
71.80513069648204
  0
CIRCLE
  5
140
330
1F
100
AcDbEntity
  8
0
 62
     2
100
AcDbCircle
 10
85.10877810874999
 20
99.52299722125841
 30
0.0
 40
1.85
  0
ARC
  5
141
330
1F
100
AcDbEntity
  8
0
 62
     2
100
AcDbCircle
 10
85.10877810874987
 20
99.52299722125841
 30
0.0
 40
2.0
100
AcDbArc
 50
108.1948693035205
 51
257.6972037545503
  0
ARC
  5
142
330
1F
100
AcDbEntity
  8
0
 62
     2
100
AcDbCircle
 10
84.15877851292848
 20
94.02299796810783
 30
0.0
 40
1.5
100
AcDbArc
 50
180.0
 51
252.22502228275
  0
ARC
  5
143
330
1F
100
AcDbEntity
  8
0
 62
     2
100
AcDbCircle
 10
97.65877851292859
 20
94.02299796810786
 30
0.0
 40
1.5
100
AcDbArc
 50
287.7749933595449
 51
359.9999999999976
  0
LINE
  5
144
330
1F
100
AcDbEntity
  8
0
 62
     2
100
AcDbLine
 10
84.48427840956262
 20
101.4229972543415
 30
0.0
 11
82.65877873425504
 21
101.4229972543411
 31
0.0
  0
ARC
  5
145
330
1F
100
AcDbEntity
  8
0
 62
     2
100
AcDbCircle
 10
84.9087785077206
 20
97.12299725434897
 30
0.0
 40
0.5
100
AcDbArc
 50
116.8921856151874
 51
180.0000000005764
  0
LINE
  5
146
330
1F
100
AcDbEntity
  8
0
 62
     2
100
AcDbLine
 10
84.40877850772651
 20
94.77299768067579
 30
0.0
 11
84.40877850772162
 21
97.12299725434394
 31
0.0
  0
ARC
  5
147
330
1F
100
AcDbEntity
  8
0
 62
     2
100
AcDbCircle
 10
84.9087785077289
 20
94.02299733048511
 30
0.0
 40
0.5
100
AcDbArc
 50
209.4470638536178
 51
270.0000000012702
  0
ARC
  5
148
330
1F
100
AcDbEntity
  8
0
 62
     2
100
AcDbCircle
 10
86.11749016605361
 20
94.0229973305037
 30
0.0
 40
0.5
100
AcDbArc
 50
270.0000000005732
 51
336.4218391203538
  0
ARC
  5
149
330
1F
100
AcDbEntity
  8
0
 62
     2
100
AcDbCircle
 10
88.40877832068415
 20
93.02299803427908
 30
0.0
 40
2.0
100
AcDbArc
 50
90.0
 51
156.4218391203536
  0
LINE
  5
14A
330
1F
100
AcDbEntity
  8
0
 62
     2
100
AcDbLine
 10
93.40877832063003
 20
95.02299803427283
 30
0.0
 11
88.40877832068415
 21
95.02299803427908
 31
0.0
  0
ARC
  5
14B
330
1F
100
AcDbEntity
  8
0
 62
     2
100
AcDbCircle
 10
93.40877832063003
 20
93.02299803427596
 30
0.0
 40
2.0
100
AcDbArc
 50
23.57816088011897
 51
89.99999999999967
  0
ARC
  5
14C
330
1F
100
AcDbEntity
  8
0
 62
     2
100
AcDbCircle
 10
95.70006647525233
 20
94.02299733051947
 30
0.0
 40
0.5
100
AcDbArc
 50
203.5781608801188
 51
269.9999999999753
  0
ARC
  5
14D
330
1F
100
AcDbEntity
  8
0
 62
     2
100
AcDbCircle
 10
96.90877850772844
 20
94.02299733053013
 30
0.0
 40
0.5
100
AcDbArc
 50
270.000000000228
 51
330.5532540662954
  0
LINE
  5
14E
330
1F
100
AcDbEntity
  8
0
 62
     2
100
AcDbLine
 10
97.40877850772742
 20
97.12299725434832
 30
0.0
 11
97.40877850772753
 21
94.7729996270225
 31
0.0
  0
ARC
  5
14F
330
1F
100
AcDbEntity
  8
0
 62
     2
100
AcDbCircle
 10
96.90877850773003
 20
97.12299725434198
 30
0.0
 40
0.5
100
AcDbArc
 50
0.0
 51
63.10784521632415
  0
LINE
  5
150
330
1F
100
AcDbEntity
  8
0
 62
     2
100
AcDbLine
 10
99.15877873425669
 20
101.4229972543409
 30
0.0
 11
97.33327780793704
 21
101.4229972543412
 31
0.0
  0
LINE
  5
151
330
1F
100
AcDbEntity
  8
0
 62
     2
100
AcDbLine
 10
99.15877851292854
 20
94.02299796810786
 30
0.0
 11
99.15877851292854
 21
101.4229972543411
 31
0.0
  0
LINE
  5
152
330
1F
100
AcDbEntity
  8
0
 62
     2
100
AcDbLine
 10
82.65877851292854
 20
101.4229972543411
 30
0.0
 11
82.65877851292848
 21
94.02299796810786
 31
0.0
  0
CIRCLE
  5
153
330
1F
100
AcDbEntity
  8
0
 62
     2
100
AcDbCircle
 10
94.40877738887579
 20
121.772996414315
 30
0.0
 40
0.5
  0
ARC
  5
154
330
1F
100
AcDbEntity
  8
0
 62
     2
100
AcDbCircle
 10
97.40878338022569
 20
94.27299962702327
 30
0.0
 40
0.5
100
AcDbArc
 50
90.0
 51
262.5768226644321
  0
ARC
  5
155
330
1F
100
AcDbEntity
  8
0
 62
     2
100
AcDbCircle
 10
84.4087786039913
 20
94.27299768067584
 30
0.0
 40
0.5
100
AcDbArc
 50
277.422760761305
 51
89.99999999999353
  0
ARC
  5
156
330
1F
100
AcDbEntity
  8
0
 62
     2
100
AcDbCircle
 10
84.90877872456664
 20
123.7729972974073
 30
0.0
 40
1.25
100
AcDbArc
 50
219.2404339664806
 51
270.0000000022207
  0
LINE
  5
157
330
1F
100
AcDbEntity
  8
0
 62
     2
100
AcDbLine
 10
96.9087787245945
 20
122.5229972974089
 30
0.0
 11
84.90877872461508
 21
122.5229972974089
 31
0.0
  0
ARC
  5
158
330
1F
100
AcDbEntity
  8
0
 62
     2
100
AcDbCircle
 10
96.9087787245945
 20
123.7729972974089
 30
0.0
 40
1.25
100
AcDbArc
 50
269.9999999956697
 51
320.7595548899251
  0
ARC
  5
159
330
1F
100
AcDbEntity
  8
0
 62
     2
100
AcDbCircle
 10
96.15877851292848
 20
120.5229979681078
 30
0.0
 40
3.0
100
AcDbArc
 50
55.06074622844368
 51
89.99999999999936
  0
ARC
  5
15A
330
1F
100
AcDbEntity
  8
0
 62
     2
100
AcDbCircle
 10
85.65877851292848
 20
120.5229979681078
 30
0.0
 40
3.0
100
AcDbArc
 50
90.0
 51
124.9392474924479
  0
LINE
  5
15B
330
1F
100
AcDbEntity
  8
0
 62
     2
100
AcDbLine
 10
96.15877851292848
 20
123.5229979681078
 30
0.0
 11
85.65877851292848
 21
123.5229979681078
 31
0.0
  0
ARC
  5
15C
330
1F
100
AcDbEntity
  8
0
 62
     2
100
AcDbCircle
 10
84.15877851292848
 20
94.02299796810783
 30
0.0
 40
1.5
100
AcDbArc
 50
252.2250222827525
 51
270.0000000000011
  0
ARC
  5
15D
330
1F
100
AcDbEntity
  8
0
 62
     2
100
AcDbCircle
 10
97.65877851292859
 20
94.02299796810786
 30
0.0
 40
1.5
100
AcDbArc
 50
270.0
 51
287.7749933595473
  0
LINE
  5
15E
330
1F
100
AcDbEntity
  8
0
 62
     2
100
AcDbLine
 10
84.15877851292854
 20
92.52299796810783
 30
0.0
 11
97.65877851292854
 21
92.52299796810786
 31
0.0
  0
LINE
  5
15F
330
1F
100
AcDbEntity
  8
0
 62
     2
100
AcDbLine
 10
96.90877872456767
 20
93.52299729741321
 30
0.0
 11
95.7000664752521
 21
93.5229972974129
 31
0.0
  0
CIRCLE
  5
160
330
1F
100
AcDbEntity
  8
0
 62
     2
100
AcDbCircle
 10
90.20877777429743
 20
118.7229983736294
 30
0.0
 40
1.85
  0
ARC
  5
161
330
1F
100
AcDbEntity
  8
0
 62
     2
100
AcDbCircle
 10
90.20877777429743
 20
118.7229983736294
 30
0.0
 40
2.0
100
AcDbArc
 50
18.19485381083677
 51
161.805109133075
  0
ARC
  5
162
330
1F
100
AcDbEntity
  8
0
 62
     2
100
AcDbCircle
 10
96.15877851292848
 20
120.5229979681078
 30
0.0
 40
3.0
100
AcDbArc
 50
54.33774852468998
 51
55.06074622844486
  0
ARC
  5
163
330
1F
100
AcDbEntity
  8
0
 62
     2
100
AcDbCircle
 10
85.65877851292848
 20
120.5229979681078
 30
0.0
 40
3.0
100
AcDbArc
 50
124.9392474924474
 51
125.6623442556322
  0
ARC
  5
164
330
1F
100
AcDbEntity
  8
0
 62
     2
100
AcDbCircle
 10
87.80877797621972
 20
120.5229978036496
 30
0.0
 40
0.5
100
AcDbArc
 50
0.0
 51
89.99999999766807
  0
LINE
  5
165
330
1F
100
AcDbEntity
  8
0
 62
     2
100
AcDbLine
 10
88.30877797624859
 20
120.5229978036242
 30
0.0
 11
88.30877797624666
 21
119.3474987878861
 31
0.0
  0
LINE
  5
166
330
1F
100
AcDbEntity
  8
0
 62
     2
100
AcDbLine
 10
92.10877797624389
 20
119.3474975590599
 30
0.0
 11
92.1087779762448
 21
120.5229978036523
 31
0.0
  0
ARC
  5
167
330
1F
100
AcDbEntity
  8
0
 62
     2
100
AcDbCircle
 10
92.60877797625128
 20
120.5229978036598
 30
0.0
 40
0.5
100
AcDbArc
 50
90.00000000517194
 51
180.0000000008533
  0
LINE
  5
168
330
1F
100
AcDbEntity
  8
0
 62
     2
100
AcDbLine
 10
92.60877797620614
 20
121.0229978036504
 30
0.0
 11
95.90877649509443
 21
121.0229978036504
 31
0.0
  0
ARC
  5
169
330
1F
100
AcDbEntity
  8
0
 62
     2
100
AcDbCircle
 10
95.9087764951158
 20
123.0229978036468
 30
0.0
 40
2.0
100
AcDbArc
 50
270.0000696539236
 51
358.2064520532913
  0
ARC
  5
16A
330
1F
100
AcDbEntity
  8
0
 62
     2
100
AcDbCircle
 10
85.90877649511307
 20
123.0229978036468
 30
0.0
 40
2.0
100
AcDbArc
 50
181.7936291238055
 51
270.0000696539269
  0
LINE
  5
16B
330
1F
100
AcDbEntity
  8
0
 62
     2
100
AcDbLine
 10
85.90877649509181
 20
121.0229978036468
 30
0.0
 11
87.80877797624007
 21
121.0229978036468
 31
0.0
  0
LINE
  5
16C
330
1F
100
AcDbEntity
  8
0
 62
     2
100
AcDbLine
 10
99.15877777429736
 20
115.7521779803795
 30
0.0
 11
99.15877777429736
 21
117.0938187668795
 31
0.0
  0
LINE
  5
16D
330
1F
100
AcDbEntity
  8
0
 62
     2
100
AcDbLine
 10
90.93807542781767
 20
116.860712793483
 30
0.0
 11
90.88732000079793
 21
116.8416161536723
 31
0.0
  0
LINE
  5
16E
330
1F
100
AcDbEntity
  8
0
 62
     2
100
AcDbLine
 10
89.96732076182226
 20
116.8888800268269
 30
0.0
 11
89.96845380371596
 21
116.8887500388588
 31
0.0
  0
LINE
  5
16F
330
1F
100
AcDbEntity
  8
0
 62
     2
100
AcDbLine
 10
90.93807542781767
 20
116.860712793483
 30
0.0
 11
90.88732000079793
 21
116.8416161536723
 31
0.0
  0
ARC
  5
170
330
1F
100
AcDbEntity
  8
0
 62
     6
100
AcDbCircle
 10
90.20877777429743
 20
118.7229983736294
 30
0.0
 40
2.0
100
AcDbArc
 50
161.8051091330769
 51
18.19485381083938
  0
ARC
  5
171
330
1F
100
AcDbEntity
  8
0
 62
     6
100
AcDbCircle
 10
95.90877872456704
 20
96.52299777056251
 30
0.0
 40
0.79999998654733
100
AcDbArc
 50
354.9999999999995
 51
274.9999999999995
  0
ARC
  5
172
330
1F
100
AcDbEntity
  8
0
 62
     6
100
AcDbCircle
 10
95.90877872456687
 20
119.5229977705627
 30
0.0
 40
0.799999986547266
100
AcDbArc
 50
354.9999999999992
 51
274.9999999999992
  0
LINE
  5
173
330
1F
100
AcDbEntity
  8
0
 62
     2
100
AcDbLine
 10
99.15877851292854
 20
101.4229972543411
 30
0.0
 11
99.15877851292848
 21
114.9617484404094
 31
0.0
  0
ARC
  5
174
330
1F
100
AcDbEntity
  8
0
 62
     2
100
AcDbCircle
 10
82.40877872456699
 20
119.5229977705625
 30
0.0
 40
2.0
100
AcDbArc
 50
300.0000000000001
 51
59.99999999999988
  0
LINE
  5
175
330
1F
100
AcDbEntity
  8
0
 62
     2
100
AcDbLine
 10
82.65877851292848
 20
114.9617481015165
 30
0.0
 11
82.65877851292854
 21
101.4229972543412
 31
0.0
  0
ARC
  5
176
330
1F
100
AcDbEntity
  8
0
 62
     2
100
AcDbCircle
 10
99.40877872456693
 20
119.5229977705625
 30
0.0
 40
2.0
100
AcDbArc
 50
119.9999999999979
 51
240.0000000000035
  0
ARC
  5
177
330
1F
100
AcDbEntity
  8
0
 62
     6
100
AcDbCircle
 10
85.90877872456699
 20
119.5229977705626
 30
0.0
 40
0.7999999865473761
100
AcDbArc
 50
354.9999999999999
 51
274.9999999999998
  0
ARC
  5
178
330
1F
100
AcDbEntity
  8
0
 62
     6
100
AcDbCircle
 10
85.9087787245671
 20
96.5229977705624
 30
0.0
 40
0.7999999865473832
100
AcDbArc
 50
354.9999999999999
 51
274.9999999999998
  0
ARC
  5
179
330
1F
100
AcDbEntity
  8
0
 62
     2
100
AcDbCircle
 10
85.65877851292848
 20
120.5229979681078
 30
0.0
 40
3.0
100
AcDbArc
 50
125.6623442556321
 51
138.5903717798022
  0
ARC
  5
17A
330
1F
100
AcDbEntity
  8
0
 62
     2
100
AcDbCircle
 10
96.15877851292848
 20
120.5229979681078
 30
0.0
 40
3.0
100
AcDbArc
 50
41.4096159983434
 51
54.33774852468982
  0
ARC
  5
17B
330
1F
100
AcDbEntity
  8
0
 62
     2
100
AcDbCircle
 10
96.90877872456818
 20
113.1229973404745
 30
0.0
 40
0.75
100
AcDbArc
 50
0.0
 51
90.00000000015416
  0
LINE
  5
17C
330
1F
100
AcDbEntity
  8
0
 62
     2
100
AcDbLine
 10
97.65877872456733
 20
102.9229972543317
 30
0.0
 11
97.65877872456755
 21
105.2431595423205
 31
0.0
  0
ARC
  5
17D
330
1F
100
AcDbEntity
  8
0
 62
     2
100
AcDbCircle
 10
96.90877872456733
 20
102.9229972543317
 30
0.0
 40
0.75
100
AcDbArc
 50
270.0
 51
0.0
  0
LINE
  5
17E
330
1F
100
AcDbEntity
  8
0
 62
     2
100
AcDbLine
 10
96.70877911931885
 20
102.1729972543317
 30
0.0
 11
96.90877872456733
 21
102.1729972543317
 31
0.0
  0
ARC
  5
17F
330
1F
100
AcDbEntity
  8
0
 62
     2
100
AcDbCircle
 10
96.70877911932084
 20
99.52299725433173
 30
0.0
 40
2.649999999999999
100
AcDbArc
 50
90.00000000004178
 51
153.8210298665536
  0
ARC
  5
180
330
1F
100
AcDbEntity
  8
0
 62
     2
100
AcDbCircle
 10
93.65754989626484
 20
101.0229973304548
 30
0.0
 40
0.75
100
AcDbArc
 50
270.0000000004603
 51
333.8210298665518
  0
LINE
  5
181
330
1F
100
AcDbEntity
  8
0
 62
     2
100
AcDbLine
 10
88.16000834240478
 20
100.2729973304103
 30
0.0
 11
93.65754989627087
 21
100.2729973304103
 31
0.0
  0
ARC
  5
182
330
1F
100
AcDbEntity
  8
0
 62
     2
100
AcDbCircle
 10
88.16000834239875
 20
101.0229973304103
 30
0.0
 40
0.75
100
AcDbArc
 50
206.1789701326119
 51
270.0000000004637
  0
ARC
  5
183
330
1F
100
AcDbEntity
  8
0
 62
     2
100
AcDbCircle
 10
85.10877911932093
 20
99.52299725433173
 30
0.0
 40
2.65
100
AcDbArc
 50
26.17897013261097
 51
90.00000000008174
  0
LINE
  5
184
330
1F
100
AcDbEntity
  8
0
 62
     2
100
AcDbLine
 10
84.90877872456596
 20
102.1729972543317
 30
0.0
 11
85.10877911931712
 21
102.1729972543317
 31
0.0
  0
ARC
  5
185
330
1F
100
AcDbEntity
  8
0
 62
     2
100
AcDbCircle
 10
84.90877872456596
 20
102.9229972543317
 30
0.0
 40
0.75
100
AcDbArc
 50
180.0
 51
270.0
  0
LINE
  5
186
330
1F
100
AcDbEntity
  8
0
 62
     2
100
AcDbLine
 10
84.15877872456687
 20
113.1229973404423
 30
0.0
 11
84.15877872456664
 21
110.8028357918855
 31
0.0
  0
ARC
  5
187
330
1F
100
AcDbEntity
  8
0
 62
     2
100
AcDbCircle
 10
84.90877872456693
 20
113.1229973404423
 30
0.0
 40
0.75
100
AcDbArc
 50
90.000000000152
 51
179.9999999999978
  0
LINE
  5
188
330
1F
100
AcDbEntity
  8
0
 62
     2
100
AcDbLine
 10
85.10877911930035
 20
113.8729973404428
 30
0.0
 11
84.90877872456488
 21
113.8729973404417
 31
0.0
  0
ARC
  5
189
330
1F
100
AcDbEntity
  8
0
 62
     2
100
AcDbCircle
 10
85.1087791192966
 20
116.5229973404428
 30
0.0
 40
2.649999999999999
100
AcDbArc
 50
270.0000000000811
 51
333.8210311082058
  0
ARC
  5
18A
330
1F
100
AcDbEntity
  8
0
 62
     2
100
AcDbCircle
 10
88.16000837485896
 20
115.0229973304427
 30
0.0
 40
0.7500000000000001
100
AcDbArc
 50
89.99999999990881
 51
153.8210311082084
  0
LINE
  5
18B
330
1F
100
AcDbEntity
  8
0
 62
     2
100
AcDbLine
 10
93.65754986376689
 20
115.7729973304338
 30
0.0
 11
88.16000837486015
 21
115.7729973304516
 31
0.0
  0
ARC
  5
18C
330
1F
100
AcDbEntity
  8
0
 62
     2
100
AcDbCircle
 10
93.65754986376564
 20
115.0229973304338
 30
0.0
 40
0.75
100
AcDbArc
 50
26.17896889254724
 51
89.99999999990762
  0
ARC
  5
18D
330
1F
100
AcDbEntity
  8
0
 62
     2
100
AcDbCircle
 10
96.70877911930833
 20
116.522997340474
 30
0.0
 40
2.65
100
AcDbArc
 50
206.1789688925456
 51
270.0000000000416
  0
LINE
  5
18E
330
1F
100
AcDbEntity
  8
0
 62
     2
100
AcDbLine
 10
96.90877872456619
 20
113.8729973404745
 30
0.0
 11
96.70877911931026
 21
113.8729973404735
 31
0.0
  0
CIRCLE
  5
18F
330
1F
100
AcDbEntity
  8
0
 62
     2
100
AcDbCircle
 10
95.90877872456687
 20
119.5229977705627
 30
0.0
 40
0.61058
  0
CIRCLE
  5
190
330
1F
100
AcDbEntity
  8
0
 62
     2
100
AcDbCircle
 10
85.90877872456699
 20
119.5229977705626
 30
0.0
 40
0.61058
  0
CIRCLE
  5
191
330
1F
100
AcDbEntity
  8
0
 62
     2
100
AcDbCircle
 10
95.90877872456704
 20
96.52299777056251
 30
0.0
 40
0.61058
  0
CIRCLE
  5
192
330
1F
100
AcDbEntity
  8
0
 62
     2
100
AcDbCircle
 10
85.9087787245671
 20
96.5229977705624
 30
0.0
 40
0.61058
  0
LINE
  5
193
330
1F
100
AcDbEntity
  8
0
 62
     2
100
AcDbLine
 10
85.65877810874989
 20
102.3858830933367
 30
0.0
 11
85.65877810874989
 21
102.3952870306651
 31
0.0
  0
LINE
  5
194
330
1F
100
AcDbEntity
  8
0
 62
     2
100
AcDbLine
 10
88.30877797624666
 20
119.3474987878861
 30
0.0
 11
88.30877797624552
 21
118.7230022821163
 31
0.0
  0
ARC
  5
195
330
1F
100
AcDbEntity
  8
0
 62
     2
100
AcDbCircle
 10
90.20877797624459
 20
118.72300040006
 30
0.0
 40
1.9
100
AcDbArc
 50
180.000060110758
 51
359.9999999999996
  0
LINE
  5
196
330
1F
100
AcDbEntity
  8
0
 62
     2
100
AcDbLine
 10
92.10877797624343
 20
118.7229983009582
 30
0.0
 11
92.10877797624389
 21
119.3474975590599
 31
0.0
  0
LINE
  5
197
330
1F
100
AcDbEntity
  8
0
 62
     2
100
AcDbLine
 10
85.10877913843544
 20
101.4229972543416
 30
0.0
 11
84.48427840956262
 21
101.4229972543415
 31
0.0
  0
ARC
  5
198
330
1F
100
AcDbEntity
  8
0
 62
     2
100
AcDbCircle
 10
85.10877913843544
 20
99.52299225432822
 30
0.0
 40
1.9
100
AcDbArc
 50
270.0
 51
90.0
  0
LINE
  5
199
330
1F
100
AcDbEntity
  8
0
 62
     2
100
AcDbLine
 10
84.90877850771531
 20
97.62299725434136
 30
0.0
 11
85.10877913843544
 21
97.62299725434136
 31
0.0
  0
ARC
  5
19A
330
1F
100
AcDbEntity
  8
0
 62
     2
100
AcDbCircle
 10
84.9087785077206
 20
97.12299725434897
 30
0.0
 40
0.5
100
AcDbArc
 50
90.00000000060578
 51
116.8921856151874
  0
ARC
  5
19B
330
1F
100
AcDbEntity
  8
0
 62
     2
100
AcDbCircle
 10
96.90877850773003
 20
97.12299725434198
 30
0.0
 40
0.5
100
AcDbArc
 50
63.10784521632415
 51
89.99999999949844
  0
LINE
  5
19C
330
1F
100
AcDbEntity
  8
0
 62
     2
100
AcDbLine
 10
96.70877913843535
 20
97.62299725434738
 30
0.0
 11
96.90877850773441
 21
97.62299725434738
 31
0.0
  0
ARC
  5
19D
330
1F
100
AcDbEntity
  8
0
 62
     2
100
AcDbCircle
 10
96.70877913843535
 20
99.52300225435451
 30
0.0
 40
1.9
100
AcDbArc
 50
90.0
 51
270.0
  0
LINE
  5
19E
330
1F
100
AcDbEntity
  8
0
 62
     2
100
AcDbLine
 10
97.33327780793704
 20
101.4229972543412
 30
0.0
 11
96.70877913843535
 21
101.4229972543414
 31
0.0
  0
HATCH
  5
19F
330
1F
100
AcDbEntity
  8
Hatch
100
AcDbHatch
 10
0.0
 20
0.0
 30
0.0
210
0.0
220
0.0
230
1.0
  2
_USER
 70
     0
 71
     0
 91
        3
 92
        7
 72
     0
 73
     1
 93
        6
 10
98.70315656573001
 20
158.5229978474451
 10
98.70315656573001
 20
155.532997847445
 10
98.70817179151558
 20
155.5279989101648
 10
98.71318495575358
 20
155.522999714933
 10
99.15877812786584
 20
155.5229978474451
 10
99.15877812786579
 20
158.5229978474451
 97
        0
 92
        7
 72
     0
 73
     1
 93
        6
 10
82.65877812786579
 20
158.5229978474451
 10
82.65877812786582
 20
155.5229978474451
 10
83.10437083745168
 20
155.5229978474451
 10
83.10938365154527
 20
155.5279989058634
 10
83.11439855014007
 20
155.5329997538687
 10
83.11439888164432
 20
158.5229978474451
 97
        0
 92
        7
 72
     0
 73
     1
 93
        8
 10
87.1031565657301
 20
159.5229978474451
 10
87.1031565657301
 20
155.5329978474451
 10
87.1081717915157
 20
155.5279989101649
 10
87.1131849557537
 20
155.522999714933
 10
94.70437083745159
 20
155.5229978474451
 10
94.70938365154518
 20
155.5279989058634
 10
94.71439855013995
 20
155.5329997538687
 10
94.71439888164423
 20
159.5229978474451
 97
        0
 75
     0
 76
     0
 52
0.0
 41
1.0
 77
     0
 78
     1
 53
45.0
 43
-35.50687682665739
 44
-24.27075377131678
 45
-0.3535533905932737
 46
0.3535533905932738
 79
     0
 47
0.0
 98
        0
  0
HATCH
  5
1A0
330
1F
100
AcDbEntity
  8
Hatch
100
AcDbHatch
 10
0.0
 20
0.0
 30
0.0
210
0.0
220
0.0
230
1.0
  2
_USER
 70
     0
 71
     0
 91
        4
 92
        7
 72
     0
 73
     1
 93
       10
 10
41.56502648987157
 20
158.7229978474433
 10
41.56502648987157
 20
155.5229978474433
 10
50.65877812786567
 20
155.5229978474433
 10
50.6587781278657
 20
157.0229978474432
 10
49.65877879856222
 20
157.0229978474432
 10
49.65877879856222
 20
158.5229978474432
 10
48.42672671618038
 20
158.5229978474432
 10
48.42672671618038
 20
159.5229978474432
 10
42.34253720730973
 20
159.5229978474433
 10
42.3425372073097
 20
158.7229978474433
 97
        0
 92
        7
 72
     0
 73
     1
 93
        9
 10
19.6587781278657
 20
157.0229978474433
 10
19.6587781278657
 20
155.5229978474432
 10
19.99877968165848
 20
155.5229978474433
 10
20.19877968165849
 20
155.7229978474433
 10
20.19877968165849
 20
156.7229990259353
 10
20.9087796816585
 20
156.7229990259353
 10
20.9087796816585
 20
158.5229978474433
 10
20.65877879856495
 20
158.5229978474433
 10
20.65877879856498
 20
157.0229978474433
 97
        0
 92
        5
 93
        1
 72
     2
 10
26.75877772234404
 20
157.1229978474432
 40
0.9
 50
0.0
 51
360.0
 73
     1
 97
        0
 92
        7
 72
     0
 73
     1
 93
       11
 10
22.15877829232508
 20
158.5229978474433
 10
22.15877829232508
 20
159.5229978474433
 10
27.97502038985354
 20
159.5229978474433
 10
27.97502038985343
 20
158.7229978474433
 10
28.75253134861219
 20
158.7229978474433
 10
28.75253134861219
 20
155.5229978474433
 10
22.81877968165847
 20
155.5229978474433
 10
22.61877968165851
 20
155.7229978474433
 10
22.61877968165851
 20
156.7229990259353
 10
21.90877968165847
 20
156.7229990259353
 10
21.9087796816585
 20
158.5229978474433
 97
        0
 75
     0
 76
     0
 52
0.0
 41
1.0
 77
     0
 78
     1
 53
45.0
 43
-12.63946764212838
 44
25.62232514970955
 45
-0.3535533905932737
 46
0.3535533905932738
 79
     0
 47
0.0
 98
        0
  0
LINE
  5
1A1
330
1F
100
AcDbEntity
  8
0
 62
     2
100
AcDbLine
 10
83.10437083745168
 20
155.5229978474451
 30
0.0
 11
87.11318682845982
 21
155.5229978474451
 31
0.0
  0
LINE
  5
1A2
330
1F
100
AcDbEntity
  8
0
 62
     6
100
AcDbLine
 10
97.3332774228744
 20
159.5229978474451
 30
0.0
 11
97.3332774228744
 21
158.5229978474451
 31
0.0
  0
LINE
  5
1A3
330
1F
100
AcDbEntity
  8
0
 62
     2
100
AcDbLine
 10
94.86485609693943
 20
158.5229978474451
 30
0.0
 11
98.55269935043509
 21
158.5229978474451
 31
0.0
  0
LINE
  5
1A4
330
1F
100
AcDbEntity
  8
0
 62
     6
100
AcDbLine
 10
84.48427802449993
 20
159.5229978474451
 30
0.0
 11
84.48427802449993
 21
158.5229978474451
 31
0.0
  0
LINE
  5
1A5
330
1F
100
AcDbEntity
  8
0
 62
     2
100
AcDbLine
 10
83.26485609693947
 20
158.5229978474451
 30
0.0
 11
86.95269935043513
 21
158.5229978474451
 31
0.0
  0
LINE
  5
1A6
330
1F
100
AcDbEntity
  8
0
 62
     2
100
AcDbLine
 10
82.65877812786582
 20
159.5229978474451
 30
0.0
 11
82.65877812786582
 21
158.5229978474451
 31
0.0
  0
LINE
  5
1A7
330
1F
100
AcDbEntity
  8
0
 62
     2
100
AcDbLine
 10
84.48427802449996
 20
159.5229978474451
 30
0.0
 11
82.65877834919235
 21
159.5229978474451
 31
0.0
  0
LINE
  5
1A8
330
1F
100
AcDbEntity
  8
0
 62
     2
100
AcDbLine
 10
99.15877812786582
 20
158.5229978474451
 30
0.0
 11
99.15877812786582
 21
159.5229978474451
 31
0.0
  0
LINE
  5
1A9
330
1F
100
AcDbEntity
  8
0
 62
     2
100
AcDbLine
 10
99.158778349194
 20
159.5229978474451
 30
0.0
 11
97.33327742287437
 21
159.5229978474451
 31
0.0
  0
LINE
  5
1AA
330
1F
100
AcDbEntity
  8
0
 62
     2
100
AcDbLine
 10
94.70437083745159
 20
155.5229978474451
 30
0.0
 11
98.71318467837347
 21
155.5229978474451
 31
0.0
  0
LINE
  5
1AB
330
1F
100
AcDbEntity
  8
0
 62
     2
100
AcDbLine
 10
85.34876426305283
 20
157.5918740739412
 30
0.0
 11
85.3502361380259
 21
157.591770735182
 31
0.0
  0
LINE
  5
1AC
330
1F
100
AcDbEntity
  8
0
 62
     2
100
AcDbLine
 10
85.6587777236872
 20
156.6519417519834
 30
0.0
 11
85.6587777236872
 21
157.3941135300173
 31
0.0
  0
LINE
  5
1AD
330
1F
100
AcDbEntity
  8
0
 62
     2
100
AcDbLine
 10
96.1587777236872
 20
157.3940552302294
 30
0.0
 11
96.1587777236872
 21
156.6517664026701
 31
0.0
  0
LINE
  5
1AE
330
1F
100
AcDbEntity
  8
0
 62
     2
100
AcDbLine
 10
85.10877875337275
 20
159.5229978474451
 30
0.0
 11
84.48427802449996
 21
159.5229978474451
 31
0.0
  0
LINE
  5
1AF
330
1F
100
AcDbEntity
  8
0
 62
     2
100
AcDbLine
 10
87.00286123681605
 20
159.5229978474451
 30
0.0
 11
85.10877875337275
 21
159.5229978474451
 31
0.0
  0
LINE
  5
1B0
330
1F
100
AcDbEntity
  8
0
 62
     2
100
AcDbLine
 10
83.26485591246583
 20
155.6829978474451
 30
0.0
 11
86.95269935043513
 21
155.6829978474451
 31
0.0
  0
LWPOLYLINE
  5
1B1
330
1F
100
AcDbEntity
  8
0
 62
     2
100
AcDbPolyline
 90
       85
 70
     0
 43
0.0
 10
85.6587864780044
 20
157.3941100294517
 10
85.5972020128124
 20
157.4187356459357
 10
85.58759712591427
 20
157.4221027097158
 10
85.56470754118706
 20
157.4296794789306
 10
85.51118612834438
 20
157.4451501681472
 10
85.45325404970333
 20
157.458771393754
 10
85.39088288028373
 20
157.4703071589652
 10
85.35024401955141
 20
157.4762905268847
 10
85.29603479249698
 20
157.4826361634139
 10
85.25427504510424
 20
157.4863647918555
 10
85.1820819772856
 20
157.4905858368897
 10
85.1087777236873
 20
157.4920394234275
 10
85.0367774678655
 20
157.4906367057254
 10
84.96582986359539
 20
157.4865612960446
 10
84.92151499533418
 20
157.482635591731
 10
84.86731174060611
 20
157.4762905687089
 10
84.83130321591668
 20
157.4710463964051
 10
84.76969529217965
 20
157.4598906657416
 10
84.71237147154659
 20
157.4467041393369
 10
84.65930497041754
 20
157.4317078788098
 10
84.62995533026569
 20
157.4221016789334
 10
84.62023527897699
 20
157.4186935032253
 10
84.61046439046018
 20
157.4151459571173
 10
84.5657227259214
 20
157.3971815347028
 10
84.52486119307898
 20
157.3778905896383
 10
84.48765730523624
 20
157.3573606749922
 10
84.47258115608636
 20
157.3480833864962
 10
84.45388857571209
 20
157.3356957278853
 10
84.42335278638825
 20
157.3130071851884
 10
84.4007973480459
 20
157.2938463972477
 10
84.37789424353662
 20
157.2716967470499
 10
84.37150575907208
 20
157.2649277743111
 10
84.34998614899851
 20
157.239735827388
 10
84.33126355992715
 20
157.2139244203467
 10
84.31728634838669
 20
157.1912568468266
 10
84.31523818421985
 20
157.1876086900714
 10
84.30183851803679
 20
157.1608660629468
 10
84.29100431384634
 20
157.1337598153676
 10
84.28306251630255
 20
157.1078433847588
 10
84.28267535287839
 20
157.1063555690313
 10
84.2767914163627
 20
157.0787209309344
 10
84.27329228552912
 20
157.0509250705969
 10
84.27211774160745
 20
157.0229574126799
 10
84.27329228552912
 20
156.9950706242932
 10
84.2767914163627
 20
156.9672747639557
 10
84.28267535287839
 20
156.9396401258588
 10
84.28306251630255
 20
156.9381523101314
 10
84.29100431384634
 20
156.9122358795225
 10
84.30183851803679
 20
156.8851296319433
 10
84.31523818421985
 20
156.8583870048188
 10
84.31728634838669
 20
156.8547388480636
 10
84.33126355992715
 20
156.8320712745434
 10
84.34998614899851
 20
156.8062598675021
 10
84.37150575907208
 20
156.7810679205791
 10
84.37789424353662
 20
156.7742989478402
 10
84.4007973480459
 20
156.7521492976424
 10
84.42335278638825
 20
156.7329885097018
 10
84.45388857571209
 20
156.7102999670048
 10
84.47258115608636
 20
156.6979123083939
 10
84.48765730523624
 20
156.6886350198979
 10
84.52486119307898
 20
156.6681051052518
 10
84.5657227259214
 20
156.6488141601874
 10
84.61046439046018
 20
156.6308497377729
 10
84.62023527897699
 20
156.6273021916648
 10
84.62995533026569
 20
156.6238940159568
 10
84.65930497041754
 20
156.6142878160803
 10
84.71237147154659
 20
156.5992915555533
 10
84.76969529217965
 20
156.5861050291485
 10
84.83130321591668
 20
156.574949298485
 10
84.86731174060611
 20
156.5697051261813
 10
84.9215149953342
 20
156.5633601031591
 10
84.96582986359539
 20
156.5594343988455
 10
85.0367774678655
 20
156.5553589891647
 10
85.1087777236873
 20
156.5539562714626
 10
85.1820819772856
 20
156.5554098580004
 10
85.25427504510424
 20
156.5596309030346
 10
85.29603479249698
 20
156.5633595314762
 10
85.35024401955141
 20
156.5697051680054
 10
85.39088288028373
 20
156.5756885359249
 10
85.45325404970333
 20
156.5872243011361
 10
85.51118612834438
 20
156.6008455267429
 10
85.56470754118706
 20
156.6163162159596
 10
85.58759712591427
 20
156.6238929851744
 10
85.5972020128124
 20
156.6272600489544
 10
85.6587864780044
 20
156.6518856654384
  0
LWPOLYLINE
  5
1B2
330
1F
100
AcDbEntity
  8
0
 62
     2
100
AcDbPolyline
 90
       11
 70
     0
 43
0.0
 10
85.65877594318985
 20
157.3940480079944
 10
85.67495726155508
 20
157.3340824841529
 10
85.6937761673851
 20
157.2484942271007
 10
85.70584263355488
 20
157.1702270480337
 10
85.71280872028913
 20
157.0959365178968
 10
85.71522821093427
 20
157.0230122764547
 10
85.71280874877493
 20
156.9500591426193
 10
85.70584264286839
 20
156.8757686312757
 10
85.69377615750489
 20
156.7975017438139
 10
85.67495736773185
 20
156.7119137054207
 10
85.6587764527838
 20
156.6519495481147
  0
LINE
  5
1B3
330
1F
100
AcDbEntity
  8
0
 62
     2
100
AcDbLine
 10
87.1031565657301
 20
155.5329978474451
 30
0.0
 11
83.11439888164432
 21
155.5329978474451
 31
0.0
  0
LINE
  5
1B4
330
1F
100
AcDbEntity
  8
0
 62
     2
100
AcDbLine
 10
98.70315656573001
 20
155.532997847445
 30
0.0
 11
94.71439888164423
 21
155.532997847445
 31
0.0
  0
LINE
  5
1B5
330
1F
100
AcDbEntity
  8
0
 62
     2
100
AcDbLine
 10
96.70877875337266
 20
159.5229978474451
 30
0.0
 11
94.81469706104497
 21
159.5229978474451
 31
0.0
  0
LINE
  5
1B6
330
1F
100
AcDbEntity
  8
0
 62
     2
100
AcDbLine
 10
97.33327742287437
 20
159.5229978474451
 30
0.0
 11
96.70877875337266
 21
159.5229978474451
 31
0.0
  0
LINE
  5
1B7
330
1F
100
AcDbEntity
  8
0
 62
     2
100
AcDbLine
 10
94.86485591246574
 20
155.6829978474451
 30
0.0
 11
98.55269935043509
 21
155.6829978474451
 31
0.0
  0
LWPOLYLINE
  5
1B8
330
1F
100
AcDbEntity
  8
0
 62
     2
100
AcDbPolyline
 90
       85
 70
     0
 43
0.0
 10
96.15876896936999
 20
157.3941100294516
 10
96.22035343456201
 20
157.4187356459356
 10
96.22995832146026
 20
157.4221027097157
 10
96.25284790618733
 20
157.4296794789305
 10
96.30636931903004
 20
157.4451501681472
 10
96.36430139767111
 20
157.4587713937539
 10
96.42667256709075
 20
157.4703071589651
 10
96.46731142782315
 20
157.4762905268847
 10
96.52152065487746
 20
157.4826361634139
 10
96.56328040227027
 20
157.4863647918555
 10
96.63547347008893
 20
157.4905858368897
 10
96.70877772368726
 20
157.4920394234275
 10
96.78077797950905
 20
157.4906367057254
 10
96.8517255837792
 20
157.4865612960446
 10
96.89604045204027
 20
157.482635591731
 10
96.95024370676845
 20
157.4762905687088
 10
96.98625223145791
 20
157.4710463964051
 10
97.04786015519491
 20
157.4598906657416
 10
97.10518397582797
 20
157.4467041393368
 10
97.15825047695702
 20
157.4317078788098
 10
97.18760011710887
 20
157.4221016789333
 10
97.19732016839757
 20
157.4186935032253
 10
97.20709105691438
 20
157.4151459571172
 10
97.25183272145318
 20
157.3971815347028
 10
97.29269425429558
 20
157.3778905896383
 10
97.32989814213832
 20
157.3573606749922
 10
97.3449742912882
 20
157.3480833864962
 10
97.36366687166247
 20
157.3356957278853
 10
97.39420266098631
 20
157.3130071851883
 10
97.41675809932866
 20
157.2938463972477
 10
97.43966120383797
 20
157.2716967470499
 10
97.44604968830248
 20
157.264927774311
 10
97.46756929837605
 20
157.239735827388
 10
97.48629188744741
 20
157.2139244203467
 10
97.50026909898787
 20
157.1912568468265
 10
97.50231726315471
 20
157.1876086900714
 10
97.51571692933777
 20
157.1608660629468
 10
97.52655113352822
 20
157.1337598153676
 10
97.53449293107201
 20
157.1078433847588
 10
97.53488009449617
 20
157.1063555690313
 10
97.54076403101186
 20
157.0787209309344
 10
97.54426316184544
 20
157.0509250705969
 10
97.54543770576711
 20
157.0229574126798
 10
97.54426316184544
 20
156.9950706242932
 10
97.54076403101186
 20
156.9672747639557
 10
97.53488009449617
 20
156.9396401258588
 10
97.53449293107201
 20
156.9381523101313
 10
97.52655113352822
 20
156.9122358795225
 10
97.51571692933777
 20
156.8851296319433
 10
97.50231726315471
 20
156.8583870048187
 10
97.50026909898787
 20
156.8547388480635
 10
97.48629188744741
 20
156.8320712745434
 10
97.46756929837605
 20
156.8062598675021
 10
97.44604968830248
 20
156.781067920579
 10
97.43966120383794
 20
156.7742989478402
 10
97.41675809932866
 20
156.7521492976424
 10
97.39420266098631
 20
156.7329885097018
 10
97.36366687166247
 20
156.7102999670048
 10
97.3449742912882
 20
156.6979123083939
 10
97.32989814213832
 20
156.6886350198979
 10
97.29269425429558
 20
156.6681051052518
 10
97.25183272145318
 20
156.6488141601873
 10
97.20709105691438
 20
156.6308497377728
 10
97.19732016839757
 20
156.6273021916648
 10
97.18760011710887
 20
156.6238940159568
 10
97.15825047695702
 20
156.6142878160803
 10
97.105183975828
 20
156.5992915555532
 10
97.04786015519491
 20
156.5861050291485
 10
96.98625223145791
 20
156.574949298485
 10
96.95024370676845
 20
156.5697051261812
 10
96.89604045204027
 20
156.5633601031591
 10
96.8517255837792
 20
156.5594343988455
 10
96.78077797950905
 20
156.5553589891647
 10
96.70877772368726
 20
156.5539562714626
 10
96.63547347008893
 20
156.5554098580004
 10
96.56328040227027
 20
156.5596309030346
 10
96.52152065487749
 20
156.5633595314762
 10
96.46731142782315
 20
156.5697051680054
 10
96.42667256709075
 20
156.5756885359249
 10
96.36430139767111
 20
156.5872243011361
 10
96.30636931903004
 20
156.6008455267429
 10
96.25284790618733
 20
156.6163162159596
 10
96.22995832146026
 20
156.6238929851743
 10
96.22035343456201
 20
156.6272600489544
 10
96.15876896936999
 20
156.6518856654385
  0
LWPOLYLINE
  5
1B9
330
1F
100
AcDbEntity
  8
0
 62
     2
100
AcDbPolyline
 90
       11
 70
     0
 43
0.0
 10
96.15877950418457
 20
156.6519476868958
 10
96.14258411482089
 20
156.7119691381359
 10
96.12378704509882
 20
156.7974597324003
 10
96.11171005329365
 20
156.8757911172159
 10
96.104749807519
 20
156.9500112579621
 10
96.10232723644023
 20
157.0229834184354
 10
96.10474977873537
 20
157.0959844667859
 10
96.11171004452686
 20
157.1702045978416
 10
96.12378705593545
 20
157.2485356915313
 10
96.14258400140298
 20
157.3340260329919
 10
96.15877899459059
 20
157.3940461467754
  0
LINE
  5
1BA
330
1F
100
AcDbEntity
  8
0
 62
     2
100
AcDbLine
 10
96.70877875337266
 20
159.5229978474451
 30
0.0
 11
96.70877875337266
 21
158.5229978474451
 31
0.0
  0
LINE
  5
1BB
330
1F
100
AcDbEntity
  8
0
 62
     2
100
AcDbLine
 10
85.10877875337275
 20
159.5229978474451
 30
0.0
 11
85.10877875337275
 21
158.5229978474451
 31
0.0
  0
LINE
  5
1BC
330
1F
100
AcDbEntity
  8
0
 62
     2
100
AcDbLine
 10
94.71439888164423
 20
159.5229978474451
 30
0.0
 11
87.1031565657301
 21
159.5229978474451
 31
0.0
  0
LINE
  5
1BD
330
1F
100
AcDbEntity
  8
0
 62
     2
100
AcDbLine
 10
98.71318460992254
 20
155.5229978474451
 30
0.0
 11
99.15877812786584
 21
155.5229978474451
 31
0.0
  0
LINE
  5
1BE
330
1F
100
AcDbEntity
  8
0
 62
     2
100
AcDbLine
 10
87.11318460992268
 20
155.5229978474451
 30
0.0
 11
94.70437083745159
 21
155.5229978474451
 31
0.0
  0
LINE
  5
1BF
330
1F
100
AcDbEntity
  8
0
 62
     2
100
AcDbLine
 10
82.65877812786584
 20
155.5229978474451
 30
0.0
 11
83.10437083745168
 21
155.5229978474451
 31
0.0
  0
LINE
  5
1C0
330
1F
100
AcDbEntity
  8
0
 62
     2
100
AcDbLine
 10
82.65877812786579
 20
158.5229978474451
 30
0.0
 11
82.65877812786582
 21
155.5229978474451
 31
0.0
  0
LINE
  5
1C1
330
1F
100
AcDbEntity
  8
0
 62
     2
100
AcDbLine
 10
99.15877812786584
 20
155.5229978474451
 30
0.0
 11
99.15877812786579
 21
158.5229978474451
 31
0.0
  0
LINE
  5
1C2
330
1F
100
AcDbEntity
  8
0
 62
     6
100
AcDbLine
 10
83.11439888164432
 20
158.5229978474451
 30
0.0
 11
83.11439888164432
 21
155.5329978474451
 31
0.0
  0
LINE
  5
1C3
330
1F
100
AcDbEntity
  8
0
 62
     6
100
AcDbLine
 10
87.1031565657301
 20
159.5229978474451
 30
0.0
 11
87.1031565657301
 21
155.5329978474451
 31
0.0
  0
LWPOLYLINE
  5
1C4
330
1F
100
AcDbEntity
  8
0
 62
     2
100
AcDbPolyline
 90
        3
 70
     0
 43
0.0
 10
83.11439855014007
 20
155.5329997538687
 10
83.10938365154527
 20
155.5279989058634
 10
83.1043688155334
 20
155.5229980435032
  0
LWPOLYLINE
  5
1C5
330
1F
100
AcDbEntity
  8
0
 62
     2
100
AcDbPolyline
 90
        3
 70
     0
 43
0.0
 10
87.1031585647365
 20
155.5329980910514
 10
87.1081717915157
 20
155.5279989101649
 10
87.1131849557537
 20
155.522999714933
  0
LINE
  5
1C6
330
1F
100
AcDbEntity
  8
0
 62
     6
100
AcDbLine
 10
94.71439888164423
 20
159.5229978474451
 30
0.0
 11
94.71439888164423
 21
155.532997847445
 31
0.0
  0
LINE
  5
1C7
330
1F
100
AcDbEntity
  8
0
 62
     6
100
AcDbLine
 10
98.70315656573001
 20
158.5229978474451
 30
0.0
 11
98.70315656573001
 21
155.532997847445
 31
0.0
  0
LWPOLYLINE
  5
1C8
330
1F
100
AcDbEntity
  8
0
 62
     2
100
AcDbPolyline
 90
        3
 70
     0
 43
0.0
 10
94.71439855013995
 20
155.5329997538687
 10
94.70938365154518
 20
155.5279989058634
 10
94.70436881553334
 20
155.5229980435032
  0
LWPOLYLINE
  5
1C9
330
1F
100
AcDbEntity
  8
0
 62
     2
100
AcDbPolyline
 90
        3
 70
     0
 43
0.0
 10
98.70315856473641
 20
155.5329980910514
 10
98.70817179151558
 20
155.5279989101648
 10
98.71318495575358
 20
155.522999714933
  0
LINE
  5
1CA
330
1F
100
AcDbEntity
  8
0
 62
     2
100
AcDbLine
 10
98.70315656573001
 20
158.5229978474451
 30
0.0
 11
99.15877812786584
 21
158.5229978474451
 31
0.0
  0
LINE
  5
1CB
330
1F
100
AcDbEntity
  8
0
 62
     2
100
AcDbLine
 10
82.65877812786579
 20
158.5229978474451
 30
0.0
 11
83.11439888164432
 21
158.5229978474451
 31
0.0
  0
LINE
  5
1CC
330
1F
100
AcDbEntity
  8
0
 62
     2
100
AcDbLine
 10
87.00286123681607
 20
159.5229978474451
 30
0.0
 11
87.00286123681607
 21
158.5229978474451
 31
0.0
  0
LINE
  5
1CD
330
1F
100
AcDbEntity
  8
0
 62
     2
100
AcDbLine
 10
94.81469706104497
 20
159.5229978474451
 30
0.0
 11
94.81469706104497
 21
158.5229978474451
 31
0.0
  0
LINE
  5
1CE
330
1F
100
AcDbEntity
  8
0
 62
     2
100
AcDbLine
 10
83.11439888164426
 20
158.5229978474451
 30
0.0
 11
83.26485609693947
 21
158.5229978474451
 31
0.0
  0
LINE
  5
1CF
330
1F
100
AcDbEntity
  8
0
 62
     2
100
AcDbLine
 10
86.95269935043513
 20
158.5229978474451
 30
0.0
 11
87.00286123681605
 21
158.5229978474451
 31
0.0
  0
LINE
  5
1D0
330
1F
100
AcDbEntity
  8
0
 62
     2
100
AcDbLine
 10
94.81469706104491
 20
158.5229978474451
 30
0.0
 11
94.86485609693943
 21
158.5229978474451
 31
0.0
  0
LINE
  5
1D1
330
1F
100
AcDbEntity
  8
0
 62
     2
100
AcDbLine
 10
98.55269935043509
 20
158.5229978474451
 30
0.0
 11
98.70315656573001
 21
158.5229978474451
 31
0.0
  0
LINE
  5
1D2
330
1F
100
AcDbEntity
  8
0
 62
     2
100
AcDbLine
 10
94.81469706104491
 20
159.5229978474451
 30
0.0
 11
94.71439888164423
 21
159.5229978474451
 31
0.0
  0
LINE
  5
1D3
330
1F
100
AcDbEntity
  8
0
 62
     2
100
AcDbLine
 10
94.86485609693943
 20
155.6829978474451
 30
0.0
 11
94.86485609693943
 21
158.5229978474451
 31
0.0
  0
LINE
  5
1D4
330
1F
100
AcDbEntity
  8
0
 62
     2
100
AcDbLine
 10
98.55269935043509
 20
155.6829978474451
 30
0.0
 11
98.55269935043509
 21
158.5229978474451
 31
0.0
  0
LWPOLYLINE
  5
1D5
330
1F
100
AcDbEntity
  8
0
 62
     2
100
AcDbPolyline
 90
        3
 70
     0
 43
0.0
 10
98.7031558394458
 20
155.5329982725042
 10
98.62793585293588
 20
155.6079989318799
 10
98.55269900472388
 20
155.6829983759567
  0
LWPOLYLINE
  5
1D6
330
1F
100
AcDbEntity
  8
0
 62
     2
100
AcDbPolyline
 90
        3
 70
     0
 43
0.0
 10
94.71439960792844
 20
155.5329982725042
 10
94.78961959443836
 20
155.6079989318799
 10
94.86485644265036
 20
155.6829983759567
  0
LINE
  5
1D7
330
1F
100
AcDbEntity
  8
0
 62
     2
100
AcDbLine
 10
83.26485609693947
 20
155.6829978474451
 30
0.0
 11
83.26485609693947
 21
158.5229978474451
 31
0.0
  0
LINE
  5
1D8
330
1F
100
AcDbEntity
  8
0
 62
     2
100
AcDbLine
 10
86.95269935043513
 20
155.6829978474451
 30
0.0
 11
86.95269935043513
 21
158.5229978474451
 31
0.0
  0
LWPOLYLINE
  5
1D9
330
1F
100
AcDbEntity
  8
0
 62
     2
100
AcDbPolyline
 90
        3
 70
     0
 43
0.0
 10
87.10315583944589
 20
155.5329982725042
 10
87.02793585293597
 20
155.6079989318799
 10
86.95269900472397
 20
155.6829983759567
  0
LWPOLYLINE
  5
1DA
330
1F
100
AcDbEntity
  8
0
 62
     2
100
AcDbPolyline
 90
        3
 70
     0
 43
0.0
 10
83.11439960792853
 20
155.5329982725042
 10
83.18961959443845
 20
155.6079989318799
 10
83.26485644265045
 20
155.6829983759567
  0
LINE
  5
1DB
330
1F
100
AcDbEntity
  8
0
 62
     2
100
AcDbLine
 10
87.1031565657301
 20
159.5229978474451
 30
0.0
 11
87.00286123681605
 21
159.5229978474451
 31
0.0
  0
LINE
  5
1DC
330
1F
100
AcDbEntity
  8
0
 62
     2
100
AcDbLine
 10
40.7992191152079
 20
158.7229978474433
 30
0.0
 11
41.5650264898716
 21
158.7229978474433
 31
0.0
  0
LINE
  5
1DD
330
1F
100
AcDbEntity
  8
0
 62
     2
100
AcDbLine
 10
30.5246194058326
 20
158.7229978474433
 30
0.0
 11
32.378941284832
 21
158.7229978474433
 31
0.0
  0
LINE
  5
1DE
330
1F
100
AcDbEntity
  8
0
 62
     2
100
AcDbLine
 10
40.7992191152079
 20
158.7229978474433
 30
0.0
 11
40.7992191152079
 21
158.0229978474433
 31
0.0
  0
LINE
  5
1DF
330
1F
100
AcDbEntity
  8
0
 62
     2
100
AcDbLine
 10
39.7929384326512
 20
158.0229978474433
 30
0.0
 11
40.79921911520793
 21
158.0229978474433
 31
0.0
  0
LINE
  5
1E0
330
1F
100
AcDbEntity
  8
0
 62
     2
100
AcDbLine
 10
39.79293843265117
 20
158.7229978474433
 30
0.0
 11
39.79293843265117
 21
158.0229978474433
 31
0.0
  0
LINE
  5
1E1
330
1F
100
AcDbEntity
  8
0
 62
     2
100
AcDbLine
 10
30.5246194058326
 20
158.7229978474433
 30
0.0
 11
30.5246194058326
 21
158.0229978474433
 31
0.0
  0
LINE
  5
1E2
330
1F
100
AcDbEntity
  8
0
 62
     2
100
AcDbLine
 10
29.51833872327563
 20
158.0229978474433
 30
0.0
 11
30.5246194058326
 21
158.0229978474433
 31
0.0
  0
LINE
  5
1E3
330
1F
100
AcDbEntity
  8
0
 62
     2
100
AcDbLine
 10
29.5183387232756
 20
158.7229978474433
 30
0.0
 11
29.5183387232756
 21
158.0229978474433
 31
0.0
  0
LINE
  5
1E4
330
1F
100
AcDbEntity
  8
0
 62
     2
100
AcDbLine
 10
39.79293843265117
 20
158.7229978474433
 30
0.0
 11
40.7992191152079
 21
158.7229978474433
 31
0.0
  0
LINE
  5
1E5
330
1F
100
AcDbEntity
  8
0
 62
     2
100
AcDbLine
 10
29.5183387232756
 20
158.7229978474433
 30
0.0
 11
30.5246194058326
 21
158.7229978474433
 31
0.0
  0
LINE
  5
1E6
330
1F
100
AcDbEntity
  8
0
 62
     2
100
AcDbLine
 10
32.37894128483191
 20
159.5229978474433
 30
0.0
 11
30.05877875549902
 21
159.5229978474433
 31
0.0
  0
LINE
  5
1E7
330
1F
100
AcDbEntity
  8
0
 62
     2
100
AcDbLine
 10
37.93861655365296
 20
159.5229978474433
 30
0.0
 11
37.93861655365296
 21
158.7229978474433
 31
0.0
  0
LINE
  5
1E8
330
1F
100
AcDbEntity
  8
0
 62
     2
100
AcDbLine
 10
32.378941284832
 20
159.5229978474433
 30
0.0
 11
32.378941284832
 21
158.7229978474433
 31
0.0
  0
LINE
  5
1E9
330
1F
100
AcDbEntity
  8
0
 62
     2
100
AcDbLine
 10
28.75253134861222
 20
158.7229978474433
 30
0.0
 11
29.5183387232756
 21
158.7229978474433
 31
0.0
  0
LINE
  5
1EA
330
1F
100
AcDbEntity
  8
0
 62
     2
100
AcDbLine
 10
37.93861655365296
 20
158.7229978474433
 30
0.0
 11
39.79293843265117
 21
158.7229978474433
 31
0.0
  0
LINE
  5
1EB
330
1F
100
AcDbEntity
  8
0
 62
     2
100
AcDbLine
 10
37.93861655365302
 20
159.5229978474433
 30
0.0
 11
32.37894128483194
 21
159.5229978474433
 31
0.0
  0
LINE
  5
1EC
330
1F
100
AcDbEntity
  8
0
 62
     2
100
AcDbLine
 10
28.75253134861219
 20
155.5229978474433
 30
0.0
 11
41.56502648987157
 21
155.5229978474433
 31
0.0
  0
LINE
  5
1ED
330
1F
100
AcDbEntity
  8
0
 62
     2
100
AcDbLine
 10
19.9987796816585
 20
155.5229978474433
 30
0.0
 11
22.8187796816585
 21
155.5229978474433
 31
0.0
  0
LINE
  5
1EE
330
1F
100
AcDbEntity
  8
0
 62
     2
100
AcDbLine
 10
49.65877879856188
 20
158.5229978474432
 30
0.0
 11
50.58717221119963
 21
158.5229978474432
 31
0.0
  0
LINE
  5
1EF
330
1F
100
AcDbEntity
  8
0
 62
     2
100
AcDbLine
 10
49.35877862470275
 20
159.5229978474432
 30
0.0
 11
48.42672671618038
 21
159.5229978474432
 31
0.0
  0
LINE
  5
1F0
330
1F
100
AcDbEntity
  8
0
 62
     2
100
AcDbLine
 10
49.35877862470275
 20
159.5229978474432
 30
0.0
 11
49.65877876545406
 21
159.5229978474432
 31
0.0
  0
LINE
  5
1F1
330
1F
100
AcDbEntity
  8
0
 62
     2
100
AcDbLine
 10
20.9087796816585
 20
158.5229978474433
 30
0.0
 11
21.9087796816585
 21
158.5229978474433
 31
0.0
  0
LINE
  5
1F2
330
1F
100
AcDbEntity
  8
0
 62
     2
100
AcDbLine
 10
21.9087796816585
 20
156.7229990259353
 30
0.0
 11
20.9087796816585
 21
156.7229990259353
 31
0.0
  0
LINE
  5
1F3
330
1F
100
AcDbEntity
  8
0
 62
     2
100
AcDbLine
 10
20.199499021973
 20
158.5229978474433
 30
0.0
 11
20.65877879856467
 21
158.5229978474433
 31
0.0
  0
LINE
  5
1F4
330
1F
100
AcDbEntity
  8
0
 62
     2
100
AcDbLine
 10
20.19949902197297
 20
158.5229978474433
 30
0.0
 11
20.19949902197297
 21
157.0229978474433
 31
0.0
  0
LINE
  5
1F5
330
1F
100
AcDbEntity
  8
0
 62
     2
100
AcDbLine
 10
50.58717221119963
 20
158.5229978474432
 30
0.0
 11
50.58717221119963
 21
157.0229978474432
 31
0.0
  0
LINE
  5
1F6
330
1F
100
AcDbEntity
  8
0
 62
     2
100
AcDbLine
 10
20.22137470207028
 20
159.5229978474433
 30
0.0
 11
20.22137470207028
 21
158.5229978474433
 31
0.0
  0
LINE
  5
1F7
330
1F
100
AcDbEntity
  8
0
 62
     2
100
AcDbLine
 10
22.15877829232525
 20
159.5229978474433
 30
0.0
 11
20.22137470207031
 21
159.5229978474433
 31
0.0
  0
LINE
  5
1F8
330
1F
100
AcDbEntity
  8
0
 62
     2
100
AcDbLine
 10
30.05877875549905
 20
159.5229978474433
 30
0.0
 11
29.30877875549899
 21
159.5229978474433
 31
0.0
  0
LINE
  5
1F9
330
1F
100
AcDbEntity
  8
0
 62
     2
100
AcDbLine
 10
40.25877884164183
 20
159.5229978474433
 30
0.0
 11
37.93861655365305
 21
159.5229978474433
 31
0.0
  0
LINE
  5
1FA
330
1F
100
AcDbEntity
  8
0
 62
     2
100
AcDbLine
 10
41.0087788416418
 20
159.5229978474433
 30
0.0
 11
40.25877884164186
 21
159.5229978474433
 31
0.0
  0
LINE
  5
1FB
330
1F
100
AcDbEntity
  8
0
 62
     2
100
AcDbLine
 10
41.0087788416418
 20
159.5229978474433
 30
0.0
 11
42.34253720730973
 21
159.5229978474433
 31
0.0
  0
LINE
  5
1FC
330
1F
100
AcDbEntity
  8
0
 62
     2
100
AcDbLine
 10
27.97502038985354
 20
159.5229978474433
 30
0.0
 11
29.30877875549953
 21
159.5229978474433
 31
0.0
  0
LINE
  5
1FD
330
1F
100
AcDbEntity
  8
0
 62
     2
100
AcDbLine
 10
22.85877832541087
 20
155.5480175691076
 30
0.0
 11
22.85877832541087
 21
155.5500752050381
 31
0.0
  0
LINE
  5
1FE
330
1F
100
AcDbEntity
  8
0
 62
     2
100
AcDbLine
 10
22.85877832541087
 20
155.5424548451236
 30
0.0
 11
22.85877832541087
 21
155.5440497787759
 31
0.0
  0
LINE
  5
1FF
330
1F
100
AcDbEntity
  8
0
 62
     2
100
AcDbLine
 10
22.85877832541087
 20
155.5360429255834
 30
0.0
 11
22.85877832541087
 21
155.5375516668385
 31
0.0
  0
LINE
  5
200
330
1F
100
AcDbEntity
  8
0
 62
     2
100
AcDbLine
 10
22.85877832541087
 20
155.5480175691076
 30
0.0
 11
22.85877832541087
 21
155.5500752050381
 31
0.0
  0
LINE
  5
201
330
1F
100
AcDbEntity
  8
0
 62
     2
100
AcDbLine
 10
22.85877832541087
 20
155.5424548451236
 30
0.0
 11
22.85877832541087
 21
155.5440497787759
 31
0.0
  0
LINE
  5
202
330
1F
100
AcDbEntity
  8
0
 62
     2
100
AcDbLine
 10
22.85877832541087
 20
155.5360429255834
 30
0.0
 11
22.85877832541087
 21
155.5375516668385
 31
0.0
  0
LINE
  5
203
330
1F
100
AcDbEntity
  8
0
 62
     2
100
AcDbLine
 10
22.61877968165851
 20
156.7229990259353
 30
0.0
 11
22.61877968165851
 21
155.7229978474433
 31
0.0
  0
LINE
  5
204
330
1F
100
AcDbEntity
  8
0
 62
     2
100
AcDbLine
 10
20.19877968165849
 20
156.7229990259353
 30
0.0
 11
20.19877968165849
 21
155.7229978474433
 31
0.0
  0
LINE
  5
205
330
1F
100
AcDbEntity
  8
0
 62
     2
100
AcDbLine
 10
20.19877968165849
 20
155.7229978474433
 30
0.0
 11
22.61877968165851
 21
155.7229978474433
 31
0.0
  0
LINE
  5
206
330
1F
100
AcDbEntity
  8
0
 62
     2
100
AcDbLine
 10
41.0087788416418
 20
159.5229978474433
 30
0.0
 11
41.0087788416418
 21
158.7229978474433
 31
0.0
  0
LINE
  5
207
330
1F
100
AcDbEntity
  8
0
 62
     2
100
AcDbLine
 10
30.05877875549905
 20
159.5229978474433
 30
0.0
 11
30.05877875549905
 21
158.7229978474433
 31
0.0
  0
LINE
  5
208
330
1F
100
AcDbEntity
  8
0
 62
     2
100
AcDbLine
 10
40.25877884164183
 20
159.5229978474433
 30
0.0
 11
40.25877884164183
 21
158.7229978474433
 31
0.0
  0
LINE
  5
209
330
1F
100
AcDbEntity
  8
0
 62
     2
100
AcDbLine
 10
29.30877875549953
 20
159.5229978474433
 30
0.0
 11
29.30877875549953
 21
158.7229978474433
 31
0.0
  0
LINE
  5
20A
330
1F
100
AcDbEntity
  8
0
 62
     2
100
AcDbLine
 10
49.65877876545406
 20
159.5229978474432
 30
0.0
 11
49.65877876545406
 21
158.5229978474432
 31
0.0
  0
LINE
  5
20B
330
1F
100
AcDbEntity
  8
0
 62
     2
100
AcDbLine
 10
21.9087796816585
 20
158.5229978474433
 30
0.0
 11
21.9087796816585
 21
156.7229990259353
 31
0.0
  0
LINE
  5
20C
330
1F
100
AcDbEntity
  8
0
 62
     2
100
AcDbLine
 10
20.9087796816585
 20
158.5229978474433
 30
0.0
 11
20.9087796816585
 21
156.7229990259353
 31
0.0
  0
LINE
  5
20D
330
1F
100
AcDbEntity
  8
0
 62
     2
100
AcDbLine
 10
49.35877862470275
 20
159.5229978474432
 30
0.0
 11
49.35877862470275
 21
158.5229978474432
 31
0.0
  0
LINE
  5
20E
330
1F
100
AcDbEntity
  8
0
 62
     2
100
AcDbLine
 10
22.8187796816585
 20
155.5229978474433
 30
0.0
 11
22.61877968165851
 21
155.7229978474433
 31
0.0
  0
LINE
  5
20F
330
1F
100
AcDbEntity
  8
0
 62
     2
100
AcDbLine
 10
19.9987796816585
 20
155.5229978474433
 30
0.0
 11
20.19877968165849
 21
155.7229978474433
 31
0.0
  0
LINE
  5
210
330
1F
100
AcDbEntity
  8
0
 62
     2
100
AcDbLine
 10
28.75253134861219
 20
158.7229978474433
 30
0.0
 11
28.75253134861219
 21
155.5229978474433
 31
0.0
  0
LINE
  5
211
330
1F
100
AcDbEntity
  8
0
 62
     2
100
AcDbLine
 10
41.56502648987157
 20
158.7229978474433
 30
0.0
 11
41.56502648987157
 21
155.5229978474433
 31
0.0
  0
LINE
  5
212
330
1F
100
AcDbEntity
  8
0
 62
     2
100
AcDbLine
 10
48.42672671618038
 20
159.5229978474432
 30
0.0
 11
48.42672671618038
 21
158.5229978474432
 31
0.0
  0
LINE
  5
213
330
1F
100
AcDbEntity
  8
0
 62
     2
100
AcDbLine
 10
48.42672671618038
 20
158.5229978474432
 30
0.0
 11
49.65877879856222
 21
158.5229978474432
 31
0.0
  0
LINE
  5
214
330
1F
100
AcDbEntity
  8
0
 62
     2
100
AcDbLine
 10
20.65877879856498
 20
157.0229978474433
 30
0.0
 11
20.65877879856498
 21
158.5229978474433
 31
0.0
  0
LINE
  5
215
330
1F
100
AcDbEntity
  8
0
 62
     2
100
AcDbLine
 10
19.6587781278657
 20
157.0229978474432
 30
0.0
 11
20.65877879856498
 21
157.0229978474433
 31
0.0
  0
LINE
  5
216
330
1F
100
AcDbEntity
  8
0
 62
     2
100
AcDbLine
 10
49.65877879856222
 20
158.5229978474432
 30
0.0
 11
49.65877879856222
 21
157.0229978474432
 31
0.0
  0
LINE
  5
217
330
1F
100
AcDbEntity
  8
0
 62
     2
100
AcDbLine
 10
49.65877879856222
 20
157.0229978474432
 30
0.0
 11
50.6587781278657
 21
157.0229978474432
 31
0.0
  0
LINE
  5
218
330
1F
100
AcDbEntity
  8
0
 62
     2
100
AcDbLine
 10
22.15877829232508
 20
158.5229978474433
 30
0.0
 11
22.15877829232508
 21
159.5229978474433
 31
0.0
  0
LINE
  5
219
330
1F
100
AcDbEntity
  8
0
 62
     2
100
AcDbLine
 10
20.65877879856495
 20
158.5229978474433
 30
0.0
 11
20.9087796816585
 21
158.5229978474433
 31
0.0
  0
LINE
  5
21A
330
1F
100
AcDbEntity
  8
0
 62
     2
100
AcDbLine
 10
21.9087796816585
 20
158.5229978474433
 30
0.0
 11
22.15877829232505
 21
158.5229978474433
 31
0.0
  0
CIRCLE
  5
21B
330
1F
100
AcDbEntity
  8
0
 62
     2
100
AcDbCircle
 10
26.75877772234404
 20
157.1229978474432
 30
0.0
 40
0.9
  0
LINE
  5
21C
330
1F
100
AcDbEntity
  8
0
 62
     2
100
AcDbLine
 10
27.97502038985343
 20
159.5229978474433
 30
0.0
 11
27.97502038985343
 21
158.7229978474433
 31
0.0
  0
LINE
  5
21D
330
1F
100
AcDbEntity
  8
0
 62
     2
100
AcDbLine
 10
41.5650264898716
 20
158.7229978474433
 30
0.0
 11
42.34253720730976
 21
158.7229978474433
 31
0.0
  0
LINE
  5
21E
330
1F
100
AcDbEntity
  8
0
 62
     2
100
AcDbLine
 10
42.3425372073097
 20
159.5229978474433
 30
0.0
 11
42.3425372073097
 21
158.7229978474433
 31
0.0
  0
LINE
  5
21F
330
1F
100
AcDbEntity
  8
0
 62
     2
100
AcDbLine
 10
27.97502038985346
 20
158.7229978474433
 30
0.0
 11
28.75253134861219
 21
158.7229978474433
 31
0.0
  0
LINE
  5
220
330
1F
100
AcDbEntity
  8
0
 62
     2
100
AcDbLine
 10
22.61877968165848
 20
156.7229990259353
 30
0.0
 11
21.90877968165847
 21
156.7229990259353
 31
0.0
  0
LINE
  5
221
330
1F
100
AcDbEntity
  8
0
 62
     2
100
AcDbLine
 10
20.9087796816585
 20
156.7229990259353
 30
0.0
 11
20.19877968165849
 21
156.7229990259353
 31
0.0
  0
LINE
  5
222
330
1F
100
AcDbEntity
  8
0
 62
     2
100
AcDbLine
 10
50.6587781278657
 20
155.5229978474433
 30
0.0
 11
50.6587781278657
 21
157.0229978474432
 31
0.0
  0
LINE
  5
223
330
1F
100
AcDbEntity
  8
0
 62
     2
100
AcDbLine
 10
19.6587781278657
 20
157.0229978474433
 30
0.0
 11
19.6587781278657
 21
155.5229978474432
 31
0.0
  0
LINE
  5
224
330
1F
100
AcDbEntity
  8
0
 62
     2
100
AcDbLine
 10
19.65877812786567
 20
155.5229978474433
 30
0.0
 11
19.99877968165848
 21
155.5229978474433
 31
0.0
  0
LINE
  5
225
330
1F
100
AcDbEntity
  8
0
 62
     2
100
AcDbLine
 10
22.81877968165847
 20
155.5229978474433
 30
0.0
 11
28.75253134861219
 21
155.5229978474433
 31
0.0
  0
LINE
  5
226
330
1F
100
AcDbEntity
  8
0
 62
     2
100
AcDbLine
 10
41.56502648987157
 20
155.5229978474433
 30
0.0
 11
50.65877812786567
 21
155.5229978474433
 31
0.0
  0
LINE
  5
227
330
1F
100
AcDbEntity
  8
0
 62
     2
100
AcDbLine
 10
48.42672671618041
 20
159.5229978474433
 30
0.0
 11
42.34253720730973
 21
159.5229978474433
 31
0.0
  0
LINE
  5
228
330
1F
100
AcDbEntity
  8
0
 62
     2
100
AcDbLine
 10
27.97502038985354
 20
159.5229978474433
 30
0.0
 11
22.15877829232508
 21
159.5229978474433
 31
0.0
  0
CIRCLE
  5
229
330
1F
100
AcDbEntity
  8
0
 62
     2
100
AcDbCircle
 10
90.90877813755463
 20
207.0229986388206
 30
0.0
 40
7.3
  0
LINE
  5
22A
330
1F
100
AcDbEntity
  8
0
 62
     2
100
AcDbLine
 10
89.70877739892396
 20
191.5229978474444
 30
0.0
 11
85.65877812786462
 21
191.5229978474444
 31
0.0
  0
LINE
  5
22B
330
1F
100
AcDbEntity
  8
0
 62
     2
100
AcDbLine
 10
90.70866772019943
 20
194.3864796915318
 30
0.0
 11
90.70877739892319
 21
194.3761795279127
 31
0.0
  0
LINE
  5
22C
330
1F
100
AcDbEntity
  8
0
 62
     2
100
AcDbLine
 10
89.70888707765184
 20
194.3864899727978
 30
0.0
 11
89.70877739892396
 21
194.3761795229354
 31
0.0
  0
ARC
  5
22D
330
1F
100
AcDbEntity
  8
0
 62
     2
100
AcDbCircle
 10
90.2087773892336
 20
196.3229974419228
 30
0.0
 40
1.85
100
AcDbArc
 50
254.3196501768794
 51
285.6803504465325
  0
LINE
  5
22E
330
1F
100
AcDbEntity
  8
0
 62
     2
100
AcDbLine
 10
90.70879257100523
 20
194.3865123389807
 30
0.0
 11
90.70876876355777
 21
194.5418458674371
 31
0.0
  0
ARC
  5
22F
330
1F
100
AcDbEntity
  8
0
 62
     2
100
AcDbCircle
 10
90.20877738923357
 20
196.3229974419228
 30
0.0
 40
2.0
100
AcDbArc
 50
255.522488100784
 51
284.4775124726203
  0
LINE
  5
230
330
1F
100
AcDbEntity
  8
0
 62
     2
100
AcDbLine
 10
89.70876222684271
 20
194.3865123339762
 30
0.0
 11
89.70878603428898
 21
194.5418458619968
 31
0.0
  0
LINE
  5
231
330
1F
100
AcDbEntity
  8
0
 62
     2
100
AcDbLine
 10
89.70877739892398
 20
191.5229978474444
 30
0.0
 11
90.70877739892319
 21
191.5229978474444
 31
0.0
  0
LINE
  5
232
330
1F
100
AcDbEntity
  8
0
 62
     2
100
AcDbLine
 10
90.70877739892319
 20
191.5229978474444
 30
0.0
 11
90.70877739892319
 21
194.3761795279127
 31
0.0
  0
LINE
  5
233
330
1F
100
AcDbEntity
  8
0
 62
     2
100
AcDbLine
 10
89.70877739892398
 20
194.3761795229354
 30
0.0
 11
89.70877739892396
 21
191.5229978474444
 31
0.0
  0
ARC
  5
234
330
1F
100
AcDbEntity
  8
0
 62
     2
100
AcDbCircle
 10
85.10877772368605
 20
215.5229985942938
 30
0.0
 40
2.009999999999991
100
AcDbArc
 50
119.4007243901242
 51
90.59607588781905
  0
LINE
  5
235
330
1F
100
AcDbEntity
  8
0
 62
     2
100
AcDbLine
 10
82.65877812786468
 20
218.8229980449893
 30
0.0
 11
82.65877812786468
 21
221.0229978474444
 31
0.0
  0
LINE
  5
236
330
1F
100
AcDbEntity
  8
0
 62
     2
100
AcDbLine
 10
85.0904264755388
 20
217.5229143074601
 30
0.0
 11
85.08786709235588
 21
217.5328898215738
 31
0.0
  0
LINE
  5
237
330
1F
100
AcDbEntity
  8
0
 62
     2
100
AcDbLine
 10
84.12471253101512
 20
217.2641520409066
 30
0.0
 11
84.12203963129727
 21
217.2741248289514
 31
0.0
  0
ARC
  5
238
330
1F
100
AcDbEntity
  8
0
 62
     2
100
AcDbCircle
 10
85.10877772368613
 20
215.5229985942938
 30
0.0
 40
1.85
100
AcDbArc
 50
89.31964956411065
 51
120.6803498337575
  0
LINE
  5
239
330
1F
100
AcDbEntity
  8
0
 62
     2
100
AcDbLine
 10
85.09055554670135
 20
217.5229149947008
 30
0.0
 11
85.13073591786116
 21
217.3728678218334
 31
0.0
  0
LINE
  5
23A
330
1F
100
AcDbEntity
  8
0
 62
     2
100
AcDbLine
 10
84.12460040849396
 20
217.2640881004974
 30
0.0
 11
84.16482677265981
 21
217.1140532518546
 31
0.0
  0
ARC
  5
23B
330
1F
100
AcDbEntity
  8
0
 62
     2
100
AcDbCircle
 10
85.10877772368605
 20
215.5229985942938
 30
0.0
 40
2.0
100
AcDbArc
 50
90.52248753716945
 51
119.4775119089986
  0
LINE
  5
23C
330
1F
100
AcDbEntity
  8
0
 62
     2
100
AcDbLine
 10
82.65877812786465
 20
218.8229980449893
 30
0.0
 11
82.65877812786465
 21
217.8229980449904
 31
0.0
  0
LINE
  5
23D
330
1F
100
AcDbEntity
  8
0
 62
     2
100
AcDbLine
 10
85.08786709235585
 20
217.5328898215738
 30
0.0
 11
85.04008189320777
 21
217.7112266126437
 31
0.0
  0
ARC
  5
23E
330
1F
100
AcDbEntity
  8
0
 62
     2
100
AcDbCircle
 10
83.5911931537766
 20
217.322998044989
 30
0.0
 40
1.5
100
AcDbArc
 50
15.00000000006188
 51
90.00000000006298
  0
LINE
  5
23F
330
1F
100
AcDbEntity
  8
0
 62
     2
100
AcDbLine
 10
83.59119315377495
 20
218.8229980449877
 30
0.0
 11
82.65877812786468
 21
218.8229980449877
 31
0.0
  0
LINE
  5
240
330
1F
100
AcDbEntity
  8
0
 62
     2
100
AcDbLine
 10
82.65877812786468
 20
217.822998044991
 30
0.0
 11
83.59119315377495
 21
217.8229980449932
 31
0.0
  0
ARC
  5
241
330
1F
100
AcDbEntity
  8
0
 62
     2
100
AcDbCircle
 10
83.59119315377427
 20
217.3229980449921
 30
0.0
 40
0.5
100
AcDbArc
 50
15.00000000058774
 51
89.99999999991786
  0
LINE
  5
242
330
1F
100
AcDbEntity
  8
0
 62
     2
100
AcDbLine
 10
84.07415606691796
 20
217.4524075675485
 30
0.0
 11
84.12194126482353
 21
217.2740707811153
 31
0.0
  0
ARC
  5
243
330
1F
100
AcDbEntity
  8
0
 62
     2
100
AcDbCircle
 10
96.70877772368596
 20
215.5229985942938
 30
0.0
 40
2.009999999999961
100
AcDbArc
 50
89.4007019441723
 51
60.59605290807681
  0
LINE
  5
244
330
1F
100
AcDbEntity
  8
0
 62
     2
100
AcDbLine
 10
99.15877812786468
 20
217.8229980449904
 30
0.0
 11
99.15877812786465
 21
194.5229978474444
 31
0.0
  0
LINE
  5
245
330
1F
100
AcDbEntity
  8
0
 62
     2
100
AcDbLine
 10
96.7271298217554
 20
217.5229143910834
 30
0.0
 11
96.72846585536522
 21
217.527901198964
 31
0.0
  0
LINE
  5
246
330
1F
100
AcDbEntity
  8
0
 62
     2
100
AcDbLine
 10
97.69284365947249
 20
217.2641517259214
 30
0.0
 11
97.6956149016911
 21
217.2740703758341
 31
0.0
  0
ARC
  5
247
330
1F
100
AcDbEntity
  8
0
 62
     2
100
AcDbCircle
 10
96.7087777236861
 20
215.5229985942938
 30
0.0
 40
1.85
100
AcDbArc
 50
59.3196244470046
 51
90.68032471665568
  0
LINE
  5
248
330
1F
100
AcDbEntity
  8
0
 62
     2
100
AcDbLine
 10
96.72700072642519
 20
217.5229149871788
 30
0.0
 11
96.68682035987095
 21
217.3728678316914
 31
0.0
  0
LINE
  5
249
330
1F
100
AcDbEntity
  8
0
 62
     2
100
AcDbLine
 10
97.69295575776337
 20
217.2640876941339
 30
0.0
 11
97.65272938889609
 21
217.1140528281369
 31
0.0
  0
ARC
  5
24A
330
1F
100
AcDbEntity
  8
0
 62
     2
100
AcDbCircle
 10
96.70877772368596
 20
215.5229985942938
 30
0.0
 40
2.0
100
AcDbArc
 50
60.52246443489003
 51
89.47726396350673
  0
LINE
  5
24B
330
1F
100
AcDbEntity
  8
0
 62
     2
100
AcDbLine
 10
99.15877812786468
 20
217.8229980449904
 30
0.0
 11
99.15877812786468
 21
218.8229980449893
 31
0.0
  0
LINE
  5
24C
330
1F
100
AcDbEntity
  8
0
 62
     2
100
AcDbLine
 10
99.15877812786468
 20
218.8229980449902
 30
0.0
 11
98.22636312133443
 21
218.8229980449902
 31
0.0
  0
ARC
  5
24D
330
1F
100
AcDbEntity
  8
0
 62
     2
100
AcDbCircle
 10
98.22636312133278
 20
217.322998044989
 30
0.0
 40
1.5
100
AcDbArc
 50
89.99999999993705
 51
164.9999999999382
  0
LINE
  5
24E
330
1F
100
AcDbEntity
  8
0
 62
     2
100
AcDbLine
 10
96.77747438190158
 20
217.7112266126437
 30
0.0
 11
96.72968918045237
 21
217.5328898129859
 31
0.0
  0
LINE
  5
24F
330
1F
100
AcDbEntity
  8
0
 62
     2
100
AcDbLine
 10
97.6956149016911
 20
217.274070375834
 30
0.0
 11
97.74340020819142
 21
217.4524075675485
 31
0.0
  0
ARC
  5
250
330
1F
100
AcDbEntity
  8
0
 62
     2
100
AcDbCircle
 10
98.22636312133511
 20
217.3229980449921
 30
0.0
 40
0.5
100
AcDbArc
 50
90.00000000007816
 51
164.9999999994083
  0
LINE
  5
251
330
1F
100
AcDbEntity
  8
0
 62
     2
100
AcDbLine
 10
98.22636312133443
 20
217.8229980449915
 30
0.0
 11
99.15877812786468
 21
217.8229980449893
 31
0.0
  0
CIRCLE
  5
252
330
1F
100
AcDbEntity
  8
0
 62
     2
100
AcDbCircle
 10
94.40877700381179
 20
193.2729994012372
 30
0.0
 40
1.409999999999997
  0
CIRCLE
  5
253
330
1F
100
AcDbEntity
  8
0
 62
     2
100
AcDbCircle
 10
97.40878299516177
 20
220.772996188529
 30
0.0
 40
1.409999999999997
  0
CIRCLE
  5
254
330
1F
100
AcDbEntity
  8
0
 62
     2
100
AcDbCircle
 10
84.40877821892744
 20
220.7729981348764
 30
0.0
 40
1.409999999999997
  0
CIRCLE
  5
255
330
1F
100
AcDbEntity
  8
0
 62
     2
100
AcDbCircle
 10
94.40877700381193
 20
193.2729994012372
 30
0.0
 40
0.5
  0
CIRCLE
  5
256
330
1F
100
AcDbEntity
  8
0
 62
     2
100
AcDbCircle
 10
97.4087829951618
 20
220.7729961885289
 30
0.0
 40
0.5
  0
CIRCLE
  5
257
330
1F
100
AcDbEntity
  8
0
 62
     2
100
AcDbCircle
 10
84.40877821892741
 20
220.7729981348764
 30
0.0
 40
0.5
  0
ARC
  5
258
330
1F
100
AcDbEntity
  8
0
 62
     2
100
AcDbCircle
 10
90.20877738923357
 20
196.3229974419228
 30
0.0
 40
2.010000000000025
100
AcDbArc
 50
284.4039241219186
 51
255.5960764484436
  0
ARC
  5
259
330
1F
100
AcDbEntity
  8
0
 62
     2
100
AcDbCircle
 10
96.1587781278646
 20
194.5229978474444
 30
0.0
 40
3.0
100
AcDbArc
 50
270.0000000000011
 51
0.0
  0
ARC
  5
25A
330
1F
100
AcDbEntity
  8
0
 62
     2
100
AcDbCircle
 10
85.65877812786465
 20
194.5229978474444
 30
0.0
 40
3.0
100
AcDbArc
 50
180.0
 51
270.0
  0
ARC
  5
25B
330
1F
100
AcDbEntity
  8
0
 62
     2
100
AcDbCircle
 10
84.15877812786462
 20
221.0229978474444
 30
0.0
 40
1.5
100
AcDbArc
 50
89.99999999999784
 51
179.9999999999989
  0
ARC
  5
25C
330
1F
100
AcDbEntity
  8
0
 62
     2
100
AcDbCircle
 10
97.65877812786471
 20
221.0229978474444
 30
0.0
 40
1.5
100
AcDbArc
 50
0.0
 51
90.0
  0
ARC
  5
25D
330
1F
100
AcDbEntity
  8
0
 62
     6
100
AcDbCircle
 10
85.90877833950324
 20
218.5229980449898
 30
0.0
 40
0.8
100
AcDbArc
 50
354.9999999999993
 51
274.9999999999994
  0
ARC
  5
25E
330
1F
100
AcDbEntity
  8
0
 62
     6
100
AcDbCircle
 10
85.90877833950316
 20
195.5229980449896
 30
0.0
 40
0.8
100
AcDbArc
 50
354.9999999999993
 51
274.9999999999994
  0
LINE
  5
25F
330
1F
100
AcDbEntity
  8
0
 62
     2
100
AcDbLine
 10
82.65877812786465
 20
194.5229978474444
 30
0.0
 11
82.65877812786468
 21
217.8229980449904
 31
0.0
  0
LINE
  5
260
330
1F
100
AcDbEntity
  8
0
 62
     2
100
AcDbLine
 10
96.15877812786465
 20
191.5229978474444
 30
0.0
 11
90.70877739892319
 21
191.5229978474444
 31
0.0
  0
LINE
  5
261
330
1F
100
AcDbEntity
  8
0
 62
     2
100
AcDbLine
 10
99.15877812786468
 20
221.0229978474444
 30
0.0
 11
99.15877812786468
 21
218.8229980449893
 31
0.0
  0
LINE
  5
262
330
1F
100
AcDbEntity
  8
0
 62
     2
100
AcDbLine
 10
84.15877812786468
 20
222.5229978474444
 30
0.0
 11
97.65877812786468
 21
222.5229978474444
 31
0.0
  0
ARC
  5
263
330
1F
100
AcDbEntity
  8
0
 62
     6
100
AcDbCircle
 10
95.90877833950304
 20
195.5229980449895
 30
0.0
 40
0.8
100
AcDbArc
 50
354.9999999999993
 51
274.9999999999994
  0
ARC
  5
264
330
1F
100
AcDbEntity
  8
0
 62
     6
100
AcDbCircle
 10
95.90877833950319
 20
218.5229980449897
 30
0.0
 40
0.8
100
AcDbArc
 50
354.9999999999993
 51
274.9999999999994
  0
CIRCLE
  5
265
330
1F
100
AcDbEntity
  8
0
 62
     2
100
AcDbCircle
 10
95.90877833950304
 20
195.5229980449895
 30
0.0
 40
0.61058
  0
CIRCLE
  5
266
330
1F
100
AcDbEntity
  8
0
 62
     2
100
AcDbCircle
 10
85.90877833950316
 20
195.5229980449896
 30
0.0
 40
0.61058
  0
CIRCLE
  5
267
330
1F
100
AcDbEntity
  8
0
 62
     2
100
AcDbCircle
 10
95.90877833950319
 20
218.5229980449897
 30
0.0
 40
0.61058
  0
CIRCLE
  5
268
330
1F
100
AcDbEntity
  8
0
 62
     2
100
AcDbCircle
 10
85.90877833950324
 20
218.5229980449898
 30
0.0
 40
0.61058
  0
CIRCLE
  5
269
330
1F
100
AcDbEntity
  8
0
 62
     2
100
AcDbCircle
 10
84.40877821892744
 20
220.7729981348764
 30
0.0
 40
1.21
  0
CIRCLE
  5
26A
330
1F
100
AcDbEntity
  8
0
 62
     2
100
AcDbCircle
 10
97.40878299516177
 20
220.772996188529
 30
0.0
 40
1.21
  0
CIRCLE
  5
26B
330
1F
100
AcDbEntity
  8
0
 62
     2
100
AcDbCircle
 10
94.40877700381179
 20
193.2729994012372
 30
0.0
 40
1.21
  0
ARC
  5
26C
330
1F
100
AcDbEntity
  8
0
 62
     2
100
AcDbCircle
 10
90.2087773892336
 20
196.3229974419228
 30
0.0
 40
1.85
100
AcDbArc
 50
285.6800907449813
 51
254.3199098784195
  0
ARC
  5
26D
330
1F
100
AcDbEntity
  8
0
 62
     6
100
AcDbCircle
 10
90.20877738923357
 20
196.3229974419228
 30
0.0
 40
2.0
100
AcDbArc
 50
284.4775124726205
 51
255.5224881007843
  0
ARC
  5
26E
330
1F
100
AcDbEntity
  8
0
 62
     6
100
AcDbCircle
 10
85.10877772368605
 20
215.5229985942938
 30
0.0
 40
2.0
100
AcDbArc
 50
119.4775119089982
 51
90.52248753716901
  0
ARC
  5
26F
330
1F
100
AcDbEntity
  8
0
 62
     2
100
AcDbCircle
 10
85.10877772368613
 20
215.5229985942938
 30
0.0
 40
1.85
100
AcDbArc
 50
120.6800759940393
 51
89.31992340383698
  0
LINE
  5
270
330
1F
100
AcDbEntity
  8
0
 62
     2
100
AcDbLine
 10
85.65877772368603
 20
213.6000999819013
 30
0.0
 11
85.65877772368603
 21
213.6021323298205
 31
0.0
  0
ARC
  5
271
330
1F
100
AcDbEntity
  8
0
 62
     6
100
AcDbCircle
 10
96.70877772368596
 20
215.5229985942938
 30
0.0
 40
2.0
100
AcDbArc
 50
89.47748880672258
 51
60.52246443488897
  0
ARC
  5
272
330
1F
100
AcDbEntity
  8
0
 62
     2
100
AcDbCircle
 10
96.7087777236861
 20
215.5229985942938
 30
0.0
 40
1.85
100
AcDbArc
 50
90.68005087751752
 51
59.31989828730997
  0
LINE
  5
273
330
1F
100
AcDbEntity
  8
0
 62
     2
100
AcDbLine
 10
89.1587773892335
 20
198.5382092324649
 30
0.0
 11
89.1587773892335
 21
198.5291312840917
 31
0.0
  0
LINE
  5
274
330
1F
100
AcDbEntity
  8
0
 62
     2
100
AcDbLine
 10
89.1587773892335
 20
198.0251789364886
 30
0.0
 11
89.1587773892335
 21
198.0224607521492
 31
0.0
  0
LINE
  5
275
330
1F
100
AcDbEntity
  8
0
 62
     2
100
AcDbLine
 10
158.4587785467394
 20
155.5229978474446
 30
0.0
 11
160.6587783491945
 21
155.5229978474446
 31
0.0
  0
LINE
  5
276
330
1F
100
AcDbEntity
  8
0
 62
     2
100
AcDbLine
 10
157.4587785467411
 20
155.8229978474446
 30
0.0
 11
157.4587785467411
 21
155.5229978474446
 31
0.0
  0
LINE
  5
277
330
1F
100
AcDbEntity
  8
0
 62
     2
100
AcDbLine
 10
158.4587785467394
 20
155.8229978474446
 30
0.0
 11
157.4587785467405
 21
155.8229978474446
 31
0.0
  0
LINE
  5
278
330
1F
100
AcDbEntity
  8
0
 62
     2
100
AcDbLine
 10
158.4587785467378
 20
155.5229978474446
 30
0.0
 11
158.4587785467378
 21
155.8229978474446
 31
0.0
  0
LINE
  5
279
330
1F
100
AcDbEntity
  8
0
 62
     2
100
AcDbLine
 10
157.4587785467405
 20
155.5229978474446
 30
0.0
 11
158.458778546739
 21
155.5229978474446
 31
0.0
  0
LINE
  5
27A
330
1F
100
AcDbEntity
  8
0
 62
     2
100
AcDbLine
 10
160.9045885966555
 20
159.5229978474446
 30
0.0
 11
160.9045885966555
 21
158.5229978474446
 31
0.0
  0
LINE
  5
27B
330
1F
100
AcDbEntity
  8
0
 62
     6
100
AcDbLine
 10
157.1128494492496
 20
159.5229978474446
 30
0.0
 11
157.1128494492496
 21
158.5229978474446
 31
0.0
  0
LINE
  5
27C
330
1F
100
AcDbEntity
  8
0
 62
     2
100
AcDbLine
 10
162.0871725575448
 20
158.5229978474446
 30
0.0
 11
160.6587783491945
 21
158.5229978474446
 31
0.0
  0
LINE
  5
27D
330
1F
100
AcDbEntity
  8
0
 62
     2
100
AcDbLine
 10
153.2587790629612
 20
159.5229978474446
 30
0.0
 11
153.2587790629612
 21
158.5229978474446
 31
0.0
  0
LINE
  5
27E
330
1F
100
AcDbEntity
  8
0
 62
     2
100
AcDbLine
 10
157.1128494492496
 20
159.5229978474446
 30
0.0
 11
157.5587790629584
 21
159.5229978474446
 31
0.0
  0
LINE
  5
27F
330
1F
100
AcDbEntity
  8
0
 62
     2
100
AcDbLine
 10
159.9087786366265
 20
159.5229978474446
 30
0.0
 11
157.5587790629584
 21
159.5229978474446
 31
0.0
  0
LINE
  5
280
330
1F
100
AcDbEntity
  8
0
 62
     2
100
AcDbLine
 10
160.9045885966555
 20
159.5229978474446
 30
0.0
 11
161.1587789868172
 21
159.5229978474446
 31
0.0
  0
LINE
  5
281
330
1F
100
AcDbEntity
  8
0
 62
     2
100
AcDbLine
 10
161.1417418999644
 20
159.5229978474446
 30
0.0
 11
161.1546367877761
 21
159.5229978474446
 31
0.0
  0
LINE
  5
282
330
1F
100
AcDbEntity
  8
0
 62
     2
100
AcDbLine
 10
161.1207187530767
 20
159.5229978474446
 30
0.0
 11
161.1219098460877
 21
159.5229978474446
 31
0.0
  0
LINE
  5
283
330
1F
100
AcDbEntity
  8
0
 62
     2
100
AcDbLine
 10
153.2587790629612
 20
158.5229978474446
 30
0.0
 11
160.6587783491944
 21
158.5229978474446
 31
0.0
  0
LINE
  5
284
330
1F
100
AcDbEntity
  8
0
 62
     2
100
AcDbLine
 10
160.9045885966555
 20
159.5229978474446
 30
0.0
 11
159.9087786366265
 21
159.5229978474446
 31
0.0
  0
LINE
  5
285
330
1F
100
AcDbEntity
  8
0
 62
     2
100
AcDbLine
 10
131.6994992433017
 20
158.5229978474446
 30
0.0
 11
131.6994992433017
 21
157.0229978474446
 31
0.0
  0
LINE
  5
286
330
1F
100
AcDbEntity
  8
0
 62
     2
100
AcDbLine
 10
131.6994990550108
 20
157.0229978474446
 30
0.0
 11
131.1587783491945
 21
157.0229978474446
 31
0.0
  0
LINE
  5
287
330
1F
100
AcDbEntity
  8
0
 62
     2
100
AcDbLine
 10
131.6994990550108
 20
158.5229978474446
 30
0.0
 11
131.6994990550108
 21
157.0229978474446
 31
0.0
  0
LINE
  5
288
330
1F
100
AcDbEntity
  8
0
 62
     2
100
AcDbLine
 10
162.1587783491945
 20
157.0229978474446
 30
0.0
 11
162.0871725575448
 21
157.0229978474446
 31
0.0
  0
LINE
  5
289
330
1F
100
AcDbEntity
  8
0
 62
     2
100
AcDbLine
 10
162.0871725575448
 20
158.5229978474446
 30
0.0
 11
162.0871725575448
 21
157.0229978474446
 31
0.0
  0
LINE
  5
28A
330
1F
100
AcDbEntity
  8
0
 62
     2
100
AcDbLine
 10
162.0871724325284
 20
158.5229978474446
 30
0.0
 11
162.0871724325284
 21
157.0229978474446
 31
0.0
  0
LINE
  5
28B
330
1F
100
AcDbEntity
  8
0
 62
     2
100
AcDbLine
 10
131.7213749233991
 20
159.5229978474446
 30
0.0
 11
131.7213749233991
 21
158.5229978474446
 31
0.0
  0
LINE
  5
28C
330
1F
100
AcDbEntity
  8
0
 62
     2
100
AcDbLine
 10
131.721377755626
 20
158.5229978474446
 30
0.0
 11
131.6994990550108
 21
158.5229978474446
 31
0.0
  0
LINE
  5
28D
330
1F
100
AcDbEntity
  8
0
 62
     2
100
AcDbLine
 10
131.7213777556261
 20
159.5229978474446
 30
0.0
 11
131.7213777556261
 21
158.5229978474446
 31
0.0
  0
LINE
  5
28E
330
1F
100
AcDbEntity
  8
0
 62
     2
100
AcDbLine
 10
137.1430920567022
 20
159.5229978474446
 30
0.0
 11
133.2006525248011
 21
159.5229978474446
 31
0.0
  0
LINE
  5
28F
330
1F
100
AcDbEntity
  8
0
 62
     2
100
AcDbLine
 10
137.1430920567022
 20
159.5229978474446
 30
0.0
 11
153.2587790629611
 21
159.5229978474446
 31
0.0
  0
LINE
  5
290
330
1F
100
AcDbEntity
  8
0
 62
     2
100
AcDbLine
 10
131.721377755626
 20
159.5229978474446
 30
0.0
 11
133.2006525248011
 21
159.5229978474446
 31
0.0
  0
LWPOLYLINE
  5
291
330
1F
100
AcDbEntity
  8
0
 62
     2
100
AcDbPolyline
 90
       17
 70
     0
 43
0.0
 10
153.2360690455381
 20
157.5509753326747
 10
153.2398982181746
 20
157.5197015534719
 10
153.2521794268163
 20
157.4163935429392
 10
153.2613570303318
 20
157.3318632218752
 10
153.2681661865203
 20
157.2594388554847
 10
153.2730806865733
 20
157.1946002999717
 10
153.2763630298803
 20
157.1349408602449
 10
153.2782671882471
 20
157.0783745070906
 10
153.2789116640706
 20
157.0229977545788
 10
153.278267191786
 20
156.9676211139605
 10
153.2763630331071
 20
156.9110548155192
 10
153.2730806590062
 20
156.8513957015589
 10
153.2681661516815
 20
156.7865573113191
 10
153.261357312552
 20
156.7141310246805
 10
153.2521803423569
 20
156.6295994389942
 10
153.2398966264712
 20
156.5262963428424
 10
153.2358906346591
 20
156.4935828868906
  0
CIRCLE
  5
292
330
1F
100
AcDbEntity
  8
0
 62
     2
100
AcDbCircle
 10
152.8587790960439
 20
157.0229978474446
 30
0.0
 40
0.9
  0
CIRCLE
  5
293
330
1F
100
AcDbEntity
  8
0
 62
     2
100
AcDbCircle
 10
152.858779096044
 20
157.0229978474446
 30
0.0
 40
0.65
  0
LINE
  5
294
330
1F
100
AcDbEntity
  8
0
 62
     2
100
AcDbLine
 10
134.1587783491945
 20
158.5229978474446
 30
0.0
 11
133.2006525248011
 21
158.5229978474446
 31
0.0
  0
LINE
  5
295
330
1F
100
AcDbEntity
  8
0
 62
     2
100
AcDbLine
 10
133.2006525248011
 20
158.5229978474446
 30
0.0
 11
133.2006525248011
 21
159.5229978474446
 31
0.0
  0
LINE
  5
296
330
1F
100
AcDbEntity
  8
0
 62
     2
100
AcDbLine
 10
134.1587783491945
 20
155.5229978474446
 30
0.0
 11
131.1587783491945
 21
155.5229978474446
 31
0.0
  0
LINE
  5
297
330
1F
100
AcDbEntity
  8
0
 62
     2
100
AcDbLine
 10
134.1587783491945
 20
158.5229978474445
 30
0.0
 11
134.1587783491945
 21
155.5229978474446
 31
0.0
  0
LINE
  5
298
330
1F
100
AcDbEntity
  8
0
 62
     2
100
AcDbLine
 10
131.1587783491945
 20
157.0229978474447
 30
0.0
 11
131.1587783491945
 21
155.5229978474446
 31
0.0
  0
LINE
  5
299
330
1F
100
AcDbEntity
  8
0
 62
     2
100
AcDbLine
 10
162.1587783491945
 20
155.5229978474446
 30
0.0
 11
160.6587783491945
 21
155.5229978474446
 31
0.0
  0
LINE
  5
29A
330
1F
100
AcDbEntity
  8
0
 62
     2
100
AcDbLine
 10
160.6587783491945
 20
158.5229978474446
 30
0.0
 11
160.6587783491945
 21
155.5229978474446
 31
0.0
  0
LINE
  5
29B
330
1F
100
AcDbEntity
  8
0
 62
     2
100
AcDbLine
 10
162.1587783491945
 20
157.0229978474446
 30
0.0
 11
162.1587783491945
 21
155.5229978474447
 31
0.0
  0
LINE
  5
29C
330
1F
100
AcDbEntity
  8
0
 62
     2
100
AcDbLine
 10
134.1587783491945
 20
155.5229978474446
 30
0.0
 11
157.4587785467405
 21
155.5229978474446
 31
0.0
  0
LINE
  5
29D
330
1F
100
AcDbEntity
  8
0
 62
     2
100
AcDbLine
 10
137.1430920567022
 20
158.5229978474446
 30
0.0
 11
137.1430920567022
 21
159.5229978474446
 31
0.0
  0
LINE
  5
29E
330
1F
100
AcDbEntity
  8
0
 62
     2
100
AcDbLine
 10
134.1587783491945
 20
158.5229978474446
 30
0.0
 11
137.1430920567022
 21
158.5229978474446
 31
0.0
  0
LINE
  5
29F
330
1F
100
AcDbEntity
  8
0
 62
     2
100
AcDbLine
 10
157.0587840629741
 20
159.5229978474446
 30
0.0
 11
153.2587840629741
 21
159.5229978474446
 31
0.0
  0
LINE
  5
2A0
330
1F
100
AcDbEntity
  8
0
 62
     2
100
AcDbLine
 10
157.0587790629533
 20
159.5229978474446
 30
0.0
 11
157.1128494492496
 21
159.5229978474446
 31
0.0
  0
LWPOLYLINE
  5
2A1
330
1F
100
AcDbEntity
  8
0
 62
     2
100
AcDbPolyline
 90
       11
 70
     0
 43
0.0
 10
153.3926461975894
 20
157.3914733632212
 10
153.3975463655679
 20
157.3340824841525
 10
153.4037073536723
 20
157.2484942271003
 10
153.4077755285419
 20
157.1702270480333
 10
153.4101663444193
 20
157.0959365178963
 10
153.4110039942308
 20
157.0230122764542
 10
153.4101663542593
 20
156.9500591426189
 10
153.4077755317176
 20
156.8757686312753
 10
153.4037073503791
 20
156.7975017438135
 10
153.3975463997004
 20
156.7119137054202
 10
153.392646196927
 20
156.6545223306767
  0
LINE
  5
2A2
330
1F
100
AcDbEntity
  8
0
 62
     2
100
AcDbLine
 10
161.1587790198938
 20
159.5229978474446
 30
0.0
 11
161.1587790198938
 21
158.5229978474446
 31
0.0
  0
LINE
  5
2A3
330
1F
100
AcDbEntity
  8
0
 62
     2
100
AcDbLine
 10
159.9087786366265
 20
159.5229978474446
 30
0.0
 11
159.9087786366265
 21
158.5229978474446
 31
0.0
  0
LINE
  5
2A4
330
1F
100
AcDbEntity
  8
0
 62
     2
100
AcDbLine
 10
157.5587790629584
 20
159.5229978474446
 30
0.0
 11
157.5587790629584
 21
158.5229978474446
 31
0.0
  0
LINE
  5
2A5
330
1F
100
AcDbEntity
  8
0
 62
     2
100
AcDbLine
 10
157.0587790629533
 20
159.5229978474446
 30
0.0
 11
157.0587790629533
 21
158.5229978474446
 31
0.0
  0
LINE
  5
2A6
330
1F
100
AcDbEntity
  8
0
 62
     2
100
AcDbLine
 10
153.2587840629741
 20
159.5229978474446
 30
0.0
 11
153.2587840629741
 21
158.5229978474446
 31
0.0
  0
INSERT
  5
2AA
330
1F
100
AcDbEntity
  8
Outline
100
AcDbBlockReference
  2
Sheet Border
 10
0.0
 20
0.0
 30
0.0
  0
DIMENSION
  5
2B7
330
1F
100
AcDbEntity
  8
Dimension
100
AcDbDimension
280
     0
  2
*D15
 10
98.70877772368566
 20
135.4300900526718
 30
0.0
 11
148.3563967713047
 21
135.4300900526718
 31
0.0
 70
   160
  1
M4x0.5 THRU 3 HOLES
 71
     5
 42
3.999999999999673
 73
     0
 74
     0
 75
     0
  3
VCDDIMSTYLE01
100
AcDbAlignedDimension
 13
94.70877772368598
 23
159.5229978474445
 33
0.0
 14
98.70877772368566
 24
159.5229978474413
 34
0.0
100
AcDbRotatedDimension
  0
DIMENSION
  5
2C9
330
1F
100
AcDbEntity
  8
Dimension
100
AcDbDimension
280
     0
  2
*D16
 10
161.8517440610978
 20
159.5229978474491
 30
0.0
 11
171.0803154896692
 21
175.1861609642984
 31
0.0
 70
   160
 71
     5
 42
4.000000000005684
 73
     0
 74
     0
 75
     0
  3
VCDDIMSTYLE02
100
AcDbAlignedDimension
 13
162.1587783491923
 23
155.5229978474434
 33
0.0
 14
160.9045885966545
 24
159.5229978474491
 34
0.0
 50
90.0
100
AcDbRotatedDimension
  0
DIMENSION
  5
2D9
330
1F
100
AcDbEntity
  8
Dimension
100
AcDbDimension
280
     0
  2
*D17
 10
99.15877853204339
 20
85.43657570031465
 30
0.0
 11
119.5683023415672
 21
85.43657570031465
 31
0.0
 70
   160
 71
     5
 42
16.50000000000004
 73
     0
 74
     0
 75
     0
  3
VCDDIMSTYLE02
100
AcDbAlignedDimension
 13
82.65877853204334
 23
94.02299748981739
 33
0.0
 14
99.15877853204339
 24
94.02299784744343
 34
0.0
100
AcDbRotatedDimension
1001
ACAD
1000
DSTYLE
1002
{
1070
   271
1070
     4
1002
}
  0
DIMENSION
  5
2E8
330
1F
100
AcDbEntity
  8
Dimension
100
AcDbDimension
280
     0
  2
*D18
 10
68.7218728802144
 20
92.52299784744444
 30
0.0
 11
68.7218728802144
 21
105.7733129513504
 31
0.0
 70
   160
 71
     5
 42
30.99999999999977
 73
     0
 74
     0
 75
     0
  3
VCDDIMSTYLE02
100
AcDbAlignedDimension
 13
87.16447144523704
 23
123.5229978474442
 33
0.0
 14
86.74102618929214
 24
92.52299784744444
 34
0.0
 50
90.0
100
AcDbRotatedDimension
1001
ACAD
1000
DSTYLE
1002
{
1070
   271
1070
     4
1002
}
  0
DIMENSION
  5
2F9
330
1F
100
AcDbEntity
  8
Dimension
100
AcDbDimension
280
     0
  2
*D19
 10
22.61877968165862
 20
173.5941768292416
 30
0.0
 11
84.36852307151115
 21
173.5941768292416
 31
0.0
 70
   160
  1
ø2.413H6 {H2;S+0.008^ +0.000;}
 71
     5
 42
2.419999999999966
 73
     0
 74
     0
 75
     0
  3
VCDDIMSTYLE02
100
AcDbAlignedDimension
 13
20.19877968165865
 23
155.7229978474431
 33
0.0
 14
22.61877968165862
 24
155.7229978474431
 34
0.0
100
AcDbRotatedDimension
1001
ACAD
1000
DSTYLE
1002
{
1070
     3
1000
ø <>
1002
}
  0
LINE
  5
2FE
330
1F
100
AcDbEntity
  8
Axis
100
AcDbLine
 10
94.40877700381168
 20
188.2729994012372
 30
0.0
 11
94.40877700381259
 21
227.5229978474444
 31
0.0
  0
DIMENSION
  5
308
330
1F
100
AcDbEntity
  8
Dimension
100
AcDbDimension
280
     0
  2
*D20
 10
98.5587777236854
 20
164.3808540357672
 30
0.0
 11
119.1656639706808
 21
164.3808540357672
 31
0.0
 70
   160
  1
ø3.7
 71
     5
 42
3.700000000000074
 73
     0
 74
     0
 75
     0
  3
VCDDIMSTYLE01
100
AcDbAlignedDimension
 13
94.85877772368532
 23
159.3729978474475
 33
0.0
 14
98.5587777236854
 24
159.3729978474383
 34
0.0
100
AcDbRotatedDimension
  0
DIMENSION
  5
318
330
1F
100
AcDbEntity
  8
Dimension
100
AcDbDimension
280
     0
  2
*D21
 10
96.70877833950318
 20
230.0704444898699
 30
0.0
 11
142.8325878633127
 21
230.0704444898699
 31
0.0
 70
   160
  1
M1.6 THRU 4 HOLES
 71
     5
 42
1.599999999999994
 73
     0
 74
     0
 75
     0
  3
VCDDIMSTYLE01
100
AcDbAlignedDimension
 13
95.10877833950319
 23
218.5229980449897
 33
0.0
 14
96.70877833950318
 24
218.5229980449897
 34
0.0
100
AcDbRotatedDimension
  0
ENDSEC
  0
SECTION
  2
OBJECTS
  0
DICTIONARY
  5
C
330
0
100
AcDbDictionary
281
     1
  3
ACAD_DETAILVIEWSTYLE
350
326
  3
ACAD_GROUP
350
D
  3
ACAD_LAYOUT
350
1A
  3
ACAD_MATERIAL
350
43
  3
ACAD_MLEADERSTYLE
350
6B
  3
ACAD_MLINESTYLE
350
17
  3
ACAD_PLOTSETTINGS
350
19
  3
ACAD_PLOTSTYLENAME
350
E
  3
ACAD_SCALELIST
350
47
  3
ACAD_SECTIONVIEWSTYLE
350
327
  3
ACAD_TABLESTYLE
350
69
  3
ACAD_VISUALSTYLE
350
2A
  3
ACDB_RECOMPOSE_DATA
350
323
  3
AcDbVariableDictionary
350
31F
  0
SUN
  5
6D
330
29
100
AcDbSun
 90
        1
290
     0
 63
     7
421
 16777215
 40
1.0
291
     1
 91
  2455826
 92
 54000000
292
     0
 70
     2
 71
   256
280
     1
  0
DICTIONARY
  5
326
102
{ACAD_REACTORS
330
C
102
}
330
C
100
AcDbDictionary
281
     1
  0
DICTIONARY
  5
D
102
{ACAD_REACTORS
330
C
102
}
330
C
100
AcDbDictionary
281
     1
  0
DICTIONARY
  5
1A
102
{ACAD_REACTORS
330
C
102
}
330
C
100
AcDbDictionary
281
     1
  3
Layout1
350
1E
  3
Layout2
350
26
  3
Model
350
22
  0
DICTIONARY
  5
43
102
{ACAD_REACTORS
330
C
102
}
330
C
100
AcDbDictionary
281
     1
  3
ByBlock
350
45
  3
ByLayer
350
44
  3
Global
350
46
  0
DICTIONARY
  5
6B
102
{ACAD_REACTORS
330
C
102
}
330
C
100
AcDbDictionary
281
     1
  3
Standard
350
6C
  0
DICTIONARY
  5
17
102
{ACAD_REACTORS
330
C
102
}
330
C
100
AcDbDictionary
281
     1
  3
Standard
350
18
  0
DICTIONARY
  5
19
102
{ACAD_REACTORS
330
C
102
}
330
C
100
AcDbDictionary
281
     1
  0
ACDBDICTIONARYWDFLT
  5
E
102
{ACAD_REACTORS
330
C
102
}
330
C
100
AcDbDictionary
281
     1
  3
Normal
350
F
100
AcDbDictionaryWithDefault
340
F
  0
DICTIONARY
  5
47
102
{ACAD_REACTORS
330
C
102
}
330
C
100
AcDbDictionary
281
     1
  3
A0
350
48
  3
A1
350
49
  3
A2
350
4A
  3
A3
350
4B
  3
A4
350
4C
  3
A5
350
4D
  3
A6
350
4E
  3
A7
350
4F
  3
A8
350
50
  3
A9
350
51
  3
B0
350
52
  3
B1
350
53
  3
B2
350
54
  3
B3
350
55
  3
B4
350
56
  3
B5
350
57
  3
B6
350
58
  3
B7
350
59
  3
B8
350
5A
  3
B9
350
5B
  3
C0
350
5C
  3
C1
350
5D
  3
C2
350
5E
  3
C3
350
5F
  3
C4
350
60
  3
C5
350
61
  3
C6
350
62
  3
C7
350
63
  3
C8
350
64
  3
C9
350
65
  3
D0
350
66
  3
D1
350
67
  3
D2
350
68
  0
DICTIONARY
  5
327
102
{ACAD_REACTORS
330
C
102
}
330
C
100
AcDbDictionary
281
     1
  0
DICTIONARY
  5
69
102
{ACAD_REACTORS
330
C
102
}
330
C
100
AcDbDictionary
281
     1
  3
Standard
350
6A
  0
DICTIONARY
  5
2A
102
{ACAD_REACTORS
330
C
102
}
330
C
100
AcDbDictionary
281
     1
  3
2dWireframe
350
2F
  3
Basic
350
32
  3
Brighten
350
36
  3
ColorChange
350
3A
  3
Conceptual
350
34
  3
Dim
350
35
  3
EdgeColorOff
350
3D
  3
Facepattern
350
39
  3
Flat
350
2B
  3
FlatWithEdges
350
2C
  3
Gouraud
350
2D
  3
GouraudWithEdges
350
2E
  3
Hidden
350
31
  3
JitterOff
350
3B
  3
Linepattern
350
38
  3
OverhangOff
350
3C
  3
Realistic
350
33
  3
Shaded
350
42
  3
Shaded with edges
350
41
  3
Shades of Gray
350
3E
  3
Sketchy
350
3F
  3
Thicken
350
37
  3
Wireframe
350
30
  3
X-Ray
350
40
  0
XRECORD
  5
323
102
{ACAD_REACTORS
330
C
102
}
330
C
100
AcDbXrecord
280
     1
 90
        1
330
6A
  0
DICTIONARY
  5
31F
102
{ACAD_REACTORS
330
C
102
}
330
C
100
AcDbDictionary
281
     1
  3
CANNOSCALE
350
320
  3
CMLEADERSTYLE
350
325
  3
CTABLESTYLE
350
324
  0
LAYOUT
  5
1E
102
{ACAD_REACTORS
330
1A
102
}
330
1A
100
AcDbPlotSettings
  1

  2
none_device
  4

  6

 40
0.0
 41
0.0
 42
0.0
 43
0.0
 44
0.0
 45
0.0
 46
0.0
 47
0.0
 48
0.0
 49
0.0
140
0.0
141
0.0
142
1.0
143
1.0
 70
   688
 72
     1
 73
     0
 74
     5
  7

 75
    16
 76
     0
 77
     2
 78
   300
147
1.0
148
0.0
149
0.0
100
AcDbLayout
  1
Layout1
 70
     1
 71
     1
 10
0.0
 20
0.0
 11
420.0
 21
297.0
 12
0.0
 22
0.0
 32
0.0
 14
1.000000000000000E+20
 24
1.000000000000000E+20
 34
1.000000000000000E+20
 15
-1.000000000000000E+20
 25
-1.000000000000000E+20
 35
-1.000000000000000E+20
146
0.0
 13
0.0
 23
0.0
 33
0.0
 16
1.0
 26
0.0
 36
0.0
 17
0.0
 27
1.0
 37
0.0
 76
     0
330
1B
  0
LAYOUT
  5
26
102
{ACAD_REACTORS
330
1A
102
}
330
1A
100
AcDbPlotSettings
  1

  2
none_device
  4

  6

 40
0.0
 41
0.0
 42
0.0
 43
0.0
 44
0.0
 45
0.0
 46
0.0
 47
0.0
 48
0.0
 49
0.0
140
0.0
141
0.0
142
1.0
143
1.0
 70
   688
 72
     1
 73
     0
 74
     5
  7

 75
    16
 76
     0
 77
     2
 78
   300
147
1.0
148
0.0
149
0.0
100
AcDbLayout
  1
Layout2
 70
     1
 71
     2
 10
0.0
 20
0.0
 11
0.0
 21
0.0
 12
0.0
 22
0.0
 32
0.0
 14
0.0
 24
0.0
 34
0.0
 15
0.0
 25
0.0
 35
0.0
146
0.0
 13
0.0
 23
0.0
 33
0.0
 16
1.0
 26
0.0
 36
0.0
 17
0.0
 27
1.0
 37
0.0
 76
     0
330
23
  0
LAYOUT
  5
22
102
{ACAD_REACTORS
330
1A
102
}
330
1A
100
AcDbPlotSettings
  1

  2
none_device
  4
Letter_(8.50_x_11.00_Inches)
  6

 40
6.35
 41
6.35
 42
6.35000508
 43
6.35000508
 44
215.9
 45
279.4
 46
0.0
 47
0.0
 48
0.0
 49
0.0
140
0.0
141
0.0
142
1.0
143
1.0
 70
  1712
 72
     1
 73
     0
 74
     0
  7

 75
     0
 76
     0
 77
     2
 78
   300
147
1.0
148
0.0
149
0.0
100
AcDbLayout
  1
Model
 70
     1
 71
     0
 10
0.0
 20
0.0
 11
210.0
 21
297.0
 12
0.0
 22
0.0
 32
0.0
 14
0.0
 24
0.0
 34
0.0
 15
210.0
 25
297.0
 35
0.0
146
0.0
 13
0.0
 23
0.0
 33
0.0
 16
1.0
 26
0.0
 36
0.0
 17
0.0
 27
1.0
 37
0.0
 76
     0
330
1F
331
29
  0
MATERIAL
  5
45
102
{ACAD_REACTORS
330
43
102
}
330
43
100
AcDbMaterial
  1
ByBlock
 72
     1
 94
      127
  0
MATERIAL
  5
44
102
{ACAD_REACTORS
330
43
102
}
330
43
100
AcDbMaterial
  1
ByLayer
 72
     1
 94
      127
  0
MATERIAL
  5
46
102
{ACAD_REACTORS
330
43
102
}
330
43
100
AcDbMaterial
  1
Global
 72
     1
 94
      127
  0
MLEADERSTYLE
  5
6C
102
{ACAD_REACTORS
330
6B
102
}
330
6B
100
AcDbMLeaderStyle
179
     2
170
     2
171
     1
172
     0
 90
        2
 40
0.0
 41
0.0
173
     1
 91
-1056964608
340
14
 92
       -2
290
     1
 42
2.0
291
     1
 43
8.0
  3
Standard
341
0
 44
4.0
300

342
11
174
     1
178
     6
175
     1
176
     0
 93
-1056964608
 45
4.0
292
     0
297
     0
 46
4.0
343
0
 94
-1056964608
 47
1.0
 49
1.0
140
1.0
293
     1
141
0.0
294
     1
177
     0
142
1.0
295
     0
296
     0
143
3.75
271
     0
272
     9
273
     9
298
     0
  0
MLINESTYLE
  5
18
102
{ACAD_REACTORS
330
17
102
}
330
17
100
AcDbMlineStyle
  2
Standard
 70
     0
  3

 62
   256
 51
90.0
 52
90.0
 71
     2
 49
0.5
 62
   256
  6
BYLAYER
 49
-0.5
 62
   256
  6
BYLAYER
  0
ACDBPLACEHOLDER
  5
F
102
{ACAD_REACTORS
330
E
102
}
330
E
  0
SCALE
  5
48
102
{ACAD_REACTORS
330
47
102
}
330
47
100
AcDbScale
 70
     0
300
1:1
140
1.0
141
1.0
290
     1
  0
SCALE
  5
49
102
{ACAD_REACTORS
330
47
102
}
330
47
100
AcDbScale
 70
     0
300
1:2
140
1.0
141
2.0
290
     0
  0
SCALE
  5
4A
102
{ACAD_REACTORS
330
47
102
}
330
47
100
AcDbScale
 70
     0
300
1:4
140
1.0
141
4.0
290
     0
  0
SCALE
  5
4B
102
{ACAD_REACTORS
330
47
102
}
330
47
100
AcDbScale
 70
     0
300
1:5
140
1.0
141
5.0
290
     0
  0
SCALE
  5
4C
102
{ACAD_REACTORS
330
47
102
}
330
47
100
AcDbScale
 70
     0
300
1:8
140
1.0
141
8.0
290
     0
  0
SCALE
  5
4D
102
{ACAD_REACTORS
330
47
102
}
330
47
100
AcDbScale
 70
     0
300
1:10
140
1.0
141
10.0
290
     0
  0
SCALE
  5
4E
102
{ACAD_REACTORS
330
47
102
}
330
47
100
AcDbScale
 70
     0
300
1:16
140
1.0
141
16.0
290
     0
  0
SCALE
  5
4F
102
{ACAD_REACTORS
330
47
102
}
330
47
100
AcDbScale
 70
     0
300
1:20
140
1.0
141
20.0
290
     0
  0
SCALE
  5
50
102
{ACAD_REACTORS
330
47
102
}
330
47
100
AcDbScale
 70
     0
300
1:30
140
1.0
141
30.0
290
     0
  0
SCALE
  5
51
102
{ACAD_REACTORS
330
47
102
}
330
47
100
AcDbScale
 70
     0
300
1:40
140
1.0
141
40.0
290
     0
  0
SCALE
  5
52
102
{ACAD_REACTORS
330
47
102
}
330
47
100
AcDbScale
 70
     0
300
1:50
140
1.0
141
50.0
290
     0
  0
SCALE
  5
53
102
{ACAD_REACTORS
330
47
102
}
330
47
100
AcDbScale
 70
     0
300
1:100
140
1.0
141
100.0
290
     0
  0
SCALE
  5
54
102
{ACAD_REACTORS
330
47
102
}
330
47
100
AcDbScale
 70
     0
300
2:1
140
2.0
141
1.0
290
     0
  0
SCALE
  5
55
102
{ACAD_REACTORS
330
47
102
}
330
47
100
AcDbScale
 70
     0
300
4:1
140
4.0
141
1.0
290
     0
  0
SCALE
  5
56
102
{ACAD_REACTORS
330
47
102
}
330
47
100
AcDbScale
 70
     0
300
8:1
140
8.0
141
1.0
290
     0
  0
SCALE
  5
57
102
{ACAD_REACTORS
330
47
102
}
330
47
100
AcDbScale
 70
     0
300
10:1
140
10.0
141
1.0
290
     0
  0
SCALE
  5
58
102
{ACAD_REACTORS
330
47
102
}
330
47
100
AcDbScale
 70
     0
300
100:1
140
100.0
141
1.0
290
     0
  0
SCALE
  5
59
102
{ACAD_REACTORS
330
47
102
}
330
47
100
AcDbScale
 70
     0
300
1/128" = 1'-0"
140
0.0078125
141
12.0
290
     0
  0
SCALE
  5
5A
102
{ACAD_REACTORS
330
47
102
}
330
47
100
AcDbScale
 70
     0
300
1/64" = 1'-0"
140
0.015625
141
12.0
290
     0
  0
SCALE
  5
5B
102
{ACAD_REACTORS
330
47
102
}
330
47
100
AcDbScale
 70
     0
300
1/32" = 1'-0"
140
0.03125
141
12.0
290
     0
  0
SCALE
  5
5C
102
{ACAD_REACTORS
330
47
102
}
330
47
100
AcDbScale
 70
     0
300
1/16" = 1'-0"
140
0.0625
141
12.0
290
     0
  0
SCALE
  5
5D
102
{ACAD_REACTORS
330
47
102
}
330
47
100
AcDbScale
 70
     0
300
3/32" = 1'-0"
140
0.09375
141
12.0
290
     0
  0
SCALE
  5
5E
102
{ACAD_REACTORS
330
47
102
}
330
47
100
AcDbScale
 70
     0
300
1/8" = 1'-0"
140
0.125
141
12.0
290
     0
  0
SCALE
  5
5F
102
{ACAD_REACTORS
330
47
102
}
330
47
100
AcDbScale
 70
     0
300
3/16" = 1'-0"
140
0.1875
141
12.0
290
     0
  0
SCALE
  5
60
102
{ACAD_REACTORS
330
47
102
}
330
47
100
AcDbScale
 70
     0
300
1/4" = 1'-0"
140
0.25
141
12.0
290
     0
  0
SCALE
  5
61
102
{ACAD_REACTORS
330
47
102
}
330
47
100
AcDbScale
 70
     0
300
3/8" = 1'-0"
140
0.375
141
12.0
290
     0
  0
SCALE
  5
62
102
{ACAD_REACTORS
330
47
102
}
330
47
100
AcDbScale
 70
     0
300
1/2" = 1'-0"
140
0.5
141
12.0
290
     0
  0
SCALE
  5
63
102
{ACAD_REACTORS
330
47
102
}
330
47
100
AcDbScale
 70
     0
300
3/4" = 1'-0"
140
0.75
141
12.0
290
     0
  0
SCALE
  5
64
102
{ACAD_REACTORS
330
47
102
}
330
47
100
AcDbScale
 70
     0
300
1" = 1'-0"
140
1.0
141
12.0
290
     0
  0
SCALE
  5
65
102
{ACAD_REACTORS
330
47
102
}
330
47
100
AcDbScale
 70
     0
300
1-1/2" = 1'-0"
140
1.5
141
12.0
290
     0
  0
SCALE
  5
66
102
{ACAD_REACTORS
330
47
102
}
330
47
100
AcDbScale
 70
     0
300
3" = 1'-0"
140
3.0
141
12.0
290
     0
  0
SCALE
  5
67
102
{ACAD_REACTORS
330
47
102
}
330
47
100
AcDbScale
 70
     0
300
6" = 1'-0"
140
6.0
141
12.0
290
     0
  0
SCALE
  5
68
102
{ACAD_REACTORS
330
47
102
}
330
47
100
AcDbScale
 70
     0
300
1'-0" = 1'-0"
140
12.0
141
12.0
290
     0
  0
TABLESTYLE
  5
6A
102
{ACAD_REACTORS
330
69
102
}
102
{ACAD_XDICTIONARY
360
321
102
}
330
69
100
AcDbTableStyle
  3
Standard
 70
     0
 71
     0
 40
0.06
 41
0.06
280
     0
281
     0
  7
Standard
140
4.5
170
     2
 62
     0
 63
   257
283
     0
 90
        4
 91
        0
  1

274
    -2
284
     1
 64
     0
275
    -2
285
     1
 65
     0
276
    -2
286
     1
 66
     0
277
    -2
287
     1
 67
     0
278
    -2
288
     1
 68
     0
279
    -2
289
     1
 69
     0
  7
Standard
140
6.0
170
     5
 62
     0
 63
   257
283
     0
 90
        4
 91
        0
  1

274
    -2
284
     1
 64
     0
275
    -2
285
     1
 65
     0
276
    -2
286
     1
 66
     0
277
    -2
287
     1
 67
     0
278
    -2
288
     1
 68
     0
279
    -2
289
     1
 69
     0
  7
Standard
140
4.5
170
     5
 62
     0
 63
   257
283
     0
 90
        4
 91
        0
  1

274
    -2
284
     1
 64
     0
275
    -2
285
     1
 65
     0
276
    -2
286
     1
 66
     0
277
    -2
287
     1
 67
     0
278
    -2
288
     1
 68
     0
279
    -2
289
     1
 69
     0
  0
VISUALSTYLE
  5
2F
102
{ACAD_REACTORS
330
2A
102
}
330
2A
100
AcDbVisualStyle
  2
2dWireframe
 70
     4
177
     3
291
     0
 70
    58
 90
        0
176
     1
 90
        2
176
     1
 90
        0
176
     1
 90
        0
176
     1
 40
0.6
176
     1
 40
30.0
176
     1
 62
     7
420
 16777215
176
     1
 90
        1
176
     1
 90
        4
176
     1
 62
     7
176
     1
 62
   257
176
     1
 90
        1
176
     1
 90
        1
176
     1
 40
1.0
176
     1
 90
        0
176
     1
 62
   257
176
     1
 40
1.0
176
     1
 90
        1
176
     1
 90
        6
176
     1
 90
        2
176
     1
 62
     7
176
     1
 90
        5
176
     1
 90
        0
176
     1
 90
        0
176
     1
290
     0
176
     1
 90
        1
176
     1
 40
0.0
176
     1
 90
        0
176
     1
290
     1
176
     1
290
     1
176
     1
290
     0
176
     1
290
     0
176
     1
290
     0
176
     1
290
     0
176
     1
290
     0
176
     1
290
     0
176
     1
290
     0
176
     1
 90
       50
176
     1
 40
0.0
176
     1
 40
1.0
176
     1
 90
        0
176
     1
 62
   178
420
        0
176
     1
 90
       50
176
     1
 90
        3
176
     1
 62
     5
420
      255
176
     1
290
     0
176
     1
 90
       50
176
     1
 90
       50
176
     1
 90
       50
176
     1
290
     0
176
     1
 90
       50
176
     1
 62
   256
176
     0
 40
1.0
176
     0
 90
        2
176
     1
  1
strokes_ogs.tif
176
     1
290
     0
176
     1
 40
1.0
176
     1
 40
1.0
176
     1
  0
VISUALSTYLE
  5
32
102
{ACAD_REACTORS
330
2A
102
}
330
2A
100
AcDbVisualStyle
  2
Basic
 70
     7
177
     3
291
     1
 70
    58
 90
        1
176
     1
 90
        0
176
     1
 90
        1
176
     1
 90
        0
176
     1
 40
0.6
176
     1
 40
30.0
176
     1
 62
     7
420
 16777215
176
     1
 90
        0
176
     1
 90
        4
176
     1
 62
     7
176
     1
 62
   257
176
     1
 90
        1
176
     1
 90
        1
176
     1
 40
1.0
176
     1
 90
        8
176
     1
 62
     7
176
     1
 40
1.0
176
     1
 90
        1
176
     1
 90
        6
176
     1
 90
        2
176
     1
 62
     7
176
     1
 90
        5
176
     1
 90
        0
176
     1
 90
        0
176
     1
290
     0
176
     1
 90
        1
176
     1
 40
0.0
176
     1
 90
        0
176
     1
290
     0
176
     1
290
     1
176
     1
290
     1
176
     1
290
     0
176
     1
290
     0
176
     1
290
     0
176
     1
290
     0
176
     1
290
     0
176
     1
290
     0
176
     1
 90
       50
176
     1
 40
0.0
176
     1
 40
1.0
176
     1
 90
        0
176
     1
 62
   178
420
        0
176
     1
 90
       50
176
     1
 90
        3
176
     1
 62
     5
420
      255
176
     1
290
     0
176
     1
 90
       50
176
     1
 90
       50
176
     1
 90
       50
176
     1
290
     0
176
     1
 90
       50
176
     1
 62
   256
176
     0
 40
1.0
176
     0
 90
        2
176
     1
  1
strokes_ogs.tif
176
     1
290
     0
176
     1
 40
1.0
176
     1
 40
1.0
176
     1
  0
VISUALSTYLE
  5
36
102
{ACAD_REACTORS
330
2A
102
}
330
2A
100
AcDbVisualStyle
  2
Brighten
 70
    12
177
     3
291
     1
 70
    58
 90
        2
176
     1
 90
        2
176
     1
 90
        0
176
     1
 90
        0
176
     1
 40
0.6
176
     1
 40
30.0
176
     1
 62
     7
420
 16777215
176
     1
 90
        1
176
     1
 90
        4
176
     1
 62
     7
176
     1
 62
   257
176
     1
 90
        1
176
     1
 90
        1
176
     1
 40
1.0
176
     1
 90
        8
176
     1
 62
     7
176
     1
 40
1.0
176
     1
 90
        1
176
     1
 90
        6
176
     1
 90
        2
176
     1
 62
     7
176
     1
 90
        5
176
     1
 90
        0
176
     1
 90
        0
176
     1
290
     0
176
     1
 90
        1
176
     1
 40
50.0
176
     1
 90
        0
176
     1
290
     0
176
     1
290
     1
176
     1
290
     1
176
     1
290
     0
176
     1
290
     0
176
     1
290
     0
176
     1
290
     0
176
     1
290
     0
176
     1
290
     0
176
     1
 90
       50
176
     1
 40
0.0
176
     1
 40
1.0
176
     1
 90
        0
176
     1
 62
   178
420
        0
176
     1
 90
       50
176
     1
 90
        3
176
     1
 62
     5
420
      255
176
     1
290
     0
176
     1
 90
       50
176
     1
 90
       50
176
     1
 90
       50
176
     1
290
     0
176
     1
 90
       50
176
     1
 62
   256
176
     0
 40
1.0
176
     0
 90
        2
176
     1
  1
strokes_ogs.tif
176
     1
290
     0
176
     1
 40
1.0
176
     1
 40
1.0
176
     1
  0
VISUALSTYLE
  5
3A
102
{ACAD_REACTORS
330
2A
102
}
330
2A
100
AcDbVisualStyle
  2
ColorChange
 70
    16
177
     3
291
     1
 70
    58
 90
        2
176
     1
 90
        2
176
     1
 90
        3
176
     1
 90
        0
176
     1
 40
0.6
176
     1
 40
30.0
176
     1
 62
     8
420
  8421504
176
     1
 90
        1
176
     1
 90
        4
176
     1
 62
     7
176
     1
 62
   257
176
     1
 90
        1
176
     1
 90
        1
176
     1
 40
1.0
176
     1
 90
        8
176
     1
 62
     8
420
  8421504
176
     1
 40
1.0
176
     1
 90
        1
176
     1
 90
        6
176
     1
 90
        2
176
     1
 62
     7
176
     1
 90
        5
176
     1
 90
        0
176
     1
 90
        0
176
     1
290
     0
176
     1
 90
        1
176
     1
 40
0.0
176
     1
 90
        0
176
     1
290
     0
176
     1
290
     1
176
     1
290
     1
176
     1
290
     0
176
     1
290
     0
176
     1
290
     0
176
     1
290
     0
176
     1
290
     0
176
     1
290
     0
176
     1
 90
       50
176
     1
 40
0.0
176
     1
 40
1.0
176
     1
 90
        0
176
     1
 62
   178
420
        0
176
     1
 90
       50
176
     1
 90
        3
176
     1
 62
     5
420
      255
176
     1
290
     0
176
     1
 90
       50
176
     1
 90
       50
176
     1
 90
       50
176
     1
290
     0
176
     1
 90
       50
176
     1
 62
   256
176
     0
 40
1.0
176
     0
 90
        2
176
     1
  1
strokes_ogs.tif
176
     1
290
     0
176
     1
 40
1.0
176
     1
 40
1.0
176
     1
  0
VISUALSTYLE
  5
34
102
{ACAD_REACTORS
330
2A
102
}
330
2A
100
AcDbVisualStyle
  2
Conceptual
 70
     9
177
     3
291
     0
 70
    58
 90
        3
176
     1
 90
        2
176
     1
 90
        0
176
     1
 90
        0
176
     1
 40
0.6
176
     1
 40
30.0
176
     1
 62
     7
420
 16777215
176
     1
 90
        2
176
     1
 90
        2
176
     1
 62
     7
176
     1
 62
   257
176
     1
 90
        1
176
     1
 90
        1
176
     1
 40
179.0
176
     1
 90
        8
176
     1
 62
     7
176
     1
 40
1.0
176
     1
 90
        1
176
     1
 90
        6
176
     1
 90
        2
176
     1
 62
     7
176
     1
 90
        3
176
     1
 90
        0
176
     1
 90
        0
176
     1
290
     0
176
     1
 90
        1
176
     1
 40
0.0
176
     1
 90
        0
176
     1
290
     0
176
     1
290
     1
176
     1
290
     1
176
     1
290
     0
176
     1
290
     0
176
     1
290
     0
176
     1
290
     0
176
     1
290
     0
176
     1
290
     0
176
     1
 90
       50
176
     1
 40
0.0
176
     1
 40
1.0
176
     1
 90
        0
176
     1
 62
   178
420
        0
176
     1
 90
       50
176
     1
 90
        3
176
     1
 62
     5
420
      255
176
     1
290
     0
176
     1
 90
       50
176
     1
 90
       50
176
     1
 90
       50
176
     1
290
     0
176
     1
 90
       50
176
     1
 62
   256
176
     0
 40
1.0
176
     0
 90
        2
176
     1
  1
strokes_ogs.tif
176
     1
290
     0
176
     1
 40
1.0
176
     1
 40
1.0
176
     1
  0
VISUALSTYLE
  5
35
102
{ACAD_REACTORS
330
2A
102
}
330
2A
100
AcDbVisualStyle
  2
Dim
 70
    11
177
     3
291
     1
 70
    58
 90
        2
176
     1
 90
        2
176
     1
 90
        0
176
     1
 90
        0
176
     1
 40
0.6
176
     1
 40
30.0
176
     1
 62
     7
420
 16777215
176
     1
 90
        1
176
     1
 90
        4
176
     1
 62
     7
176
     1
 62
   257
176
     1
 90
        1
176
     1
 90
        1
176
     1
 40
1.0
176
     1
 90
        8
176
     1
 62
     7
176
     1
 40
1.0
176
     1
 90
        1
176
     1
 90
        6
176
     1
 90
        2
176
     1
 62
     7
176
     1
 90
        5
176
     1
 90
        0
176
     1
 90
        0
176
     1
290
     0
176
     1
 90
        1
176
     1
 40
-50.0
176
     1
 90
        0
176
     1
290
     0
176
     1
290
     1
176
     1
290
     1
176
     1
290
     0
176
     1
290
     0
176
     1
290
     0
176
     1
290
     0
176
     1
290
     0
176
     1
290
     0
176
     1
 90
       50
176
     1
 40
0.0
176
     1
 40
1.0
176
     1
 90
        0
176
     1
 62
   178
420
        0
176
     1
 90
       50
176
     1
 90
        3
176
     1
 62
     5
420
      255
176
     1
290
     0
176
     1
 90
       50
176
     1
 90
       50
176
     1
 90
       50
176
     1
290
     0
176
     1
 90
       50
176
     1
 62
   256
176
     0
 40
1.0
176
     0
 90
        2
176
     1
  1
strokes_ogs.tif
176
     1
290
     0
176
     1
 40
1.0
176
     1
 40
1.0
176
     1
  0
VISUALSTYLE
  5
3D
102
{ACAD_REACTORS
330
2A
102
}
330
2A
100
AcDbVisualStyle
  2
EdgeColorOff
 70
    22
177
     3
291
     1
 70
    58
 90
        2
176
     0
 90
        2
176
     0
 90
        0
176
     0
 90
        0
176
     0
 40
0.6
176
     0
 40
30.0
176
     0
 62
     7
420
 16777215
176
     0
 90
        1
176
     0
 90
        4
176
     0
 62
     7
176
     0
 62
   257
176
     0
 90
        1
176
     0
 90
        1
176
     0
 40
1.0
176
     0
 90
        8
176
     2
 62
     7
176
     0
 40
1.0
176
     0
 90
        1
176
     0
 90
        6
176
     0
 90
        2
176
     0
 62
     7
176
     0
 90
        5
176
     0
 90
        0
176
     0
 90
        0
176
     0
290
     0
176
     0
 90
        1
176
     0
 40
0.0
176
     0
 90
        0
176
     0
290
     0
176
     0
290
     1
176
     0
290
     1
176
     0
290
     0
176
     0
290
     0
176
     0
290
     0
176
     0
290
     0
176
     0
290
     0
176
     0
290
     0
176
     0
 90
       50
176
     0
 40
0.0
176
     0
 40
1.0
176
     0
 90
        0
176
     0
 62
   178
420
        0
176
     0
 90
       50
176
     0
 90
        3
176
     0
 62
     5
420
      255
176
     0
290
     0
176
     0
 90
       50
176
     0
 90
       50
176
     0
 90
       50
176
     0
290
     0
176
     0
 90
       50
176
     0
 62
   256
176
     0
 40
1.0
176
     0
 90
        2
176
     0
  1
strokes_ogs.tif
176
     0
290
     0
176
     0
 40
1.0
176
     0
 40
1.0
176
     0
  0
VISUALSTYLE
  5
39
102
{ACAD_REACTORS
330
2A
102
}
330
2A
100
AcDbVisualStyle
  2
Facepattern
 70
    15
177
     3
291
     1
 70
    58
 90
        2
176
     1
 90
        2
176
     1
 90
        0
176
     1
 90
        0
176
     1
 40
0.6
176
     1
 40
30.0
176
     1
 62
     7
420
 16777215
176
     1
 90
        1
176
     1
 90
        4
176
     1
 62
     7
176
     1
 62
   257
176
     1
 90
        1
176
     1
 90
        1
176
     1
 40
1.0
176
     1
 90
        8
176
     1
 62
     7
176
     1
 40
1.0
176
     1
 90
        1
176
     1
 90
        6
176
     1
 90
        2
176
     1
 62
     7
176
     1
 90
        5
176
     1
 90
        0
176
     1
 90
        0
176
     1
290
     0
176
     1
 90
        1
176
     1
 40
0.0
176
     1
 90
        0
176
     1
290
     0
176
     1
290
     1
176
     1
290
     1
176
     1
290
     0
176
     1
290
     0
176
     1
290
     0
176
     1
290
     0
176
     1
290
     0
176
     1
290
     0
176
     1
 90
       50
176
     1
 40
0.0
176
     1
 40
1.0
176
     1
 90
        0
176
     1
 62
   178
420
        0
176
     1
 90
       50
176
     1
 90
        3
176
     1
 62
     5
420
      255
176
     1
290
     0
176
     1
 90
       50
176
     1
 90
       50
176
     1
 90
       50
176
     1
290
     0
176
     1
 90
       50
176
     1
 62
   256
176
     0
 40
1.0
176
     0
 90
        2
176
     1
  1
strokes_ogs.tif
176
     1
290
     0
176
     1
 40
1.0
176
     1
 40
1.0
176
     1
  0
VISUALSTYLE
  5
2B
102
{ACAD_REACTORS
330
2A
102
}
330
2A
100
AcDbVisualStyle
  2
Flat
 70
     0
177
     3
291
     1
 70
    58
 90
        2
176
     1
 90
        1
176
     1
 90
        1
176
     1
 90
        2
176
     1
 40
0.6
176
     1
 40
30.0
176
     1
 62
     7
420
 16777215
176
     1
 90
        0
176
     1
 90
        0
176
     1
 62
     7
176
     1
 62
   257
176
     1
 90
        1
176
     1
 90
        1
176
     1
 40
1.0
176
     1
 90
        8
176
     1
 62
     7
176
     1
 40
1.0
176
     1
 90
        1
176
     1
 90
        6
176
     1
 90
        2
176
     1
 62
     7
176
     1
 90
        5
176
     1
 90
        0
176
     1
 90
        0
176
     1
290
     0
176
     1
 90
       13
176
     1
 40
0.0
176
     1
 90
        0
176
     1
290
     0
176
     1
290
     1
176
     1
290
     1
176
     1
290
     0
176
     1
290
     0
176
     1
290
     0
176
     1
290
     0
176
     1
290
     0
176
     1
290
     0
176
     1
 90
       50
176
     1
 40
0.0
176
     1
 40
1.0
176
     1
 90
        0
176
     1
 62
   178
420
        0
176
     1
 90
       50
176
     1
 90
        3
176
     1
 62
     5
420
      255
176
     1
290
     0
176
     1
 90
       50
176
     1
 90
       50
176
     1
 90
       50
176
     1
290
     0
176
     1
 90
       50
176
     1
 62
   256
176
     0
 40
1.0
176
     0
 90
        2
176
     1
  1
strokes_ogs.tif
176
     1
290
     0
176
     1
 40
1.0
176
     1
 40
1.0
176
     1
  0
VISUALSTYLE
  5
2C
102
{ACAD_REACTORS
330
2A
102
}
330
2A
100
AcDbVisualStyle
  2
FlatWithEdges
 70
     1
177
     3
291
     1
 70
    58
 90
        2
176
     1
 90
        1
176
     1
 90
        1
176
     1
 90
        2
176
     1
 40
0.6
176
     1
 40
30.0
176
     1
 62
     7
420
 16777215
176
     1
 90
        1
176
     1
 90
        0
176
     1
 62
     7
176
     1
 62
   257
176
     1
 90
        1
176
     1
 90
        1
176
     1
 40
1.0
176
     1
 90
        0
176
     1
 62
   257
176
     1
 40
1.0
176
     1
 90
        1
176
     1
 90
        6
176
     1
 90
        2
176
     1
 62
     7
176
     1
 90
        5
176
     1
 90
        0
176
     1
 90
        0
176
     1
290
     0
176
     1
 90
       13
176
     1
 40
0.0
176
     1
 90
        0
176
     1
290
     0
176
     1
290
     1
176
     1
290
     1
176
     1
290
     0
176
     1
290
     0
176
     1
290
     0
176
     1
290
     0
176
     1
290
     0
176
     1
290
     0
176
     1
 90
       50
176
     1
 40
0.0
176
     1
 40
1.0
176
     1
 90
        0
176
     1
 62
   178
420
        0
176
     1
 90
       50
176
     1
 90
        3
176
     1
 62
     5
420
      255
176
     1
290
     0
176
     1
 90
       50
176
     1
 90
       50
176
     1
 90
       50
176
     1
290
     0
176
     1
 90
       50
176
     1
 62
   256
176
     0
 40
1.0
176
     0
 90
        2
176
     1
  1
strokes_ogs.tif
176
     1
290
     0
176
     1
 40
1.0
176
     1
 40
1.0
176
     1
  0
VISUALSTYLE
  5
2D
102
{ACAD_REACTORS
330
2A
102
}
330
2A
100
AcDbVisualStyle
  2
Gouraud
 70
     2
177
     3
291
     1
 70
    58
 90
        2
176
     1
 90
        2
176
     1
 90
        1
176
     1
 90
        2
176
     1
 40
0.6
176
     1
 40
30.0
176
     1
 62
     7
420
 16777215
176
     1
 90
        0
176
     1
 90
        0
176
     1
 62
     7
176
     1
 62
   257
176
     1
 90
        1
176
     1
 90
        1
176
     1
 40
1.0
176
     1
 90
        0
176
     1
 62
     7
176
     1
 40
1.0
176
     1
 90
        1
176
     1
 90
        6
176
     1
 90
        2
176
     1
 62
     7
176
     1
 90
        5
176
     1
 90
        0
176
     1
 90
        0
176
     1
290
     0
176
     1
 90
       13
176
     1
 40
0.0
176
     1
 90
        0
176
     1
290
     0
176
     1
290
     1
176
     1
290
     1
176
     1
290
     0
176
     1
290
     0
176
     1
290
     0
176
     1
290
     0
176
     1
290
     0
176
     1
290
     0
176
     1
 90
       50
176
     1
 40
0.0
176
     1
 40
1.0
176
     1
 90
        0
176
     1
 62
   178
420
        0
176
     1
 90
       50
176
     1
 90
        3
176
     1
 62
     5
420
      255
176
     1
290
     0
176
     1
 90
       50
176
     1
 90
       50
176
     1
 90
       50
176
     1
290
     0
176
     1
 90
       50
176
     1
 62
   256
176
     0
 40
1.0
176
     0
 90
        2
176
     1
  1
strokes_ogs.tif
176
     1
290
     0
176
     1
 40
1.0
176
     1
 40
1.0
176
     1
  0
VISUALSTYLE
  5
2E
102
{ACAD_REACTORS
330
2A
102
}
330
2A
100
AcDbVisualStyle
  2
GouraudWithEdges
 70
     3
177
     3
291
     1
 70
    58
 90
        2
176
     1
 90
        2
176
     1
 90
        1
176
     1
 90
        2
176
     1
 40
0.6
176
     1
 40
30.0
176
     1
 62
     7
420
 16777215
176
     1
 90
        1
176
     1
 90
        0
176
     1
 62
     7
176
     1
 62
   257
176
     1
 90
        1
176
     1
 90
        1
176
     1
 40
1.0
176
     1
 90
        0
176
     1
 62
   257
176
     1
 40
1.0
176
     1
 90
        1
176
     1
 90
        6
176
     1
 90
        2
176
     1
 62
     7
176
     1
 90
        5
176
     1
 90
        0
176
     1
 90
        0
176
     1
290
     0
176
     1
 90
       13
176
     1
 40
0.0
176
     1
 90
        0
176
     1
290
     0
176
     1
290
     1
176
     1
290
     1
176
     1
290
     0
176
     1
290
     0
176
     1
290
     0
176
     1
290
     0
176
     1
290
     0
176
     1
290
     0
176
     1
 90
       50
176
     1
 40
0.0
176
     1
 40
1.0
176
     1
 90
        0
176
     1
 62
   178
420
        0
176
     1
 90
       50
176
     1
 90
        3
176
     1
 62
     5
420
      255
176
     1
290
     0
176
     1
 90
       50
176
     1
 90
       50
176
     1
 90
       50
176
     1
290
     0
176
     1
 90
       50
176
     1
 62
   256
176
     0
 40
1.0
176
     0
 90
        2
176
     1
  1
strokes_ogs.tif
176
     1
290
     0
176
     1
 40
1.0
176
     1
 40
1.0
176
     1
  0
VISUALSTYLE
  5
31
102
{ACAD_REACTORS
330
2A
102
}
330
2A
100
AcDbVisualStyle
  2
Hidden
 70
     6
177
     3
291
     0
 70
    58
 90
        1
176
     1
 90
        2
176
     1
 90
        2
176
     1
 90
        0
176
     1
 40
0.6
176
     1
 40
30.0
176
     1
 62
     7
420
 16777215
176
     1
 90
        2
176
     1
 90
        2
176
     1
 62
     7
176
     1
 62
   257
176
     1
 90
        2
176
     1
 90
        1
176
     1
 40
40.0
176
     1
 90
        0
176
     1
 62
   257
176
     1
 40
1.0
176
     1
 90
        1
176
     1
 90
        6
176
     1
 90
        2
176
     1
 62
     7
176
     1
 90
        3
176
     1
 90
        0
176
     1
 90
        0
176
     1
290
     0
176
     1
 90
        1
176
     1
 40
0.0
176
     1
 90
        0
176
     1
290
     0
176
     1
290
     1
176
     1
290
     1
176
     1
290
     0
176
     1
290
     0
176
     1
290
     0
176
     1
290
     0
176
     1
290
     0
176
     1
290
     0
176
     1
 90
       50
176
     1
 40
0.0
176
     1
 40
1.0
176
     1
 90
        0
176
     1
 62
   178
420
        0
176
     1
 90
       50
176
     1
 90
        3
176
     1
 62
     5
420
      255
176
     1
290
     0
176
     1
 90
       50
176
     1
 90
       50
176
     1
 90
       50
176
     1
290
     0
176
     1
 90
       50
176
     1
 62
   256
176
     0
 40
1.0
176
     0
 90
        2
176
     1
  1
strokes_ogs.tif
176
     1
290
     0
176
     1
 40
1.0
176
     1
 40
1.0
176
     1
  0
VISUALSTYLE
  5
3B
102
{ACAD_REACTORS
330
2A
102
}
330
2A
100
AcDbVisualStyle
  2
JitterOff
 70
    20
177
     3
291
     1
 70
    58
 90
        2
176
     0
 90
        2
176
     0
 90
        0
176
     0
 90
        0
176
     0
 40
0.6
176
     0
 40
30.0
176
     0
 62
     7
420
 16777215
176
     0
 90
        1
176
     0
 90
        4
176
     0
 62
     7
176
     0
 62
   257
176
     0
 90
        1
176
     0
 90
        1
176
     0
 40
1.0
176
     0
 90
       10
176
     2
 62
     7
176
     0
 40
1.0
176
     0
 90
        1
176
     0
 90
        6
176
     0
 90
        2
176
     0
 62
     7
176
     0
 90
        5
176
     0
 90
        0
176
     0
 90
        0
176
     0
290
     0
176
     0
 90
        1
176
     0
 40
0.0
176
     0
 90
        0
176
     0
290
     0
176
     0
290
     1
176
     0
290
     1
176
     0
290
     0
176
     0
290
     0
176
     0
290
     0
176
     0
290
     0
176
     0
290
     0
176
     0
290
     0
176
     0
 90
       50
176
     0
 40
0.0
176
     0
 40
1.0
176
     0
 90
        0
176
     0
 62
   178
420
        0
176
     0
 90
       50
176
     0
 90
        3
176
     0
 62
     5
420
      255
176
     0
290
     0
176
     0
 90
       50
176
     0
 90
       50
176
     0
 90
       50
176
     0
290
     0
176
     0
 90
       50
176
     0
 62
   256
176
     0
 40
1.0
176
     0
 90
        2
176
     0
  1
strokes_ogs.tif
176
     0
290
     0
176
     0
 40
1.0
176
     0
 40
1.0
176
     0
  0
VISUALSTYLE
  5
38
102
{ACAD_REACTORS
330
2A
102
}
330
2A
100
AcDbVisualStyle
  2
Linepattern
 70
    14
177
     3
291
     1
 70
    58
 90
        2
176
     1
 90
        2
176
     1
 90
        0
176
     1
 90
        0
176
     1
 40
0.6
176
     1
 40
30.0
176
     1
 62
     7
420
 16777215
176
     1
 90
        1
176
     1
 90
        4
176
     1
 62
     7
176
     1
 62
   257
176
     1
 90
        7
176
     1
 90
        7
176
     1
 40
1.0
176
     1
 90
        8
176
     1
 62
     7
176
     1
 40
1.0
176
     1
 90
        1
176
     1
 90
        6
176
     1
 90
        2
176
     1
 62
     7
176
     1
 90
        5
176
     1
 90
        0
176
     1
 90
        0
176
     1
290
     0
176
     1
 90
        1
176
     1
 40
0.0
176
     1
 90
        0
176
     1
290
     0
176
     1
290
     1
176
     1
290
     1
176
     1
290
     0
176
     1
290
     0
176
     1
290
     0
176
     1
290
     0
176
     1
290
     0
176
     1
290
     0
176
     1
 90
       50
176
     1
 40
0.0
176
     1
 40
1.0
176
     1
 90
        0
176
     1
 62
   178
420
        0
176
     1
 90
       50
176
     1
 90
        3
176
     1
 62
     5
420
      255
176
     1
290
     0
176
     1
 90
       50
176
     1
 90
       50
176
     1
 90
       50
176
     1
290
     0
176
     1
 90
       50
176
     1
 62
   256
176
     0
 40
1.0
176
     0
 90
        2
176
     1
  1
strokes_ogs.tif
176
     1
290
     0
176
     1
 40
1.0
176
     1
 40
1.0
176
     1
  0
VISUALSTYLE
  5
3C
102
{ACAD_REACTORS
330
2A
102
}
330
2A
100
AcDbVisualStyle
  2
OverhangOff
 70
    21
177
     3
291
     1
 70
    58
 90
        2
176
     0
 90
        2
176
     0
 90
        0
176
     0
 90
        0
176
     0
 40
0.6
176
     0
 40
30.0
176
     0
 62
     7
420
 16777215
176
     0
 90
        1
176
     0
 90
        4
176
     0
 62
     7
176
     0
 62
   257
176
     0
 90
        1
176
     0
 90
        1
176
     0
 40
1.0
176
     0
 90
        9
176
     2
 62
     7
176
     0
 40
1.0
176
     0
 90
        1
176
     0
 90
        6
176
     0
 90
        2
176
     0
 62
     7
176
     0
 90
        5
176
     0
 90
        0
176
     0
 90
        0
176
     0
290
     0
176
     0
 90
        1
176
     0
 40
0.0
176
     0
 90
        0
176
     0
290
     0
176
     0
290
     1
176
     0
290
     1
176
     0
290
     0
176
     0
290
     0
176
     0
290
     0
176
     0
290
     0
176
     0
290
     0
176
     0
290
     0
176
     0
 90
       50
176
     0
 40
0.0
176
     0
 40
1.0
176
     0
 90
        0
176
     0
 62
   178
420
        0
176
     0
 90
       50
176
     0
 90
        3
176
     0
 62
     5
420
      255
176
     0
290
     0
176
     0
 90
       50
176
     0
 90
       50
176
     0
 90
       50
176
     0
290
     0
176
     0
 90
       50
176
     0
 62
   256
176
     0
 40
1.0
176
     0
 90
        2
176
     0
  1
strokes_ogs.tif
176
     0
290
     0
176
     0
 40
1.0
176
     0
 40
1.0
176
     0
  0
VISUALSTYLE
  5
33
102
{ACAD_REACTORS
330
2A
102
}
330
2A
100
AcDbVisualStyle
  2
Realistic
 70
     8
177
     3
291
     0
 70
    58
 90
        2
176
     1
 90
        3
176
     1
 90
        0
176
     1
 90
        2
176
     1
 40
0.6
176
     1
 40
30.0
176
     1
 62
     7
420
 16777215
176
     1
 90
        0
176
     1
 90
        0
176
     1
 62
     7
176
     1
 62
   257
176
     1
 90
        1
176
     1
 90
        1
176
     1
 40
1.0
176
     1
 90
        8
176
     1
 62
   257
176
     1
 40
1.0
176
     1
 90
        1
176
     1
 90
        6
176
     1
 90
        2
176
     1
 62
     7
176
     1
 90
        3
176
     1
 90
        0
176
     1
 90
        0
176
     1
290
     0
176
     1
 90
       13
176
     1
 40
0.0
176
     1
 90
        0
176
     1
290
     0
176
     1
290
     1
176
     1
290
     1
176
     1
290
     0
176
     1
290
     0
176
     1
290
     0
176
     1
290
     0
176
     1
290
     0
176
     1
290
     0
176
     1
 90
       50
176
     1
 40
0.0
176
     1
 40
1.0
176
     1
 90
        0
176
     1
 62
   178
420
        0
176
     1
 90
       50
176
     1
 90
        3
176
     1
 62
     5
420
      255
176
     1
290
     0
176
     1
 90
       50
176
     1
 90
       50
176
     1
 90
       50
176
     1
290
     0
176
     1
 90
       50
176
     1
 62
   256
176
     0
 40
1.0
176
     0
 90
        2
176
     1
  1
strokes_ogs.tif
176
     1
290
     0
176
     1
 40
1.0
176
     1
 40
1.0
176
     1
  0
VISUALSTYLE
  5
42
102
{ACAD_REACTORS
330
2A
102
}
330
2A
100
AcDbVisualStyle
  2
Shaded
 70
    27
177
     3
291
     0
 70
    58
 90
        2
176
     1
 90
        2
176
     1
 90
        1
176
     1
 90
        2
176
     1
 40
0.6
176
     1
 40
30.0
176
     1
 62
     7
420
 16777215
176
     1
 90
        0
176
     1
 90
        4
176
     1
 62
     7
176
     1
 62
   257
176
     1
 90
        1
176
     1
 90
        1
176
     1
 40
1.0
176
     1
 90
        8
176
     1
 62
   257
176
     1
 40
1.0
176
     1
 90
        1
176
     1
 90
        6
176
     1
 90
        2
176
     1
 62
     8
420
  7895160
176
     1
 90
        3
176
     1
 90
        0
176
     1
 90
        0
176
     1
290
     0
176
     1
 90
        5
176
     1
 40
0.0
176
     1
 90
        0
176
     1
290
     0
176
     1
290
     1
176
     1
290
     1
176
     1
290
     0
176
     1
290
     0
176
     1
290
     0
176
     1
290
     0
176
     1
290
     0
176
     1
290
     0
176
     1
 90
       50
176
     1
 40
0.0
176
     1
 40
1.0
176
     1
 90
        0
176
     1
 62
   178
420
        0
176
     1
 90
       50
176
     1
 90
        3
176
     1
 62
     5
420
      255
176
     1
290
     0
176
     1
 90
       50
176
     1
 90
       50
176
     1
 90
       50
176
     1
290
     0
176
     1
 90
       50
176
     1
 62
   256
176
     0
 40
1.0
176
     0
 90
        2
176
     1
  1
strokes_ogs.tif
176
     1
290
     0
176
     1
 40
1.0
176
     1
 40
1.0
176
     1
  0
VISUALSTYLE
  5
41
102
{ACAD_REACTORS
330
2A
102
}
330
2A
100
AcDbVisualStyle
  2
Shaded with edges
 70
    26
177
     3
291
     0
 70
    58
 90
        2
176
     1
 90
        2
176
     1
 90
        1
176
     1
 90
        2
176
     1
 40
0.6
176
     1
 40
30.0
176
     1
 62
     7
420
 16777215
176
     1
 90
        1
176
     1
 90
       10
176
     1
 62
     7
176
     1
 62
   257
176
     1
 90
        2
176
     1
 90
        1
176
     1
 40
1.0
176
     1
 90
        8
176
     1
 62
   257
176
     1
 40
1.0
176
     1
 90
        1
176
     1
 90
        6
176
     1
 90
        2
176
     1
 62
     7
176
     1
 90
        3
176
     1
 90
        0
176
     1
 90
        0
176
     1
290
     0
176
     1
 90
        5
176
     1
 40
0.0
176
     1
 90
        0
176
     1
290
     0
176
     1
290
     1
176
     1
290
     1
176
     1
290
     0
176
     1
290
     0
176
     1
290
     0
176
     1
290
     0
176
     1
290
     0
176
     1
290
     0
176
     1
 90
       50
176
     1
 40
0.0
176
     1
 40
1.0
176
     1
 90
        0
176
     1
 62
   178
420
        0
176
     1
 90
       50
176
     1
 90
        3
176
     1
 62
     5
420
      255
176
     1
290
     0
176
     1
 90
       50
176
     1
 90
       50
176
     1
 90
       50
176
     1
290
     0
176
     1
 90
       50
176
     1
 62
   256
176
     0
 40
1.0
176
     0
 90
        2
176
     1
  1
strokes_ogs.tif
176
     1
290
     0
176
     1
 40
1.0
176
     1
 40
1.0
176
     1
  0
VISUALSTYLE
  5
3E
102
{ACAD_REACTORS
330
2A
102
}
330
2A
100
AcDbVisualStyle
  2
Shades of Gray
 70
    23
177
     3
291
     0
 70
    58
 90
        2
176
     1
 90
        2
176
     1
 90
        3
176
     1
 90
        0
176
     1
 40
0.6
176
     1
 40
30.0
176
     1
 62
     7
420
 16777215
176
     1
 90
        2
176
     1
 90
        2
176
     1
 62
     7
176
     1
 62
     7
176
     1
 90
        1
176
     1
 90
        1
176
     1
 40
40.0
176
     1
 90
        8
176
     1
 62
     7
176
     1
 40
1.0
176
     1
 90
        1
176
     1
 90
        6
176
     1
 90
        2
176
     1
 62
     7
176
     1
 90
        3
176
     1
 90
        0
176
     1
 90
        0
176
     1
290
     0
176
     1
 90
        1
176
     1
 40
0.0
176
     1
 90
        0
176
     1
290
     0
176
     1
290
     1
176
     1
290
     1
176
     1
290
     0
176
     1
290
     0
176
     1
290
     0
176
     1
290
     0
176
     1
290
     0
176
     1
290
     0
176
     1
 90
       50
176
     1
 40
0.0
176
     1
 40
1.0
176
     1
 90
        0
176
     1
 62
   178
420
        0
176
     1
 90
       50
176
     1
 90
        3
176
     1
 62
     5
420
      255
176
     1
290
     0
176
     1
 90
       50
176
     1
 90
       50
176
     1
 90
       50
176
     1
290
     0
176
     1
 90
       50
176
     1
 62
   256
176
     0
 40
1.0
176
     0
 90
        2
176
     1
  1
strokes_ogs.tif
176
     1
290
     0
176
     1
 40
1.0
176
     1
 40
1.0
176
     1
  0
VISUALSTYLE
  5
3F
102
{ACAD_REACTORS
330
2A
102
}
330
2A
100
AcDbVisualStyle
  2
Sketchy
 70
    24
177
     3
291
     0
 70
    58
 90
        1
176
     1
 90
        2
176
     1
 90
        2
176
     1
 90
        0
176
     1
 40
0.6
176
     1
 40
30.0
176
     1
 62
     7
420
 16777215
176
     1
 90
        2
176
     1
 90
        2
176
     1
 62
     7
176
     1
 62
     7
176
     1
 90
        1
176
     1
 90
        1
176
     1
 40
40.0
176
     1
 90
       11
176
     1
 62
     7
176
     1
 40
1.0
176
     1
 90
        1
176
     1
 90
        6
176
     1
 90
        2
176
     1
 62
     7
176
     1
 90
        6
176
     1
 90
        0
176
     1
 90
        0
176
     1
290
     0
176
     1
 90
        1
176
     1
 40
0.0
176
     1
 90
        0
176
     1
290
     0
176
     1
290
     1
176
     1
290
     1
176
     1
290
     0
176
     1
290
     0
176
     1
290
     0
176
     1
290
     0
176
     1
290
     0
176
     1
290
     0
176
     1
 90
       50
176
     1
 40
0.0
176
     1
 40
1.0
176
     1
 90
        0
176
     1
 62
   178
420
        0
176
     1
 90
       50
176
     1
 90
        3
176
     1
 62
     5
420
      255
176
     1
290
     0
176
     1
 90
       50
176
     1
 90
       50
176
     1
 90
       50
176
     1
290
     0
176
     1
 90
       50
176
     1
 62
   256
176
     0
 40
1.0
176
     0
 90
        2
176
     1
  1
strokes_ogs.tif
176
     1
290
     0
176
     1
 40
1.0
176
     1
 40
1.0
176
     1
  0
VISUALSTYLE
  5
37
102
{ACAD_REACTORS
330
2A
102
}
330
2A
100
AcDbVisualStyle
  2
Thicken
 70
    13
177
     3
291
     1
 70
    58
 90
        2
176
     1
 90
        2
176
     1
 90
        0
176
     1
 90
        0
176
     1
 40
0.6
176
     1
 40
30.0
176
     1
 62
     7
420
 16777215
176
     1
 90
        1
176
     1
 90
        4
176
     1
 62
     7
176
     1
 62
   257
176
     1
 90
        1
176
     1
 90
        1
176
     1
 40
1.0
176
     1
 90
       12
176
     1
 62
     7
176
     1
 40
1.0
176
     1
 90
        1
176
     1
 90
        6
176
     1
 90
        2
176
     1
 62
     7
176
     1
 90
        5
176
     1
 90
        0
176
     1
 90
        0
176
     1
290
     0
176
     1
 90
        1
176
     1
 40
0.0
176
     1
 90
        0
176
     1
290
     0
176
     1
290
     1
176
     1
290
     1
176
     1
290
     0
176
     1
290
     0
176
     1
290
     0
176
     1
290
     0
176
     1
290
     0
176
     1
290
     0
176
     1
 90
       50
176
     1
 40
0.0
176
     1
 40
1.0
176
     1
 90
        0
176
     1
 62
   178
420
        0
176
     1
 90
       50
176
     1
 90
        3
176
     1
 62
     5
420
      255
176
     1
290
     0
176
     1
 90
       50
176
     1
 90
       50
176
     1
 90
       50
176
     1
290
     0
176
     1
 90
       50
176
     1
 62
   256
176
     0
 40
1.0
176
     0
 90
        2
176
     1
  1
strokes_ogs.tif
176
     1
290
     0
176
     1
 40
1.0
176
     1
 40
1.0
176
     1
  0
VISUALSTYLE
  5
30
102
{ACAD_REACTORS
330
2A
102
}
330
2A
100
AcDbVisualStyle
  2
Wireframe
 70
     5
177
     3
291
     0
 70
    58
 90
        0
176
     1
 90
        2
176
     1
 90
        0
176
     1
 90
        0
176
     1
 40
0.6
176
     1
 40
30.0
176
     1
 62
     7
420
 16777215
176
     1
 90
        1
176
     1
 90
        4
176
     1
 62
     7
176
     1
 62
   257
176
     1
 90
        1
176
     1
 90
        1
176
     1
 40
1.0
176
     1
 90
        0
176
     1
 62
   257
176
     1
 40
1.0
176
     1
 90
        1
176
     1
 90
        6
176
     1
 90
        2
176
     1
 62
     7
176
     1
 90
        3
176
     1
 90
        0
176
     1
 90
        0
176
     1
290
     0
176
     1
 90
        1
176
     1
 40
0.0
176
     1
 90
        0
176
     1
290
     0
176
     1
290
     1
176
     1
290
     1
176
     1
290
     0
176
     1
290
     0
176
     1
290
     0
176
     1
290
     0
176
     1
290
     0
176
     1
290
     0
176
     1
 90
       50
176
     1
 40
0.0
176
     1
 40
1.0
176
     1
 90
        0
176
     1
 62
   178
420
        0
176
     1
 90
       50
176
     1
 90
        3
176
     1
 62
     5
420
      255
176
     1
290
     0
176
     1
 90
       50
176
     1
 90
       50
176
     1
 90
       50
176
     1
290
     0
176
     1
 90
       50
176
     1
 62
   256
176
     0
 40
1.0
176
     0
 90
        2
176
     1
  1
strokes_ogs.tif
176
     1
290
     0
176
     1
 40
1.0
176
     1
 40
1.0
176
     1
  0
VISUALSTYLE
  5
40
102
{ACAD_REACTORS
330
2A
102
}
330
2A
100
AcDbVisualStyle
  2
X-Ray
 70
    25
177
     3
291
     0
 70
    58
 90
        2
176
     1
 90
        2
176
     1
 90
        1
176
     1
 90
        1
176
     1
 40
0.5
176
     1
 40
30.0
176
     1
 62
     7
420
 16777215
176
     1
 90
        1
176
     1
 90
        0
176
     1
 62
     7
176
     1
 62
   257
176
     1
 90
        1
176
     1
 90
        1
176
     1
 40
1.0
176
     1
 90
        8
176
     1
 62
     7
176
     1
 40
1.0
176
     1
 90
        1
176
     1
 90
        6
176
     1
 90
        2
176
     1
 62
     7
176
     1
 90
        3
176
     1
 90
        0
176
     1
 90
        0
176
     1
290
     0
176
     1
 90
       13
176
     1
 40
0.0
176
     1
 90
        0
176
     1
290
     0
176
     1
290
     1
176
     1
290
     1
176
     1
290
     0
176
     1
290
     0
176
     1
290
     0
176
     1
290
     0
176
     1
290
     0
176
     1
290
     0
176
     1
 90
       50
176
     1
 40
0.0
176
     1
 40
1.0
176
     1
 90
        0
176
     1
 62
   178
420
        0
176
     1
 90
       50
176
     1
 90
        3
176
     1
 62
     5
420
      255
176
     1
290
     0
176
     1
 90
       50
176
     1
 90
       50
176
     1
 90
       50
176
     1
290
     0
176
     1
 90
       50
176
     1
 62
   256
176
     0
 40
1.0
176
     0
 90
        2
176
     1
  1
strokes_ogs.tif
176
     1
290
     0
176
     1
 40
1.0
176
     1
 40
1.0
176
     1
  0
DICTIONARYVAR
  5
320
102
{ACAD_REACTORS
330
31F
102
}
330
31F
100
DictionaryVariables
280
     0
  1
1:1
  0
DICTIONARYVAR
  5
325
102
{ACAD_REACTORS
330
31F
102
}
330
31F
100
DictionaryVariables
280
     0
  1
Standard
  0
DICTIONARYVAR
  5
324
102
{ACAD_REACTORS
330
31F
102
}
330
31F
100
DictionaryVariables
280
     0
  1
Standard
  0
DICTIONARY
  5
321
330
6A
100
AcDbDictionary
280
     1
281
     1
  3
ACAD_ROUNDTRIP_2008_TABLESTYLE_CELLSTYLEMAP
360
322
  0
CELLSTYLEMAP
  5
322
102
{ACAD_REACTORS
330
321
102
}
330
321
100
AcDbCellStyleMap
 90
        3
300
CELLSTYLE
  1
TABLEFORMAT_BEGIN
 90
        5
170
     1
 91
        0
 92
    32768
 62
   257
 93
        1
300
CONTENTFORMAT
  1
CONTENTFORMAT_BEGIN
 90
        0
 91
        0
 92
        4
 93
        0
300

 40
0.0
140
1.0
 94
        5
 62
     0
340
11
144
6.0
309
CONTENTFORMAT_END
171
     1
301
MARGIN
  1
CELLMARGIN_BEGIN
 40
1.5
 40
1.5
 40
1.5
 40
1.5
 40
1.5
 40
1.5
309
CELLMARGIN_END
 94
        6
 95
        1
302
GRIDFORMAT
  1
GRIDFORMAT_BEGIN
 90
        0
 91
        1
 62
     0
 92
       -2
340
14
 93
        0
 40
0.045
309
GRIDFORMAT_END
 95
        2
302
GRIDFORMAT
  1
GRIDFORMAT_BEGIN
 90
        0
 91
        1
 62
     0
 92
       -2
340
14
 93
        0
 40
0.045
309
GRIDFORMAT_END
 95
        4
302
GRIDFORMAT
  1
GRIDFORMAT_BEGIN
 90
        0
 91
        1
 62
     0
 92
       -2
340
14
 93
        0
 40
0.045
309
GRIDFORMAT_END
 95
        8
302
GRIDFORMAT
  1
GRIDFORMAT_BEGIN
 90
        0
 91
        1
 62
     0
 92
       -2
340
14
 93
        0
 40
0.045
309
GRIDFORMAT_END
 95
       16
302
GRIDFORMAT
  1
GRIDFORMAT_BEGIN
 90
        0
 91
        1
 62
     0
 92
       -2
340
14
 93
        0
 40
0.045
309
GRIDFORMAT_END
 95
       32
302
GRIDFORMAT
  1
GRIDFORMAT_BEGIN
 90
        0
 91
        1
 62
     0
 92
       -2
340
14
 93
        0
 40
0.045
309
GRIDFORMAT_END
309
TABLEFORMAT_END
  1
CELLSTYLE_BEGIN
 90
        1
 91
        1
300
_TITLE
309
CELLSTYLE_END
300
CELLSTYLE
  1
TABLEFORMAT_BEGIN
 90
        5
170
     1
 91
        0
 92
        0
 62
   257
 93
        1
300
CONTENTFORMAT
  1
CONTENTFORMAT_BEGIN
 90
        0
 91
        0
 92
        4
 93
        0
300

 40
0.0
140
1.0
 94
        5
 62
     0
340
11
144
4.5
309
CONTENTFORMAT_END
171
     1
301
MARGIN
  1
CELLMARGIN_BEGIN
 40
1.5
 40
1.5
 40
1.5
 40
1.5
 40
1.5
 40
1.5
309
CELLMARGIN_END
 94
        6
 95
        1
302
GRIDFORMAT
  1
GRIDFORMAT_BEGIN
 90
        0
 91
        1
 62
     0
 92
       -2
340
14
 93
        0
 40
0.045
309
GRIDFORMAT_END
 95
        2
302
GRIDFORMAT
  1
GRIDFORMAT_BEGIN
 90
        0
 91
        1
 62
     0
 92
       -2
340
14
 93
        0
 40
0.045
309
GRIDFORMAT_END
 95
        4
302
GRIDFORMAT
  1
GRIDFORMAT_BEGIN
 90
        0
 91
        1
 62
     0
 92
       -2
340
14
 93
        0
 40
0.045
309
GRIDFORMAT_END
 95
        8
302
GRIDFORMAT
  1
GRIDFORMAT_BEGIN
 90
        0
 91
        1
 62
     0
 92
       -2
340
14
 93
        0
 40
0.045
309
GRIDFORMAT_END
 95
       16
302
GRIDFORMAT
  1
GRIDFORMAT_BEGIN
 90
        0
 91
        1
 62
     0
 92
       -2
340
14
 93
        0
 40
0.045
309
GRIDFORMAT_END
 95
       32
302
GRIDFORMAT
  1
GRIDFORMAT_BEGIN
 90
        0
 91
        1
 62
     0
 92
       -2
340
14
 93
        0
 40
0.045
309
GRIDFORMAT_END
309
TABLEFORMAT_END
  1
CELLSTYLE_BEGIN
 90
        2
 91
        1
300
_HEADER
309
CELLSTYLE_END
300
CELLSTYLE
  1
TABLEFORMAT_BEGIN
 90
        5
170
     1
 91
        0
 92
        0
 62
   257
 93
        1
300
CONTENTFORMAT
  1
CONTENTFORMAT_BEGIN
 90
        0
 91
        0
 92
        4
 93
        0
300

 40
0.0
140
1.0
 94
        2
 62
     0
340
11
144
4.5
309
CONTENTFORMAT_END
171
     1
301
MARGIN
  1
CELLMARGIN_BEGIN
 40
1.5
 40
1.5
 40
1.5
 40
1.5
 40
1.5
 40
1.5
309
CELLMARGIN_END
 94
        6
 95
        1
302
GRIDFORMAT
  1
GRIDFORMAT_BEGIN
 90
        0
 91
        1
 62
     0
 92
       -2
340
14
 93
        0
 40
0.045
309
GRIDFORMAT_END
 95
        2
302
GRIDFORMAT
  1
GRIDFORMAT_BEGIN
 90
        0
 91
        1
 62
     0
 92
       -2
340
14
 93
        0
 40
0.045
309
GRIDFORMAT_END
 95
        4
302
GRIDFORMAT
  1
GRIDFORMAT_BEGIN
 90
        0
 91
        1
 62
     0
 92
       -2
340
14
 93
        0
 40
0.045
309
GRIDFORMAT_END
 95
        8
302
GRIDFORMAT
  1
GRIDFORMAT_BEGIN
 90
        0
 91
        1
 62
     0
 92
       -2
340
14
 93
        0
 40
0.045
309
GRIDFORMAT_END
 95
       16
302
GRIDFORMAT
  1
GRIDFORMAT_BEGIN
 90
        0
 91
        1
 62
     0
 92
       -2
340
14
 93
        0
 40
0.045
309
GRIDFORMAT_END
 95
       32
302
GRIDFORMAT
  1
GRIDFORMAT_BEGIN
 90
        0
 91
        1
 62
     0
 92
       -2
340
14
 93
        0
 40
0.045
309
GRIDFORMAT_END
309
TABLEFORMAT_END
  1
CELLSTYLE_BEGIN
 90
        3
 91
        2
300
_DATA
309
CELLSTYLE_END
  0
ENDSEC
  0
EOF
