  0
SECTION
  2
HEADER
  9
$ACADVER
  1
AC1027
  9
$ACADMAINTVER
 70
     8
  9
$DWGCODEPAGE
  3
ANSI_1252
  9
$REQUIREDVERSIONS
160
                 0
  9
$INSBASE
 10
0.0
 20
0.0
 30
0.0
  9
$EXTMIN
 10
0.0
 20
0.0
 30
0.0
  9
$EXTMAX
 10
210.0
 20
297.0
 30
0.0
  9
$LIMMIN
 10
0.0
 20
0.0
  9
$LIMMAX
 10
210.0
 20
297.0
  9
$ORTHOMODE
 70
     0
  9
$REGENMODE
 70
     1
  9
$FILLMODE
 70
     1
  9
$QTEXTMODE
 70
     0
  9
$MIRRTEXT
 70
     1
  9
$LTSCALE
 40
1.0
  9
$ATTMODE
 70
     1
  9
$TEXTSIZE
 40
2.5
  9
$TRACEWID
 40
1.0
  9
$TEXTSTYLE
  7
Standard
  9
$CLAYER
  8
Dimension
  9
$CELTYPE
  6
ByLayer
  9
$CECOLOR
 62
   256
  9
$CELTSCALE
 40
1.0
  9
$DISPSILH
 70
     0
  9
$DIMSCALE
 40
1.0
  9
$DIMASZ
 40
2.5
  9
$DIMEXO
 40
0.625
  9
$DIMDLI
 40
3.75
  9
$DIMRND
 40
0.0
  9
$DIMDLE
 40
0.0
  9
$DIMEXE
 40
1.25
  9
$DIMTP
 40
0.0
  9
$DIMTM
 40
0.0
  9
$DIMTXT
 40
2.5
  9
$DIMCEN
 40
2.5
  9
$DIMTSZ
 40
0.0
  9
$DIMTOL
 70
     0
  9
$DIMLIM
 70
     0
  9
$DIMTIH
 70
     0
  9
$DIMTOH
 70
     0
  9
$DIMSE1
 70
     0
  9
$DIMSE2
 70
     0
  9
$DIMTAD
 70
     1
  9
$DIMZIN
 70
     8
  9
$DIMBLK
  1

  9
$DIMASO
 70
     1
  9
$DIMSHO
 70
     1
  9
$DIMPOST
  1

  9
$DIMAPOST
  1

  9
$DIMALT
 70
     0
  9
$DIMALTD
 70
     3
  9
$DIMALTF
 40
0.03937007874016
  9
$DIMLFAC
 40
1.0
  9
$DIMTOFL
 70
     1
  9
$DIMTVP
 40
0.0
  9
$DIMTIX
 70
     0
  9
$DIMSOXD
 70
     0
  9
$DIMSAH
 70
     0
  9
$DIMBLK1
  1

  9
$DIMBLK2
  1

  9
$DIMSTYLE
  2
ISO-25
  9
$DIMCLRD
 70
     0
  9
$DIMCLRE
 70
     0
  9
$DIMCLRT
 70
     0
  9
$DIMTFAC
 40
1.0
  9
$DIMGAP
 40
0.625
  9
$DIMJUST
 70
     0
  9
$DIMSD1
 70
     0
  9
$DIMSD2
 70
     0
  9
$DIMTOLJ
 70
     0
  9
$DIMTZIN
 70
     8
  9
$DIMALTZ
 70
     0
  9
$DIMALTTZ
 70
     0
  9
$DIMUPT
 70
     0
  9
$DIMDEC
 70
     2
  9
$DIMTDEC
 70
     2
  9
$DIMALTU
 70
     2
  9
$DIMALTTD
 70
     3
  9
$DIMTXSTY
  7
Standard
  9
$DIMAUNIT
 70
     0
  9
$DIMADEC
 70
     0
  9
$DIMALTRND
 40
0.0
  9
$DIMAZIN
 70
     0
  9
$DIMDSEP
 70
    44
  9
$DIMATFIT
 70
     3
  9
$DIMFRAC
 70
     0
  9
$DIMLDRBLK
  1

  9
$DIMLUNIT
 70
     2
  9
$DIMLWD
 70
    -2
  9
$DIMLWE
 70
    -2
  9
$DIMTMOVE
 70
     0
  9
$DIMFXL
 40
1.0
  9
$DIMFXLON
 70
     0
  9
$DIMJOGANG
 40
0.7853981633974483
  9
$DIMTFILL
 70
     0
  9
$DIMTFILLCLR
 70
     0
  9
$DIMARCSYM
 70
     0
  9
$DIMLTYPE
  6

  9
$DIMLTEX1
  6

  9
$DIMLTEX2
  6

  9
$DIMTXTDIRECTION
 70
     0
  9
$LUNITS
 70
     2
  9
$LUPREC
 70
     4
  9
$SKETCHINC
 40
1.0
  9
$FILLETRAD
 40
10.0
  9
$AUNITS
 70
     0
  9
$AUPREC
 70
     0
  9
$MENU
  1
.
  9
$ELEVATION
 40
0.0
  9
$PELEVATION
 40
0.0
  9
$THICKNESS
 40
0.0
  9
$LIMCHECK
 70
     0
  9
$CHAMFERA
 40
0.0
  9
$CHAMFERB
 40
0.0
  9
$CHAMFERC
 40
0.0
  9
$CHAMFERD
 40
0.0
  9
$SKPOLY
 70
     0
  9
$TDCREATE
 40
2457509.562604167
  9
$TDUCREATE
 40
2457509.854270834
  9
$TDUPDATE
 40
2457509.562604167
  9
$TDUUPDATE
 40
2457509.854270834
  9
$TDINDWG
 40
0.0000000116
  9
$TDUSRTIMER
 40
0.0000000116
  9
$USRTIMER
 70
     1
  9
$ANGBASE
 50
0.0
  9
$ANGDIR
 70
     0
  9
$PDMODE
 70
     0
  9
$PDSIZE
 40
0.0
  9
$PLINEWID
 40
0.0
  9
$SPLFRAME
 70
     0
  9
$SPLINETYPE
 70
     6
  9
$SPLINESEGS
 70
     8
  9
$HANDSEED
  5
460
  9
$SURFTAB1
 70
     6
  9
$SURFTAB2
 70
     6
  9
$SURFTYPE
 70
     6
  9
$SURFU
 70
     6
  9
$SURFV
 70
     6
  9
$UCSBASE
  2

  9
$UCSNAME
  2

  9
$UCSORG
 10
0.0
 20
0.0
 30
0.0
  9
$UCSXDIR
 10
1.0
 20
0.0
 30
0.0
  9
$UCSYDIR
 10
0.0
 20
1.0
 30
0.0
  9
$UCSORTHOREF
  2

  9
$UCSORTHOVIEW
 70
     0
  9
$UCSORGTOP
 10
0.0
 20
0.0
 30
0.0
  9
$UCSORGBOTTOM
 10
0.0
 20
0.0
 30
0.0
  9
$UCSORGLEFT
 10
0.0
 20
0.0
 30
0.0
  9
$UCSORGRIGHT
 10
0.0
 20
0.0
 30
0.0
  9
$UCSORGFRONT
 10
0.0
 20
0.0
 30
0.0
  9
$UCSORGBACK
 10
0.0
 20
0.0
 30
0.0
  9
$PUCSBASE
  2

  9
$PUCSNAME
  2

  9
$PUCSORG
 10
0.0
 20
0.0
 30
0.0
  9
$PUCSXDIR
 10
1.0
 20
0.0
 30
0.0
  9
$PUCSYDIR
 10
0.0
 20
1.0
 30
0.0
  9
$PUCSORTHOREF
  2

  9
$PUCSORTHOVIEW
 70
     0
  9
$PUCSORGTOP
 10
0.0
 20
0.0
 30
0.0
  9
$PUCSORGBOTTOM
 10
0.0
 20
0.0
 30
0.0
  9
$PUCSORGLEFT
 10
0.0
 20
0.0
 30
0.0
  9
$PUCSORGRIGHT
 10
0.0
 20
0.0
 30
0.0
  9
$PUCSORGFRONT
 10
0.0
 20
0.0
 30
0.0
  9
$PUCSORGBACK
 10
0.0
 20
0.0
 30
0.0
  9
$USERI1
 70
     0
  9
$USERI2
 70
     0
  9
$USERI3
 70
     0
  9
$USERI4
 70
     0
  9
$USERI5
 70
     0
  9
$USERR1
 40
0.0
  9
$USERR2
 40
0.0
  9
$USERR3
 40
0.0
  9
$USERR4
 40
0.0
  9
$USERR5
 40
0.0
  9
$WORLDVIEW
 70
     1
  9
$SHADEDGE
 70
     3
  9
$SHADEDIF
 70
    70
  9
$TILEMODE
 70
     1
  9
$MAXACTVP
 70
    64
  9
$PINSBASE
 10
0.0
 20
0.0
 30
0.0
  9
$PLIMCHECK
 70
     0
  9
$PEXTMIN
 10
1.000000000000000E+20
 20
1.000000000000000E+20
 30
1.000000000000000E+20
  9
$PEXTMAX
 10
-1.000000000000000E+20
 20
-1.000000000000000E+20
 30
-1.000000000000000E+20
  9
$PLIMMIN
 10
0.0
 20
0.0
  9
$PLIMMAX
 10
420.0
 20
297.0
  9
$UNITMODE
 70
     0
  9
$VISRETAIN
 70
     1
  9
$PLINEGEN
 70
     0
  9
$PSLTSCALE
 70
     1
  9
$TREEDEPTH
 70
  3020
  9
$CMLSTYLE
  2
Standard
  9
$CMLJUST
 70
     0
  9
$CMLSCALE
 40
20.0
  9
$PROXYGRAPHICS
 70
     1
  9
$MEASUREMENT
 70
     1
  9
$CELWEIGHT
370
    -1
  9
$ENDCAPS
280
     0
  9
$JOINSTYLE
280
     0
  9
$LWDISPLAY
290
     0
  9
$INSUNITS
 70
     4
  9
$HYPERLINKBASE
  1

  9
$STYLESHEET
  1

  9
$XEDIT
290
     1
  9
$CEPSNTYPE
380
     0
  9
$PSTYLEMODE
290
     1
  9
$FINGERPRINTGUID
  2
{994d72ed-a11f-410c-8033-0c91f620ceec}
  9
$VERSIONGUID
  2
{FAEB1C32-E019-11D5-929B-00C0DF256EC4}
  9
$EXTNAMES
290
     1
  9
$PSVPSCALE
 40
0.0
  9
$OLESTARTUP
290
     0
  9
$SORTENTS
280
   127
  9
$INDEXCTL
280
     0
  9
$HIDETEXT
280
     1
  9
$XCLIPFRAME
280
     2
  9
$HALOGAP
280
     0
  9
$OBSCOLOR
 70
   257
  9
$OBSLTYPE
280
     0
  9
$INTERSECTIONDISPLAY
280
     0
  9
$INTERSECTIONCOLOR
 70
   257
  9
$DIMASSOC
280
     2
  9
$PROJECTNAME
  1

  9
$CAMERADISPLAY
290
     0
  9
$LENSLENGTH
 40
50.0
  9
$CAMERAHEIGHT
 40
0.0
  9
$STEPSPERSEC
 40
2.0
  9
$STEPSIZE
 40
6.0
  9
$3DDWFPREC
 40
2.0
  9
$PSOLWIDTH
 40
5.0
  9
$PSOLHEIGHT
 40
80.0
  9
$LOFTANG1
 40
1.570796326794897
  9
$LOFTANG2
 40
1.570796326794897
  9
$LOFTMAG1
 40
0.0
  9
$LOFTMAG2
 40
0.0
  9
$LOFTPARAM
 70
     7
  9
$LOFTNORMALS
280
     1
  9
$LATITUDE
 40
37.795
  9
$LONGITUDE
 40
-122.394
  9
$NORTHDIRECTION
 40
0.0
  9
$TIMEZONE
 70
 -8000
  9
$LIGHTGLYPHDISPLAY
280
     1
  9
$TILEMODELIGHTSYNCH
280
     1
  9
$CMATERIAL
347
44
  9
$SOLIDHIST
280
     0
  9
$SHOWHIST
280
     1
  9
$DWFFRAME
280
     2
  9
$DGNFRAME
280
     2
  9
$REALWORLDSCALE
290
     1
  9
$INTERFERECOLOR
 62
   256
  9
$CSHADOW
280
     0
  9
$SHADOWPLANELOCATION
 40
0.0
  0
ENDSEC
  0
SECTION
  2
CLASSES
  0
CLASS
  1
ACDBDICTIONARYWDFLT
  2
AcDbDictionaryWithDefault
  3
ObjectDBX Classes
 90
        0
 91
        4
280
     0
281
     0
  0
CLASS
  1
VISUALSTYLE
  2
AcDbVisualStyle
  3
ObjectDBX Classes
 90
     4095
 91
        4
280
     0
281
     0
  0
CLASS
  1
MATERIAL
  2
AcDbMaterial
  3
ObjectDBX Classes
 90
     1153
 91
        4
280
     0
281
     0
  0
CLASS
  1
SCALE
  2
AcDbScale
  3
ObjectDBX Classes
 90
     1153
 91
        4
280
     0
281
     0
  0
CLASS
  1
TABLESTYLE
  2
AcDbTableStyle
  3
ObjectDBX Classes
 90
     4095
 91
        4
280
     0
281
     0
  0
CLASS
  1
MLEADERSTYLE
  2
AcDbMLeaderStyle
  3
ACDB_MLEADERSTYLE_CLASS
 90
     4095
 91
        4
280
     0
281
     0
  0
CLASS
  1
SUN
  2
AcDbSun
  3
SCENEOE
 90
     1153
 91
        4
280
     0
281
     0
  0
CLASS
  1
DICTIONARYVAR
  2
AcDbDictionaryVar
  3
ObjectDBX Classes
 90
        0
 91
        4
280
     0
281
     0
  0
CLASS
  1
CELLSTYLEMAP
  2
AcDbCellStyleMap
  3
ObjectDBX Classes
 90
     1152
 91
        4
280
     0
281
     0
  0
ENDSEC
  0
SECTION
  2
TABLES
  0
TABLE
  2
VPORT
  5
8
330
0
100
AcDbSymbolTable
 70
     1
  0
VPORT
  5
29
330
8
100
AcDbSymbolTableRecord
100
AcDbViewportTableRecord
  2
*Active
 70
     0
 10
0.0
 20
0.0
 11
1.0
 21
1.0
 12
136.2525467753068
 22
143.8982938374745
 13
0.0
 23
0.0
 14
10.0
 24
10.0
 15
10.0
 25
10.0
 16
0.0
 26
0.0
 36
1.0
 17
0.0
 27
0.0
 37
0.0
 40
334.5795449860713
 41
1.863590772316951
 42
50.0
 43
0.0
 44
0.0
 50
0.0
 51
0.0
 71
     0
 72
   100
 73
     1
 74
     3
 75
     0
 76
     0
 77
     0
 78
     0
281
     0
 65
     1
110
0.0
120
0.0
130
0.0
111
1.0
121
0.0
131
0.0
112
0.0
122
1.0
132
0.0
 79
     0
146
0.0
348
2F
 60
     3
 61
     5
292
     1
282
     1
141
0.0
142
0.0
 63
   250
361
6D
  0
ENDTAB
  0
TABLE
  2
LTYPE
  5
5
330
0
100
AcDbSymbolTable
 70
     7
  0
LTYPE
  5
14
330
5
100
AcDbSymbolTableRecord
100
AcDbLinetypeTableRecord
  2
ByBlock
 70
     0
  3

 72
    65
 73
     0
 40
0.0
  0
LTYPE
  5
15
330
5
100
AcDbSymbolTableRecord
100
AcDbLinetypeTableRecord
  2
ByLayer
 70
     0
  3

 72
    65
 73
     0
 40
0.0
  0
LTYPE
  5
16
330
5
100
AcDbSymbolTableRecord
100
AcDbLinetypeTableRecord
  2
Continuous
 70
     0
  3
Solid line
 72
    65
 73
     0
 40
0.0
  0
LTYPE
  5
6E
330
5
100
AcDbSymbolTableRecord
100
AcDbLinetypeTableRecord
  2
DOT
 70
     0
  3
Dot . . . . . . . . . . . . . . . . . . . . . . . .
 72
    65
 73
     2
 40
2.032
 49
1.016
 74
     0
 49
-1.016
 74
     0
  0
LTYPE
  5
6F
330
5
100
AcDbSymbolTableRecord
100
AcDbLinetypeTableRecord
  2
CENTER
 70
     0
  3
Center ____ _ ____ _ ____ _ ____ _ ____ _ ____
 72
    65
 73
     4
 40
13.208
 49
8.128
 74
     0
 49
-1.524
 74
     0
 49
2.032
 74
     0
 49
-1.524
 74
     0
  0
LTYPE
  5
70
330
5
100
AcDbSymbolTableRecord
100
AcDbLinetypeTableRecord
  2
HIDDEN2
 70
     0
  3
Hidden (.5x) _ _ _ _ _ _ _ _ _ _ _ _ _ _ _ _ _
 72
    65
 73
     2
 40
4.762499999999999
 49
3.175
 74
     0
 49
-1.5875
 74
     0
  0
LTYPE
  5
71
330
5
100
AcDbSymbolTableRecord
100
AcDbLinetypeTableRecord
  2
DASHED
 70
     0
  3
Dashed __ __ __ __ __ __ __ __ __ __ __ __ __ _
 72
    65
 73
     2
 40
9.652
 49
8.128
 74
     0
 49
-1.524
 74
     0
  0
LTYPE
  5
72
330
5
100
AcDbSymbolTableRecord
100
AcDbLinetypeTableRecord
  2
PHANTOM2
 70
     0
  3
Phantom (.5x) ___ _ _ ___ _ _ ___ _ _ ___ _ _
 72
    65
 73
     6
 40
14.732
 49
8.128
 74
     0
 49
-1.524
 74
     0
 49
1.016
 74
     0
 49
-1.524
 74
     0
 49
1.016
 74
     0
 49
-1.524
 74
     0
  0
LTYPE
  5
73
330
5
100
AcDbSymbolTableRecord
100
AcDbLinetypeTableRecord
  2
DASHDOT
 70
     0
  3
Dash dot __ . __ . __ . __ . __ . __ . __ . __
 72
    65
 73
     4
 40
11.176
 49
8.128
 74
     0
 49
-1.524
 74
     0
 49
0.0
 74
     0
 49
-1.524
 74
     0
  0
ENDTAB
  0
TABLE
  2
LAYER
  5
2
330
0
100
AcDbSymbolTable
 70
     8
  0
LAYER
  5
10
330
2
100
AcDbSymbolTableRecord
100
AcDbLayerTableRecord
  2
0
 70
     0
 62
     7
  6
Continuous
370
    -3
390
F
347
46
348
0
  0
LAYER
  5
74
330
2
100
AcDbSymbolTableRecord
100
AcDbLayerTableRecord
  2
Outline
 70
     0
 62
     7
  6
Continuous
370
    -3
390
F
347
46
348
0
  0
LAYER
  5
75
330
2
100
AcDbSymbolTableRecord
100
AcDbLayerTableRecord
  2
Axis
 70
     0
 62
     5
  6
DASHDOT
370
    -3
390
F
347
46
348
0
  0
LAYER
  5
76
330
2
100
AcDbSymbolTableRecord
100
AcDbLayerTableRecord
  2
Dimension
 70
     0
 62
     7
  6
Continuous
370
    -3
390
F
347
46
348
0
  0
LAYER
  5
77
330
2
100
AcDbSymbolTableRecord
100
AcDbLayerTableRecord
  2
Hatch
 70
     0
 62
     5
  6
Continuous
370
    -3
390
F
347
46
348
0
  0
LAYER
  5
78
330
2
100
AcDbSymbolTableRecord
100
AcDbLayerTableRecord
  2
Auxiliary
 70
     0
 62
     1
  6
DOT
370
    -3
390
F
347
46
348
0
  0
LAYER
  5
79
330
2
100
AcDbSymbolTableRecord
100
AcDbLayerTableRecord
  2
Invisible
 70
     0
 62
     6
  6
DOT
370
    -3
390
F
347
46
348
0
  0
LAYER
  5
3E6
330
2
100
AcDbSymbolTableRecord
100
AcDbLayerTableRecord
  2
Defpoints
 70
     0
 62
     7
  6
Continuous
290
     0
370
    -3
390
F
347
46
348
0
  0
ENDTAB
  0
TABLE
  2
STYLE
  5
3
330
0
100
AcDbSymbolTable
 70
    33
  0
STYLE
  5
11
330
3
100
AcDbSymbolTableRecord
100
AcDbTextStyleTableRecord
  2
Standard
 70
     0
 40
0.0
 41
1.0
 50
0.0
 71
     0
 42
2.5
  3
txt
  4

  0
STYLE
  5
7A
330
3
100
AcDbSymbolTableRecord
100
AcDbTextStyleTableRecord
  2
VCDSTYLE01
 70
     0
 40
0.0
 41
1.0
 50
0.0
 71
     0
 42
2.5
  3
txt
  4

  0
STYLE
  5
7B
330
3
100
AcDbSymbolTableRecord
100
AcDbTextStyleTableRecord
  2
VCDSTYLE02
 70
     0
 40
0.0
 41
1.0
 50
0.0
 71
     0
 42
2.5
  3
txt
  4

  0
STYLE
  5
7C
330
3
100
AcDbSymbolTableRecord
100
AcDbTextStyleTableRecord
  2
VCDSTYLE03
 70
     0
 40
0.0
 41
1.0
 50
0.0
 71
     0
 42
2.5
  3
txt
  4

  0
STYLE
  5
7D
330
3
100
AcDbSymbolTableRecord
100
AcDbTextStyleTableRecord
  2
VCDSTYLE04
 70
     0
 40
0.0
 41
1.0
 50
0.0
 71
     0
 42
2.5
  3
txt
  4

  0
STYLE
  5
7E
330
3
100
AcDbSymbolTableRecord
100
AcDbTextStyleTableRecord
  2
VCDSTYLE05
 70
     0
 40
0.0
 41
1.0
 50
0.0
 71
     0
 42
2.5
  3
txt
  4

  0
STYLE
  5
7F
330
3
100
AcDbSymbolTableRecord
100
AcDbTextStyleTableRecord
  2
VCDSTYLE06
 70
     0
 40
0.0
 41
1.0
 50
0.0
 71
     0
 42
2.5
  3
txt
  4

  0
STYLE
  5
80
330
3
100
AcDbSymbolTableRecord
100
AcDbTextStyleTableRecord
  2
VCDSTYLE07
 70
     0
 40
0.0
 41
1.0
 50
0.0
 71
     0
 42
2.5
  3
txt
  4

  0
STYLE
  5
81
330
3
100
AcDbSymbolTableRecord
100
AcDbTextStyleTableRecord
  2
VCDSTYLE08
 70
     0
 40
0.0
 41
1.0
 50
0.0
 71
     0
 42
2.5
  3
txt
  4

  0
STYLE
  5
82
330
3
100
AcDbSymbolTableRecord
100
AcDbTextStyleTableRecord
  2
VCDSTYLE09
 70
     0
 40
0.0
 41
1.0
 50
0.0
 71
     0
 42
2.5
  3
txt
  4

  0
STYLE
  5
83
330
3
100
AcDbSymbolTableRecord
100
AcDbTextStyleTableRecord
  2
VCDSTYLE10
 70
     0
 40
0.0
 41
1.0
 50
0.0
 71
     0
 42
2.5
  3
Sans Serif.ttf
  4

1001
ACAD
1000
Sans Serif
1071
        0
  0
STYLE
  5
84
330
3
100
AcDbSymbolTableRecord
100
AcDbTextStyleTableRecord
  2
VCDSTYLE11
 70
     0
 40
0.0
 41
1.0
 50
0.0
 71
     0
 42
2.5
  3
Sans Serif.ttf
  4

1001
ACAD
1000
Sans Serif
1071
 16777216
  0
STYLE
  5
85
330
3
100
AcDbSymbolTableRecord
100
AcDbTextStyleTableRecord
  2
VCDSTYLE12
 70
     0
 40
0.0
 41
1.0
 50
0.0
 71
     0
 42
2.5
  3
DejaVu Sans.ttf
  4

1001
ACAD
1000
DejaVu Sans
1071
        0
  0
STYLE
  5
86
330
3
100
AcDbSymbolTableRecord
100
AcDbTextStyleTableRecord
  2
VCDSTYLE13
 70
     0
 40
0.0
 41
1.0
 50
0.0
 71
     0
 42
2.5
  3
DejaVu Sans.ttf
  4

1001
ACAD
1000
DejaVu Sans
1071
 16777216
  0
STYLE
  5
87
330
3
100
AcDbSymbolTableRecord
100
AcDbTextStyleTableRecord
  2
VCDSTYLE14
 70
     0
 40
0.0
 41
1.0
 50
0.0
 71
     0
 42
2.5
  3
DejaVu Sans Mono.ttf
  4

1001
ACAD
1000
DejaVu Sans Mono
1071
        0
  0
STYLE
  5
88
330
3
100
AcDbSymbolTableRecord
100
AcDbTextStyleTableRecord
  2
VCDSTYLE15
 70
     0
 40
0.0
 41
1.0
 50
0.0
 71
     0
 42
2.5
  3
DejaVu Sans Mono.ttf
  4

1001
ACAD
1000
DejaVu Sans Mono
1071
 16777216
  0
STYLE
  5
89
330
3
100
AcDbSymbolTableRecord
100
AcDbTextStyleTableRecord
  2
VCDSTYLE16
 70
     0
 40
0.0
 41
1.0
 50
0.0
 71
     0
 42
2.5
  3
UnDotum.ttf
  4

1001
ACAD
1000
UnDotum
1071
        0
  0
STYLE
  5
8A
330
3
100
AcDbSymbolTableRecord
100
AcDbTextStyleTableRecord
  2
VCDSTYLE17
 70
     0
 40
0.0
 41
1.0
 50
0.0
 71
     0
 42
2.5
  3
UnDotum.ttf
  4

1001
ACAD
1000
UnDotum
1071
 16777216
  0
STYLE
  5
8B
330
3
100
AcDbSymbolTableRecord
100
AcDbTextStyleTableRecord
  2
VCDSTYLE18
 70
     0
 40
0.0
 41
1.0
 50
0.0
 71
     0
 42
2.5
  3
Sans Serif.ttf
  4

1001
ACAD
1000
Sans Serif
1071
        0
  0
STYLE
  5
8C
330
3
100
AcDbSymbolTableRecord
100
AcDbTextStyleTableRecord
  2
VCDSTYLE19
 70
     0
 40
0.0
 41
1.0
 50
0.0
 71
     0
 42
2.5
  3
Sans Serif.ttf
  4

1001
ACAD
1000
Sans Serif
1071
 16777216
  0
STYLE
  5
8D
330
3
100
AcDbSymbolTableRecord
100
AcDbTextStyleTableRecord
  2
VCDSTYLE20
 70
     0
 40
0.0
 41
1.0
 50
0.0
 71
     0
 42
2.5
  3
Sans Serif.ttf
  4

1001
ACAD
1000
Sans Serif
1071
        0
  0
STYLE
  5
8E
330
3
100
AcDbSymbolTableRecord
100
AcDbTextStyleTableRecord
  2
VCDSTYLE21
 70
     0
 40
0.0
 41
1.0
 50
0.0
 71
     0
 42
2.5
  3
Sans Serif.ttf
  4

1001
ACAD
1000
Sans Serif
1071
 16777216
  0
STYLE
  5
8F
330
3
100
AcDbSymbolTableRecord
100
AcDbTextStyleTableRecord
  2
VCDSTYLE22
 70
     0
 40
0.0
 41
1.0
 50
0.0
 71
     0
 42
2.5
  3
Monospace.ttf
  4

1001
ACAD
1000
Monospace
1071
        0
  0
STYLE
  5
90
330
3
100
AcDbSymbolTableRecord
100
AcDbTextStyleTableRecord
  2
VCDSTYLE23
 70
     0
 40
0.0
 41
1.0
 50
0.0
 71
     0
 42
2.5
  3
Monospace.ttf
  4

1001
ACAD
1000
Monospace
1071
 16777216
  0
STYLE
  5
91
330
3
100
AcDbSymbolTableRecord
100
AcDbTextStyleTableRecord
  2
VCDSTYLE24
 70
     0
 40
0.0
 41
1.0
 50
0.0
 71
     0
 42
2.5
  3
URW Gothic L.ttf
  4

1001
ACAD
1000
URW Gothic L
1071
        0
  0
STYLE
  5
92
330
3
100
AcDbSymbolTableRecord
100
AcDbTextStyleTableRecord
  2
VCDSTYLE25
 70
     0
 40
0.0
 41
1.0
 50
0.0
 71
     0
 42
2.5
  3
URW Gothic L.ttf
  4

1001
ACAD
1000
URW Gothic L
1071
 16777216
  0
STYLE
  5
93
330
3
100
AcDbSymbolTableRecord
100
AcDbTextStyleTableRecord
  2
VCDSTYLE26
 70
     0
 40
0.0
 41
1.0
 50
0.0
 71
     0
 42
2.5
  3
Waree.ttf
  4

1001
ACAD
1000
Waree
1071
        0
  0
STYLE
  5
94
330
3
100
AcDbSymbolTableRecord
100
AcDbTextStyleTableRecord
  2
VCDSTYLE27
 70
     0
 40
0.0
 41
1.0
 50
0.0
 71
     0
 42
2.5
  3
Waree.ttf
  4

1001
ACAD
1000
Waree
1071
 16777216
  0
STYLE
  5
95
330
3
100
AcDbSymbolTableRecord
100
AcDbTextStyleTableRecord
  2
VCDSTYLE28
 70
     0
 40
0.0
 41
1.0
 50
0.0
 71
     0
 42
2.5
  3
Nimbus Mono L.ttf
  4

1001
ACAD
1000
Nimbus Mono L
1071
        0
  0
STYLE
  5
96
330
3
100
AcDbSymbolTableRecord
100
AcDbTextStyleTableRecord
  2
VCDSTYLE29
 70
     0
 40
0.0
 41
1.0
 50
0.0
 71
     0
 42
2.5
  3
Nimbus Sans L.ttf
  4

1001
ACAD
1000
Nimbus Sans L
1071
        0
  0
STYLE
  5
97
330
3
100
AcDbSymbolTableRecord
100
AcDbTextStyleTableRecord
  2
VCDSTYLE30
 70
     0
 40
0.0
 41
1.0
 50
0.0
 71
     0
 42
2.5
  3
Nimbus Sans L.ttf
  4

1001
ACAD
1000
Nimbus Sans L
1071
 16777216
  0
STYLE
  5
98
330
3
100
AcDbSymbolTableRecord
100
AcDbTextStyleTableRecord
  2
VCDSTYLE31
 70
     0
 40
0.0
 41
1.0
 50
0.0
 71
     0
 42
2.5
  3
Serif.ttf
  4

1001
ACAD
1000
Serif
1071
        0
  0
STYLE
  5
99
330
3
100
AcDbSymbolTableRecord
100
AcDbTextStyleTableRecord
  2
VCDSTYLE32
 70
     0
 40
0.0
 41
1.0
 50
0.0
 71
     0
 42
2.5
  3
Serif.ttf
  4

1001
ACAD
1000
Serif
1071
 16777216
  0
ENDTAB
  0
TABLE
  2
VIEW
  5
6
330
0
100
AcDbSymbolTable
 70
     0
  0
ENDTAB
  0
TABLE
  2
UCS
  5
7
330
0
100
AcDbSymbolTable
 70
     0
  0
ENDTAB
  0
TABLE
  2
APPID
  5
9
330
0
100
AcDbSymbolTable
 70
     1
  0
APPID
  5
12
330
9
100
AcDbSymbolTableRecord
100
AcDbRegAppTableRecord
  2
ACAD
 70
     0
  0
ENDTAB
  0
TABLE
  2
DIMSTYLE
  5
A
330
0
100
AcDbSymbolTable
 70
     2
100
AcDbDimStyleTable
  0
DIMSTYLE
105
27
330
A
100
AcDbSymbolTableRecord
100
AcDbDimStyleTableRecord
  2
ISO-25
 70
     0
 41
2.5
 42
0.625
 43
3.75
 44
1.25
 73
     0
 74
     0
 77
     1
 78
     8
140
2.5
141
2.5
143
0.03937007874016
147
0.625
171
     3
172
     1
178
     0
271
     2
272
     2
274
     3
278
    44
283
     0
284
     8
340
11
  0
DIMSTYLE
105
3E4
102
{ACAD_REACTORS
330
3E5
330
3F1
330
3FE
102
}
330
A
100
AcDbSymbolTableRecord
100
AcDbDimStyleTableRecord
  2
VCDDIMSTYLE01
 70
     0
 41
3.75
 42
0.0
 43
8.0
 44
1.0
 73
     0
 74
     0
 77
     1
 78
     8
 79
     2
140
3.0
147
1.0
172
     1
173
     1
178
     0
179
     3
271
     5
275
     1
288
     1
289
     0
340
83
  0
ENDTAB
  0
TABLE
  2
BLOCK_RECORD
  5
1
330
0
100
AcDbSymbolTable
 70
    17
  0
BLOCK_RECORD
  5
1F
330
1
100
AcDbSymbolTableRecord
100
AcDbBlockTableRecord
  2
*Model_Space
340
22
 70
     0
280
     1
281
     0
  0
BLOCK_RECORD
  5
1B
330
1
100
AcDbSymbolTableRecord
100
AcDbBlockTableRecord
  2
*Paper_Space
340
1E
 70
     0
280
     1
281
     0
  0
BLOCK_RECORD
  5
23
330
1
100
AcDbSymbolTableRecord
100
AcDbBlockTableRecord
  2
*Paper_Space0
340
26
 70
     0
280
     1
281
     0
  0
BLOCK_RECORD
  5
9A
330
1
100
AcDbSymbolTableRecord
100
AcDbBlockTableRecord
  2
#ARROW
340
0
102
{BLKREFS
331
9D
102
}
 70
     0
280
     1
281
     0
  0
BLOCK_RECORD
  5
A0
330
1
100
AcDbSymbolTableRecord
100
AcDbBlockTableRecord
  2
#ARROW(1)
340
0
102
{BLKREFS
331
A3
102
}
 70
     0
280
     1
281
     0
  0
BLOCK_RECORD
  5
A6
330
1
100
AcDbSymbolTableRecord
100
AcDbBlockTableRecord
  2
#ARROW(2)
340
0
102
{BLKREFS
331
A9
102
}
 70
     0
280
     1
281
     0
  0
BLOCK_RECORD
  5
AC
330
1
100
AcDbSymbolTableRecord
100
AcDbBlockTableRecord
  2
#ARROW(3)
340
0
102
{BLKREFS
331
AF
102
}
 70
     0
280
     1
281
     0
  0
BLOCK_RECORD
  5
B2
330
1
100
AcDbSymbolTableRecord
100
AcDbBlockTableRecord
  2
$AttrValue elphel_parts
340
0
102
{BLKREFS
331
B4
102
}
 70
     0
280
     1
281
     0
  0
BLOCK_RECORD
  5
B7
330
1
100
AcDbSymbolTableRecord
100
AcDbBlockTableRecord
  2
$AttrValue elphel_parts(1)
340
0
102
{BLKREFS
331
B9
102
}
 70
     0
280
     1
281
     0
  0
BLOCK_RECORD
  5
BC
330
1
100
AcDbSymbolTableRecord
100
AcDbBlockTableRecord
  2
$AttrValue elphel_parts(2)
340
0
102
{BLKREFS
331
BE
102
}
 70
     0
280
     1
281
     0
  0
BLOCK_RECORD
  5
C1
330
1
100
AcDbSymbolTableRecord
100
AcDbBlockTableRecord
  2
$AttrValue elphel_parts(3)
340
0
102
{BLKREFS
331
C3
102
}
 70
     0
280
     1
281
     0
  0
BLOCK_RECORD
  5
C6
330
1
100
AcDbSymbolTableRecord
100
AcDbBlockTableRecord
  2
$AttrValue elphel_parts(4)
340
0
102
{BLKREFS
331
C8
102
}
 70
     0
280
     1
281
     0
  0
BLOCK_RECORD
  5
CB
330
1
100
AcDbSymbolTableRecord
100
AcDbBlockTableRecord
  2
$AttrValue elphel_parts(5)
340
0
102
{BLKREFS
331
CD
102
}
 70
     0
280
     1
281
     0
  0
BLOCK_RECORD
  5
D0
330
1
100
AcDbSymbolTableRecord
100
AcDbBlockTableRecord
  2
$AttrValue elphel_parts(6)
340
0
102
{BLKREFS
331
D2
102
}
 70
     0
280
     1
281
     0
  0
BLOCK_RECORD
  5
3DB
330
1
100
AcDbSymbolTableRecord
100
AcDbBlockTableRecord
  2
*D12
340
0
 70
     0
280
     1
281
     0
  0
BLOCK_RECORD
  5
3EA
330
1
100
AcDbSymbolTableRecord
100
AcDbBlockTableRecord
  2
*D13
340
0
 70
     0
280
     1
281
     0
  0
BLOCK_RECORD
  5
3F7
330
1
100
AcDbSymbolTableRecord
100
AcDbBlockTableRecord
  2
*D14
340
0
 70
     0
280
     1
281
     0
  0
BLOCK_RECORD
  5
420
330
1
100
AcDbSymbolTableRecord
100
AcDbBlockTableRecord
  2
Sheet Border
340
0
102
{BLKREFS
331
423
102
}
 70
     0
280
     1
281
     0
  0
BLOCK_RECORD
  5
426
330
1
100
AcDbSymbolTableRecord
100
AcDbBlockTableRecord
  2
$TitleBlock elphel_parts
340
0
102
{BLKREFS
331
454
102
}
 70
     0
280
     1
281
     0
  0
ENDTAB
  0
ENDSEC
  0
SECTION
  2
BLOCKS
  0
BLOCK
  5
20
330
1F
100
AcDbEntity
  8
0
100
AcDbBlockBegin
  2
*Model_Space
 70
     0
 10
0.0
 20
0.0
 30
0.0
  3
*Model_Space
  1

  0
ENDBLK
  5
21
330
1F
100
AcDbEntity
  8
0
100
AcDbBlockEnd
  0
BLOCK
  5
1C
330
1B
100
AcDbEntity
 67
     1
  8
0
100
AcDbBlockBegin
  2
*Paper_Space
 70
     0
 10
0.0
 20
0.0
 30
0.0
  3
*Paper_Space
  1

  0
ENDBLK
  5
1D
330
1B
100
AcDbEntity
 67
     1
  8
0
100
AcDbBlockEnd
  0
BLOCK
  5
24
330
23
100
AcDbEntity
  8
0
100
AcDbBlockBegin
  2
*Paper_Space0
 70
     0
 10
0.0
 20
0.0
 30
0.0
  3
*Paper_Space0
  1

  0
ENDBLK
  5
25
330
23
100
AcDbEntity
  8
0
100
AcDbBlockEnd
  0
BLOCK
  5
9E
330
9A
100
AcDbEntity
  8
0
100
AcDbBlockBegin
  2
#ARROW
 70
     0
 10
0.0
 20
0.0
 30
0.0
  3
#ARROW
  1

  0
LINE
  5
9B
330
9A
100
AcDbEntity
  8
Dimension
100
AcDbLine
 10
0.0
 20
0.0
 30
0.0
 11
13.10171517156942
 21
17.02876365720761
 31
0.0
  0
LWPOLYLINE
  5
9C
330
9A
100
AcDbEntity
  8
Dimension
100
AcDbPolyline
 90
       16
 70
     0
 43
0.0
 10
1.763615447105309
 20
3.374575611055633
 10
0.0
 20
0.0
 10
2.809799946950619
 20
2.569654501701791
 10
1.763615447105309
 20
3.374575611055633
 10
1.840873587297381
 20
3.127821875873877
 10
0.4979006835637279
 20
0.6471391687377945
 10
2.551487012735379
 20
2.581084902797073
 10
1.840873587297381
 20
3.127821875873877
 10
1.918131727489452
 20
2.881068140692122
 10
0.9958013671274273
 20
1.294278337475561
 10
2.293174078520167
 20
2.592515303892355
 10
1.918131727489452
 20
2.881068140692122
 10
1.995389867681524
 20
2.634314405510366
 10
1.493702050691155
 20
1.941417506213355
 10
2.034861144304926
 20
2.603945704987638
 10
1.995389867681524
 20
2.634314405510366
  0
ENDBLK
  5
9F
330
9A
100
AcDbEntity
  8
0
100
AcDbBlockEnd
  0
BLOCK
  5
A4
330
A0
100
AcDbEntity
  8
0
100
AcDbBlockBegin
  2
#ARROW(1)
 70
     0
 10
0.0
 20
0.0
 30
0.0
  3
#ARROW(1)
  1

  0
LINE
  5
A1
330
A0
100
AcDbEntity
  8
Dimension
100
AcDbLine
 10
0.0
 20
0.0
 30
0.0
 11
3.430061545541889
 21
4.458172584568104
 31
0.0
  0
LWPOLYLINE
  5
A2
330
A0
100
AcDbEntity
  8
Dimension
100
AcDbPolyline
 90
       16
 70
     0
 43
0.0
 10
1.666446098436609
 20
1.083596973512442
 10
3.430061545541889
 20
4.458172584568104
 10
0.6202615985912985
 20
1.888518082866284
 10
1.666446098436609
 20
1.083596973512442
 10
1.589187958244537
 20
1.330350708694198
 10
2.93216086197819
 20
3.811033415830309
 10
0.8785745328065389
 20
1.877087681771002
 10
1.589187958244537
 20
1.330350708694198
 10
1.511929818052465
 20
1.577104443875953
 10
2.434260178414462
 20
3.163894247092514
 10
1.136887467021779
 20
1.86565728067572
 10
1.511929818052465
 20
1.577104443875953
 10
1.434671677860393
 20
1.823858179057709
 10
1.936359494850763
 20
2.51675507835472
 10
1.39520040123702
 20
1.854226879580438
 10
1.434671677860393
 20
1.823858179057709
  0
ENDBLK
  5
A5
330
A0
100
AcDbEntity
  8
0
100
AcDbBlockEnd
  0
BLOCK
  5
AA
330
A6
100
AcDbEntity
  8
0
100
AcDbBlockBegin
  2
#ARROW(2)
 70
     0
 10
0.0
 20
0.0
 30
0.0
  3
#ARROW(2)
  1

  0
LINE
  5
A7
330
A6
100
AcDbEntity
  8
Dimension
100
AcDbLine
 10
0.0
 20
0.0
 30
0.0
 11
16.1689932575124
 21
23.24855036969018
 31
0.0
  0
LWPOLYLINE
  5
A8
330
A6
100
AcDbEntity
  8
Dimension
100
AcDbPolyline
 90
       16
 70
     0
 43
0.0
 10
1.599302612769279
 20
3.455478426034432
 10
0.0
 20
0.0
 10
2.682982941407232
 20
2.701796168499357
 10
1.599302612769279
 20
3.455478426034432
 10
1.688336980291297
 20
3.212725243867766
 10
0.4662058267024349
 20
0.6703329930389543
 10
2.424419182357056
 20
2.700791898651858
 10
1.688336980291297
 20
3.212725243867766
 10
1.777371347813315
 20
2.9699720617011
 10
0.9324116534048841
 20
1.34066598607788
 10
2.16585542330688
 20
2.699787628804359
 10
1.777371347813315
 20
2.9699720617011
 10
1.866405715335333
 20
2.727218879534462
 10
1.398617480107319
 20
2.010998979116835
 10
1.907291664256704
 20
2.69878335895686
 10
1.866405715335333
 20
2.727218879534462
  0
ENDBLK
  5
AB
330
A6
100
AcDbEntity
  8
0
100
AcDbBlockEnd
  0
BLOCK
  5
B0
330
AC
100
AcDbEntity
  8
0
100
AcDbBlockBegin
  2
#ARROW(3)
 70
     0
 10
0.0
 20
0.0
 30
0.0
  3
#ARROW(3)
  1

  0
LINE
  5
AD
330
AC
100
AcDbEntity
  8
Dimension
100
AcDbLine
 10
0.0
 20
0.0
 30
0.0
 11
3.211714165632372
 21
4.617955945900349
 31
0.0
  0
LWPOLYLINE
  5
AE
330
AC
100
AcDbEntity
  8
Dimension
100
AcDbPolyline
 90
       16
 70
     0
 43
0.0
 10
1.612411552863094
 20
1.162477519865917
 10
3.211714165632372
 20
4.617955945900349
 10
0.5287312242251545
 20
1.916159777400992
 10
1.612411552863094
 20
1.162477519865917
 10
1.523377185341076
 20
1.405230702032583
 10
2.745508338929938
 20
3.947622952861394
 10
0.7872949832753307
 20
1.917164047248491
 10
1.523377185341076
 20
1.405230702032583
 10
1.434342817819072
 20
1.647983884199249
 10
2.279302512227488
 20
3.277289959822468
 10
1.045858742325507
 20
1.91816831709599
 10
1.434342817819072
 20
1.647983884199249
 10
1.345308450297054
 20
1.890737066365887
 10
1.813096685525053
 20
2.606956966783514
 10
1.304422501375683
 20
1.919172586943489
 10
1.345308450297054
 20
1.890737066365887
  0
ENDBLK
  5
B1
330
AC
100
AcDbEntity
  8
0
100
AcDbBlockEnd
  0
BLOCK
  5
B5
330
B2
100
AcDbEntity
  8
0
100
AcDbBlockBegin
  2
$AttrValue elphel_parts
 70
     0
 10
0.0
 20
0.0
 30
0.0
  3
$AttrValue elphel_parts
  1

  0
TEXT
  5
B3
330
B2
100
AcDbEntity
  8
0
 62
     2
100
AcDbText
 10
0.0
 20
0.0
 30
0.0
 40
2.0
  1
Anodize/chromate conversion
  7
VCDSTYLE04
100
AcDbText
  0
ENDBLK
  5
B6
330
B2
100
AcDbEntity
  8
0
100
AcDbBlockEnd
  0
BLOCK
  5
BA
330
B7
100
AcDbEntity
  8
0
100
AcDbBlockBegin
  2
$AttrValue elphel_parts(1)
 70
     0
 10
0.0
 20
0.0
 30
0.0
  3
$AttrValue elphel_parts(1)
  1

  0
TEXT
  5
B8
330
B7
100
AcDbEntity
  8
0
 62
     2
100
AcDbText
 10
0.0
 20
0.0
 30
0.0
 40
2.0
  1
Aluminum 6061-T6
  7
VCDSTYLE04
100
AcDbText
  0
ENDBLK
  5
BB
330
B7
100
AcDbEntity
  8
0
100
AcDbBlockEnd
  0
BLOCK
  5
BF
330
BC
100
AcDbEntity
  8
0
100
AcDbBlockBegin
  2
$AttrValue elphel_parts(2)
 70
     0
 10
0.0
 20
0.0
 30
0.0
  3
$AttrValue elphel_parts(2)
  1

  0
TEXT
  5
BD
330
BC
100
AcDbEntity
  8
0
 62
     2
100
AcDbText
 10
0.0
 20
0.0
 30
0.0
 40
2.0
  1
23.62
  7
VCDSTYLE04
100
AcDbText
  0
ENDBLK
  5
C0
330
BC
100
AcDbEntity
  8
0
100
AcDbBlockEnd
  0
BLOCK
  5
C4
330
C1
100
AcDbEntity
  8
0
100
AcDbBlockBegin
  2
$AttrValue elphel_parts(3)
 70
     0
 10
0.0
 20
0.0
 30
0.0
  3
$AttrValue elphel_parts(3)
  1

  0
TEXT
  5
C2
330
C1
100
AcDbEntity
  8
0
100
AcDbText
 10
0.0
 20
0.0
 30
0.0
 40
1.5
  1
2015
  7
VCDSTYLE10
100
AcDbText
  0
ENDBLK
  5
C5
330
C1
100
AcDbEntity
  8
0
100
AcDbBlockEnd
  0
BLOCK
  5
C9
330
C6
100
AcDbEntity
  8
0
100
AcDbBlockBegin
  2
$AttrValue elphel_parts(4)
 70
     0
 10
0.0
 20
0.0
 30
0.0
  3
$AttrValue elphel_parts(4)
  1

  0
TEXT
  5
C7
330
C6
100
AcDbEntity
  8
0
 62
     2
100
AcDbText
 10
0.0
 20
0.0
 30
0.0
 40
3.0
  1
Sensor front end, CS-mount
  7
VCDSTYLE04
100
AcDbText
  0
ENDBLK
  5
CA
330
C6
100
AcDbEntity
  8
0
100
AcDbBlockEnd
  0
BLOCK
  5
CE
330
CB
100
AcDbEntity
  8
0
100
AcDbBlockBegin
  2
$AttrValue elphel_parts(5)
 70
     0
 10
0.0
 20
0.0
 30
0.0
  3
$AttrValue elphel_parts(5)
  1

  0
TEXT
  5
CC
330
CB
100
AcDbEntity
  8
Auxiliary
  6
Continuous
100
AcDbText
 10
0.0
 20
0.0
 30
0.0
 40
8.0
  1
A
  7
VCDSTYLE22
100
AcDbText
  0
ENDBLK
  5
CF
330
CB
100
AcDbEntity
  8
0
100
AcDbBlockEnd
  0
BLOCK
  5
D3
330
D0
100
AcDbEntity
  8
0
100
AcDbBlockBegin
  2
$AttrValue elphel_parts(6)
 70
     0
 10
0.0
 20
0.0
 30
0.0
  3
$AttrValue elphel_parts(6)
  1

  0
TEXT
  5
D1
330
D0
100
AcDbEntity
  8
0
 62
     2
100
AcDbText
 10
0.0
 20
0.0
 30
0.0
 40
6.0
  1
0393-12-29
  7
VCDSTYLE22
100
AcDbText
  0
ENDBLK
  5
D4
330
D0
100
AcDbEntity
  8
0
100
AcDbBlockEnd
  0
BLOCK
  5
3E8
330
3DB
100
AcDbEntity
  8
0
100
AcDbBlockBegin
  2
*D12
 70
     1
 10
0.0
 20
0.0
 30
0.0
  3
*D12
  1

  0
LINE
  5
3DC
330
3DB
100
AcDbEntity
  8
Dimension
 62
     0
370
    -2
100
AcDbLine
 10
35.17529329130178
 20
193.9198781455011
 30
0.0
 11
35.17529329130178
 21
208.8310976028708
 31
0.0
  0
LINE
  5
3DD
330
3DB
100
AcDbEntity
  8
Dimension
 62
     0
370
    -2
100
AcDbLine
 10
21.55529329130178
 20
190.2698855330961
 30
0.0
 11
21.55529329130178
 21
208.8310976028708
 31
0.0
  0
LINE
  5
3DE
330
3DB
100
AcDbEntity
  8
Dimension
 62
     0
370
    -2
100
AcDbLine
 10
31.42529329130178
 20
207.8310976028708
 30
0.0
 11
25.30529329130178
 21
207.8310976028708
 31
0.0
  0
SOLID
  5
3DF
330
3DB
100
AcDbEntity
  8
Dimension
 62
     0
100
AcDbTrace
 10
31.42529329130178
 20
207.2060976028708
 30
0.0
 11
31.42529329130178
 21
208.4560976028708
 31
0.0
 12
35.17529329130178
 22
207.8310976028708
 32
0.0
 13
35.17529329130178
 23
207.8310976028708
 33
0.0
  0
SOLID
  5
3E0
330
3DB
100
AcDbEntity
  8
Dimension
 62
     0
100
AcDbTrace
 10
25.30529329130178
 20
208.4560976028708
 30
0.0
 11
25.30529329130178
 21
207.2060976028708
 31
0.0
 12
21.55529329130178
 22
207.8310976028708
 32
0.0
 13
21.55529329130178
 23
207.8310976028708
 33
0.0
  0
MTEXT
  5
3E1
330
3DB
100
AcDbEntity
  8
Dimension
 62
     0
100
AcDbMText
 10
28.46790222219683
 20
210.3873601614777
 30
0.0
 40
3.0
 41
0.0
 46
0.0
 71
     5
 72
     1
  1
\A1;13.62
  7
VCDSTYLE10
 73
     1
 44
1.0
  0
POINT
  5
3E2
330
3DB
100
AcDbEntity
  8
Defpoints
 62
     0
100
AcDbPoint
 10
35.17529329130178
 20
193.9198781455011
 30
0.0
  0
POINT
  5
3E3
330
3DB
100
AcDbEntity
  8
Defpoints
 62
     0
100
AcDbPoint
 10
21.55529329130178
 20
190.2698855330961
 30
0.0
  0
POINT
  5
3E7
330
3DB
100
AcDbEntity
  8
Defpoints
 62
     0
100
AcDbPoint
 10
21.55529329130178
 20
207.8310976028708
 30
0.0
  0
ENDBLK
  5
3E9
330
3DB
100
AcDbEntity
  8
0
100
AcDbBlockEnd
  0
BLOCK
  5
3F5
330
3EA
100
AcDbEntity
  8
0
100
AcDbBlockBegin
  2
*D13
 70
     1
 10
0.0
 20
0.0
 30
0.0
  3
*D13
  1

  0
LINE
  5
3EB
330
3EA
100
AcDbEntity
  8
Dimension
 62
     0
370
    -2
100
AcDbLine
 10
71.67531477087948
 20
154.7198855414271
 30
0.0
 11
54.15506695160821
 21
154.7198855414271
 31
0.0
  0
LINE
  5
3EC
330
3EA
100
AcDbEntity
  8
Dimension
 62
     0
370
    -2
100
AcDbLine
 10
71.67531477087948
 20
195.2198781456312
 30
0.0
 11
54.15506695160821
 21
195.2198781456312
 31
0.0
  0
LINE
  5
3ED
330
3EA
100
AcDbEntity
  8
Dimension
 62
     0
370
    -2
100
AcDbLine
 10
55.15506695160821
 20
158.4698855414271
 30
0.0
 11
55.15506695160821
 21
191.4698781456312
 31
0.0
  0
SOLID
  5
3EE
330
3EA
100
AcDbEntity
  8
Dimension
 62
     0
100
AcDbTrace
 10
54.53006695160821
 20
158.4698855414271
 30
0.0
 11
55.78006695160821
 21
158.4698855414271
 31
0.0
 12
55.15506695160821
 22
154.7198855414271
 32
0.0
 13
55.15506695160821
 23
154.7198855414271
 33
0.0
  0
SOLID
  5
3EF
330
3EA
100
AcDbEntity
  8
Dimension
 62
     0
100
AcDbTrace
 10
55.78006695160821
 20
191.4698781456312
 30
0.0
 11
54.53006695160821
 21
191.4698781456312
 31
0.0
 12
55.15506695160821
 22
195.2198781456312
 32
0.0
 13
55.15506695160821
 23
195.2198781456312
 33
0.0
  0
MTEXT
  5
3F0
330
3EA
100
AcDbEntity
  8
Dimension
 62
     0
100
AcDbMText
 10
52.59880439300139
 20
174.4835574424597
 30
0.0
 40
3.0
 41
0.0
 46
0.0
 71
     5
 72
     1
  1
\A1;40.5
  7
VCDSTYLE10
 11
0.0
 21
1.0
 31
0.0
 73
     1
 44
1.0
  0
POINT
  5
3F2
330
3EA
100
AcDbEntity
  8
Defpoints
 62
     0
100
AcDbPoint
 10
71.67531477087948
 20
154.7198855414271
 30
0.0
  0
POINT
  5
3F3
330
3EA
100
AcDbEntity
  8
Defpoints
 62
     0
100
AcDbPoint
 10
71.67531477087948
 20
195.2198781456312
 30
0.0
  0
POINT
  5
3F4
330
3EA
100
AcDbEntity
  8
Defpoints
 62
     0
100
AcDbPoint
 10
55.15506695160821
 20
195.2198781456312
 30
0.0
  0
ENDBLK
  5
3F6
330
3EA
100
AcDbEntity
  8
0
100
AcDbBlockEnd
  0
BLOCK
  5
402
330
3F7
100
AcDbEntity
  8
0
100
AcDbBlockBegin
  2
*D14
 70
     1
 10
0.0
 20
0.0
 30
0.0
  3
*D14
  1

  0
LINE
  5
3F8
330
3F7
100
AcDbEntity
  8
Dimension
 62
     0
370
    -2
100
AcDbLine
 10
67.1753078563716
 20
159.2198855332334
 30
0.0
 11
67.1753078563716
 21
143.0365577595189
 31
0.0
  0
LINE
  5
3F9
330
3F7
100
AcDbEntity
  8
Dimension
 62
     0
370
    -2
100
AcDbLine
 10
107.6753078563699
 20
159.2198855332334
 30
0.0
 11
107.6753078563699
 21
143.0365577595189
 31
0.0
  0
LINE
  5
3FA
330
3F7
100
AcDbEntity
  8
Dimension
 62
     0
370
    -2
100
AcDbLine
 10
70.9253078563716
 20
144.0365577595189
 30
0.0
 11
103.9253078563699
 21
144.0365577595189
 31
0.0
  0
SOLID
  5
3FB
330
3F7
100
AcDbEntity
  8
Dimension
 62
     0
100
AcDbTrace
 10
70.9253078563716
 20
144.6615577595189
 30
0.0
 11
70.9253078563716
 21
143.4115577595189
 31
0.0
 12
67.1753078563716
 22
144.0365577595189
 32
0.0
 13
67.1753078563716
 23
144.0365577595189
 33
0.0
  0
SOLID
  5
3FC
330
3F7
100
AcDbEntity
  8
Dimension
 62
     0
100
AcDbTrace
 10
103.9253078563699
 20
143.4115577595189
 30
0.0
 11
103.9253078563699
 21
144.6615577595189
 31
0.0
 12
107.6753078563699
 22
144.0365577595189
 32
0.0
 13
107.6753078563699
 23
144.0365577595189
 33
0.0
  0
MTEXT
  5
3FD
330
3F7
100
AcDbEntity
  8
Dimension
 62
     0
100
AcDbMText
 10
88.00346165030285
 20
146.5928203181257
 30
0.0
 40
3.0
 41
0.0
 46
0.0
 71
     5
 72
     1
  1
\A1;40.5
  7
VCDSTYLE10
 73
     1
 44
1.0
  0
POINT
  5
3FF
330
3F7
100
AcDbEntity
  8
Defpoints
 62
     0
100
AcDbPoint
 10
67.1753078563716
 20
159.2198855332334
 30
0.0
  0
POINT
  5
400
330
3F7
100
AcDbEntity
  8
Defpoints
 62
     0
100
AcDbPoint
 10
107.6753078563699
 20
159.2198855332334
 30
0.0
  0
POINT
  5
401
330
3F7
100
AcDbEntity
  8
Defpoints
 62
     0
100
AcDbPoint
 10
107.6753078563699
 20
144.0365577595189
 30
0.0
  0
ENDBLK
  5
403
330
3F7
100
AcDbEntity
  8
0
100
AcDbBlockEnd
  0
BLOCK
  5
424
330
420
100
AcDbEntity
  8
0
100
AcDbBlockBegin
  2
Sheet Border
 70
     0
 10
0.0
 20
0.0
 30
0.0
  3
Sheet Border
  1

  0
LWPOLYLINE
  5
421
330
420
100
AcDbEntity
  8
Outline
 62
     2
100
AcDbPolyline
 90
        5
 70
     0
 43
0.0
 10
5.0
 20
5.0
 10
205.0
 20
5.0
 10
205.0
 20
292.0
 10
5.0
 20
292.0
 10
5.0
 20
5.0
  0
LWPOLYLINE
  5
422
330
420
100
AcDbEntity
  8
Outline
 62
     2
100
AcDbPolyline
 90
        5
 70
     0
 43
0.0
 10
0.0
 20
0.0
 10
210.0
 20
0.0
 10
210.0
 20
297.0
 10
0.0
 20
297.0
 10
0.0
 20
0.0
  0
ENDBLK
  5
425
330
420
100
AcDbEntity
  8
0
100
AcDbBlockEnd
  0
BLOCK
  5
455
330
426
100
AcDbEntity
  8
0
100
AcDbBlockBegin
  2
$TitleBlock elphel_parts
 70
     0
 10
0.0
 20
0.0
 30
0.0
  3
$TitleBlock elphel_parts
  1

  0
TEXT
  5
427
330
426
100
AcDbEntity
  8
Outline
 62
     2
100
AcDbText
 10
-168.3495635986328
 20
16.18584442138672
 30
0.0
 40
1.841060042381287
  1
Surface
  7
VCDSTYLE02
100
AcDbText
  0
LWPOLYLINE
  5
428
330
426
100
AcDbEntity
  8
Outline
 62
     2
100
AcDbPolyline
 90
        5
 70
     0
 43
0.0
 10
-0.4602650136366151
 20
0.4602650136366293
 10
-82.38743744095697
 20
0.4602650136366293
 10
-82.38743744095697
 20
15.18874545000888
 10
-0.4602650136366151
 20
15.18874545000888
 10
-0.4602650136366151
 20
0.0
  0
LINE
  5
429
330
426
100
AcDbEntity
  8
Outline
 62
     2
100
AcDbLine
 10
0.0000000000000568
 20
15.64901046364552
 30
0.0
 11
0.0000000000000568
 21
0.0
 31
0.0
  0
LINE
  5
42A
330
426
100
AcDbEntity
  8
Outline
 62
     2
100
AcDbLine
 10
-97.57618289096607
 20
15.64901046364552
 30
0.0
 11
-97.57618289096607
 21
19.56126307955689
 31
0.0
  0
LINE
  5
42B
330
426
100
AcDbEntity
  8
Outline
 62
     2
100
AcDbLine
 10
-170.298055045554
 20
15.64901046364552
 30
0.0
 11
-82.84770245459381
 21
15.64901046364552
 31
0.0
  0
LINE
  5
42C
330
426
100
AcDbEntity
  8
Outline
 62
     2
100
AcDbLine
 10
-170.298055045554
 20
0.0
 30
0.0
 11
-82.84770245459381
 21
0.0
 31
0.0
  0
LINE
  5
42D
330
426
100
AcDbEntity
  8
Outline
 62
     2
100
AcDbLine
 10
-82.84770245459381
 20
0.0
 30
0.0
 11
-82.84770245459381
 21
15.64901046364552
 31
0.0
  0
LINE
  5
42E
330
426
100
AcDbEntity
  8
Outline
 62
     2
100
AcDbLine
 10
-170.298055045554
 20
19.56126307955689
 30
0.0
 11
0.0000000000000568
 21
19.56126307955689
 31
0.0
  0
LINE
  5
42F
330
426
100
AcDbEntity
  8
Outline
 62
     2
100
AcDbLine
 10
0.0000000000000568
 20
0.0
 30
0.0
 11
-82.84770245459381
 21
0.0
 31
0.0
  0
LINE
  5
430
330
426
100
AcDbEntity
  8
Outline
 62
     2
100
AcDbLine
 10
-82.84770245459381
 20
15.64901046364552
 30
0.0
 11
0.0000000000000568
 21
15.64901046364552
 31
0.0
  0
TEXT
  5
431
330
426
100
AcDbEntity
  8
Outline
 62
     2
100
AcDbText
 10
-81.25203704833984
 20
44.91454315185547
 30
0.0
 40
0.9205300211906433
  1
Description
  7
VCDSTYLE02
100
AcDbText
  0
LINE
  5
432
330
426
100
AcDbEntity
  8
Outline
 62
     2
100
AcDbLine
 10
-170.298055045554
 20
27.38576831137964
 30
0.0
 11
0.0000000000000568
 21
27.38576831137964
 31
0.0
  0
LINE
  5
433
330
426
100
AcDbEntity
  8
Outline
 62
     2
100
AcDbLine
 10
0.0000000000000568
 20
46.94703139093654
 30
0.0
 11
-170.298055045554
 21
46.94703139093654
 31
0.0
  0
LINE
  5
434
330
426
100
AcDbEntity
  8
Outline
 62
     2
100
AcDbLine
 10
-170.298055045554
 20
27.38576831137964
 30
0.0
 11
-82.84770245459381
 21
27.38576831137964
 31
0.0
  0
LINE
  5
435
330
426
100
AcDbEntity
  8
Outline
 62
     2
100
AcDbLine
 10
-170.298055045554
 20
31.29802092729101
 30
0.0
 11
-170.298055045554
 21
46.94703139093654
 31
0.0
  0
LINE
  5
436
330
426
100
AcDbEntity
  8
Outline
 62
     2
100
AcDbLine
 10
-82.84770245459381
 20
46.94703139093654
 30
0.0
 11
-82.84770245459381
 21
31.29802092729101
 31
0.0
  0
LINE
  5
437
330
426
100
AcDbEntity
  8
Outline
 62
     2
100
AcDbLine
 10
0.0000000000000568
 20
31.29802092729101
 30
0.0
 11
0.0000000000000568
 21
46.94703139093654
 31
0.0
  0
LINE
  5
438
330
426
100
AcDbEntity
  8
Outline
 62
     2
100
AcDbLine
 10
-157.0483207857146
 20
46.94703139093654
 30
0.0
 11
-157.0483207857146
 21
31.29802092729101
 31
0.0
  0
TEXT
  5
439
330
426
100
AcDbEntity
  8
Outline
 62
     2
100
AcDbText
 10
-168.3495635986328
 20
28.04717826843262
 30
0.0
 40
1.841060042381287
  1
Material
  7
VCDSTYLE02
100
AcDbText
  0
LINE
  5
43A
330
426
100
AcDbEntity
  8
Outline
 62
     2
100
AcDbLine
 10
-170.298055045554
 20
0.0
 30
0.0
 11
-170.298055045554
 21
31.29802092729101
 31
0.0
  0
LINE
  5
43B
330
426
100
AcDbEntity
  8
Outline
 62
     2
100
AcDbLine
 10
-150.9056121242796
 20
15.64901046364552
 30
0.0
 11
-150.9056121242796
 21
31.29802092729101
 31
0.0
  0
LINE
  5
43C
330
426
100
AcDbEntity
  8
Outline
 62
     2
100
AcDbLine
 10
-82.84770245459381
 20
31.29802092729101
 30
0.0
 11
-82.84770245459381
 21
15.64901046364552
 31
0.0
  0
LINE
  5
43D
330
426
100
AcDbEntity
  8
Outline
100
AcDbLine
 10
-170.298055045554
 20
23.47351569546827
 30
0.0
 11
-82.84770245459381
 21
23.47351569546827
 31
0.0
  0
LINE
  5
43E
330
426
100
AcDbEntity
  8
Outline
 62
     2
100
AcDbLine
 10
-170.298055045554
 20
23.47351569546827
 30
0.0
 11
0.0000000000000568
 21
23.47351569546827
 31
0.0
  0
TEXT
  5
43F
330
426
100
AcDbEntity
  8
Outline
 62
     2
100
AcDbText
 10
-168.3495635986328
 20
24.13492584228516
 30
0.0
 40
1.841060042381287
  1
Finish
  7
VCDSTYLE02
100
AcDbText
  0
LINE
  5
440
330
426
100
AcDbEntity
  8
Outline
 62
     2
100
AcDbLine
 10
0.0000000000000568
 20
15.64901046364552
 30
0.0
 11
0.0000000000000568
 21
31.29802092729101
 31
0.0
  0
TEXT
  5
441
330
426
100
AcDbEntity
  8
Outline
 62
     2
100
AcDbText
 10
-81.25203704833984
 20
12.55433559417725
 30
0.0
 40
0.9205300211906433
  1
Notes
  7
VCDSTYLE02
100
AcDbText
  0
LINE
  5
442
330
426
100
AcDbEntity
  8
Outline
 62
     2
100
AcDbLine
 10
-170.298055045554
 20
31.29802092729101
 30
0.0
 11
-82.84770245459381
 21
31.29802092729101
 31
0.0
  0
TEXT
  5
443
330
426
100
AcDbEntity
  8
Outline
 62
     2
100
AcDbText
 10
-168.3495635986328
 20
20.20714569091797
 30
0.0
 40
1.841060042381287
  1
Weight(g)
  7
VCDSTYLE02
100
AcDbText
  0
TEXT
  5
444
330
426
100
AcDbEntity
  8
Outline
100
AcDbText
 10
-167.9451904296875
 20
7.327913284301758
 30
0.0
 40
1.200000047683716
  1
Permission is also granted to copy, distribute and/or modify this document under the terms of the
 50
360.0
  7
VCDSTYLE10
100
AcDbText
  0
TEXT
  5
445
330
426
100
AcDbEntity
  8
Outline
100
AcDbText
 10
-167.9451904296875
 20
5.407913684844971
 30
0.0
 40
1.200000047683716
  1
GNU Free Documentation License, Version 1.3 or any later version published by the Free Software
 50
360.0
  7
VCDSTYLE10
100
AcDbText
  0
TEXT
  5
446
330
426
100
AcDbEntity
  8
Outline
100
AcDbText
 10
-167.9451904296875
 20
3.487913608551025
 30
0.0
 40
1.200000047683716
  1
Foundation; with no Invariant Sections, no Front-Cover Texts, and no Back-Cover Texts.  A copy of
 50
360.0
  7
VCDSTYLE10
100
AcDbText
  0
TEXT
  5
447
330
426
100
AcDbEntity
  8
Outline
100
AcDbText
 10
-167.9451904296875
 20
1.56791353225708
 30
0.0
 40
1.200000047683716
  1
the license is included in the section entitled "GNU Free Documentation License".
 50
360.0
  7
VCDSTYLE10
100
AcDbText
  0
TEXT
  5
448
330
426
100
AcDbEntity
  8
Outline
 62
     2
100
AcDbText
 10
-156.5416564941406
 20
45.10939788818359
 30
0.0
 40
0.9205300211906433
  1
Part #
  7
VCDSTYLE02
100
AcDbText
  0
TEXT
  5
449
330
426
100
AcDbEntity
  8
Outline
 62
     2
100
AcDbText
 10
-169.0979461669922
 20
45.19255065917969
 30
0.0
 40
0.9205300211906433
  1
Revision
  7
VCDSTYLE02
100
AcDbText
  0
TEXT
  5
44A
330
426
100
AcDbEntity
  8
Outline
100
AcDbText
 10
-168.0283508300781
 20
12.77079391479492
 30
0.0
 40
1.5
  1
Copyright (c)                 Elphel, Inc.
 50
360.0
  7
VCDSTYLE10
100
AcDbText
  0
TEXT
  5
44B
330
426
100
AcDbEntity
  8
Outline
100
AcDbText
 10
-168.0283508300781
 20
10.37079429626465
 30
0.0
 40
1.5
  1
Licensed under CERN OHL v.1.1 or later - see http://ohwr.org/cernohl
 50
360.0
  7
VCDSTYLE10
100
AcDbText
  0
TEXT
  5
44C
330
426
100
AcDbEntity
  8
Outline
100
AcDbText
 10
-168.0283508300781
 20
7.970794200897217
 30
0.0
 40
1.5
  1
 
 50
360.0
  7
VCDSTYLE10
100
AcDbText
  0
LINE
  5
44D
330
426
100
AcDbEntity
  8
Outline
 62
     2
100
AcDbLine
 10
-59.83011277766059
 20
27.38576831137964
 30
0.0
 11
-59.83011277766059
 21
15.64901046364552
 31
0.0
  0
TEXT
  5
44E
330
426
100
AcDbEntity
  8
Outline
 62
     2
100
AcDbText
 10
-82.25203704833984
 20
24.13492584228516
 30
0.0
 40
1.841060042381287
  1
Serial No.
  7
VCDSTYLE02
100
AcDbText
  0
TEXT
  5
44F
330
426
100
AcDbEntity
  8
Outline
 62
     2
100
AcDbText
 10
-82.25203704833984
 20
16.18584442138672
 30
0.0
 40
1.841060042381287
  1
Date
  7
VCDSTYLE02
100
AcDbText
  0
TEXT
  5
450
330
426
100
AcDbEntity
  8
Outline
 62
     2
100
AcDbText
 10
-82.25203704833984
 20
20.20714569091797
 30
0.0
 40
1.841060042381287
  1
Assembly No.
  7
VCDSTYLE02
100
AcDbText
  0
LINE
  5
451
330
426
100
AcDbEntity
  8
Outline
 62
     2
100
AcDbLine
 10
-14.79493342379411
 20
19.56126307955689
 30
0.0
 11
-14.79493342379411
 21
15.64901046364552
 31
0.0
  0
LINE
  5
452
330
426
100
AcDbEntity
  8
Outline
 62
     2
100
AcDbLine
 10
-26.81252310072733
 20
19.56126307955689
 30
0.0
 11
-26.81252310072733
 21
15.64901046364552
 31
0.0
  0
TEXT
  5
453
330
426
100
AcDbEntity
  8
Outline
 62
     2
100
AcDbText
 10
-25.21685791015625
 20
16.18584442138672
 30
0.0
 40
1.841060042381287
  1
Scale
  7
VCDSTYLE02
100
AcDbText
  0
ENDBLK
  5
456
330
426
100
AcDbEntity
  8
0
100
AcDbBlockEnd
  0
ENDSEC
  0
SECTION
  2
ENTITIES
  0
INSERT
  5
9D
330
1F
100
AcDbEntity
  8
Dimension
100
AcDbBlockReference
  2
#ARROW
 10
147.2432746583019
 20
188.773796708284
 30
0.0
  0
INSERT
  5
A3
330
1F
100
AcDbEntity
  8
Dimension
100
AcDbBlockReference
  2
#ARROW(1)
 10
142.837551162028
 20
183.047521699661
 30
0.0
  0
INSERT
  5
A9
330
1F
100
AcDbEntity
  8
Dimension
100
AcDbBlockReference
  2
#ARROW(2)
 10
94.67664465770065
 20
185.3962038466439
 30
0.0
  0
INSERT
  5
AF
330
1F
100
AcDbEntity
  8
Dimension
100
AcDbBlockReference
  2
#ARROW(3)
 10
76.9622567485905
 20
159.9256112739225
 30
0.0
  0
INSERT
  5
B4
330
1F
100
AcDbEntity
  8
Outline
100
AcDbBlockReference
  2
$AttrValue elphel_parts
 10
50.43000000000006
 20
34.4112
 30
0.0
  0
INSERT
  5
B9
330
1F
100
AcDbEntity
  8
Outline
100
AcDbBlockReference
  2
$AttrValue elphel_parts(1)
 10
50.43000000000006
 20
38.1451
 30
0.0
  0
INSERT
  5
BE
330
1F
100
AcDbEntity
  8
Outline
100
AcDbBlockReference
  2
$AttrValue elphel_parts(2)
 10
50.43000000000006
 20
30.3694
 30
0.0
  0
INSERT
  5
C3
330
1F
100
AcDbEntity
  8
Outline
100
AcDbBlockReference
  2
$AttrValue elphel_parts(3)
 10
47.37900000000005
 20
22.801
 30
0.0
  0
INSERT
  5
C8
330
1F
100
AcDbEntity
  8
Outline
100
AcDbBlockReference
  2
$AttrValue elphel_parts(4)
 10
119.3813000000001
 20
49.8706
 30
0.0
  0
INSERT
  5
CD
330
1F
100
AcDbEntity
  8
Outline
100
AcDbBlockReference
  2
$AttrValue elphel_parts(5)
 10
32.70900000000006
 20
44.4461
 30
0.0
  0
INSERT
  5
D2
330
1F
100
AcDbEntity
  8
Outline
100
AcDbBlockReference
  2
$AttrValue elphel_parts(6)
 10
44.76700000000005
 20
44.7335
 30
0.0
  0
LINE
  5
D5
330
1F
100
AcDbEntity
  8
0
 62
     2
100
AcDbLine
 10
153.8753076490577
 20
156.0198817159763
 30
0.0
 11
154.075307649061
 21
155.8198817159764
 31
0.0
  0
LINE
  5
D6
330
1F
100
AcDbEntity
  8
0
 62
     2
100
AcDbLine
 10
140.7753074232749
 20
169.1198811493774
 30
0.0
 11
140.9753074232747
 21
168.9198811493751
 31
0.0
  0
LINE
  5
D7
330
1F
100
AcDbEntity
  8
0
 62
     2
100
AcDbLine
 10
140.9753074232547
 20
181.0198808964809
 30
0.0
 11
140.7753074232548
 21
180.8198808964819
 31
0.0
  0
LINE
  5
D8
330
1F
100
AcDbEntity
  8
0
 62
     2
100
AcDbLine
 10
154.0753076489946
 20
194.1198743202019
 30
0.0
 11
153.8753076489969
 21
193.9198743202019
 31
0.0
  0
LINE
  5
D9
330
1F
100
AcDbEntity
  8
0
 62
     2
100
AcDbLine
 10
165.7753073961738
 20
155.819881715982
 30
0.0
 11
165.9753073961715
 21
156.0198817159824
 31
0.0
  0
LINE
  5
DA
330
1F
100
AcDbEntity
  8
0
 62
     2
100
AcDbLine
 10
178.8753074232586
 20
168.919880697793
 30
0.0
 11
179.0753074232589
 21
169.1198806977945
 31
0.0
  0
LINE
  5
DB
330
1F
100
AcDbEntity
  8
0
 62
     2
100
AcDbLine
 10
178.8753074232666
 20
176.0198809506701
 30
0.0
 11
179.0753074232671
 21
176.2198809506712
 31
0.0
  0
LINE
  5
DC
330
1F
100
AcDbEntity
  8
0
 62
     2
100
AcDbLine
 10
179.0753074232618
 20
173.7198806977823
 30
0.0
 11
178.8753074232622
 21
173.9198806977881
 31
0.0
  0
LINE
  5
DD
330
1F
100
AcDbEntity
  8
0
 62
     2
100
AcDbLine
 10
165.9753073961476
 20
193.9198743201886
 30
0.0
 11
165.7753073961489
 21
194.1198743201885
 31
0.0
  0
LINE
  5
DE
330
1F
100
AcDbEntity
  8
0
 62
     2
100
AcDbLine
 10
179.0753074232678
 20
180.8198809507054
 30
0.0
 11
178.8753074232678
 21
181.0198809507017
 31
0.0
  0
ARC
  5
DF
330
1F
100
AcDbEntity
  8
0
 62
     2
100
AcDbCircle
 10
154.1753076057906
 20
158.5198817077921
 30
0.0
 40
1.0
100
AcDbArc
 50
90.0
 51
179.9999999973881
  0
ARC
  5
E0
330
1F
100
AcDbEntity
  8
0
 62
     2
100
AcDbCircle
 10
165.6753073815503
 20
158.5198817077921
 30
0.0
 40
1.0
100
AcDbArc
 50
0.0
 51
89.99999999738858
  0
ARC
  5
E1
330
1F
100
AcDbEntity
  8
0
 62
     2
100
AcDbCircle
 10
176.3753074936707
 20
167.7198855307022
 30
0.0
 40
1.0
100
AcDbArc
 50
180.0
 51
269.9999999994837
  0
ARC
  5
E2
330
1F
100
AcDbEntity
  8
0
 62
     2
100
AcDbCircle
 10
176.3753074936707
 20
180.7198852778446
 30
0.0
 40
1.0
100
AcDbArc
 50
90.00000000000813
 51
180.0000000000003
  0
ARC
  5
E3
330
1F
100
AcDbEntity
  8
0
 62
     2
100
AcDbCircle
 10
165.6753073815512
 20
191.4198817077921
 30
0.0
 40
1.0
100
AcDbArc
 50
270.0000000000016
 51
0.0000000000004071
  0
ARC
  5
E4
330
1F
100
AcDbEntity
  8
0
 62
     2
100
AcDbCircle
 10
154.1753076057906
 20
191.4198817077922
 30
0.0
 40
1.0
100
AcDbArc
 50
180.0
 51
269.9999999973878
  0
CIRCLE
  5
E5
330
1F
100
AcDbEntity
  8
0
 62
     2
100
AcDbCircle
 10
159.9253074936707
 20
174.9698817077922
 30
0.0
 40
9.0
  0
ARC
  5
E6
330
1F
100
AcDbEntity
  8
0
 62
     2
100
AcDbCircle
 10
177.0753076345518
 20
186.0400956556466
 30
0.0
 40
1.000000000000012
100
AcDbArc
 50
0.0
 51
152.1869543256791
  0
ARC
  5
E7
330
1F
100
AcDbEntity
  8
0
 62
     2
100
AcDbCircle
 10
173.0951712112613
 20
188.1397418286949
 30
0.0
 40
3.500000000000028
100
AcDbArc
 50
273.4685598611495
 51
332.1869543262856
  0
ARC
  5
E8
330
1F
100
AcDbEntity
  8
0
 62
     2
100
AcDbCircle
 10
173.3674249009482
 20
183.64798516471
 30
0.0
 40
1.000000000000022
100
AcDbArc
 50
93.4685598611517
 51
212.8459031792123
  0
ARC
  5
E9
330
1F
100
AcDbEntity
  8
0
 62
     2
100
AcDbCircle
 10
168.6034146216291
 20
188.41199674508
 30
0.0
 40
1.0
100
AcDbArc
 50
237.1540811733188
 51
359.9999999999998
  0
ARC
  5
EA
330
1F
100
AcDbEntity
  8
0
 62
     2
100
AcDbCircle
 10
173.092708064141
 20
188.1384436934727
 30
0.0
 40
3.500000000000016
100
AcDbArc
 50
117.7674728925061
 51
175.5173038067275
  0
ARC
  5
EB
330
1F
100
AcDbEntity
  8
0
 62
     2
100
AcDbCircle
 10
170.9955245795472
 20
192.1198780100248
 30
0.0
 40
1.0
100
AcDbArc
 50
297.8130522764111
 51
90.00000000026371
  0
LINE
  5
EC
330
1F
100
AcDbEntity
  8
0
 62
     2
100
AcDbLine
 10
166.6753073814394
 20
188.9676494490997
 30
0.0
 11
166.6753073815057
 21
190.4198817077921
 31
0.0
  0
ARC
  5
ED
330
1F
100
AcDbEntity
  8
0
 62
     2
100
AcDbCircle
 10
167.6753073814394
 20
188.9676494490997
 30
0.0
 40
1.000000000000063
100
AcDbArc
 50
180.0
 51
241.02846823882
  0
ARC
  5
EE
330
1F
100
AcDbEntity
  8
0
 62
     2
100
AcDbCircle
 10
159.9253074936707
 20
174.9698817077922
 30
0.0
 40
15.00000000000002
100
AcDbArc
 50
28.97154683663469
 51
61.02846823567548
  0
ARC
  5
EF
330
1F
100
AcDbEntity
  8
0
 62
     2
100
AcDbCircle
 10
173.9230731962516
 20
182.7198852778334
 30
0.0
 40
1.0
100
AcDbArc
 50
208.9715468366371
 51
269.9999999998801
  0
LINE
  5
F0
330
1F
100
AcDbEntity
  8
0
 62
     2
100
AcDbLine
 10
175.3753074936707
 20
181.7198852778445
 30
0.0
 11
173.9230731962494
 21
181.7198852778443
 31
0.0
  0
ARC
  5
F1
330
1F
100
AcDbEntity
  8
0
 62
     2
100
AcDbCircle
 10
148.8550904077946
 20
192.119878010025
 30
0.0
 40
1.0
100
AcDbArc
 50
89.99999999973619
 51
242.1869477235888
  0
ARC
  5
F2
330
1F
100
AcDbEntity
  8
0
 62
     2
100
AcDbCircle
 10
146.7579069232007
 20
188.138443693473
 30
0.0
 40
3.500000000000008
100
AcDbArc
 50
4.482696193270885
 51
62.2325271074922
  0
ARC
  5
F3
330
1F
100
AcDbEntity
  8
0
 62
     2
100
AcDbCircle
 10
151.2472003657126
 20
188.4119967450802
 30
0.0
 40
1.000000000000003
100
AcDbArc
 50
180.0
 51
302.8459188266729
  0
ARC
  5
F4
330
1F
100
AcDbEntity
  8
0
 62
     2
100
AcDbCircle
 10
146.4831900863934
 20
183.6479851647103
 30
0.0
 40
1.000000000000001
100
AcDbArc
 50
327.1540968207868
 51
86.53144013884746
  0
ARC
  5
F5
330
1F
100
AcDbEntity
  8
0
 62
     2
100
AcDbCircle
 10
146.7554437760804
 20
188.1397418286952
 30
0.0
 40
3.500000000000001
100
AcDbArc
 50
207.8130456737129
 51
266.5314401388491
  0
ARC
  5
F6
330
1F
100
AcDbEntity
  8
0
 62
     2
100
AcDbCircle
 10
142.7753073527898
 20
186.0400956556471
 30
0.0
 40
1.0
100
AcDbArc
 50
27.81304567371522
 51
179.9999999993943
  0
LINE
  5
F7
330
1F
100
AcDbEntity
  8
0
 62
     2
100
AcDbLine
 10
145.9275417910922
 20
181.7198852778446
 30
0.0
 11
144.4753074936707
 21
181.7198852778449
 31
0.0
  0
ARC
  5
F8
330
1F
100
AcDbEntity
  8
0
 62
     2
100
AcDbCircle
 10
145.9275417910901
 20
182.7198852778337
 30
0.0
 40
0.9999999999999827
100
AcDbArc
 50
270.0000000001189
 51
331.0284531633619
  0
ARC
  5
F9
330
1F
100
AcDbEntity
  8
0
 62
     2
100
AcDbCircle
 10
159.9253074936707
 20
174.9698817077922
 30
0.0
 40
15.00000000000001
100
AcDbArc
 50
118.971531764323
 51
151.0284531633638
  0
ARC
  5
FA
330
1F
100
AcDbEntity
  8
0
 62
     2
100
AcDbCircle
 10
152.1753076059024
 20
188.9676494490998
 30
0.0
 40
1.0
100
AcDbArc
 50
298.9715317643259
 51
359.9999999999998
  0
LINE
  5
FB
330
1F
100
AcDbEntity
  8
0
 62
     2
100
AcDbLine
 10
153.1753076058362
 20
190.4198817077921
 30
0.0
 11
153.1753076059024
 21
188.9676494491547
 31
0.0
  0
ARC
  5
FC
330
1F
100
AcDbEntity
  8
0
 62
     2
100
AcDbCircle
 10
151.2472003657126
 20
161.5277666705041
 30
0.0
 40
1.0
100
AcDbArc
 50
57.15408117332009
 51
179.9999999999932
  0
ARC
  5
FD
330
1F
100
AcDbEntity
  8
0
 62
     2
100
AcDbCircle
 10
146.7579069232007
 20
161.8013197221114
 30
0.0
 40
3.500000000000009
100
AcDbArc
 50
297.7674728925078
 51
355.517303806729
  0
ARC
  5
FE
330
1F
100
AcDbEntity
  8
0
 62
     2
100
AcDbCircle
 10
148.8550904077946
 20
157.8198854055593
 30
0.0
 40
1.0
100
AcDbArc
 50
117.8130522764111
 51
270.0000000002637
  0
ARC
  5
FF
330
1F
100
AcDbEntity
  8
0
 62
     2
100
AcDbCircle
 10
142.7753073527898
 20
163.8996677599373
 30
0.0
 40
0.9999999999999991
100
AcDbArc
 50
180.0
 51
332.1869543256787
  0
ARC
  5
100
330
1F
100
AcDbEntity
  8
0
 62
     2
100
AcDbCircle
 10
146.7554437760804
 20
161.8000215868892
 30
0.0
 40
3.499999999999986
100
AcDbArc
 50
119.4155117348862
 51
152.1869543264607
  0
ARC
  5
101
330
1F
100
AcDbEntity
  8
0
 62
     2
100
AcDbCircle
 10
144.5453155757457
 20
165.7198855307124
 30
0.0
 40
1.0
100
AcDbArc
 50
299.4155117348894
 51
90.00000000051133
  0
LINE
  5
102
330
1F
100
AcDbEntity
  8
0
 62
     2
100
AcDbLine
 10
142.7753073527652
 20
166.7198855306963
 30
0.0
 11
144.5453155757368
 21
166.7198855307124
 31
0.0
  0
ARC
  5
103
330
1F
100
AcDbEntity
  8
0
 62
     2
100
AcDbCircle
 10
142.7753073527705
 20
165.7198855306984
 30
0.0
 40
1.0
100
AcDbArc
 50
90.00000000030616
 51
180.0000000006269
  0
LINE
  5
104
330
1F
100
AcDbEntity
  8
0
 62
     2
100
AcDbLine
 10
153.1753076059024
 20
160.9721139664845
 30
0.0
 11
153.1753076058362
 21
159.5198817077921
 31
0.0
  0
ARC
  5
105
330
1F
100
AcDbEntity
  8
0
 62
     2
100
AcDbCircle
 10
152.1753076059024
 20
160.9721139664845
 30
0.0
 40
1.000000000000032
100
AcDbArc
 50
0.0
 51
61.02846823566972
  0
ARC
  5
106
330
1F
100
AcDbEntity
  8
0
 62
     2
100
AcDbCircle
 10
159.9253074936707
 20
174.9698817077922
 30
0.0
 40
15.0
100
AcDbArc
 50
208.9715468366362
 51
241.0284682356769
  0
ARC
  5
107
330
1F
100
AcDbEntity
  8
0
 62
     2
100
AcDbCircle
 10
145.9275417910901
 20
167.2198781377506
 30
0.0
 40
1.0
100
AcDbArc
 50
28.97154683663709
 51
89.99999999988012
  0
LINE
  5
108
330
1F
100
AcDbEntity
  8
0
 62
     2
100
AcDbLine
 10
144.4753074936706
 20
168.2198781377395
 30
0.0
 11
145.9275417910922
 21
168.2198781377397
 31
0.0
  0
LINE
  5
109
330
1F
100
AcDbEntity
  8
0
 62
     2
100
AcDbLine
 10
172.9804815914906
 20
166.7198855307329
 30
0.0
 11
175.3753074936707
 21
166.7198855307113
 31
0.0
  0
ARC
  5
10A
330
1F
100
AcDbEntity
  8
0
 62
     2
100
AcDbCircle
 10
172.9804815914906
 20
165.7198855307329
 30
0.0
 40
0.999999999999989
100
AcDbArc
 50
89.9999999995017
 51
144.6812438748878
  0
ARC
  5
10B
330
1F
100
AcDbEntity
  8
0
 62
     2
100
AcDbCircle
 10
159.9253074936707
 20
174.9698817077922
 30
0.0
 40
14.99999999999998
100
AcDbArc
 50
298.9715317643216
 51
324.6812438748874
  0
ARC
  5
10C
330
1F
100
AcDbEntity
  8
0
 62
     2
100
AcDbCircle
 10
167.6753073814385
 20
160.9721139664844
 30
0.0
 40
1.0
100
AcDbArc
 50
118.9715317643259
 51
180.0000000031459
  0
LINE
  5
10D
330
1F
100
AcDbEntity
  8
0
 62
     2
100
AcDbLine
 10
166.6753073815048
 20
159.5198817077921
 30
0.0
 11
166.6753073814385
 21
160.9721139664294
 31
0.0
  0
LINE
  5
10E
330
1F
100
AcDbEntity
  8
0
 62
     2
100
AcDbLine
 10
140.9753074232468
 20
173.9198811493443
 30
0.0
 11
140.7753074232452
 21
173.7198811493442
 31
0.0
  0
LINE
  5
10F
330
1F
100
AcDbEntity
  8
0
 62
     2
100
AcDbLine
 10
140.7753074232643
 20
176.2198808964756
 30
0.0
 11
140.9753074232628
 21
176.0198808964767
 31
0.0
  0
LINE
  5
110
330
1F
100
AcDbEntity
  8
0
 62
     2
100
AcDbLine
 10
161.175307396202
 20
194.1198743201838
 30
0.0
 11
160.9753073961909
 21
193.9198743201841
 31
0.0
  0
LINE
  5
111
330
1F
100
AcDbEntity
  8
0
 62
     2
100
AcDbLine
 10
158.8753076490286
 20
193.9198743201872
 30
0.0
 11
158.6753076490316
 21
194.1198743201875
 31
0.0
  0
LINE
  5
112
330
1F
100
AcDbEntity
  8
0
 62
     2
100
AcDbLine
 10
160.9753073961767
 20
156.0198817159837
 30
0.0
 11
161.1753073961816
 21
155.8198817159837
 31
0.0
  0
LINE
  5
113
330
1F
100
AcDbEntity
  8
0
 62
     2
100
AcDbLine
 10
158.6753076490264
 20
155.8198817159845
 30
0.0
 11
158.8753076490315
 21
156.0198817159844
 31
0.0
  0
ARC
  5
114
330
1F
100
AcDbEntity
  8
0
 62
     2
100
AcDbCircle
 10
165.4753073961681
 20
156.3198817159813
 30
0.0
 40
0.5
100
AcDbArc
 50
180.0
 51
180.2871124998878
  0
ARC
  5
115
330
1F
100
AcDbEntity
  8
0
 62
     2
100
AcDbCircle
 10
165.4753073961681
 20
156.3198817159813
 30
0.0
 40
0.5
100
AcDbArc
 50
180.2871125005391
 51
269.9999650151119
  0
ARC
  5
116
330
1F
100
AcDbEntity
  8
0
 62
     2
100
AcDbCircle
 10
161.4753073961692
 20
156.3198817159836
 30
0.0
 40
0.5
100
AcDbArc
 50
359.7128875014286
 51
0.0000000000012722
  0
LINE
  5
117
330
1F
100
AcDbEntity
  8
0
 62
     2
100
AcDbLine
 10
161.1753073961816
 20
155.8198817159837
 30
0.0
 11
161.4753073961691
 21
155.8198817159836
 31
0.0
  0
LINE
  5
118
330
1F
100
AcDbEntity
  8
0
 62
     2
100
AcDbLine
 10
165.4753073961692
 20
155.8198817159813
 30
0.0
 11
165.7753073961738
 21
155.819881715982
 31
0.0
  0
ARC
  5
119
330
1F
100
AcDbEntity
  8
0
 62
     2
100
AcDbCircle
 10
154.3753076490527
 20
156.3198817159765
 30
0.0
 40
0.5
100
AcDbArc
 50
359.7128875009525
 51
0.0000000000007633
  0
ARC
  5
11A
330
1F
100
AcDbEntity
  8
0
 62
     2
100
AcDbCircle
 10
158.3753076490392
 20
156.3198817159845
 30
0.0
 40
0.5
100
AcDbArc
 50
180.0
 51
180.2871124999142
  0
ARC
  5
11B
330
1F
100
AcDbEntity
  8
0
 62
     2
100
AcDbCircle
 10
158.3753076490392
 20
156.3198817159845
 30
0.0
 40
0.5
100
AcDbArc
 50
180.287112498442
 51
269.9999650149643
  0
LINE
  5
11C
330
1F
100
AcDbEntity
  8
0
 62
     2
100
AcDbLine
 10
154.075307649061
 20
155.8198817159764
 30
0.0
 11
154.3753076490529
 21
155.8198817159765
 31
0.0
  0
LINE
  5
11D
330
1F
100
AcDbEntity
  8
0
 62
     2
100
AcDbLine
 10
158.375307649039
 20
155.8198817159846
 30
0.0
 11
158.6753076490264
 21
155.8198817159845
 31
0.0
  0
ARC
  5
11E
330
1F
100
AcDbEntity
  8
0
 62
     2
100
AcDbCircle
 10
141.2753074232429
 20
173.4198811493443
 30
0.0
 40
0.5
100
AcDbArc
 50
180.0000349734699
 51
269.7128874889853
  0
ARC
  5
11F
330
1F
100
AcDbEntity
  8
0
 62
     2
100
AcDbCircle
 10
141.2753074232429
 20
173.4198811493443
 30
0.0
 40
0.5
100
AcDbArc
 50
269.7128875000918
 51
269.9999999999999
  0
ARC
  5
120
330
1F
100
AcDbEntity
  8
0
 62
     2
100
AcDbCircle
 10
141.275307423275
 20
169.4198811493716
 30
0.0
 40
0.5
100
AcDbArc
 50
89.99999999932582
 51
90.28711249927913
  0
ARC
  5
121
330
1F
100
AcDbEntity
  8
0
 62
     2
100
AcDbCircle
 10
141.275307423275
 20
169.4198811493716
 30
0.0
 40
0.5
100
AcDbArc
 50
90.28711249927953
 51
179.9999650149567
  0
LINE
  5
122
330
1F
100
AcDbEntity
  8
0
 62
     2
100
AcDbLine
 10
140.7753074232452
 20
173.7198811493442
 30
0.0
 11
140.7753074232429
 21
173.419881149348
 31
0.0
  0
LINE
  5
123
330
1F
100
AcDbEntity
  8
0
 62
     2
100
AcDbLine
 10
140.775307423275
 20
169.4198811493718
 30
0.0
 11
140.7753074232749
 21
169.1198811493774
 31
0.0
  0
ARC
  5
124
330
1F
100
AcDbEntity
  8
0
 62
     2
100
AcDbCircle
 10
141.275307423255
 20
180.5198808964794
 30
0.0
 40
0.5
100
AcDbArc
 50
180.0000349734699
 51
269.7128874882181
  0
ARC
  5
125
330
1F
100
AcDbEntity
  8
0
 62
     2
100
AcDbCircle
 10
141.275307423255
 20
180.5198808964794
 30
0.0
 40
0.5
100
AcDbArc
 50
269.7128874997922
 51
269.9999999997211
  0
ARC
  5
126
330
1F
100
AcDbEntity
  8
0
 62
     2
100
AcDbCircle
 10
141.2753074232667
 20
176.5198808964783
 30
0.0
 40
0.5
100
AcDbArc
 50
90.00000000030616
 51
90.28711250024969
  0
ARC
  5
127
330
1F
100
AcDbEntity
  8
0
 62
     2
100
AcDbCircle
 10
141.2753074232667
 20
176.5198808964783
 30
0.0
 40
0.5
100
AcDbArc
 50
90.28711250024686
 51
179.9999650145418
  0
LINE
  5
128
330
1F
100
AcDbEntity
  8
0
 62
     2
100
AcDbLine
 10
140.7753074232548
 20
180.8198808964819
 30
0.0
 11
140.775307423255
 21
180.5198808964792
 31
0.0
  0
LINE
  5
129
330
1F
100
AcDbEntity
  8
0
 62
     2
100
AcDbLine
 10
140.7753074232667
 20
176.5198808964822
 30
0.0
 11
140.7753074232643
 21
176.2198808964756
 31
0.0
  0
ARC
  5
12A
330
1F
100
AcDbEntity
  8
0
 62
     2
100
AcDbCircle
 10
165.4753073961456
 20
193.6198743201883
 30
0.0
 40
0.5
100
AcDbArc
 50
90.00003498504464
 51
140.8866385769607
  0
ARC
  5
12B
330
1F
100
AcDbEntity
  8
0
 62
     2
100
AcDbCircle
 10
165.4753073961456
 20
193.6198743201883
 30
0.0
 40
0.5
100
AcDbArc
 50
179.7128874997923
 51
179.9999999996267
  0
ARC
  5
12C
330
1F
100
AcDbEntity
  8
0
 62
     2
100
AcDbCircle
 10
161.4753073961745
 20
193.6198743201834
 30
0.0
 40
0.5
100
AcDbArc
 50
0.0
 51
0.287112496840507
  0
ARC
  5
12D
330
1F
100
AcDbEntity
  8
0
 62
     2
100
AcDbCircle
 10
161.4753073961745
 20
193.6198743201834
 30
0.0
 40
0.5
100
AcDbArc
 50
0.2871124968399767
 51
89.99996501489669
  0
LINE
  5
12E
330
1F
100
AcDbEntity
  8
0
 62
     2
100
AcDbLine
 10
165.7753073961489
 20
194.1198743201885
 30
0.0
 11
165.4753073961454
 21
194.1198743201883
 31
0.0
  0
LINE
  5
12F
330
1F
100
AcDbEntity
  8
0
 62
     2
100
AcDbLine
 10
161.4753073961752
 20
194.1198743201834
 30
0.0
 11
161.175307396202
 21
194.1198743201838
 31
0.0
  0
ARC
  5
130
330
1F
100
AcDbEntity
  8
0
 62
     2
100
AcDbCircle
 10
158.3753076490241
 20
193.619874320188
 30
0.0
 40
0.5
100
AcDbArc
 50
90.00003498493065
 51
140.88663857661
  0
ARC
  5
131
330
1F
100
AcDbEntity
  8
0
 62
     2
100
AcDbCircle
 10
158.3753076490241
 20
193.619874320188
 30
0.0
 40
0.5
100
AcDbArc
 50
179.7128874992324
 51
179.9999999991459
  0
ARC
  5
132
330
1F
100
AcDbEntity
  8
0
 62
     2
100
AcDbCircle
 10
154.3753076490003
 20
193.6198743202021
 30
0.0
 40
0.5
100
AcDbArc
 50
0.0
 51
0.2871124999480378
  0
ARC
  5
133
330
1F
100
AcDbEntity
  8
0
 62
     2
100
AcDbCircle
 10
154.3753076490003
 20
193.6198743202021
 30
0.0
 40
0.5
100
AcDbArc
 50
0.2871125005923812
 51
89.99996501501857
  0
LINE
  5
134
330
1F
100
AcDbEntity
  8
0
 62
     2
100
AcDbLine
 10
158.6753076490316
 20
194.1198743201876
 30
0.0
 11
158.3753076490249
 21
194.119874320188
 31
0.0
  0
LINE
  5
135
330
1F
100
AcDbEntity
  8
0
 62
     2
100
AcDbLine
 10
154.3753076489999
 20
194.1198743202021
 30
0.0
 11
154.0753076489946
 21
194.1198743202019
 31
0.0
  0
ARC
  5
136
330
1F
100
AcDbEntity
  8
0
 62
     2
100
AcDbCircle
 10
178.5753074232677
 20
180.519880950696
 30
0.0
 40
0.5
100
AcDbArc
 50
270.000000001078
 51
270.28711250102
  0
ARC
  5
137
330
1F
100
AcDbEntity
  8
0
 62
     2
100
AcDbCircle
 10
178.5753074232677
 20
180.519880950696
 30
0.0
 40
0.5
100
AcDbArc
 50
270.2871125010187
 51
359.9999650149733
  0
ARC
  5
138
330
1F
100
AcDbEntity
  8
0
 62
     2
100
AcDbCircle
 10
178.5753074232677
 20
176.5198809506685
 30
0.0
 40
0.5
100
AcDbArc
 50
0.0000349734699265
 51
89.71288748893366
  0
ARC
  5
139
330
1F
100
AcDbEntity
  8
0
 62
     2
100
AcDbCircle
 10
178.5753074232677
 20
176.5198809506685
 30
0.0
 40
0.5
100
AcDbArc
 50
89.7128875003622
 51
90.00000000030899
  0
LINE
  5
13A
330
1F
100
AcDbEntity
  8
0
 62
     2
100
AcDbLine
 10
179.0753074232671
 20
176.2198809506712
 30
0.0
 11
179.0753074232677
 21
176.5198809506675
 31
0.0
  0
LINE
  5
13B
330
1F
100
AcDbEntity
  8
0
 62
     2
100
AcDbLine
 10
179.0753074232677
 20
180.5198809506959
 30
0.0
 11
179.0753074232678
 21
180.8198809507054
 31
0.0
  0
ARC
  5
13C
330
1F
100
AcDbEntity
  8
0
 62
     2
100
AcDbCircle
 10
178.5753074232612
 20
173.4198806977969
 30
0.0
 40
0.5
100
AcDbArc
 50
269.9999999983292
 51
270.2871124981282
  0
ARC
  5
13D
330
1F
100
AcDbEntity
  8
0
 62
     2
100
AcDbCircle
 10
178.5753074232612
 20
173.4198806977969
 30
0.0
 40
0.5
100
AcDbArc
 50
270.2871124981266
 51
359.9999650148625
  0
ARC
  5
13E
330
1F
100
AcDbEntity
  8
0
 62
     2
100
AcDbCircle
 10
178.5753074232596
 20
169.4198806977909
 30
0.0
 40
0.5
100
AcDbArc
 50
0.0000349734699265
 51
89.7128874890628
  0
ARC
  5
13F
330
1F
100
AcDbEntity
  8
0
 62
     2
100
AcDbCircle
 10
178.5753074232596
 20
169.4198806977909
 30
0.0
 40
0.5
100
AcDbArc
 50
89.71288750048271
 51
90.00000000041646
  0
LINE
  5
140
330
1F
100
AcDbEntity
  8
0
 62
     2
100
AcDbLine
 10
179.0753074232589
 20
169.1198806977945
 30
0.0
 11
179.0753074232596
 21
169.4198806977897
 31
0.0
  0
LINE
  5
141
330
1F
100
AcDbEntity
  8
0
 62
     2
100
AcDbLine
 10
179.0753074232612
 20
173.4198806977959
 30
0.0
 11
179.0753074232618
 21
173.7198806977823
 31
0.0
  0
CIRCLE
  5
142
330
1F
100
AcDbEntity
  8
0
 62
     2
100
AcDbCircle
 10
141.9253074232632
 20
156.9698813051078
 30
0.0
 40
1.350000000000023
  0
CIRCLE
  5
143
330
1F
100
AcDbEntity
  8
0
 62
     2
100
AcDbCircle
 10
141.9253074232631
 20
192.9698743201901
 30
0.0
 40
1.350000000000023
  0
CIRCLE
  5
144
330
1F
100
AcDbEntity
  8
0
 62
     2
100
AcDbCircle
 10
177.925307423261
 20
192.9698747310676
 30
0.0
 40
1.350000000000023
  0
CIRCLE
  5
145
330
1F
100
AcDbEntity
  8
0
 62
     2
100
AcDbCircle
 10
177.9253070123837
 20
156.9698817159849
 30
0.0
 40
1.350000000000023
  0
ARC
  5
146
330
1F
100
AcDbEntity
  8
0
 62
     2
100
AcDbCircle
 10
177.9253074232611
 20
192.96987432019
 30
0.0
 40
2.250000000000037
100
AcDbArc
 50
0.0000104216354962
 51
90.00001042163623
  0
LINE
  5
147
330
1F
100
AcDbEntity
  8
0
 62
     2
100
AcDbLine
 10
141.9253074232494
 20
195.2198743201901
 30
0.0
 11
177.925307423264
 21
195.21987432019
 31
0.0
  0
ARC
  5
148
330
1F
100
AcDbEntity
  8
0
 62
     2
100
AcDbCircle
 10
141.9253074232631
 20
192.9698743201901
 30
0.0
 40
2.250000000000037
100
AcDbArc
 50
89.99999999999712
 51
179.9999895370953
  0
LINE
  5
149
330
1F
100
AcDbEntity
  8
0
 62
     2
100
AcDbLine
 10
139.6753074232625
 20
156.9698817159865
 30
0.0
 11
139.6753074232637
 21
192.9698743201793
 31
0.0
  0
ARC
  5
14A
330
1F
100
AcDbEntity
  8
0
 62
     2
100
AcDbCircle
 10
141.9253074232631
 20
156.9698817159851
 30
0.0
 40
2.25
100
AcDbArc
 50
180.0000104216355
 51
269.9999999587337
  0
LINE
  5
14B
330
1F
100
AcDbEntity
  8
0
 62
     2
100
AcDbLine
 10
177.925307423263
 20
154.7198817159858
 30
0.0
 11
141.9253074232494
 21
154.7198817159858
 31
0.0
  0
ARC
  5
14C
330
1F
100
AcDbEntity
  8
0
 62
     2
100
AcDbCircle
 10
177.9253074232609
 20
156.9698817159851
 30
0.0
 40
2.250000000000037
100
AcDbArc
 50
269.9999895370982
 51
359.9999895370953
  0
LINE
  5
14D
330
1F
100
AcDbEntity
  8
0
 62
     2
100
AcDbLine
 10
180.1753074232615
 20
192.9698743201793
 30
0.0
 11
180.1753074232608
 21
156.9698817159865
 31
0.0
  0
LINE
  5
14E
330
1F
100
AcDbEntity
  8
0
 62
     2
100
AcDbLine
 10
144.5726333058303
 20
156.0198817159726
 30
0.0
 11
153.8753076490577
 21
156.0198817159763
 31
0.0
  0
LINE
  5
14F
330
1F
100
AcDbEntity
  8
0
 62
     2
100
AcDbLine
 10
144.5726333058304
 20
155.8198817159725
 30
0.0
 11
154.075307649061
 21
155.8198817159764
 31
0.0
  0
ARC
  5
150
330
1F
100
AcDbEntity
  8
0
 62
     2
100
AcDbCircle
 10
144.5726333058302
 20
156.4198817159726
 30
0.0
 40
0.4000000000000026
100
AcDbArc
 50
153.4368872249687
 51
270.0000000000221
  0
ARC
  5
151
330
1F
100
AcDbEntity
  8
0
 62
     2
100
AcDbCircle
 10
144.5726333058302
 20
156.4198817159726
 30
0.0
 40
0.6000000000000014
100
AcDbArc
 50
153.4368872249669
 51
270.0000000000205
  0
LINE
  5
152
330
1F
100
AcDbEntity
  8
0
 62
     2
100
AcDbLine
 10
144.6498225144027
 20
157.4687609063642
 30
0.0
 11
144.2148563776727
 21
156.5987550501455
 31
0.0
  0
LINE
  5
153
330
1F
100
AcDbEntity
  8
0
 62
     2
100
AcDbLine
 10
144.470934050324
 20
157.5581975734506
 30
0.0
 11
144.0359679135939
 21
156.688191717232
 31
0.0
  0
ARC
  5
154
330
1F
100
AcDbEntity
  8
0
 62
     2
100
AcDbCircle
 10
144.023712890127
 20
157.7817892411668
 30
0.0
 40
0.6999999999999958
100
AcDbArc
 50
333.4368872249659
 51
21.15229121076099
  0
ARC
  5
155
330
1F
100
AcDbEntity
  8
0
 62
     2
100
AcDbCircle
 10
144.023712890127
 20
157.7817892411668
 30
0.0
 40
0.4999999999999999
100
AcDbArc
 50
333.4368872249669
 51
21.15228199063927
  0
ARC
  5
156
330
1F
100
AcDbEntity
  8
0
 62
     2
100
AcDbCircle
 10
141.9253074232631
 20
156.9698813051078
 30
0.0
 40
2.950000000000009
100
AcDbArc
 50
21.15228482759964
 51
68.84776659340763
  0
ARC
  5
157
330
1F
100
AcDbEntity
  8
0
 62
     2
100
AcDbCircle
 10
141.9253074232631
 20
156.9698813051078
 30
0.0
 40
2.750000000000008
100
AcDbArc
 50
21.15228482759929
 51
68.84776204112538
  0
ARC
  5
158
330
1F
100
AcDbEntity
  8
0
 62
     2
100
AcDbCircle
 10
142.7372135799756
 20
159.0682874604296
 30
0.0
 40
0.7000000000000001
100
AcDbArc
 50
68.84776659340812
 51
116.5632709876457
  0
ARC
  5
159
330
1F
100
AcDbEntity
  8
0
 62
     2
100
AcDbCircle
 10
142.7372135799756
 20
159.0682874604296
 30
0.0
 40
0.5000000000000004
100
AcDbArc
 50
68.84776659340486
 51
116.5632709888761
  0
LINE
  5
15A
330
1F
100
AcDbEntity
  8
0
 62
     2
100
AcDbLine
 10
141.5541817453909
 20
159.2594291232115
 30
0.0
 11
142.4241835162839
 21
159.6943962203311
 31
0.0
  0
LINE
  5
15B
330
1F
100
AcDbEntity
  8
0
 62
     2
100
AcDbLine
 10
141.6436189064512
 20
159.0805409060996
 30
0.0
 11
142.5136206773442
 21
159.5155080032191
 31
0.0
  0
ARC
  5
15C
330
1F
100
AcDbEntity
  8
0
 62
     2
100
AcDbCircle
 10
141.3753074232704
 20
159.6172055574354
 30
0.0
 40
0.4000000000000011
100
AcDbArc
 50
180.0
 51
296.5632709889251
  0
ARC
  5
15D
330
1F
100
AcDbEntity
  8
0
 62
     2
100
AcDbCircle
 10
141.3753074232704
 20
159.6172055574354
 30
0.0
 40
0.6000000000000002
100
AcDbArc
 50
180.0
 51
296.5632709889246
  0
LINE
  5
15E
330
1F
100
AcDbEntity
  8
0
 62
     2
100
AcDbLine
 10
140.9753074232747
 20
168.9198811493751
 30
0.0
 11
140.9753074232704
 21
159.6172055574353
 31
0.0
  0
LINE
  5
15F
330
1F
100
AcDbEntity
  8
0
 62
     2
100
AcDbLine
 10
140.7753074232749
 20
169.1198811493774
 30
0.0
 11
140.7753074232704
 21
159.6172055574354
 31
0.0
  0
LINE
  5
160
330
1F
100
AcDbEntity
  8
0
 62
     2
100
AcDbLine
 10
140.97530742325
 20
190.3225486430593
 30
0.0
 11
140.9753074232547
 21
181.0198808964809
 31
0.0
  0
LINE
  5
161
330
1F
100
AcDbEntity
  8
0
 62
     2
100
AcDbLine
 10
140.77530742325
 20
190.3225486430593
 30
0.0
 11
140.7753074232548
 21
180.8198808964819
 31
0.0
  0
ARC
  5
162
330
1F
100
AcDbEntity
  8
0
 62
     2
100
AcDbCircle
 10
141.37530742325
 20
190.3225486430593
 30
0.0
 40
0.4000000000000014
100
AcDbArc
 50
63.43688722419312
 51
179.9999999999988
  0
ARC
  5
163
330
1F
100
AcDbEntity
  8
0
 62
     2
100
AcDbCircle
 10
141.37530742325
 20
190.3225486430593
 30
0.0
 40
0.6000000000000014
100
AcDbArc
 50
63.43688722419616
 51
180.0000000000009
  0
LINE
  5
164
330
1F
100
AcDbEntity
  8
0
 62
     2
100
AcDbLine
 10
142.4241870245108
 20
190.2453592290548
 30
0.0
 11
141.5541807574278
 21
190.6803255712143
 31
0.0
  0
LINE
  5
165
330
1F
100
AcDbEntity
  8
0
 62
     2
100
AcDbLine
 10
142.5136236915998
 20
190.4242476931324
 30
0.0
 11
141.6436174245167
 21
190.8592140352919
 31
0.0
  0
ARC
  5
166
330
1F
100
AcDbEntity
  8
0
 62
     2
100
AcDbCircle
 10
142.737215359322
 20
190.8714688533263
 30
0.0
 40
0.6999999999999994
100
AcDbArc
 50
243.4368872241908
 51
291.1522912107655
  0
ARC
  5
167
330
1F
100
AcDbEntity
  8
0
 62
     2
100
AcDbCircle
 10
142.737215359322
 20
190.8714688533263
 30
0.0
 40
0.4999999999999998
100
AcDbArc
 50
243.436887224192
 51
291.1522819906388
  0
ARC
  5
168
330
1F
100
AcDbEntity
  8
0
 62
     2
100
AcDbCircle
 10
141.9253074232631
 20
192.9698743201902
 30
0.0
 40
2.950000000000012
100
AcDbArc
 50
291.1522848275991
 51
338.8477665934085
  0
ARC
  5
169
330
1F
100
AcDbEntity
  8
0
 62
     2
100
AcDbCircle
 10
141.9253074232631
 20
192.9698743201902
 30
0.0
 40
2.750000000000012
100
AcDbArc
 50
291.1522848275991
 51
338.8477620411256
  0
ARC
  5
16A
330
1F
100
AcDbEntity
  8
0
 62
     2
100
AcDbCircle
 10
144.0237135785849
 20
192.1579681634778
 30
0.0
 40
0.700000000000004
100
AcDbArc
 50
338.8477665934081
 51
26.56327098793309
  0
ARC
  5
16B
330
1F
100
AcDbEntity
  8
0
 62
     2
100
AcDbCircle
 10
144.0237135785849
 20
192.1579681634778
 30
0.0
 40
0.5000000000000002
100
AcDbArc
 50
338.8477665934079
 51
26.56327098946601
  0
LINE
  5
16C
330
1F
100
AcDbEntity
  8
0
 62
     2
100
AcDbLine
 10
144.2148552413508
 20
193.340999998072
 30
0.0
 11
144.6498223384854
 21
192.4709982271712
 31
0.0
  0
LINE
  5
16D
330
1F
100
AcDbEntity
  8
0
 62
     2
100
AcDbLine
 10
144.0359670242398
 20
193.2515628370099
 30
0.0
 11
144.4709341213743
 21
192.3815610661091
 31
0.0
  0
ARC
  5
16E
330
1F
100
AcDbEntity
  8
0
 62
     2
100
AcDbCircle
 10
144.5726316755728
 20
193.5198743201962
 30
0.0
 40
0.3999999999999914
100
AcDbArc
 50
90.00000000003257
 51
206.5632709894655
  0
ARC
  5
16F
330
1F
100
AcDbEntity
  8
0
 62
     2
100
AcDbCircle
 10
144.5726316755728
 20
193.5198743201962
 30
0.0
 40
0.6000000000000001
100
AcDbArc
 50
90.00000000003257
 51
206.5632709894649
  0
LINE
  5
170
330
1F
100
AcDbEntity
  8
0
 62
     2
100
AcDbLine
 10
153.8753076489969
 20
193.9198743202019
 30
0.0
 11
144.5726316755725
 21
193.9198743201962
 31
0.0
  0
LINE
  5
171
330
1F
100
AcDbEntity
  8
0
 62
     2
100
AcDbLine
 10
154.0753076489946
 20
194.1198743202019
 30
0.0
 11
144.5726316755724
 21
194.1198743201962
 31
0.0
  0
LINE
  5
172
330
1F
100
AcDbEntity
  8
0
 62
     2
100
AcDbLine
 10
178.8753074232378
 20
159.6172071876607
 30
0.0
 11
178.8753074232586
 21
168.919880697793
 31
0.0
  0
LINE
  5
173
330
1F
100
AcDbEntity
  8
0
 62
     2
100
AcDbLine
 10
179.0753074232378
 20
159.6172071876603
 30
0.0
 11
179.0753074232589
 21
169.1198806977945
 31
0.0
  0
ARC
  5
174
330
1F
100
AcDbEntity
  8
0
 62
     2
100
AcDbCircle
 10
178.4753074232378
 20
159.6172071876616
 30
0.0
 40
0.3999999999999891
100
AcDbArc
 50
243.4368872240111
 51
359.9999999999987
  0
ARC
  5
175
330
1F
100
AcDbEntity
  8
0
 62
     2
100
AcDbCircle
 10
178.4753074232378
 20
159.6172071876616
 30
0.0
 40
0.6000000000000014
100
AcDbArc
 50
243.4368872240129
 51
0.0000000000004071
  0
LINE
  5
176
330
1F
100
AcDbEntity
  8
0
 62
     2
100
AcDbLine
 10
177.4264274113778
 20
159.6943968069501
 30
0.0
 11
178.2964340890605
 21
159.2594302595062
 31
0.0
  0
LINE
  5
177
330
1F
100
AcDbEntity
  8
0
 62
     2
100
AcDbLine
 10
177.3369907442887
 20
159.5155083428727
 30
0.0
 11
178.2069974219713
 21
159.0805417954288
 31
0.0
  0
ARC
  5
178
330
1F
100
AcDbEntity
  8
0
 62
     2
100
AcDbCircle
 10
177.1133990765656
 20
159.0682871826792
 30
0.0
 40
0.7000000000000003
100
AcDbArc
 50
63.43688722408986
 51
111.1522912107356
  0
ARC
  5
179
330
1F
100
AcDbEntity
  8
0
 62
     2
100
AcDbCircle
 10
177.1133990765656
 20
159.0682871826792
 30
0.0
 40
0.5000000000000004
100
AcDbArc
 50
63.43688722409007
 51
111.1522819906403
  0
ARC
  5
17A
330
1F
100
AcDbEntity
  8
0
 62
     2
100
AcDbCircle
 10
177.9253070126246
 20
156.9698817158154
 30
0.0
 40
2.949999999999844
100
AcDbArc
 50
111.1522848275572
 51
158.8477665934232
  0
ARC
  5
17B
330
1F
100
AcDbEntity
  8
0
 62
     2
100
AcDbCircle
 10
177.9253070126246
 20
156.9698817158154
 30
0.0
 40
2.749999999999848
100
AcDbArc
 50
111.1522848275573
 51
158.8477620411344
  0
ARC
  5
17C
330
1F
100
AcDbEntity
  8
0
 62
     2
100
AcDbCircle
 10
175.8269008573027
 20
157.7817878725273
 30
0.0
 40
0.7000000000000094
100
AcDbArc
 50
158.8477665934228
 51
206.5632709870126
  0
ARC
  5
17D
330
1F
100
AcDbEntity
  8
0
 62
     2
100
AcDbCircle
 10
175.8269008573027
 20
157.7817878725273
 30
0.0
 40
0.4999999999999992
100
AcDbArc
 50
158.8477665934224
 51
206.5632709876514
  0
LINE
  5
17E
330
1F
100
AcDbEntity
  8
0
 62
     2
100
AcDbLine
 10
175.635759194411
 20
156.5987560381161
 30
0.0
 11
175.2007920973994
 21
157.4687578088398
 31
0.0
  0
LINE
  5
17F
330
1F
100
AcDbEntity
  8
0
 62
     2
100
AcDbLine
 10
175.8146474115248
 20
156.6881931991725
 30
0.0
 11
175.3796803145132
 21
157.5581949698962
 31
0.0
  0
ARC
  5
180
330
1F
100
AcDbEntity
  8
0
 62
     2
100
AcDbCircle
 10
175.2779827601833
 20
156.4198817160033
 30
0.0
 40
0.4000000000000076
100
AcDbArc
 50
270.0000000001262
 51
26.56327098764785
  0
ARC
  5
181
330
1F
100
AcDbEntity
  8
0
 62
     2
100
AcDbCircle
 10
175.2779827601833
 20
156.4198817160033
 30
0.0
 40
0.599999999999999
100
AcDbArc
 50
270.0000000001302
 51
26.56327098765177
  0
LINE
  5
182
330
1F
100
AcDbEntity
  8
0
 62
     2
100
AcDbLine
 10
165.9753073961715
 20
156.0198817159824
 30
0.0
 11
175.2779827601842
 21
156.0198817160033
 31
0.0
  0
LINE
  5
183
330
1F
100
AcDbEntity
  8
0
 62
     2
100
AcDbLine
 10
165.7753073961738
 20
155.819881715982
 30
0.0
 11
175.2779827601846
 21
155.8198817160032
 31
0.0
  0
LINE
  5
184
330
1F
100
AcDbEntity
  8
0
 62
     2
100
AcDbLine
 10
178.8753074232622
 20
173.9198806977881
 30
0.0
 11
178.8753074232666
 21
176.0198809506701
 31
0.0
  0
LINE
  5
185
330
1F
100
AcDbEntity
  8
0
 62
     2
100
AcDbLine
 10
179.0753074232618
 20
173.7198806977823
 30
0.0
 11
179.0753074232671
 21
176.2198809506712
 31
0.0
  0
LINE
  5
186
330
1F
100
AcDbEntity
  8
0
 62
     2
100
AcDbLine
 10
175.2779815407028
 20
193.9198743201929
 30
0.0
 11
165.9753073961476
 21
193.9198743201886
 31
0.0
  0
LINE
  5
187
330
1F
100
AcDbEntity
  8
0
 62
     2
100
AcDbLine
 10
175.2779815407027
 20
194.1198743201928
 30
0.0
 11
165.7753073961489
 21
194.1198743201885
 31
0.0
  0
ARC
  5
188
330
1F
100
AcDbEntity
  8
0
 62
     2
100
AcDbCircle
 10
175.277981540703
 20
193.5198743201929
 30
0.0
 40
0.3999999999999916
100
AcDbArc
 50
333.4368872242168
 51
90.00000000002586
  0
ARC
  5
189
330
1F
100
AcDbEntity
  8
0
 62
     2
100
AcDbCircle
 10
175.277981540703
 20
193.5198743201929
 30
0.0
 40
0.6000000000000014
100
AcDbArc
 50
333.4368872242192
 51
90.0000000000281
  0
LINE
  5
18A
330
1F
100
AcDbEntity
  8
0
 62
     2
100
AcDbLine
 10
175.2007923321255
 20
192.4709951298196
 30
0.0
 11
175.6357584688582
 21
193.3410009860153
 31
0.0
  0
LINE
  5
18B
330
1F
100
AcDbEntity
  8
0
 62
     2
100
AcDbLine
 10
175.3796807962031
 20
192.3815584627307
 30
0.0
 11
175.8146469329359
 21
193.2515643189265
 31
0.0
  0
ARC
  5
18C
330
1F
100
AcDbEntity
  8
0
 62
     2
100
AcDbCircle
 10
175.8269019563972
 20
192.1579667950087
 30
0.0
 40
0.6999999999999846
100
AcDbArc
 50
153.4368872242241
 51
201.1522912107667
  0
ARC
  5
18D
330
1F
100
AcDbEntity
  8
0
 62
     2
100
AcDbCircle
 10
175.8269019563972
 20
192.1579667950087
 30
0.0
 40
0.4999999999999998
100
AcDbArc
 50
153.4368872242241
 51
201.152281990638
  0
ARC
  5
18E
330
1F
100
AcDbEntity
  8
0
 62
     2
100
AcDbCircle
 10
177.9253074232611
 20
192.9698747310676
 30
0.0
 40
2.950000000000013
100
AcDbArc
 50
201.1522848275991
 51
248.8477665934074
  0
ARC
  5
18F
330
1F
100
AcDbEntity
  8
0
 62
     2
100
AcDbCircle
 10
177.9253074232611
 20
192.9698747310676
 30
0.0
 40
2.750000000000008
100
AcDbArc
 50
201.1522848275993
 51
248.8477620411253
  0
ARC
  5
190
330
1F
100
AcDbEntity
  8
0
 62
     2
100
AcDbCircle
 10
177.1134012665487
 20
190.8714685757459
 30
0.0
 40
0.7000000000000028
100
AcDbArc
 50
248.8477665934081
 51
296.5632709873383
  0
ARC
  5
191
330
1F
100
AcDbEntity
  8
0
 62
     2
100
AcDbCircle
 10
177.1134012665487
 20
190.8714685757459
 30
0.0
 40
0.499999999999999
100
AcDbArc
 50
248.8477665934079
 51
296.5632709882676
  0
LINE
  5
192
330
1F
100
AcDbEntity
  8
0
 62
     2
100
AcDbLine
 10
178.2964331011527
 20
190.6803269129621
 30
0.0
 11
177.4264313302384
 21
190.2453598158435
 31
0.0
  0
LINE
  5
193
330
1F
100
AcDbEntity
  8
0
 62
     2
100
AcDbLine
 10
178.2069959400943
 20
190.859215130075
 30
0.0
 11
177.3369941691799
 21
190.4242480329564
 31
0.0
  0
ARC
  5
194
330
1F
100
AcDbEntity
  8
0
 62
     2
100
AcDbCircle
 10
178.4753074232694
 20
190.3225504787364
 30
0.0
 40
0.399999999999985
100
AcDbArc
 50
0.0
 51
116.5632709882698
  0
ARC
  5
195
330
1F
100
AcDbEntity
  8
0
 62
     2
100
AcDbCircle
 10
178.4753074232694
 20
190.3225504787364
 30
0.0
 40
0.6000000000000004
100
AcDbArc
 50
0.0
 51
116.5632709882714
  0
LINE
  5
196
330
1F
100
AcDbEntity
  8
0
 62
     2
100
AcDbLine
 10
178.8753074232678
 20
181.0198809507017
 30
0.0
 11
178.8753074232694
 21
190.3225504787363
 31
0.0
  0
LINE
  5
197
330
1F
100
AcDbEntity
  8
0
 62
     2
100
AcDbLine
 10
179.0753074232678
 20
180.8198809507054
 30
0.0
 11
179.0753074232694
 21
190.3225504787363
 31
0.0
  0
LINE
  5
198
330
1F
100
AcDbEntity
  8
0
 62
     2
100
AcDbLine
 10
166.6753073815831
 20
192.1198780100096
 30
0.0
 11
166.6753073815512
 21
191.4198817077465
 31
0.0
  0
ARC
  5
199
330
1F
100
AcDbEntity
  8
0
 62
     2
100
AcDbCircle
 10
167.6753073815831
 20
192.1198780100095
 30
0.0
 40
1.0
100
AcDbArc
 50
89.99999999999675
 51
179.9999999972162
  0
LINE
  5
19A
330
1F
100
AcDbEntity
  8
0
 62
     2
100
AcDbLine
 10
173.7087653477869
 20
193.1198780100373
 30
0.0
 11
167.6753073815831
 21
193.1198780100095
 31
0.0
  0
ARC
  5
19B
330
1F
100
AcDbEntity
  8
0
 62
     2
100
AcDbCircle
 10
173.7087653477843
 20
192.1198780100373
 30
0.0
 40
1.0
100
AcDbArc
 50
13.83522361361285
 51
89.99999999984998
  0
ARC
  5
19C
330
1F
100
AcDbEntity
  8
0
 62
     2
100
AcDbCircle
 10
178.1753076346179
 20
193.2198780100034
 30
0.0
 40
3.599999999999979
100
AcDbArc
 50
193.8352236135626
 51
256.164776384756
  0
ARC
  5
19D
330
1F
100
AcDbEntity
  8
0
 62
     2
100
AcDbCircle
 10
177.0753076345239
 20
188.7533357232012
 30
0.0
 40
0.9999999999999756
100
AcDbArc
 50
0.0
 51
76.16477638475322
  0
LINE
  5
19E
330
1F
100
AcDbEntity
  8
0
 62
     2
100
AcDbLine
 10
178.0753076345889
 20
182.7198852778581
 30
0.0
 11
178.0753076345239
 21
188.7533357232195
 31
0.0
  0
ARC
  5
19F
330
1F
100
AcDbEntity
  8
0
 62
     2
100
AcDbCircle
 10
177.0753076345882
 20
182.7198852778442
 30
0.0
 40
1.0
100
AcDbArc
 50
269.9999999998827
 51
0.0
  0
LINE
  5
1A0
330
1F
100
AcDbEntity
  8
0
 62
     2
100
AcDbLine
 10
176.3753074936705
 20
181.7198852778446
 30
0.0
 11
177.0753076345863
 21
181.7198852778447
 31
0.0
  0
LINE
  5
1A1
330
1F
100
AcDbEntity
  8
0
 62
     2
100
AcDbLine
 10
142.7753073527553
 20
181.7198852778452
 30
0.0
 11
144.4753074936707
 21
181.7198852778449
 31
0.0
  0
ARC
  5
1A2
330
1F
100
AcDbEntity
  8
0
 62
     2
100
AcDbCircle
 10
142.7753073527533
 20
182.7198852778446
 30
0.0
 40
1.0
100
AcDbArc
 50
180.0
 51
270.0000000009119
  0
LINE
  5
1A3
330
1F
100
AcDbEntity
  8
0
 62
     2
100
AcDbLine
 10
141.7753073528179
 20
188.7533357232199
 30
0.0
 11
141.7753073527526
 21
182.7198852778586
 31
0.0
  0
ARC
  5
1A4
330
1F
100
AcDbEntity
  8
0
 62
     2
100
AcDbCircle
 10
142.7753073528179
 20
188.7533357232016
 30
0.0
 40
1.0
100
AcDbArc
 50
103.8352236152499
 51
180.000000000004
  0
ARC
  5
1A5
330
1F
100
AcDbEntity
  8
0
 62
     2
100
AcDbCircle
 10
141.6753073527238
 20
193.2198780100039
 30
0.0
 40
3.599999999999964
100
AcDbArc
 50
283.8352236152454
 51
346.1647763864388
  0
ARC
  5
1A6
330
1F
100
AcDbEntity
  8
0
 62
     2
100
AcDbCircle
 10
146.1418496395576
 20
192.1198780100376
 30
0.0
 40
0.999999999999979
100
AcDbArc
 50
90.00000000014983
 51
166.164776386387
  0
LINE
  5
1A7
330
1F
100
AcDbEntity
  8
0
 62
     2
100
AcDbLine
 10
152.1753076057587
 20
193.1198780100097
 30
0.0
 11
146.1418496395549
 21
193.1198780100376
 31
0.0
  0
ARC
  5
1A8
330
1F
100
AcDbEntity
  8
0
 62
     2
100
AcDbCircle
 10
152.1753076057587
 20
192.1198780100097
 30
0.0
 40
1.0
100
AcDbArc
 50
0.0
 51
89.99999999721943
  0
LINE
  5
1A9
330
1F
100
AcDbEntity
  8
0
 62
     2
100
AcDbLine
 10
153.1753076057906
 20
191.4198817077466
 30
0.0
 11
153.1753076057587
 21
192.1198780100098
 31
0.0
  0
LINE
  5
1AA
330
1F
100
AcDbEntity
  8
0
 62
     2
100
AcDbLine
 10
153.1753076057587
 20
157.8198854055746
 30
0.0
 11
153.1753076057906
 21
158.5198817078377
 31
0.0
  0
ARC
  5
1AB
330
1F
100
AcDbEntity
  8
0
 62
     2
100
AcDbCircle
 10
152.1753076057587
 20
157.8198854055747
 30
0.0
 40
1.0
100
AcDbArc
 50
269.9999999999984
 51
359.9999999999992
  0
LINE
  5
1AC
330
1F
100
AcDbEntity
  8
0
 62
     2
100
AcDbLine
 10
146.1418496395549
 20
156.8198854055468
 30
0.0
 11
152.1753076057587
 21
156.8198854055747
 31
0.0
  0
ARC
  5
1AD
330
1F
100
AcDbEntity
  8
0
 62
     2
100
AcDbCircle
 10
146.1418496395576
 20
157.8198854055468
 30
0.0
 40
1.0
100
AcDbArc
 50
193.8352236136128
 51
269.99999999985
  0
ARC
  5
1AE
330
1F
100
AcDbEntity
  8
0
 62
     2
100
AcDbCircle
 10
141.6753073527238
 20
156.7198854055805
 30
0.0
 40
3.600000000000007
100
AcDbArc
 50
13.83522361356292
 51
76.16477638475631
  0
ARC
  5
1AF
330
1F
100
AcDbEntity
  8
0
 62
     2
100
AcDbCircle
 10
142.7753073528179
 20
161.1864276923828
 30
0.0
 40
0.9999999999999756
100
AcDbArc
 50
180.0
 51
256.1647763847539
  0
LINE
  5
1B0
330
1F
100
AcDbEntity
  8
0
 62
     2
100
AcDbLine
 10
141.7753073527526
 20
167.2198781377258
 30
0.0
 11
141.7753073528179
 21
161.1864276923644
 31
0.0
  0
ARC
  5
1B1
330
1F
100
AcDbEntity
  8
0
 62
     2
100
AcDbCircle
 10
142.7753073527533
 20
167.2198781377398
 30
0.0
 40
1.0
100
AcDbArc
 50
89.99999999988601
 51
180.0000000007979
  0
LINE
  5
1B2
330
1F
100
AcDbEntity
  8
0
 62
     2
100
AcDbLine
 10
144.4753074936706
 20
168.2198781377395
 30
0.0
 11
142.7753073527553
 21
168.2198781377392
 31
0.0
  0
ARC
  5
1B3
330
1F
100
AcDbEntity
  8
0
 62
     2
100
AcDbCircle
 10
177.0753076345707
 20
165.7198855306959
 30
0.0
 40
1.0
100
AcDbArc
 50
0.0
 51
90.00000000001629
  0
LINE
  5
1B4
330
1F
100
AcDbEntity
  8
0
 62
     2
100
AcDbLine
 10
178.075307634523
 20
161.186427692364
 30
0.0
 11
178.0753076345707
 21
165.7198855306959
 31
0.0
  0
ARC
  5
1B5
330
1F
100
AcDbEntity
  8
0
 62
     2
100
AcDbCircle
 10
177.075307634523
 20
161.1864276923824
 30
0.0
 40
1.0
100
AcDbArc
 50
283.8352236152464
 51
0.0000000000003562
  0
ARC
  5
1B6
330
1F
100
AcDbEntity
  8
0
 62
     2
100
AcDbCircle
 10
178.175307634617
 20
156.71988540558
 30
0.0
 40
3.599999999999991
100
AcDbArc
 50
103.8352236152434
 51
166.1647763864367
  0
ARC
  5
1B7
330
1F
100
AcDbEntity
  8
0
 62
     2
100
AcDbCircle
 10
173.7087653477834
 20
157.8198854055464
 30
0.0
 40
0.999999999999979
100
AcDbArc
 50
270.0000000001498
 51
346.164776386387
  0
LINE
  5
1B8
330
1F
100
AcDbEntity
  8
0
 62
     2
100
AcDbLine
 10
167.6753073815822
 20
156.8198854055745
 30
0.0
 11
173.708765347786
 21
156.8198854055464
 31
0.0
  0
ARC
  5
1B9
330
1F
100
AcDbEntity
  8
0
 62
     2
100
AcDbCircle
 10
167.6753073815822
 20
157.8198854055745
 30
0.0
 40
1.0
100
AcDbArc
 50
180.0
 51
269.9999999972194
  0
LINE
  5
1BA
330
1F
100
AcDbEntity
  8
0
 62
     2
100
AcDbLine
 10
166.6753073815503
 20
158.5198817078377
 30
0.0
 11
166.6753073815822
 21
157.8198854055745
 31
0.0
  0
LINE
  5
1BB
330
1F
100
AcDbEntity
  8
0
 62
     2
100
AcDbLine
 10
177.0753076345707
 20
166.7198855306959
 30
0.0
 11
176.3753074936616
 21
166.7198855307022
 31
0.0
  0
LINE
  5
1BC
330
1F
100
AcDbEntity
  8
0
 62
     2
100
AcDbLine
 10
175.3753074936707
 20
167.7198855307022
 30
0.0
 11
175.3753074936707
 21
180.7198852778446
 31
0.0
  0
LINE
  5
1BD
330
1F
100
AcDbEntity
  8
0
 62
     2
100
AcDbLine
 10
165.6753073815512
 20
190.4198817077921
 30
0.0
 11
154.1753076057906
 21
190.4198817077922
 31
0.0
  0
LINE
  5
1BE
330
1F
100
AcDbEntity
  8
0
 62
     2
100
AcDbLine
 10
144.4753074936707
 20
181.7198852778449
 30
0.0
 11
144.4753074936706
 21
168.2198781377395
 31
0.0
  0
LINE
  5
1BF
330
1F
100
AcDbEntity
  8
0
 62
     2
100
AcDbLine
 10
154.1753076057906
 20
159.5198817077921
 30
0.0
 11
165.6753073815503
 21
159.5198817077921
 31
0.0
  0
LINE
  5
1C0
330
1F
100
AcDbEntity
  8
0
 62
     2
100
AcDbLine
 10
140.9753074232628
 20
176.0198808964767
 30
0.0
 11
140.9753074232468
 21
173.9198811493443
 31
0.0
  0
LINE
  5
1C1
330
1F
100
AcDbEntity
  8
0
 62
     2
100
AcDbLine
 10
140.7753074232643
 20
176.2198808964756
 30
0.0
 11
140.7753074232452
 21
173.7198811493442
 31
0.0
  0
LINE
  5
1C2
330
1F
100
AcDbEntity
  8
0
 62
     2
100
AcDbLine
 10
160.9753073961909
 20
193.9198743201841
 30
0.0
 11
158.8753076490286
 21
193.9198743201872
 31
0.0
  0
LINE
  5
1C3
330
1F
100
AcDbEntity
  8
0
 62
     2
100
AcDbLine
 10
161.175307396202
 20
194.1198743201838
 30
0.0
 11
158.6753076490316
 21
194.1198743201876
 31
0.0
  0
LINE
  5
1C4
330
1F
100
AcDbEntity
  8
0
 62
     2
100
AcDbLine
 10
158.8753076490315
 20
156.0198817159844
 30
0.0
 11
160.9753073961767
 21
156.0198817159837
 31
0.0
  0
LINE
  5
1C5
330
1F
100
AcDbEntity
  8
0
 62
     2
100
AcDbLine
 10
158.6753076490264
 20
155.8198817159845
 30
0.0
 11
161.1753073961816
 21
155.8198817159837
 31
0.0
  0
LINE
  5
1C6
330
1F
100
AcDbEntity
  8
0
 62
     2
100
AcDbLine
 10
165.9753073961601
 20
157.019881716309
 30
0.0
 11
165.9753073961715
 21
156.0198817159824
 31
0.0
  0
LINE
  5
1C7
330
1F
100
AcDbEntity
  8
0
 62
     2
100
AcDbLine
 10
164.9753073961601
 20
157.0198817162976
 30
0.0
 11
164.9753073961681
 21
156.3198817159756
 31
0.0
  0
ARC
  5
1C8
330
1F
100
AcDbEntity
  8
0
 62
     2
100
AcDbCircle
 10
163.9753073961601
 20
157.0198817162862
 30
0.0
 40
2.000000000000001
100
AcDbArc
 50
30.00000000037512
 51
90.00000000037522
  0
ARC
  5
1C9
330
1F
100
AcDbEntity
  8
0
 62
     2
100
AcDbCircle
 10
163.9753073961601
 20
157.0198817162862
 30
0.0
 40
2.000000000000001
100
AcDbArc
 50
0.0
 51
29.99999999972389
  0
LINE
  5
1CA
330
1F
100
AcDbEntity
  8
0
 62
     2
100
AcDbLine
 10
162.9753073961387
 20
159.0198817162797
 30
0.0
 11
163.975307396147
 21
159.0198817162862
 31
0.0
  0
LINE
  5
1CB
330
1F
100
AcDbEntity
  8
0
 62
     2
100
AcDbLine
 10
162.9753073961452
 20
158.0198817162797
 30
0.0
 11
163.9753073961536
 21
158.0198817162862
 31
0.0
  0
ARC
  5
1CC
330
1F
100
AcDbEntity
  8
0
 62
     2
100
AcDbCircle
 10
162.9753073961518
 20
157.0198817162797
 30
0.0
 40
2.0
100
AcDbArc
 50
120.0000000014242
 51
180.0000000014241
  0
ARC
  5
1CD
330
1F
100
AcDbEntity
  8
0
 62
     2
100
AcDbCircle
 10
162.9753073961518
 20
157.0198817162797
 30
0.0
 40
2.0
100
AcDbArc
 50
90.00000000037537
 51
120.0000000014241
  0
LINE
  5
1CE
330
1F
100
AcDbEntity
  8
0
 62
     2
100
AcDbLine
 10
160.9753073961767
 20
156.0198817159837
 30
0.0
 11
160.9753073961518
 21
157.01988171623
 31
0.0
  0
LINE
  5
1CF
330
1F
100
AcDbEntity
  8
0
 62
     2
100
AcDbLine
 10
161.9753073961692
 20
156.319881715996
 30
0.0
 11
161.9753073961518
 21
157.0198817162548
 31
0.0
  0
LINE
  5
1D0
330
1F
100
AcDbEntity
  8
0
 62
     2
100
AcDbLine
 10
158.8753076490572
 20
157.019881716232
 30
0.0
 11
158.8753076490315
 21
156.0198817159844
 31
0.0
  0
LINE
  5
1D1
330
1F
100
AcDbEntity
  8
0
 62
     2
100
AcDbLine
 10
157.8753076490572
 20
157.0198817162577
 30
0.0
 11
157.8753076490392
 21
156.3198817159974
 31
0.0
  0
ARC
  5
1D2
330
1F
100
AcDbEntity
  8
0
 62
     2
100
AcDbCircle
 10
156.8753076490572
 20
157.0198817162834
 30
0.0
 40
1.999999999999999
100
AcDbArc
 50
30.0000000000676
 51
90.00000000006803
  0
ARC
  5
1D3
330
1F
100
AcDbEntity
  8
0
 62
     2
100
AcDbCircle
 10
156.8753076490572
 20
157.0198817162834
 30
0.0
 40
1.999999999999999
100
AcDbArc
 50
0.0
 51
30.00000000006736
  0
LINE
  5
1D4
330
1F
100
AcDbEntity
  8
0
 62
     2
100
AcDbLine
 10
155.8753076490387
 20
159.0198817162822
 30
0.0
 11
156.8753076490548
 21
159.0198817162834
 31
0.0
  0
LINE
  5
1D5
330
1F
100
AcDbEntity
  8
0
 62
     2
100
AcDbLine
 10
155.8753076490399
 20
158.0198817162822
 30
0.0
 11
156.875307649056
 21
158.0198817162834
 31
0.0
  0
ARC
  5
1D6
330
1F
100
AcDbEntity
  8
0
 62
     2
100
AcDbCircle
 10
155.8753076490411
 20
157.0198817162822
 30
0.0
 40
2.000000000000003
100
AcDbArc
 50
120.0000000009533
 51
180.0000000009538
  0
ARC
  5
1D7
330
1F
100
AcDbEntity
  8
0
 62
     2
100
AcDbCircle
 10
155.8753076490411
 20
157.0198817162822
 30
0.0
 40
2.000000000000003
100
AcDbArc
 50
90.00000000006759
 51
120.0000000009533
  0
LINE
  5
1D8
330
1F
100
AcDbEntity
  8
0
 62
     2
100
AcDbLine
 10
153.8753076490577
 20
156.0198817159763
 30
0.0
 11
153.8753076490411
 21
157.019881716249
 31
0.0
  0
LINE
  5
1D9
330
1F
100
AcDbEntity
  8
0
 62
     2
100
AcDbLine
 10
154.8753076490527
 20
156.3198817159849
 30
0.0
 11
154.8753076490411
 21
157.0198817162656
 31
0.0
  0
LINE
  5
1DA
330
1F
100
AcDbEntity
  8
0
 62
     2
100
AcDbLine
 10
141.9753074254394
 20
168.9198811493633
 30
0.0
 11
140.9753074232747
 21
168.9198811493751
 31
0.0
  0
LINE
  5
1DB
330
1F
100
AcDbEntity
  8
0
 62
     2
100
AcDbLine
 10
141.9753074254511
 20
169.9198811493633
 30
0.0
 11
141.2753074232809
 21
169.9198811493716
 31
0.0
  0
ARC
  5
1DC
330
1F
100
AcDbEntity
  8
0
 62
     2
100
AcDbCircle
 10
141.975307425463
 20
170.9198811493633
 30
0.0
 40
2.000000000000004
100
AcDbArc
 50
299.9999999999997
 51
359.9999999999998
  0
ARC
  5
1DD
330
1F
100
AcDbEntity
  8
0
 62
     2
100
AcDbCircle
 10
141.975307425463
 20
170.9198811493633
 30
0.0
 40
2.000000000000004
100
AcDbArc
 50
269.999999999325
 51
300.0000000000001
  0
LINE
  5
1DE
330
1F
100
AcDbEntity
  8
0
 62
     2
100
AcDbLine
 10
143.975307425463
 20
171.9198811493443
 30
0.0
 11
143.975307425463
 21
170.9198811493633
 31
0.0
  0
LINE
  5
1DF
330
1F
100
AcDbEntity
  8
0
 62
     2
100
AcDbLine
 10
142.975307425463
 20
171.9198811493443
 30
0.0
 11
142.975307425463
 21
170.9198811493633
 31
0.0
  0
ARC
  5
1E0
330
1F
100
AcDbEntity
  8
0
 62
     2
100
AcDbCircle
 10
141.975307425463
 20
171.9198811493443
 30
0.0
 40
2.0
100
AcDbArc
 50
30.00000000000014
 51
89.99999999999994
  0
ARC
  5
1E1
330
1F
100
AcDbEntity
  8
0
 62
     2
100
AcDbCircle
 10
141.975307425463
 20
171.9198811493443
 30
0.0
 40
2.0
100
AcDbArc
 50
0.0
 51
30.0
  0
LINE
  5
1E2
330
1F
100
AcDbEntity
  8
0
 62
     2
100
AcDbLine
 10
140.9753074232468
 20
173.9198811493443
 30
0.0
 11
141.975307425463
 21
173.9198811493443
 31
0.0
  0
LINE
  5
1E3
330
1F
100
AcDbEntity
  8
0
 62
     2
100
AcDbLine
 10
141.2753074232429
 20
172.9198811493443
 30
0.0
 11
141.975307425463
 21
172.9198811493443
 31
0.0
  0
LINE
  5
1E4
330
1F
100
AcDbEntity
  8
0
 62
     2
100
AcDbLine
 10
141.9753074203628
 20
176.0198808964821
 30
0.0
 11
140.9753074232628
 21
176.0198808964767
 31
0.0
  0
LINE
  5
1E5
330
1F
100
AcDbEntity
  8
0
 62
     2
100
AcDbLine
 10
141.9753074203575
 20
177.0198808964821
 30
0.0
 11
141.275307423264
 21
177.0198808964783
 31
0.0
  0
ARC
  5
1E6
330
1F
100
AcDbEntity
  8
0
 62
     2
100
AcDbCircle
 10
141.9753074203522
 20
178.0198808964821
 30
0.0
 40
1.999999999999997
100
AcDbArc
 50
300.0000000000997
 51
359.9999999999999
  0
ARC
  5
1E7
330
1F
100
AcDbEntity
  8
0
 62
     2
100
AcDbCircle
 10
141.9753074203522
 20
178.0198808964821
 30
0.0
 40
1.999999999999997
100
AcDbArc
 50
270.0000000003053
 51
300.0000000001
  0
LINE
  5
1E8
330
1F
100
AcDbEntity
  8
0
 62
     2
100
AcDbLine
 10
143.9753074203505
 20
179.0198808964795
 30
0.0
 11
143.9753074203522
 21
178.0198808964855
 31
0.0
  0
LINE
  5
1E9
330
1F
100
AcDbEntity
  8
0
 62
     2
100
AcDbLine
 10
142.9753074203505
 20
179.0198808964778
 30
0.0
 11
142.9753074203522
 21
178.0198808964838
 31
0.0
  0
ARC
  5
1EA
330
1F
100
AcDbEntity
  8
0
 62
     2
100
AcDbCircle
 10
141.9753074203505
 20
179.019880896476
 30
0.0
 40
2.0
100
AcDbArc
 50
29.99999999972179
 51
89.99999999972167
  0
ARC
  5
1EB
330
1F
100
AcDbEntity
  8
0
 62
     2
100
AcDbCircle
 10
141.9753074203505
 20
179.019880896476
 30
0.0
 40
2.0
100
AcDbArc
 50
0.0
 51
29.99999999962186
  0
LINE
  5
1EC
330
1F
100
AcDbEntity
  8
0
 62
     2
100
AcDbLine
 10
140.9753074232547
 20
181.0198808964809
 30
0.0
 11
141.9753074203601
 21
181.019880896476
 31
0.0
  0
LINE
  5
1ED
330
1F
100
AcDbEntity
  8
0
 62
     2
100
AcDbLine
 10
141.2753074232525
 20
180.0198808964794
 30
0.0
 11
141.9753074203553
 21
180.019880896476
 31
0.0
  0
LINE
  5
1EE
330
1F
100
AcDbEntity
  8
0
 62
     2
100
AcDbLine
 10
160.975307396136
 20
192.919881716396
 30
0.0
 11
160.9753073961909
 21
193.9198743201841
 31
0.0
  0
LINE
  5
1EF
330
1F
100
AcDbEntity
  8
0
 62
     2
100
AcDbLine
 10
161.975307396136
 20
192.919881716341
 30
0.0
 11
161.9753073961745
 21
193.6198743201559
 31
0.0
  0
ARC
  5
1F0
330
1F
100
AcDbEntity
  8
0
 62
     2
100
AcDbCircle
 10
162.975307396136
 20
192.9198817162861
 30
0.0
 40
1.999999999999999
100
AcDbArc
 50
209.9999999996659
 51
269.9999999996662
  0
ARC
  5
1F1
330
1F
100
AcDbEntity
  8
0
 62
     2
100
AcDbCircle
 10
162.975307396136
 20
192.9198817162861
 30
0.0
 40
1.999999999999999
100
AcDbArc
 50
180.0
 51
210.0000000028159
  0
LINE
  5
1F2
330
1F
100
AcDbEntity
  8
0
 62
     2
100
AcDbLine
 10
163.9753073961294
 20
190.9198817162802
 30
0.0
 11
162.9753073961243
 21
190.9198817162861
 31
0.0
  0
LINE
  5
1F3
330
1F
100
AcDbEntity
  8
0
 62
     2
100
AcDbLine
 10
163.9753073961352
 20
191.9198817162802
 30
0.0
 11
162.9753073961301
 21
191.9198817162861
 31
0.0
  0
ARC
  5
1F4
330
1F
100
AcDbEntity
  8
0
 62
     2
100
AcDbCircle
 10
163.975307396141
 20
192.9198817162802
 30
0.0
 40
2.000000000000001
100
AcDbArc
 50
299.9999999996265
 51
359.9999999999998
  0
ARC
  5
1F5
330
1F
100
AcDbEntity
  8
0
 62
     2
100
AcDbCircle
 10
163.975307396141
 20
192.9198817162802
 30
0.0
 40
2.000000000000001
100
AcDbArc
 50
269.9999999996662
 51
299.9999999996269
  0
LINE
  5
1F6
330
1F
100
AcDbEntity
  8
0
 62
     2
100
AcDbLine
 10
165.9753073961476
 20
193.9198743201886
 30
0.0
 11
165.975307396141
 21
192.9198817162672
 31
0.0
  0
LINE
  5
1F7
330
1F
100
AcDbEntity
  8
0
 62
     2
100
AcDbLine
 10
164.9753073961456
 20
193.6198743201916
 30
0.0
 11
164.975307396141
 21
192.9198817162737
 31
0.0
  0
LINE
  5
1F8
330
1F
100
AcDbEntity
  8
0
 62
     2
100
AcDbLine
 10
153.8753076490081
 20
192.9198817162431
 30
0.0
 11
153.8753076489969
 21
193.9198743202019
 31
0.0
  0
LINE
  5
1F9
330
1F
100
AcDbEntity
  8
0
 62
     2
100
AcDbLine
 10
154.8753076490081
 20
192.9198817162544
 30
0.0
 11
154.8753076490003
 21
193.6198743202077
 31
0.0
  0
ARC
  5
1FA
330
1F
100
AcDbEntity
  8
0
 62
     2
100
AcDbCircle
 10
155.8753076490081
 20
192.9198817162656
 30
0.0
 40
2.0
100
AcDbArc
 50
210.0000000008143
 51
270.000000000815
  0
ARC
  5
1FB
330
1F
100
AcDbEntity
  8
0
 62
     2
100
AcDbCircle
 10
155.8753076490081
 20
192.9198817162656
 30
0.0
 40
2.0
100
AcDbArc
 50
180.0
 51
210.0000000001719
  0
LINE
  5
1FC
330
1F
100
AcDbEntity
  8
0
 62
     2
100
AcDbLine
 10
156.8753076490422
 20
190.9198817162799
 30
0.0
 11
155.8753076490365
 21
190.9198817162656
 31
0.0
  0
LINE
  5
1FD
330
1F
100
AcDbEntity
  8
0
 62
     2
100
AcDbLine
 10
156.8753076490279
 20
191.9198817162799
 30
0.0
 11
155.8753076490223
 21
191.9198817162656
 31
0.0
  0
ARC
  5
1FE
330
1F
100
AcDbEntity
  8
0
 62
     2
100
AcDbCircle
 10
156.8753076490137
 20
192.9198817162799
 30
0.0
 40
2.0
100
AcDbArc
 50
299.9999999991472
 51
359.9999999999999
  0
ARC
  5
1FF
330
1F
100
AcDbEntity
  8
0
 62
     2
100
AcDbCircle
 10
156.8753076490137
 20
192.9198817162799
 30
0.0
 40
2.0
100
AcDbArc
 50
270.0000000008142
 51
299.9999999991473
  0
LINE
  5
200
330
1F
100
AcDbEntity
  8
0
 62
     2
100
AcDbLine
 10
158.8753076490286
 20
193.9198743201873
 30
0.0
 11
158.8753076490137
 21
192.9198817162501
 31
0.0
  0
LINE
  5
201
330
1F
100
AcDbEntity
  8
0
 62
     2
100
AcDbLine
 10
157.8753076490241
 20
193.6198743201954
 30
0.0
 11
157.8753076490137
 21
192.919881716265
 31
0.0
  0
LINE
  5
202
330
1F
100
AcDbEntity
  8
0
 62
     2
100
AcDbLine
 10
177.8753074203076
 20
181.0198809506828
 30
0.0
 11
178.8753074232678
 21
181.0198809507017
 31
0.0
  0
LINE
  5
203
330
1F
100
AcDbEntity
  8
0
 62
     2
100
AcDbLine
 10
177.8753074203265
 20
180.0198809506828
 30
0.0
 11
178.5753074232771
 21
180.019880950696
 31
0.0
  0
ARC
  5
204
330
1F
100
AcDbEntity
  8
0
 62
     2
100
AcDbCircle
 10
177.8753074203452
 20
179.0198809506828
 30
0.0
 40
1.999999999999996
100
AcDbArc
 50
120.0000000003281
 51
180.0000000003286
  0
ARC
  5
205
330
1F
100
AcDbEntity
  8
0
 62
     2
100
AcDbCircle
 10
177.8753074203452
 20
179.0198809506828
 30
0.0
 40
1.999999999999996
100
AcDbArc
 50
90.00000000107804
 51
120.0000000003281
  0
LINE
  5
206
330
1F
100
AcDbEntity
  8
0
 62
     2
100
AcDbLine
 10
175.875307420351
 20
178.0198809506533
 30
0.0
 11
175.8753074203452
 21
179.0198809506714
 31
0.0
  0
LINE
  5
207
330
1F
100
AcDbEntity
  8
0
 62
     2
100
AcDbLine
 10
176.875307420351
 20
178.019880950659
 30
0.0
 11
176.8753074203452
 21
179.0198809506771
 31
0.0
  0
ARC
  5
208
330
1F
100
AcDbEntity
  8
0
 62
     2
100
AcDbCircle
 10
177.875307420351
 20
178.0198809506647
 30
0.0
 40
1.999999999999999
100
AcDbArc
 50
210.0000000003084
 51
270.0000000003082
  0
ARC
  5
209
330
1F
100
AcDbEntity
  8
0
 62
     2
100
AcDbCircle
 10
177.875307420351
 20
178.0198809506647
 30
0.0
 40
1.999999999999999
100
AcDbArc
 50
180.0
 51
209.9999999999803
  0
LINE
  5
20A
330
1F
100
AcDbEntity
  8
0
 62
     2
100
AcDbLine
 10
178.8753074232666
 20
176.0198809506701
 30
0.0
 11
177.8753074203617
 21
176.0198809506647
 31
0.0
  0
LINE
  5
20B
330
1F
100
AcDbEntity
  8
0
 62
     2
100
AcDbLine
 10
178.5753074232651
 20
177.0198809506685
 30
0.0
 11
177.8753074203564
 21
177.0198809506647
 31
0.0
  0
LINE
  5
20C
330
1F
100
AcDbEntity
  8
0
 62
     2
100
AcDbLine
 10
177.8753074255142
 20
173.9198806978173
 30
0.0
 11
178.8753074232623
 21
173.9198806977881
 31
0.0
  0
LINE
  5
20D
330
1F
100
AcDbEntity
  8
0
 62
     2
100
AcDbLine
 10
177.8753074254851
 20
172.9198806978173
 30
0.0
 11
178.5753074232466
 21
172.9198806977969
 31
0.0
  0
ARC
  5
20E
330
1F
100
AcDbEntity
  8
0
 62
     2
100
AcDbCircle
 10
177.8753074254558
 20
171.9198806978173
 30
0.0
 40
1.999999999999998
100
AcDbArc
 50
120.0000000003693
 51
180.0000000003699
  0
ARC
  5
20F
330
1F
100
AcDbEntity
  8
0
 62
     2
100
AcDbCircle
 10
177.8753074254558
 20
171.9198806978173
 30
0.0
 40
1.999999999999998
100
AcDbArc
 50
89.99999999832758
 51
120.0000000003693
  0
LINE
  5
210
330
1F
100
AcDbEntity
  8
0
 62
     2
100
AcDbLine
 10
175.8753074254623
 20
170.9198806977729
 30
0.0
 11
175.8753074254558
 21
171.9198806978045
 31
0.0
  0
LINE
  5
211
330
1F
100
AcDbEntity
  8
0
 62
     2
100
AcDbLine
 10
176.8753074254623
 20
170.9198806977793
 30
0.0
 11
176.8753074254558
 21
171.9198806978109
 31
0.0
  0
ARC
  5
212
330
1F
100
AcDbEntity
  8
0
 62
     2
100
AcDbCircle
 10
177.8753074254623
 20
170.9198806977857
 30
0.0
 40
1.999999999999999
100
AcDbArc
 50
210.0000000004174
 51
270.0000000004169
  0
ARC
  5
213
330
1F
100
AcDbEntity
  8
0
 62
     2
100
AcDbCircle
 10
177.8753074254623
 20
170.9198806977857
 30
0.0
 40
1.999999999999999
100
AcDbArc
 50
180.0
 51
210.0000000000485
  0
LINE
  5
214
330
1F
100
AcDbEntity
  8
0
 62
     2
100
AcDbLine
 10
178.8753074232586
 20
168.919880697793
 30
0.0
 11
177.8753074254769
 21
168.9198806977857
 31
0.0
  0
LINE
  5
215
330
1F
100
AcDbEntity
  8
0
 62
     2
100
AcDbLine
 10
178.575307423256
 20
169.9198806977909
 30
0.0
 11
177.8753074254697
 21
169.9198806977857
 31
0.0
  0
LINE
  5
216
330
1F
100
AcDbEntity
  8
0
 62
     2
100
AcDbLine
 10
179.0753074232677
 20
180.5198809506959
 30
0.0
 11
179.0753074232676
 21
180.0198808962958
 31
0.0
  0
LINE
  5
217
330
1F
100
AcDbEntity
  8
0
 62
     2
100
AcDbLine
 10
179.0753074232687
 20
177.0198809506712
 30
0.0
 11
179.0753074232677
 21
176.5198809506675
 31
0.0
  0
LINE
  5
218
330
1F
100
AcDbEntity
  8
0
 62
     2
100
AcDbLine
 10
164.9753073961488
 20
194.1198743201881
 30
0.0
 11
165.4753073961454
 21
194.1198743201883
 31
0.0
  0
LINE
  5
219
330
1F
100
AcDbEntity
  8
0
 62
     2
100
AcDbLine
 10
161.4753073961752
 20
194.1198743201834
 30
0.0
 11
161.9753073952296
 21
194.1198743201826
 31
0.0
  0
LINE
  5
21A
330
1F
100
AcDbEntity
  8
0
 62
     2
100
AcDbLine
 10
157.8753076490316
 20
194.1198743201887
 30
0.0
 11
158.3753076490249
 21
194.119874320188
 31
0.0
  0
LINE
  5
21B
330
1F
100
AcDbEntity
  8
0
 62
     2
100
AcDbLine
 10
154.3753076489999
 20
194.1198743202021
 30
0.0
 11
154.8753076489946
 21
194.1198743202025
 31
0.0
  0
LINE
  5
21C
330
1F
100
AcDbEntity
  8
0
 62
     2
100
AcDbLine
 10
140.7753074232552
 20
180.0198808964819
 30
0.0
 11
140.775307423255
 21
180.5198808964792
 31
0.0
  0
LINE
  5
21D
330
1F
100
AcDbEntity
  8
0
 62
     2
100
AcDbLine
 10
140.7753074232667
 20
176.5198808964822
 30
0.0
 11
140.7753074232705
 21
177.0198809504653
 31
0.0
  0
LINE
  5
21E
330
1F
100
AcDbEntity
  8
0
 62
     2
100
AcDbLine
 10
140.7753074232391
 20
172.9198811493443
 30
0.0
 11
140.7753074232429
 21
173.4198811493481
 31
0.0
  0
LINE
  5
21F
330
1F
100
AcDbEntity
  8
0
 62
     2
100
AcDbLine
 10
140.775307423275
 20
169.4198811493718
 30
0.0
 11
140.7753074232753
 21
169.9198811493775
 31
0.0
  0
LINE
  5
220
330
1F
100
AcDbEntity
  8
0
 62
     2
100
AcDbLine
 10
179.0753074232612
 20
173.4198806977959
 30
0.0
 11
179.0753074232601
 21
172.9198811493443
 31
0.0
  0
LINE
  5
221
330
1F
100
AcDbEntity
  8
0
 62
     2
100
AcDbLine
 10
179.0753074232608
 20
169.9198806977945
 30
0.0
 11
179.0753074232596
 21
169.4198806977897
 31
0.0
  0
LINE
  5
222
330
1F
100
AcDbEntity
  8
0
 62
     2
100
AcDbLine
 10
154.875307649061
 20
155.8198817159767
 30
0.0
 11
154.3753076490529
 21
155.8198817159765
 31
0.0
  0
LINE
  5
223
330
1F
100
AcDbEntity
  8
0
 62
     2
100
AcDbLine
 10
165.4753073961692
 20
155.8198817159813
 30
0.0
 11
164.9753073958995
 21
155.8198817159802
 31
0.0
  0
LINE
  5
224
330
1F
100
AcDbEntity
  8
0
 62
     2
100
AcDbLine
 10
158.375307649039
 20
155.8198817159846
 30
0.0
 11
157.8753076484616
 21
155.8198817159847
 31
0.0
  0
LINE
  5
225
330
1F
100
AcDbEntity
  8
0
 62
     2
100
AcDbLine
 10
161.9753073961816
 20
155.8198817159834
 30
0.0
 11
161.4753073961691
 21
155.8198817159836
 31
0.0
  0
LINE
  5
226
330
1F
100
AcDbEntity
  8
0
 62
     2
100
AcDbLine
 10
154.8753077582967
 20
194.1198817760139
 30
0.0
 11
157.8753076490316
 21
194.1198817760139
 31
0.0
  0
LINE
  5
227
330
1F
100
AcDbEntity
  8
0
 62
     2
100
AcDbLine
 10
161.9753073952296
 20
194.119881781107
 30
0.0
 11
164.9753066823659
 21
194.119881781107
 31
0.0
  0
LINE
  5
228
330
1F
100
AcDbEntity
  8
0
 62
     2
100
AcDbLine
 10
179.0753075021314
 20
180.0198815524436
 30
0.0
 11
179.0753075021314
 21
177.0198809506712
 31
0.0
  0
LINE
  5
229
330
1F
100
AcDbEntity
  8
0
 62
     2
100
AcDbLine
 10
179.075307502171
 20
172.9198811493443
 30
0.0
 11
179.075307502171
 21
169.919881805382
 31
0.0
  0
LINE
  5
22A
330
1F
100
AcDbEntity
  8
0
 62
     2
100
AcDbLine
 10
164.9753067365497
 20
155.8198817781946
 30
0.0
 11
161.9753073961816
 21
155.8198817781946
 31
0.0
  0
LINE
  5
22B
330
1F
100
AcDbEntity
  8
0
 62
     2
100
AcDbLine
 10
157.8753076484616
 20
155.8198817782014
 30
0.0
 11
154.875306483673
 21
155.8198817782014
 31
0.0
  0
LINE
  5
22C
330
1F
100
AcDbEntity
  8
0
 62
     2
100
AcDbLine
 10
140.7753075018618
 20
169.9198818052813
 30
0.0
 11
140.7753075018618
 21
172.9198811493443
 31
0.0
  0
LINE
  5
22D
330
1F
100
AcDbEntity
  8
0
 62
     2
100
AcDbLine
 10
140.7753075018553
 20
177.0198809504653
 30
0.0
 11
140.7753075018553
 21
180.0198815524018
 31
0.0
  0
ARC
  5
22E
330
1F
100
AcDbEntity
  8
0
 62
     2
100
AcDbCircle
 10
162.975307396136
 20
192.9198817162861
 30
0.0
 40
1.0
100
AcDbArc
 50
180.0
 51
270.0000000028161
  0
ARC
  5
22F
330
1F
100
AcDbEntity
  8
0
 62
     2
100
AcDbCircle
 10
155.8753076490081
 20
192.9198817162656
 30
0.0
 40
1.0
100
AcDbArc
 50
180.0
 51
270.0000000001723
  0
ARC
  5
230
330
1F
100
AcDbEntity
  8
0
 62
     2
100
AcDbCircle
 10
177.8753074254623
 20
170.9198806977857
 30
0.0
 40
1.0
100
AcDbArc
 50
180.0
 51
270.0000000000488
  0
ARC
  5
231
330
1F
100
AcDbEntity
  8
0
 62
     2
100
AcDbCircle
 10
177.875307420351
 20
178.0198809506647
 30
0.0
 40
1.0
100
AcDbArc
 50
180.0
 51
269.999999999981
  0
ARC
  5
232
330
1F
100
AcDbEntity
  8
0
 62
     2
100
AcDbCircle
 10
163.975307396141
 20
192.9198817162802
 30
0.0
 40
1.0
100
AcDbArc
 50
269.9999999996662
 51
0.0
  0
ARC
  5
233
330
1F
100
AcDbEntity
  8
0
 62
     2
100
AcDbCircle
 10
156.8753076490137
 20
192.9198817162799
 30
0.0
 40
1.0
100
AcDbArc
 50
270.0000000008142
 51
359.9999999999999
  0
ARC
  5
234
330
1F
100
AcDbEntity
  8
0
 62
     2
100
AcDbCircle
 10
141.9753074203522
 20
178.0198808964821
 30
0.0
 40
1.0
100
AcDbArc
 50
270.0000000003045
 51
359.9999999999992
  0
ARC
  5
235
330
1F
100
AcDbEntity
  8
0
 62
     2
100
AcDbCircle
 10
141.975307425463
 20
170.9198811493633
 30
0.0
 40
1.0
100
AcDbArc
 50
269.9999999993242
 51
359.9999999999992
  0
ARC
  5
236
330
1F
100
AcDbEntity
  8
0
 62
     2
100
AcDbCircle
 10
141.9753074203505
 20
179.019880896476
 30
0.0
 40
1.0
100
AcDbArc
 50
0.0
 51
89.99999999962164
  0
ARC
  5
237
330
1F
100
AcDbEntity
  8
0
 62
     2
100
AcDbCircle
 10
141.975307425463
 20
171.9198811493443
 30
0.0
 40
1.0
100
AcDbArc
 50
0.0
 51
89.99999999999969
  0
ARC
  5
238
330
1F
100
AcDbEntity
  8
0
 62
     2
100
AcDbCircle
 10
163.9753073961601
 20
157.0198817162862
 30
0.0
 40
1.0
100
AcDbArc
 50
0.0
 51
89.99999999972408
  0
ARC
  5
239
330
1F
100
AcDbEntity
  8
0
 62
     2
100
AcDbCircle
 10
156.8753076490572
 20
157.0198817162834
 30
0.0
 40
1.0
100
AcDbArc
 50
0.0
 51
90.0000000000674
  0
ARC
  5
23A
330
1F
100
AcDbEntity
  8
0
 62
     2
100
AcDbCircle
 10
155.8753076490411
 20
157.0198817162822
 30
0.0
 40
1.0
100
AcDbArc
 50
90.00000000006676
 51
180.0000000009525
  0
ARC
  5
23B
330
1F
100
AcDbEntity
  8
0
 62
     2
100
AcDbCircle
 10
177.8753074254558
 20
171.9198806978173
 30
0.0
 40
1.0
100
AcDbArc
 50
89.99999999832758
 51
180.0000000003696
  0
ARC
  5
23C
330
1F
100
AcDbEntity
  8
0
 62
     2
100
AcDbCircle
 10
162.9753073961518
 20
157.0198817162797
 30
0.0
 40
1.0
100
AcDbArc
 50
90.00000000037454
 51
180.0000000014235
  0
ARC
  5
23D
330
1F
100
AcDbEntity
  8
0
 62
     2
100
AcDbCircle
 10
177.8753074203452
 20
179.0198809506828
 30
0.0
 40
1.0
100
AcDbArc
 50
90.00000000107804
 51
180.0000000003282
  0
LINE
  5
23E
330
1F
100
AcDbEntity
  8
0
 62
     2
100
AcDbLine
 10
177.8753074254769
 20
168.9198806977857
 30
0.0
 11
177.8753074254697
 21
169.9198806977857
 31
0.0
  0
LINE
  5
23F
330
1F
100
AcDbEntity
  8
0
 62
     2
100
AcDbLine
 10
176.8753074254623
 20
170.9198806977793
 30
0.0
 11
175.8753074254623
 21
170.9198806977728
 31
0.0
  0
LINE
  5
240
330
1F
100
AcDbEntity
  8
0
 62
     2
100
AcDbLine
 10
175.8753074254558
 20
171.9198806978045
 30
0.0
 11
176.8753074254559
 21
171.9198806978109
 31
0.0
  0
LINE
  5
241
330
1F
100
AcDbEntity
  8
0
 62
     2
100
AcDbLine
 10
177.8753074254851
 20
172.9198806978173
 30
0.0
 11
177.8753074255142
 21
173.9198806978173
 31
0.0
  0
LINE
  5
242
330
1F
100
AcDbEntity
  8
0
 62
     2
100
AcDbLine
 10
177.8753074203617
 20
176.0198809506647
 30
0.0
 11
177.8753074203564
 21
177.0198809506647
 31
0.0
  0
LINE
  5
243
330
1F
100
AcDbEntity
  8
0
 62
     2
100
AcDbLine
 10
176.875307420351
 20
178.019880950659
 30
0.0
 11
175.875307420351
 21
178.0198809506533
 31
0.0
  0
LINE
  5
244
330
1F
100
AcDbEntity
  8
0
 62
     2
100
AcDbLine
 10
175.8753074203452
 20
179.0198809506714
 30
0.0
 11
176.8753074203452
 21
179.0198809506771
 31
0.0
  0
LINE
  5
245
330
1F
100
AcDbEntity
  8
0
 62
     2
100
AcDbLine
 10
177.8753074203265
 20
180.0198809506828
 30
0.0
 11
177.8753074203076
 21
181.0198809506828
 31
0.0
  0
LINE
  5
246
330
1F
100
AcDbEntity
  8
0
 62
     2
100
AcDbLine
 10
158.8753076490137
 20
192.9198817162501
 30
0.0
 11
157.8753076490137
 21
192.919881716265
 31
0.0
  0
LINE
  5
247
330
1F
100
AcDbEntity
  8
0
 62
     2
100
AcDbLine
 10
156.8753076490279
 20
191.9198817162799
 30
0.0
 11
156.8753076490422
 21
190.9198817162799
 31
0.0
  0
LINE
  5
248
330
1F
100
AcDbEntity
  8
0
 62
     2
100
AcDbLine
 10
155.8753076490365
 20
190.9198817162656
 30
0.0
 11
155.8753076490223
 21
191.9198817162656
 31
0.0
  0
LINE
  5
249
330
1F
100
AcDbEntity
  8
0
 62
     2
100
AcDbLine
 10
154.8753076490081
 20
192.9198817162544
 30
0.0
 11
153.8753076490081
 21
192.9198817162432
 31
0.0
  0
LINE
  5
24A
330
1F
100
AcDbEntity
  8
0
 62
     2
100
AcDbLine
 10
165.975307396141
 20
192.9198817162672
 30
0.0
 11
164.975307396141
 21
192.9198817162737
 31
0.0
  0
LINE
  5
24B
330
1F
100
AcDbEntity
  8
0
 62
     2
100
AcDbLine
 10
163.9753073961352
 20
191.9198817162802
 30
0.0
 11
163.9753073961294
 21
190.9198817162802
 31
0.0
  0
LINE
  5
24C
330
1F
100
AcDbEntity
  8
0
 62
     2
100
AcDbLine
 10
162.9753073961243
 20
190.9198817162861
 30
0.0
 11
162.9753073961301
 21
191.9198817162861
 31
0.0
  0
LINE
  5
24D
330
1F
100
AcDbEntity
  8
0
 62
     2
100
AcDbLine
 10
161.975307396136
 20
192.919881716341
 30
0.0
 11
160.975307396136
 21
192.919881716396
 31
0.0
  0
LINE
  5
24E
330
1F
100
AcDbEntity
  8
0
 62
     2
100
AcDbLine
 10
141.9753074203601
 20
181.019880896476
 30
0.0
 11
141.9753074203553
 21
180.019880896476
 31
0.0
  0
LINE
  5
24F
330
1F
100
AcDbEntity
  8
0
 62
     2
100
AcDbLine
 10
142.9753074203505
 20
179.0198808964778
 30
0.0
 11
143.9753074203505
 21
179.0198808964795
 31
0.0
  0
LINE
  5
250
330
1F
100
AcDbEntity
  8
0
 62
     2
100
AcDbLine
 10
143.9753074203522
 20
178.0198808964855
 30
0.0
 11
142.9753074203522
 21
178.0198808964838
 31
0.0
  0
LINE
  5
251
330
1F
100
AcDbEntity
  8
0
 62
     2
100
AcDbLine
 10
141.9753074203575
 20
177.0198808964821
 30
0.0
 11
141.9753074203629
 21
176.0198808964821
 31
0.0
  0
LINE
  5
252
330
1F
100
AcDbEntity
  8
0
 62
     2
100
AcDbLine
 10
141.975307425463
 20
173.9198811493443
 30
0.0
 11
141.975307425463
 21
172.9198811493443
 31
0.0
  0
LINE
  5
253
330
1F
100
AcDbEntity
  8
0
 62
     2
100
AcDbLine
 10
142.975307425463
 20
171.9198811493443
 30
0.0
 11
143.975307425463
 21
171.9198811493443
 31
0.0
  0
LINE
  5
254
330
1F
100
AcDbEntity
  8
0
 62
     2
100
AcDbLine
 10
143.975307425463
 20
170.9198811493633
 30
0.0
 11
142.975307425463
 21
170.9198811493633
 31
0.0
  0
LINE
  5
255
330
1F
100
AcDbEntity
  8
0
 62
     2
100
AcDbLine
 10
141.9753074254511
 20
169.9198811493633
 30
0.0
 11
141.9753074254394
 21
168.9198811493633
 31
0.0
  0
LINE
  5
256
330
1F
100
AcDbEntity
  8
0
 62
     2
100
AcDbLine
 10
153.8753076490411
 20
157.019881716249
 30
0.0
 11
154.8753076490411
 21
157.0198817162656
 31
0.0
  0
LINE
  5
257
330
1F
100
AcDbEntity
  8
0
 62
     2
100
AcDbLine
 10
155.8753076490399
 20
158.0198817162822
 30
0.0
 11
155.8753076490387
 21
159.0198817162822
 31
0.0
  0
LINE
  5
258
330
1F
100
AcDbEntity
  8
0
 62
     2
100
AcDbLine
 10
156.8753076490548
 20
159.0198817162834
 30
0.0
 11
156.875307649056
 21
158.0198817162834
 31
0.0
  0
LINE
  5
259
330
1F
100
AcDbEntity
  8
0
 62
     2
100
AcDbLine
 10
157.8753076490572
 20
157.0198817162577
 30
0.0
 11
158.8753076490572
 21
157.019881716232
 31
0.0
  0
LINE
  5
25A
330
1F
100
AcDbEntity
  8
0
 62
     2
100
AcDbLine
 10
160.9753073961518
 20
157.01988171623
 30
0.0
 11
161.9753073961518
 21
157.0198817162548
 31
0.0
  0
LINE
  5
25B
330
1F
100
AcDbEntity
  8
0
 62
     2
100
AcDbLine
 10
162.9753073961452
 20
158.0198817162797
 30
0.0
 11
162.9753073961387
 21
159.0198817162797
 31
0.0
  0
LINE
  5
25C
330
1F
100
AcDbEntity
  8
0
 62
     2
100
AcDbLine
 10
163.975307396147
 20
159.0198817162862
 30
0.0
 11
163.9753073961536
 21
158.0198817162862
 31
0.0
  0
LINE
  5
25D
330
1F
100
AcDbEntity
  8
0
 62
     2
100
AcDbLine
 10
164.9753073961601
 20
157.0198817162976
 30
0.0
 11
165.9753073961601
 21
157.019881716309
 31
0.0
  0
LINE
  5
25E
330
1F
100
AcDbEntity
  8
0
 62
     2
100
AcDbLine
 10
166.6753073815503
 20
158.5198817078377
 30
0.0
 11
166.6753073815048
 21
159.5198817077921
 31
0.0
  0
LINE
  5
25F
330
1F
100
AcDbEntity
  8
0
 62
     2
100
AcDbLine
 10
175.3753074936707
 20
166.7198855307113
 30
0.0
 11
176.3753074936616
 21
166.7198855307022
 31
0.0
  0
LINE
  5
260
330
1F
100
AcDbEntity
  8
0
 62
     2
100
AcDbLine
 10
153.1753076058362
 20
159.5198817077921
 30
0.0
 11
153.1753076057906
 21
158.5198817078377
 31
0.0
  0
CIRCLE
  5
261
330
1F
100
AcDbEntity
  8
0
 62
     2
100
AcDbCircle
 10
146.7554437056661
 20
161.8000178971798
 30
0.0
 40
1.724
  0
LINE
  5
262
330
1F
100
AcDbEntity
  8
0
 62
     2
100
AcDbLine
 10
153.1753076057906
 20
191.4198817077466
 30
0.0
 11
153.1753076058362
 21
190.4198817077922
 31
0.0
  0
CIRCLE
  5
263
330
1F
100
AcDbEntity
  8
0
 62
     2
100
AcDbCircle
 10
146.7554436829359
 20
188.1397454962565
 30
0.0
 40
1.724
  0
LINE
  5
264
330
1F
100
AcDbEntity
  8
0
 62
     2
100
AcDbLine
 10
176.3753074936705
 20
181.7198852778446
 30
0.0
 11
175.3753074936707
 21
181.7198852778445
 31
0.0
  0
LINE
  5
265
330
1F
100
AcDbEntity
  8
0
 62
     2
100
AcDbLine
 10
166.6753073815057
 20
190.4198817077921
 30
0.0
 11
166.6753073815512
 21
191.4198817077465
 31
0.0
  0
CIRCLE
  5
266
330
1F
100
AcDbEntity
  8
0
 62
     2
100
AcDbCircle
 10
173.0951712821351
 20
188.1397455185269
 30
0.0
 40
1.724
  0
CIRCLE
  5
267
330
1F
100
AcDbEntity
  8
0
 62
     2
100
AcDbCircle
 10
159.9253074936707
 20
174.9698817077922
 30
0.0
 40
10.2
  0
CIRCLE
  5
268
330
1F
100
AcDbEntity
  8
0
 62
     2
100
AcDbCircle
 10
159.9253074936707
 20
174.9698817077922
 30
0.0
 40
12.5
  0
CIRCLE
  5
269
330
1F
100
AcDbEntity
  8
0
 62
     2
100
AcDbCircle
 10
173.0951712821351
 20
188.1397455185269
 30
0.0
 40
1.524
  0
ARC
  5
26A
330
1F
100
AcDbEntity
  8
0
 62
     6
100
AcDbCircle
 10
173.0951712821351
 20
188.1397455185269
 30
0.0
 40
0.8000000000000005
100
AcDbArc
 50
354.9999999999993
 51
274.9999999999994
  0
CIRCLE
  5
26B
330
1F
100
AcDbEntity
  8
0
 62
     2
100
AcDbCircle
 10
146.7554436829359
 20
188.1397454962565
 30
0.0
 40
1.524
  0
ARC
  5
26C
330
1F
100
AcDbEntity
  8
0
 62
     6
100
AcDbCircle
 10
146.7554436829359
 20
188.1397454962565
 30
0.0
 40
0.8
100
AcDbArc
 50
354.9999999999993
 51
274.9999999999994
  0
CIRCLE
  5
26D
330
1F
100
AcDbEntity
  8
0
 62
     2
100
AcDbCircle
 10
146.7554437056661
 20
161.8000178971798
 30
0.0
 40
1.524
  0
ARC
  5
26E
330
1F
100
AcDbEntity
  8
0
 62
     6
100
AcDbCircle
 10
146.7554437056661
 20
161.8000178971798
 30
0.0
 40
0.8
100
AcDbArc
 50
354.9999999999993
 51
274.9999999999994
  0
CIRCLE
  5
26F
330
1F
100
AcDbEntity
  8
0
 62
     2
100
AcDbCircle
 10
173.0951712821351
 20
188.1397455185269
 30
0.0
 40
0.61058
  0
CIRCLE
  5
270
330
1F
100
AcDbEntity
  8
0
 62
     2
100
AcDbCircle
 10
146.7554436829359
 20
188.1397454962565
 30
0.0
 40
0.61058
  0
CIRCLE
  5
271
330
1F
100
AcDbEntity
  8
0
 62
     2
100
AcDbCircle
 10
146.7554437056661
 20
161.8000178971798
 30
0.0
 40
0.61058
  0
LINE
  5
272
330
1F
100
AcDbEntity
  8
0
 62
     2
100
AcDbLine
 10
178.8753074232694
 20
190.3225504787363
 30
0.0
 11
179.0753074232694
 21
190.3225504787363
 31
0.0
  0
LINE
  5
273
330
1F
100
AcDbEntity
  8
0
 62
     2
100
AcDbLine
 10
178.2069959400943
 20
190.859215130075
 30
0.0
 11
178.2964331011527
 21
190.6803269129621
 31
0.0
  0
LINE
  5
274
330
1F
100
AcDbEntity
  8
0
 62
     2
100
AcDbLine
 10
177.4264313302384
 20
190.2453598158435
 30
0.0
 11
177.3369941691799
 21
190.4242480329564
 31
0.0
  0
LINE
  5
275
330
1F
100
AcDbEntity
  8
0
 62
     2
100
AcDbLine
 10
176.8608082400158
 20
190.2186311052013
 30
0.0
 11
176.9329776761682
 21
190.4051560967855
 31
0.0
  0
LINE
  5
276
330
1F
100
AcDbEntity
  8
0
 62
     2
100
AcDbLine
 10
175.1740647527476
 20
191.9053730786756
 30
0.0
 11
175.3605896795621
 21
191.9775426822276
 31
0.0
  0
LINE
  5
277
330
1F
100
AcDbEntity
  8
0
 62
     2
100
AcDbLine
 10
175.2007923321256
 20
192.4709951298195
 30
0.0
 11
175.3796807962031
 21
192.3815584627307
 31
0.0
  0
LINE
  5
278
330
1F
100
AcDbEntity
  8
0
 62
     2
100
AcDbLine
 10
175.6357584688582
 20
193.3410009860153
 30
0.0
 11
175.8146469329359
 21
193.2515643189265
 31
0.0
  0
LINE
  5
279
330
1F
100
AcDbEntity
  8
0
 62
     2
100
AcDbLine
 10
175.2779815407027
 20
194.1198743201928
 30
0.0
 11
175.2779815407029
 21
193.9198743201928
 31
0.0
  0
LINE
  5
27A
330
1F
100
AcDbEntity
  8
0
 62
     2
100
AcDbLine
 10
175.2779827601842
 20
156.0198817160033
 30
0.0
 11
175.2779827601846
 21
155.8198817160032
 31
0.0
  0
LINE
  5
27B
330
1F
100
AcDbEntity
  8
0
 62
     2
100
AcDbLine
 10
175.8146474115248
 20
156.6881931991725
 30
0.0
 11
175.635759194411
 21
156.5987560381161
 31
0.0
  0
LINE
  5
27C
330
1F
100
AcDbEntity
  8
0
 62
     2
100
AcDbLine
 10
175.2007920973994
 20
157.4687578088398
 30
0.0
 11
175.3796803145132
 21
157.5581949698962
 31
0.0
  0
LINE
  5
27D
330
1F
100
AcDbEntity
  8
0
 62
     2
100
AcDbLine
 10
175.1740633867581
 20
158.0343808990599
 30
0.0
 11
175.3605883783423
 21
157.9622114629077
 31
0.0
  0
LINE
  5
27E
330
1F
100
AcDbEntity
  8
0
 62
     2
100
AcDbLine
 10
176.8608053602321
 20
159.7211243863287
 30
0.0
 11
176.9329749637841
 21
159.5345994595142
 31
0.0
  0
LINE
  5
27F
330
1F
100
AcDbEntity
  8
0
 62
     2
100
AcDbLine
 10
177.4264274113778
 20
159.6943968069501
 30
0.0
 11
177.3369907442887
 21
159.5155083428727
 31
0.0
  0
LINE
  5
280
330
1F
100
AcDbEntity
  8
0
 62
     2
100
AcDbLine
 10
178.2964340890605
 20
159.2594302595062
 30
0.0
 11
178.2069974219713
 21
159.0805417954288
 31
0.0
  0
LINE
  5
281
330
1F
100
AcDbEntity
  8
0
 62
     2
100
AcDbLine
 10
179.0753074232378
 20
159.6172071876603
 30
0.0
 11
178.8753074232378
 21
159.6172071876607
 31
0.0
  0
LINE
  5
282
330
1F
100
AcDbEntity
  8
0
 62
     2
100
AcDbLine
 10
144.5726316755725
 20
193.9198743201962
 30
0.0
 11
144.5726316755724
 21
194.1198743201962
 31
0.0
  0
LINE
  5
283
330
1F
100
AcDbEntity
  8
0
 62
     2
100
AcDbLine
 10
144.0359670242397
 20
193.2515628370099
 30
0.0
 11
144.2148552413508
 21
193.340999998072
 31
0.0
  0
LINE
  5
284
330
1F
100
AcDbEntity
  8
0
 62
     2
100
AcDbLine
 10
144.6498223384854
 20
192.4709982271712
 30
0.0
 11
144.4709341213743
 21
192.3815610661091
 31
0.0
  0
LINE
  5
285
330
1F
100
AcDbEntity
  8
0
 62
     2
100
AcDbLine
 10
144.6765510491294
 20
191.9053751369451
 30
0.0
 11
144.4900260575453
 21
191.9775445730973
 31
0.0
  0
LINE
  5
286
330
1F
100
AcDbEntity
  8
0
 62
     2
100
AcDbLine
 10
142.9898090756552
 20
190.2186316496767
 30
0.0
 11
142.9176394721032
 21
190.4051565764912
 31
0.0
  0
LINE
  5
287
330
1F
100
AcDbEntity
  8
0
 62
     2
100
AcDbLine
 10
142.4241870245108
 20
190.2453592290548
 30
0.0
 11
142.5136236915997
 21
190.4242476931324
 31
0.0
  0
LINE
  5
288
330
1F
100
AcDbEntity
  8
0
 62
     2
100
AcDbLine
 10
141.5541807574278
 20
190.6803255712143
 30
0.0
 11
141.6436174245167
 21
190.8592140352919
 31
0.0
  0
LINE
  5
289
330
1F
100
AcDbEntity
  8
0
 62
     2
100
AcDbLine
 10
140.77530742325
 20
190.3225486430593
 30
0.0
 11
140.9753074232501
 21
190.3225486430593
 31
0.0
  0
LINE
  5
28A
330
1F
100
AcDbEntity
  8
0
 62
     2
100
AcDbLine
 10
140.9753074232704
 20
159.6172055574353
 30
0.0
 11
140.7753074232704
 21
159.6172055574354
 31
0.0
  0
LINE
  5
28B
330
1F
100
AcDbEntity
  8
0
 62
     2
100
AcDbLine
 10
141.6436189064511
 20
159.0805409060996
 30
0.0
 11
141.5541817453909
 21
159.2594291232116
 31
0.0
  0
LINE
  5
28C
330
1F
100
AcDbEntity
  8
0
 62
     2
100
AcDbLine
 10
142.4241835162839
 20
159.6943962203311
 30
0.0
 11
142.5136206773442
 21
159.5155080032191
 31
0.0
  0
LINE
  5
28D
330
1F
100
AcDbEntity
  8
0
 62
     2
100
AcDbLine
 10
142.9898066065084
 20
159.7211249309742
 30
0.0
 11
142.9176371703561
 21
159.53459993939
 31
0.0
  0
LINE
  5
28E
330
1F
100
AcDbEntity
  8
0
 62
     2
100
AcDbLine
 10
144.6765500937766
 20
158.0343829575
 30
0.0
 11
144.4900251669621
 21
157.962213353948
 31
0.0
  0
LINE
  5
28F
330
1F
100
AcDbEntity
  8
0
 62
     2
100
AcDbLine
 10
144.6498225144027
 20
157.4687609063642
 30
0.0
 11
144.4709340503239
 21
157.5581975734507
 31
0.0
  0
LINE
  5
290
330
1F
100
AcDbEntity
  8
0
 62
     2
100
AcDbLine
 10
144.2148563776727
 20
156.5987550501455
 30
0.0
 11
144.0359679135939
 21
156.688191717232
 31
0.0
  0
LINE
  5
291
330
1F
100
AcDbEntity
  8
0
 62
     2
100
AcDbLine
 10
144.5726333058304
 20
155.8198817159725
 30
0.0
 11
144.5726333058303
 21
156.0198817159726
 31
0.0
  0
LINE
  5
292
330
1F
100
AcDbEntity
  8
0
 62
     2
100
AcDbLine
 10
71.47263252310296
 20
227.4198926858309
 30
0.0
 11
71.47263251939705
 21
231.5698926858308
 31
0.0
  0
LINE
  5
293
330
1F
100
AcDbEntity
  8
0
 62
     2
100
AcDbLine
 10
103.3779819701851
 20
227.4198926858309
 30
0.0
 11
103.3779819737502
 21
231.5698926858308
 31
0.0
  0
ARC
  5
294
330
1F
100
AcDbEntity
  8
0
 62
     2
100
AcDbCircle
 10
87.42531428134737
 20
165.4363908807841
 30
0.0
 40
75.4035018050466
100
AcDbArc
 50
74.42169610257112
 51
78.13767834251364
  0
ARC
  5
295
330
1F
100
AcDbEntity
  8
0
 62
     2
100
AcDbCircle
 10
87.42531428134737
 20
165.4363908807841
 30
0.0
 40
75.4035018050466
100
AcDbArc
 50
101.8623313127138
 51
105.5783140339936
  0
LINE
  5
296
330
1F
100
AcDbEntity
  8
0
 62
     2
100
AcDbLine
 10
71.47263251939705
 20
227.4198926858309
 30
0.0
 11
71.67263251939704
 21
227.2198926858308
 31
0.0
  0
LINE
  5
297
330
1F
100
AcDbEntity
  8
0
 62
     2
100
AcDbLine
 10
68.27530785634258
 20
227.4198926858309
 30
0.0
 11
68.47530785634257
 21
227.2198926858308
 31
0.0
  0
LINE
  5
298
330
1F
100
AcDbEntity
  8
0
 62
     2
100
AcDbLine
 10
106.57530785631
 20
227.4198926858309
 30
0.0
 11
106.37530785631
 21
227.2198926858309
 31
0.0
  0
LINE
  5
299
330
1F
100
AcDbEntity
  8
0
 62
     2
100
AcDbLine
 10
103.3779819737502
 20
227.4198926858309
 30
0.0
 11
103.1779819737502
 21
227.2198926858309
 31
0.0
  0
LINE
  5
29A
330
1F
100
AcDbEntity
  8
0
 62
     2
100
AcDbLine
 10
93.4753076305226
 20
227.2198926858309
 30
0.0
 11
93.27530763051931
 21
227.4198926858309
 31
0.0
  0
LINE
  5
29B
330
1F
100
AcDbEntity
  8
0
 62
     2
100
AcDbLine
 10
81.5753078834066
 20
227.4198926858309
 30
0.0
 11
81.37530788340882
 21
227.2198926858309
 31
0.0
  0
LINE
  5
29C
330
1F
100
AcDbEntity
  8
0
 62
     2
100
AcDbLine
 10
102.9253077859096
 20
239.229602506429
 30
0.0
 11
71.92530778590964
 21
239.2296025394475
 31
0.0
  0
LWPOLYLINE
  5
29D
330
1F
100
AcDbEntity
  8
0
 62
     2
100
AcDbPolyline
 90
       17
 70
     0
 43
0.0
 10
105.4253146541768
 20
236.9460095954951
 10
105.2048894081504
 20
236.9987649916765
 10
104.9862822934467
 20
237.0455706662964
 10
104.7722430742954
 20
237.0858680095119
 10
104.5643407880353
 20
237.1194083640754
 10
104.3645939535032
 20
237.1458424694912
 10
104.1752558753831
 20
237.1648748915065
 10
103.9979463263811
 20
237.1763738151307
 10
103.8343108863459
 20
237.1802162888996
 10
103.6860057785192
 20
237.1763732536911
 10
103.5545115717788
 20
237.1648756954659
 10
103.4410296925978
 20
237.1458449576066
 10
103.3465612514174
 20
237.1193956772376
 10
103.27217961191
 20
237.0858149526794
 10
103.2185627776427
 20
237.0456112045624
 10
103.1861599433489
 20
236.998940087879
 10
103.1753147708274
 20
236.9460096133103
  0
LWPOLYLINE
  5
29E
330
1F
100
AcDbEntity
  8
0
 62
     2
100
AcDbPolyline
 90
        3
 70
     0
 43
0.0
 10
105.4253283326981
 20
236.9460061532063
 10
105.8661972760369
 20
236.8335856095825
 10
107.6753224232091
 20
236.3416992219677
  0
LINE
  5
29F
330
1F
100
AcDbEntity
  8
0
 62
     2
100
AcDbLine
 10
103.1753147708274
 20
236.3416972782464
 30
0.0
 11
103.1753147708274
 21
236.9460061617962
 31
0.0
  0
LWPOLYLINE
  5
2A0
330
1F
100
AcDbEntity
  8
0
 62
     2
100
AcDbPolyline
 90
       21
 70
     0
 43
0.0
 10
71.67531435595987
 20
236.3417014206621
 10
72.71283682268705
 20
236.5642223189515
 10
75.01609035159242
 20
237.0020023518956
 10
77.10741944976945
 20
237.3333076220283
 10
77.83171589261718
 20
237.4335330406986
 10
79.03746732150108
 20
237.5839453797801
 10
80.84568595237602
 20
237.7712652621941
 10
82.56369882919455
 20
237.9070073156847
 10
84.21799874900927
 20
237.9990445787284
 10
85.8316028960329
 20
238.0524060437695
 10
87.42531427579814
 20
238.0698926662017
 10
89.019026093494
 20
238.0524060344024
 10
90.63262276731234
 20
237.9990448901833
 10
92.28690744136173
 20
237.9070088111216
 10
94.00495182140565
 20
237.7712644243467
 10
95.81319054710468
 20
237.5839419726878
 10
97.01891267008625
 20
237.4335330406977
 10
97.74320911303766
 20
237.3333076220128
 10
99.83454166732145
 20
237.0020017526008
 10
102.1377928320721
 20
236.564222093065
 10
103.1753151856957
 20
236.3417012032105
  0
LINE
  5
2A1
330
1F
100
AcDbEntity
  8
0
 62
     2
100
AcDbLine
 10
107.6753078563178
 20
236.3417026477462
 30
0.0
 11
107.6753078563172
 21
238.0698943135909
 31
0.0
  0
LINE
  5
2A2
330
1F
100
AcDbEntity
  8
0
 62
     2
100
AcDbLine
 10
67.1753078563192
 20
238.0698907310278
 30
0.0
 11
67.17530785631948
 21
236.3416989779089
 31
0.0
  0
LINE
  5
2A3
330
1F
100
AcDbEntity
  8
0
 62
     2
100
AcDbLine
 10
71.67531477082736
 20
236.9460063768576
 30
0.0
 11
71.67531477082736
 21
236.3416974768249
 31
0.0
  0
LWPOLYLINE
  5
2A4
330
1F
100
AcDbEntity
  8
0
 62
     2
100
AcDbPolyline
 90
        3
 70
     0
 43
0.0
 10
67.17529329130184
 20
236.3416955557095
 10
68.98443128624513
 20
236.8335856098291
 10
69.42530120896276
 20
236.9460063995789
  0
LWPOLYLINE
  5
2A5
330
1F
100
AcDbEntity
  8
0
 62
     2
100
AcDbPolyline
 90
       17
 70
     0
 43
0.0
 10
71.67531477082736
 20
236.9460098291452
 10
71.66449162312017
 20
236.9987782625836
 10
71.63206603414159
 20
237.045573977791
 10
71.57845061676153
 20
237.0858659908573
 10
71.50406826820216
 20
237.119410704349
 10
71.40959929687841
 20
237.145844729919
 10
71.29611749600679
 20
237.1648802780546
 10
71.16462312088754
 20
237.1763725671163
 10
71.01631800607436
 20
237.1802118925943
 10
70.85268253749456
 20
237.1763728279187
 10
70.67537248383633
 20
237.1648837703776
 10
70.48603431834522
 20
237.14585126877
 10
70.28628928586807
 20
237.1193880356076
 10
70.07838828981801
 20
237.0858291685219
 10
69.86434482378672
 20
237.0455954162665
 10
69.64573564535522
 20
236.9988239194971
 10
69.42531488469353
 20
236.9460098412185
  0
LINE
  5
2A6
330
1F
100
AcDbEntity
  8
0
 62
     2
100
AcDbLine
 10
107.6753078563172
 20
233.9698928487238
 30
0.0
 11
105.4253078563171
 21
233.9698928487238
 31
0.0
  0
LINE
  5
2A7
330
1F
100
AcDbEntity
  8
0
 62
     2
100
AcDbLine
 10
107.6753078563178
 20
233.9698928487238
 30
0.0
 11
107.6753078563178
 21
236.3417026477462
 31
0.0
  0
LINE
  5
2A8
330
1F
100
AcDbEntity
  8
0
 62
     2
100
AcDbLine
 10
103.1753147708274
 20
236.3417012032105
 30
0.0
 11
103.1753147708274
 21
233.9698928487238
 31
0.0
  0
LINE
  5
2A9
330
1F
100
AcDbEntity
  8
0
 62
     2
100
AcDbLine
 10
103.1753147708274
 20
233.9698928487238
 30
0.0
 11
105.4253078563171
 21
233.9698928487238
 31
0.0
  0
LINE
  5
2AA
330
1F
100
AcDbEntity
  8
0
 62
     2
100
AcDbLine
 10
69.42530826719661
 20
233.9698928487237
 30
0.0
 11
67.17530785631942
 21
233.9698928487237
 31
0.0
  0
LINE
  5
2AB
330
1F
100
AcDbEntity
  8
0
 62
     2
100
AcDbLine
 10
67.17530785631948
 20
236.3416989779089
 30
0.0
 11
67.17530785631948
 21
233.9698928487237
 31
0.0
  0
LINE
  5
2AC
330
1F
100
AcDbEntity
  8
0
 62
     2
100
AcDbLine
 10
71.67531477082736
 20
233.9698928487237
 30
0.0
 11
71.67531477082736
 21
236.3417014206621
 31
0.0
  0
LINE
  5
2AD
330
1F
100
AcDbEntity
  8
0
 62
     2
100
AcDbLine
 10
69.42530785631737
 20
233.9698928487237
 30
0.0
 11
71.67531477082736
 21
233.9698928487237
 31
0.0
  0
LINE
  5
2AE
330
1F
100
AcDbEntity
  8
0
 62
     2
100
AcDbLine
 10
86.3753078834037
 20
227.2198926858309
 30
0.0
 11
86.17530788339872
 21
227.4198926858309
 31
0.0
  0
LINE
  5
2AF
330
1F
100
AcDbEntity
  8
0
 62
     2
100
AcDbLine
 10
88.67530763055396
 20
227.4198926858309
 30
0.0
 11
88.47530763054885
 21
227.2198926858309
 31
0.0
  0
LINE
  5
2B0
330
1F
100
AcDbEntity
  8
0
 62
     2
100
AcDbLine
 10
81.875308188713
 20
227.7198929911619
 30
0.0
 11
82.37530160574869
 21
228.21988700371
 31
0.0
  0
LINE
  5
2B1
330
1F
100
AcDbEntity
  8
0
 62
     2
100
AcDbLine
 10
85.37531416107464
 20
228.21988700371
 30
0.0
 11
85.87530757810947
 21
227.7198929911447
 31
0.0
  0
LINE
  5
2B2
330
1F
100
AcDbEntity
  8
0
 62
     2
100
AcDbLine
 10
86.17530788339872
 20
227.4198926858309
 30
0.0
 11
85.87530788341132
 21
227.7198926858183
 31
0.0
  0
LINE
  5
2B3
330
1F
100
AcDbEntity
  8
0
 62
     2
100
AcDbLine
 10
81.87530788341115
 20
227.7198926858354
 30
0.0
 11
81.5753078834066
 21
227.4198926858309
 31
0.0
  0
LINE
  5
2B4
330
1F
100
AcDbEntity
  8
0
 62
     2
100
AcDbLine
 10
92.47531390819114
 20
228.21988700371
 30
0.0
 11
92.97530732522557
 21
227.7198929911492
 31
0.0
  0
LINE
  5
2B5
330
1F
100
AcDbEntity
  8
0
 62
     2
100
AcDbLine
 10
88.97530793584315
 20
227.7198929911446
 30
0.0
 11
89.47530135287764
 21
228.21988700371
 31
0.0
  0
LINE
  5
2B6
330
1F
100
AcDbEntity
  8
0
 62
     2
100
AcDbLine
 10
93.27530763051931
 20
227.4198926858309
 30
0.0
 11
92.97530763052742
 21
227.7198926858227
 31
0.0
  0
LINE
  5
2B7
330
1F
100
AcDbEntity
  8
0
 62
     2
100
AcDbLine
 10
88.9753076305413
 20
227.7198926858182
 30
0.0
 11
88.67530763055402
 21
227.4198926858309
 31
0.0
  0
LINE
  5
2B8
330
1F
100
AcDbEntity
  8
0
 62
     2
100
AcDbLine
 10
107.6753078563172
 20
231.5698926858308
 30
0.0
 11
105.4253078563171
 21
231.5698926858308
 31
0.0
  0
LINE
  5
2B9
330
1F
100
AcDbEntity
  8
0
 62
     2
100
AcDbLine
 10
69.42530785631737
 20
231.5698926858308
 30
0.0
 11
105.4253078563309
 21
231.5698926858308
 31
0.0
  0
LINE
  5
2BA
330
1F
100
AcDbEntity
  8
0
 62
     2
100
AcDbLine
 10
69.42530826719661
 20
231.5698926858308
 30
0.0
 11
67.17530785631942
 21
231.5698926858308
 31
0.0
  0
LINE
  5
2BB
330
1F
100
AcDbEntity
  8
0
 62
     2
100
AcDbLine
 10
107.6753078563178
 20
231.5698926858308
 30
0.0
 11
107.6753078563178
 21
233.9698928487238
 31
0.0
  0
LINE
  5
2BC
330
1F
100
AcDbEntity
  8
0
 62
     2
100
AcDbLine
 10
105.4253078563171
 20
231.5698926858308
 30
0.0
 11
105.4253078563171
 21
233.9698928487238
 31
0.0
  0
LINE
  5
2BD
330
1F
100
AcDbEntity
  8
0
 62
     2
100
AcDbLine
 10
69.42530785631737
 20
231.5698926858308
 30
0.0
 11
69.42530785631737
 21
233.9698928487237
 31
0.0
  0
LINE
  5
2BE
330
1F
100
AcDbEntity
  8
0
 62
     2
100
AcDbLine
 10
67.17530785631942
 20
231.5698926858308
 30
0.0
 11
67.17530785631942
 21
233.9698928487237
 31
0.0
  0
LINE
  5
2BF
330
1F
100
AcDbEntity
  8
0
 62
     2
100
AcDbLine
 10
102.7779819737501
 20
227.2198926858309
 30
0.0
 11
93.4753076305226
 21
227.2198926858309
 31
0.0
  0
LINE
  5
2C0
330
1F
100
AcDbEntity
  8
0
 62
     2
100
AcDbLine
 10
102.77798197375
 20
227.4198926858309
 30
0.0
 11
93.27530763051931
 21
227.4198926858309
 31
0.0
  0
LINE
  5
2C1
330
1F
100
AcDbEntity
  8
0
 62
     2
100
AcDbLine
 10
103.1779819713735
 20
227.2198926858309
 30
0.0
 11
102.7779819737501
 21
227.2198926858309
 31
0.0
  0
LINE
  5
2C2
330
1F
100
AcDbEntity
  8
0
 62
     2
100
AcDbLine
 10
103.3779819701851
 20
227.4198926858309
 30
0.0
 11
102.77798197375
 21
227.4198926858309
 31
0.0
  0
LINE
  5
2C3
330
1F
100
AcDbEntity
  8
0
 62
     2
100
AcDbLine
 10
103.1779819737502
 20
227.2198926858309
 30
0.0
 11
104.360808673072
 21
227.2198926858309
 31
0.0
  0
LINE
  5
2C4
330
1F
100
AcDbEntity
  8
0
 62
     2
100
AcDbLine
 10
103.3779819701851
 20
227.4198926858309
 30
0.0
 11
104.4329779054514
 21
227.4198926858309
 31
0.0
  0
LINE
  5
2C5
330
1F
100
AcDbEntity
  8
0
 62
     2
100
AcDbLine
 10
104.360808673072
 20
227.2198926858309
 30
0.0
 11
104.9264317633022
 21
227.2198926858309
 31
0.0
  0
LINE
  5
2C6
330
1F
100
AcDbEntity
  8
0
 62
     2
100
AcDbLine
 10
104.4329781092242
 20
227.4198926858309
 30
0.0
 11
104.8369946022554
 21
227.4198926858309
 31
0.0
  0
LINE
  5
2C7
330
1F
100
AcDbEntity
  8
0
 62
     2
100
AcDbLine
 10
105.7964335341894
 20
227.2198926858309
 30
0.0
 11
104.9264317632964
 21
227.2198926858309
 31
0.0
  0
LINE
  5
2C8
330
1F
100
AcDbEntity
  8
0
 62
     2
100
AcDbLine
 10
105.7069963731292
 20
227.4198926858309
 30
0.0
 11
104.8369946022361
 21
227.4198926858309
 31
0.0
  0
LINE
  5
2C9
330
1F
100
AcDbEntity
  8
0
 62
     2
100
AcDbLine
 10
106.37530785631
 20
227.2198926858309
 30
0.0
 11
105.7964335341894
 21
227.2198926858309
 31
0.0
  0
LINE
  5
2CA
330
1F
100
AcDbEntity
  8
0
 62
     2
100
AcDbLine
 10
106.57530785631
 20
227.4198926858309
 30
0.0
 11
105.7069963731292
 21
227.4198926858309
 31
0.0
  0
LINE
  5
2CB
330
1F
100
AcDbEntity
  8
0
 62
     2
100
AcDbLine
 10
69.05418119052149
 20
227.2198926858308
 30
0.0
 11
68.47530785634257
 21
227.2198926858308
 31
0.0
  0
LINE
  5
2CC
330
1F
100
AcDbEntity
  8
0
 62
     2
100
AcDbLine
 10
69.14361785761093
 20
227.4198926858309
 30
0.0
 11
68.27530785634258
 21
227.4198926858309
 31
0.0
  0
LINE
  5
2CD
330
1F
100
AcDbEntity
  8
0
 62
     2
100
AcDbLine
 10
69.92418786820247
 20
227.2198926858308
 30
0.0
 11
69.05418119051984
 21
227.2198926858308
 31
0.0
  0
LINE
  5
2CE
330
1F
100
AcDbEntity
  8
0
 62
     2
100
AcDbLine
 10
70.01362453529168
 20
227.4198926858309
 30
0.0
 11
69.14361785760906
 21
227.4198926858309
 31
0.0
  0
LINE
  5
2CF
330
1F
100
AcDbEntity
  8
0
 62
     2
100
AcDbLine
 10
69.92418786820247
 20
227.2198926858308
 30
0.0
 11
70.4898098881772
 21
227.2198926858308
 31
0.0
  0
LINE
  5
2D0
330
1F
100
AcDbEntity
  8
0
 62
     2
100
AcDbLine
 10
70.01362453529168
 20
227.4198926858309
 30
0.0
 11
70.41764018880565
 21
227.4198926858309
 31
0.0
  0
LINE
  5
2D1
330
1F
100
AcDbEntity
  8
0
 62
     2
100
AcDbLine
 10
70.4898099193457
 20
227.2198926858308
 30
0.0
 11
71.67263251939704
 21
227.2198926858308
 31
0.0
  0
LINE
  5
2D2
330
1F
100
AcDbEntity
  8
0
 62
     2
100
AcDbLine
 10
70.41764031579385
 20
227.4198926858309
 30
0.0
 11
71.47263252310296
 21
227.4198926858309
 31
0.0
  0
LINE
  5
2D3
330
1F
100
AcDbEntity
  8
0
 62
     2
100
AcDbLine
 10
72.07263251939617
 20
227.2198926858308
 30
0.0
 11
71.67263252186763
 21
227.2198926858308
 31
0.0
  0
LINE
  5
2D4
330
1F
100
AcDbEntity
  8
0
 62
     2
100
AcDbLine
 10
72.07263251939571
 20
227.4198926858309
 30
0.0
 11
71.47263252310296
 21
227.4198926858309
 31
0.0
  0
LINE
  5
2D5
330
1F
100
AcDbEntity
  8
0
 62
     2
100
AcDbLine
 10
81.37530788340882
 20
227.2198926858309
 30
0.0
 11
72.07263251939617
 21
227.2198926858308
 31
0.0
  0
LINE
  5
2D6
330
1F
100
AcDbEntity
  8
0
 62
     2
100
AcDbLine
 10
81.5753078834066
 20
227.4198926858309
 30
0.0
 11
72.07263251939571
 21
227.4198926858309
 31
0.0
  0
LINE
  5
2D7
330
1F
100
AcDbEntity
  8
0
 62
     2
100
AcDbLine
 10
88.47530763054885
 20
227.2198926858309
 30
0.0
 11
86.3753078834037
 21
227.2198926858309
 31
0.0
  0
LINE
  5
2D8
330
1F
100
AcDbEntity
  8
0
 62
     2
100
AcDbLine
 10
88.67530763055396
 20
227.4198926858309
 30
0.0
 11
86.17530788339872
 21
227.4198926858309
 31
0.0
  0
LINE
  5
2D9
330
1F
100
AcDbEntity
  8
0
 62
     2
100
AcDbLine
 10
81.64325707585789
 20
227.2198926858309
 30
0.0
 11
83.37530788343332
 21
227.2198926858309
 31
0.0
  0
LINE
  5
2DA
330
1F
100
AcDbEntity
  8
0
 62
     2
100
AcDbLine
 10
81.37530788342019
 20
227.2198926858309
 30
0.0
 11
81.64325707585789
 21
227.2198926858309
 31
0.0
  0
LINE
  5
2DB
330
1F
100
AcDbEntity
  8
0
 62
     2
100
AcDbLine
 10
84.37530788344168
 20
227.2198926858309
 30
0.0
 11
83.37530788343332
 21
227.2198926858309
 31
0.0
  0
LINE
  5
2DC
330
1F
100
AcDbEntity
  8
0
 62
     2
100
AcDbLine
 10
84.37530788343508
 20
228.2198926858309
 30
0.0
 11
83.37530788342679
 21
228.2198926858309
 31
0.0
  0
LINE
  5
2DD
330
1F
100
AcDbEntity
  8
0
 62
     2
100
AcDbLine
 10
85.37530788347158
 20
227.2198926858309
 30
0.0
 11
86.37530788342855
 21
227.2198926858309
 31
0.0
  0
LINE
  5
2DE
330
1F
100
AcDbEntity
  8
0
 62
     2
100
AcDbLine
 10
84.37530788344168
 20
227.2198926858309
 30
0.0
 11
85.37530788347158
 21
227.2198926858309
 31
0.0
  0
LINE
  5
2DF
330
1F
100
AcDbEntity
  8
0
 62
     2
100
AcDbLine
 10
88.74325682295546
 20
227.2198926858309
 30
0.0
 11
90.47530763052555
 21
227.2198926858309
 31
0.0
  0
LINE
  5
2E0
330
1F
100
AcDbEntity
  8
0
 62
     2
100
AcDbLine
 10
88.47530763052316
 20
227.2198926858309
 30
0.0
 11
88.74325682295546
 21
227.2198926858309
 31
0.0
  0
LINE
  5
2E1
330
1F
100
AcDbEntity
  8
0
 62
     2
100
AcDbLine
 10
91.47530763054158
 20
227.2198926858309
 30
0.0
 11
90.47530763052549
 21
227.2198926858309
 31
0.0
  0
LINE
  5
2E2
330
1F
100
AcDbEntity
  8
0
 62
     2
100
AcDbLine
 10
91.47530763054044
 20
228.2198926858309
 30
0.0
 11
90.4753076305243
 21
228.2198926858309
 31
0.0
  0
LINE
  5
2E3
330
1F
100
AcDbEntity
  8
0
 62
     2
100
AcDbLine
 10
92.47530763056807
 20
227.2198926858309
 30
0.0
 11
93.47530763053925
 21
227.2198926858309
 31
0.0
  0
LINE
  5
2E4
330
1F
100
AcDbEntity
  8
0
 62
     2
100
AcDbLine
 10
91.47530763054164
 20
227.2198926858309
 30
0.0
 11
92.47530763056807
 21
227.2198926858309
 31
0.0
  0
LINE
  5
2E5
330
1F
100
AcDbEntity
  8
0
 62
     2
100
AcDbLine
 10
92.4753076305276
 20
228.2198926858309
 30
0.0
 11
92.4753076305276
 21
231.3698926858308
 31
0.0
  0
LINE
  5
2E6
330
1F
100
AcDbEntity
  8
0
 62
     2
100
AcDbLine
 10
92.97530763052742
 20
227.7198926858227
 30
0.0
 11
92.97530763052742
 21
231.3698926858308
 31
0.0
  0
LINE
  5
2E7
330
1F
100
AcDbEntity
  8
0
 62
     2
100
AcDbLine
 10
92.4753076305193
 20
231.3698926858308
 30
0.0
 11
92.97530763052742
 21
231.3698926858308
 31
0.0
  0
LINE
  5
2E8
330
1F
100
AcDbEntity
  8
0
 62
     2
100
AcDbLine
 10
81.87530788341115
 20
227.7198926858354
 30
0.0
 11
81.87530788341115
 21
231.3698926858308
 31
0.0
  0
LINE
  5
2E9
330
1F
100
AcDbEntity
  8
0
 62
     2
100
AcDbLine
 10
82.37530788341223
 20
228.2198926858309
 30
0.0
 11
82.37530788341223
 21
231.3698926858308
 31
0.0
  0
LINE
  5
2EA
330
1F
100
AcDbEntity
  8
0
 62
     2
100
AcDbLine
 10
81.87530788341115
 20
231.3698926858308
 30
0.0
 11
82.37530788368088
 21
231.3698926858308
 31
0.0
  0
LINE
  5
2EB
330
1F
100
AcDbEntity
  8
0
 62
     2
100
AcDbLine
 10
88.9753076305413
 20
227.7198926858181
 30
0.0
 11
88.9753076305413
 21
231.3698926858308
 31
0.0
  0
LINE
  5
2EC
330
1F
100
AcDbEntity
  8
0
 62
     2
100
AcDbLine
 10
89.47530763054112
 20
228.2198926858309
 30
0.0
 11
89.47530763054112
 21
231.3698926858308
 31
0.0
  0
LINE
  5
2ED
330
1F
100
AcDbEntity
  8
0
 62
     2
100
AcDbLine
 10
88.9753076305413
 20
231.3698926858308
 30
0.0
 11
89.47530763111877
 21
231.3698926858308
 31
0.0
  0
LINE
  5
2EE
330
1F
100
AcDbEntity
  8
0
 62
     2
100
AcDbLine
 10
85.37530788341115
 20
228.2198926858309
 30
0.0
 11
85.37530788341115
 21
231.3698926858308
 31
0.0
  0
LINE
  5
2EF
330
1F
100
AcDbEntity
  8
0
 62
     2
100
AcDbLine
 10
85.87530788341132
 20
227.7198926858183
 30
0.0
 11
85.87530788341132
 21
231.3698926858308
 31
0.0
  0
LINE
  5
2F0
330
1F
100
AcDbEntity
  8
0
 62
     2
100
AcDbLine
 10
85.3753078833987
 20
231.3698926858308
 30
0.0
 11
85.87530788341132
 21
231.3698926858308
 31
0.0
  0
LINE
  5
2F1
330
1F
100
AcDbEntity
  8
0
 62
     2
100
AcDbLine
 10
84.37530788343508
 20
228.2198926858309
 30
0.0
 11
84.37530788343508
 21
231.3698926858308
 31
0.0
  0
LINE
  5
2F2
330
1F
100
AcDbEntity
  8
0
 62
     2
100
AcDbLine
 10
91.47530763054044
 20
228.2198926858309
 30
0.0
 11
91.47530763054044
 21
231.3698926858308
 31
0.0
  0
LINE
  5
2F3
330
1F
100
AcDbEntity
  8
0
 62
     2
100
AcDbLine
 10
90.4753076305243
 20
228.2198926858308
 30
0.0
 11
90.4753076305243
 21
231.3698926858308
 31
0.0
  0
LINE
  5
2F4
330
1F
100
AcDbEntity
  8
0
 62
     2
100
AcDbLine
 10
83.37530788342679
 20
228.2198926858309
 30
0.0
 11
83.37530788342679
 21
231.3698926858308
 31
0.0
  0
LINE
  5
2F5
330
1F
100
AcDbEntity
  8
0
 62
     2
100
AcDbLine
 10
69.1436178576102
 20
227.4198926858309
 30
0.0
 11
69.1436178576102
 21
231.5698926858308
 31
0.0
  0
LINE
  5
2F6
330
1F
100
AcDbEntity
  8
0
 62
     2
100
AcDbLine
 10
70.01362453527128
 20
227.4198926858309
 30
0.0
 11
70.01362453527128
 21
231.5698926858308
 31
0.0
  0
LINE
  5
2F7
330
1F
100
AcDbEntity
  8
0
 62
     2
100
AcDbLine
 10
70.41764018880565
 20
227.4198926858309
 30
0.0
 11
70.41764018880565
 21
231.5698926858308
 31
0.0
  0
LINE
  5
2F8
330
1F
100
AcDbEntity
  8
0
 62
     2
100
AcDbLine
 10
72.07263251939571
 20
227.4198926858309
 30
0.0
 11
72.07263251939571
 21
231.5698926858308
 31
0.0
  0
LINE
  5
2F9
330
1F
100
AcDbEntity
  8
0
 62
     2
100
AcDbLine
 10
102.77798197375
 20
227.4198926858309
 30
0.0
 11
102.77798197375
 21
231.5698926858308
 31
0.0
  0
LINE
  5
2FA
330
1F
100
AcDbEntity
  8
0
 62
     2
100
AcDbLine
 10
104.4329779054514
 20
227.4198926858309
 30
0.0
 11
104.4329779054514
 21
231.5698926858308
 31
0.0
  0
LINE
  5
2FB
330
1F
100
AcDbEntity
  8
0
 62
     2
100
AcDbLine
 10
104.8369946022554
 20
227.4198926858309
 30
0.0
 11
104.8369946022554
 21
231.5698926858308
 31
0.0
  0
LINE
  5
2FC
330
1F
100
AcDbEntity
  8
0
 62
     2
100
AcDbLine
 10
105.7069963731292
 20
227.4198926858309
 30
0.0
 11
105.7069963731292
 21
231.5698926858308
 31
0.0
  0
LINE
  5
2FD
330
1F
100
AcDbEntity
  8
0
 62
     2
100
AcDbLine
 10
106.57530785631
 20
227.4198926858309
 30
0.0
 11
106.57530785631
 21
231.5698926858308
 31
0.0
  0
LINE
  5
2FE
330
1F
100
AcDbEntity
  8
0
 62
     2
100
AcDbLine
 10
68.27530785634258
 20
227.4198926858309
 30
0.0
 11
68.27530785634252
 21
231.5698926858308
 31
0.0
  0
LINE
  5
2FF
330
1F
100
AcDbEntity
  8
0
 62
     2
100
AcDbLine
 10
82.37530854303066
 20
231.3698926858308
 30
0.0
 11
85.3753078833987
 21
231.3698926858308
 31
0.0
  0
LINE
  5
300
330
1F
100
AcDbEntity
  8
0
 62
     2
100
AcDbLine
 10
89.47530763111877
 20
231.3698926858308
 30
0.0
 11
92.47530879590738
 21
231.3698926858308
 31
0.0
  0
LINE
  5
301
330
1F
100
AcDbEntity
  8
0
 62
     2
100
AcDbLine
 10
83.37530788342679
 20
228.2198926858309
 30
0.0
 11
82.37530788342019
 21
228.2198926858309
 31
0.0
  0
LINE
  5
302
330
1F
100
AcDbEntity
  8
0
 62
     2
100
AcDbLine
 10
90.4753076305243
 20
228.2198926858309
 30
0.0
 11
89.47530763052316
 21
228.2198926858309
 31
0.0
  0
LINE
  5
303
330
1F
100
AcDbEntity
  8
0
 62
     2
100
AcDbLine
 10
92.47530763053925
 20
228.2198926858309
 30
0.0
 11
91.47530763054044
 21
228.2198926858309
 31
0.0
  0
LINE
  5
304
330
1F
100
AcDbEntity
  8
0
 62
     2
100
AcDbLine
 10
85.37530788342855
 20
228.2198926858309
 30
0.0
 11
84.37530788343508
 21
228.2198926858309
 31
0.0
  0
LINE
  5
305
330
1F
100
AcDbEntity
  8
0
 62
     2
100
AcDbLine
 10
92.74055353305778
 20
227.9546467833123
 30
0.0
 11
92.73967161924179
 21
227.9555286971283
 31
0.0
  0
LINE
  5
306
330
1F
100
AcDbEntity
  8
0
 62
     2
100
AcDbLine
 10
91.47530763054044
 20
228.2198926858309
 30
0.0
 11
91.47530763054164
 21
227.2198926858309
 31
0.0
  0
LINE
  5
307
330
1F
100
AcDbEntity
  8
0
 62
     2
100
AcDbLine
 10
90.47530763052549
 20
227.2198926858309
 30
0.0
 11
90.4753076305243
 21
228.2198926858309
 31
0.0
  0
LINE
  5
308
330
1F
100
AcDbEntity
  8
0
 62
     2
100
AcDbLine
 10
89.21094257236877
 20
227.9555276276765
 30
0.0
 11
89.21006072487535
 21
227.9546457801831
 31
0.0
  0
LINE
  5
309
330
1F
100
AcDbEntity
  8
0
 62
     2
100
AcDbLine
 10
85.64055378594992
 20
227.9546467833096
 30
0.0
 11
85.63967187213387
 21
227.9555286971255
 31
0.0
  0
LINE
  5
30A
330
1F
100
AcDbEntity
  8
0
 62
     2
100
AcDbLine
 10
84.37530788343508
 20
228.2198926858309
 30
0.0
 11
84.37530788344168
 21
227.2198926858309
 31
0.0
  0
LINE
  5
30B
330
1F
100
AcDbEntity
  8
0
 62
     2
100
AcDbLine
 10
83.37530788343332
 20
227.2198926858309
 30
0.0
 11
83.37530788342679
 21
228.2198926858309
 31
0.0
  0
LINE
  5
30C
330
1F
100
AcDbEntity
  8
0
 62
     2
100
AcDbLine
 10
69.42531477082736
 20
233.9698928487237
 30
0.0
 11
69.42531477082736
 21
236.9460063995789
 31
0.0
  0
LINE
  5
30D
330
1F
100
AcDbEntity
  8
0
 62
     2
100
AcDbLine
 10
105.4253147708274
 20
233.9698928487238
 30
0.0
 11
105.4253147708274
 21
236.9460061532063
 31
0.0
  0
LINE
  5
30E
330
1F
100
AcDbEntity
  8
0
 62
     2
100
AcDbLine
 10
71.92530778590964
 20
240.5898926858309
 30
0.0
 11
102.9253077859096
 21
240.5898926858309
 31
0.0
  0
LINE
  5
30F
330
1F
100
AcDbEntity
  8
0
 62
     2
100
AcDbLine
 10
72.17530778590964
 20
240.8398926858309
 30
0.0
 11
102.6753077859096
 21
240.8398926858309
 31
0.0
  0
LINE
  5
310
330
1F
100
AcDbEntity
  8
0
 62
     2
100
AcDbLine
 10
102.9253077859096
 20
240.5898926858309
 30
0.0
 11
102.9253077859096
 21
239.229602506429
 31
0.0
  0
LINE
  5
311
330
1F
100
AcDbEntity
  8
0
 62
     2
100
AcDbLine
 10
71.92530778590964
 20
240.5898926858309
 30
0.0
 11
71.92530778590964
 21
239.2296025394475
 31
0.0
  0
LINE
  5
312
330
1F
100
AcDbEntity
  8
0
 62
     2
100
AcDbLine
 10
102.9253077859096
 20
240.5898926858309
 30
0.0
 11
102.6753077859098
 21
240.8398926858308
 31
0.0
  0
LINE
  5
313
330
1F
100
AcDbEntity
  8
0
 62
     2
100
AcDbLine
 10
71.92530778590964
 20
240.5898926858309
 30
0.0
 11
72.17530778590958
 21
240.8398926858308
 31
0.0
  0
LINE
  5
314
330
1F
100
AcDbEntity
  8
0
 62
     2
100
AcDbLine
 10
72.07263251939617
 20
227.2198926858308
 30
0.0
 11
72.07263251939571
 21
227.4198926858309
 31
0.0
  0
LINE
  5
315
330
1F
100
AcDbEntity
  8
0
 62
     2
100
AcDbLine
 10
70.4898099193482
 20
227.2198926858308
 30
0.0
 11
70.41764031579618
 21
227.4198926858309
 31
0.0
  0
LINE
  5
316
330
1F
100
AcDbEntity
  8
0
 62
     2
100
AcDbLine
 10
69.92418786820247
 20
227.2198926858308
 30
0.0
 11
70.01362453529168
 21
227.4198926858309
 31
0.0
  0
LINE
  5
317
330
1F
100
AcDbEntity
  8
0
 62
     2
100
AcDbLine
 10
69.05418119051984
 20
227.2198926858308
 30
0.0
 11
69.14361785760906
 21
227.4198926858309
 31
0.0
  0
LINE
  5
318
330
1F
100
AcDbEntity
  8
0
 62
     2
100
AcDbLine
 10
68.27530785634258
 20
227.4198926858309
 30
0.0
 11
68.47530785634257
 21
227.2198926858308
 31
0.0
  0
LINE
  5
319
330
1F
100
AcDbEntity
  8
0
 62
     2
100
AcDbLine
 10
106.37530785631
 20
227.2198926858309
 30
0.0
 11
106.57530785631
 21
227.4198926858309
 31
0.0
  0
LINE
  5
31A
330
1F
100
AcDbEntity
  8
0
 62
     2
100
AcDbLine
 10
105.7069963731292
 20
227.4198926858309
 30
0.0
 11
105.7964335341894
 21
227.2198926858309
 31
0.0
  0
LINE
  5
31B
330
1F
100
AcDbEntity
  8
0
 62
     2
100
AcDbLine
 10
104.9264317632964
 20
227.2198926858309
 30
0.0
 11
104.8369946022361
 21
227.4198926858309
 31
0.0
  0
LINE
  5
31C
330
1F
100
AcDbEntity
  8
0
 62
     2
100
AcDbLine
 10
104.360808673072
 20
227.2198926858309
 30
0.0
 11
104.4329781092242
 21
227.4198926858309
 31
0.0
  0
LINE
  5
31D
330
1F
100
AcDbEntity
  8
0
 62
     2
100
AcDbLine
 10
102.77798197375
 20
227.4198926858309
 30
0.0
 11
102.7779819737501
 21
227.2198926858309
 31
0.0
  0
LINE
  5
31E
330
1F
100
AcDbEntity
  8
0
 62
     2
100
AcDbLine
 10
34.9752932913018
 20
159.0172093864452
 30
0.0
 11
30.82529329130182
 21
159.0172093827393
 31
0.0
  0
LINE
  5
31F
330
1F
100
AcDbEntity
  8
0
 62
     2
100
AcDbLine
 10
34.97529329130185
 20
190.9225524647981
 30
0.0
 11
30.82529329130182
 21
190.9225524683632
 31
0.0
  0
LINE
  5
320
330
1F
100
AcDbEntity
  8
0
 62
     2
100
AcDbLine
 10
21.80529329130178
 20
159.469885533096
 30
0.0
 11
23.1655834376852
 21
159.4698855330967
 31
0.0
  0
LINE
  5
321
330
1F
100
AcDbEntity
  8
0
 62
     2
100
AcDbLine
 10
21.80529329130178
 20
190.469885533096
 30
0.0
 11
23.16558347070463
 21
190.4698855330954
 31
0.0
  0
LINE
  5
322
330
1F
100
AcDbEntity
  8
0
 62
     2
100
AcDbLine
 10
21.80529329130178
 20
190.469885533096
 30
0.0
 11
21.55529329130178
 21
190.219885533096
 31
0.0
  0
LINE
  5
323
330
1F
100
AcDbEntity
  8
0
 62
     2
100
AcDbLine
 10
21.80529329130178
 20
159.469885533096
 30
0.0
 11
21.55529329130178
 21
159.719885533096
 31
0.0
  0
LINE
  5
324
330
1F
100
AcDbEntity
  8
0
 62
     2
100
AcDbLine
 10
34.97529329130185
 20
194.1198781455001
 30
0.0
 11
35.17529329130178
 21
193.9198781455
 31
0.0
  0
LINE
  5
325
330
1F
100
AcDbEntity
  8
0
 62
     2
100
AcDbLine
 10
34.97529329130185
 20
190.9225524683632
 30
0.0
 11
35.17529329130178
 21
190.7225524683632
 31
0.0
  0
LINE
  5
326
330
1F
100
AcDbEntity
  8
0
 62
     2
100
AcDbLine
 10
34.9752932913018
 20
159.0172093827393
 30
0.0
 11
35.17529329130178
 21
159.2172093827393
 31
0.0
  0
LINE
  5
327
330
1F
100
AcDbEntity
  8
0
 62
     2
100
AcDbLine
 10
34.9752932913018
 20
155.8198855412764
 30
0.0
 11
35.17529329130184
 21
156.0198855412764
 31
0.0
  0
LINE
  5
328
330
1F
100
AcDbEntity
  8
0
 62
     2
100
AcDbLine
 10
34.9752932913018
 20
169.1198849746813
 30
0.0
 11
35.17529329130178
 21
168.919884974679
 31
0.0
  0
LINE
  5
329
330
1F
100
AcDbEntity
  8
0
 62
     2
100
AcDbLine
 10
35.17529329130178
 20
181.0198847217848
 30
0.0
 11
34.97529329130185
 21
180.8198847217858
 31
0.0
  0
LINE
  5
32A
330
1F
100
AcDbEntity
  8
0
 62
     2
100
AcDbLine
 10
23.16558347070463
 20
190.4698855330954
 30
0.0
 11
23.1655834376852
 21
159.4698855330967
 31
0.0
  0
LWPOLYLINE
  5
32B
330
1F
100
AcDbEntity
  8
0
 62
     2
100
AcDbPolyline
 90
       17
 70
     0
 43
0.0
 10
25.4491747822841
 20
192.9698854166814
 10
25.39640632429439
 20
192.7494608920765
 10
25.34961070875863
 20
192.5308538045547
 10
25.30931789909295
 20
192.3168112737565
 10
25.27577250308758
 20
192.1089071333507
 10
25.24934138344247
 20
191.9091711571655
 10
25.23030685837023
 20
191.7198466005057
 10
25.21881159394741
 20
191.542543079788
 10
25.2149713484136
 20
191.3789082611685
 10
25.21881154683473
 20
191.2305979538421
 10
25.23030140231083
 20
191.0990954043411
 10
25.24933367171053
 20
190.9856037948423
 10
25.2757956851205
 20
190.8911303803337
 10
25.30935394027097
 20
190.8167494196895
 10
25.34958973072963
 20
190.7631339462378
 10
25.39635904525869
 20
190.7307082974018
 10
25.44917458547019
 20
190.7198855330961
  0
LINE
  5
32C
330
1F
100
AcDbEntity
  8
0
 62
     2
100
AcDbLine
 10
26.05348671687983
 20
190.7198855330961
 30
0.0
 11
25.44917802734551
 21
190.7198855330961
 31
0.0
  0
LWPOLYLINE
  5
32D
330
1F
100
AcDbEntity
  8
0
 62
     2
100
AcDbPolyline
 90
        3
 70
     0
 43
0.0
 10
25.44917823457052
 20
192.9698990974587
 10
25.56159688634972
 20
193.4107607887217
 10
26.05348501074945
 20
195.2198926856935
  0
LWPOLYLINE
  5
32E
330
1F
100
AcDbEntity
  8
0
 62
     2
100
AcDbPolyline
 90
       17
 70
     0
 43
0.0
 10
25.44917638163759
 20
159.2198855330961
 10
25.39642098545619
 20
159.2090623147479
 10
25.34961531083627
 20
159.176636648153
 10
25.30931796762076
 20
159.1230221658226
 10
25.27577761305736
 20
159.0486408820863
 10
25.24934350764147
 20
158.9541665987961
 10
25.23031108562611
 20
158.8406748739682
 10
25.218812162002
 20
158.7091725490308
 10
25.21496968823305
 20
158.5608621638374
 10
25.2188127234416
 20
158.3972271983172
 10
25.23031028166679
 20
158.2199236886857
 10
25.24934101952613
 20
158.0305988441823
 10
25.27579029989505
 20
157.8308639332554
 10
25.30937102445324
 20
157.6229620886652
 10
25.34957477257029
 20
157.4089135966361
 10
25.39624588925363
 20
157.1905338020219
 10
25.4491763638224
 20
156.9698856483703
  0
LINE
  5
32F
330
1F
100
AcDbEntity
  8
0
 62
     2
100
AcDbLine
 10
25.44917982392633
 20
159.2198855330961
 30
0.0
 11
26.05348675516495
 21
159.2198855330961
 31
0.0
  0
LWPOLYLINE
  5
330
330
1F
100
AcDbEntity
  8
0
 62
     2
100
AcDbPolyline
 90
        3
 70
     0
 43
0.0
 10
26.05348869888627
 20
154.7198710021952
 10
25.56160054722028
 20
156.5290022399273
 10
25.44917981533649
 20
156.9698719688501
  0
LINE
  5
331
330
1F
100
AcDbEntity
  8
0
 62
     2
100
AcDbLine
 10
24.32529331093099
 20
154.7198855412897
 30
0.0
 11
26.05348477392215
 21
154.7198855412897
 31
0.0
  0
LWPOLYLINE
  5
332
330
1F
100
AcDbEntity
  8
0
 62
     2
100
AcDbPolyline
 90
       21
 70
     0
 43
0.0
 10
26.05348332938644
 20
159.2198851034826
 10
25.83096327905201
 20
160.2573954530958
 10
25.39318085526594
 20
162.5606671732897
 10
25.06187699721016
 20
164.6519905938597
 10
24.96165380175171
 20
165.3762694239788
 10
24.81124084540244
 20
166.5820221878811
 10
24.62391965517423
 20
168.3902476102796
 10
24.48817675998583
 20
170.1082683680304
 10
24.39613882086331
 20
171.7625892548078
 10
24.34277832561145
 20
173.376163766297
 10
24.3252916635418
 20
174.9698855311449
 10
24.34277833508213
 20
176.5636078886149
 10
24.39613850865601
 20
178.1771749051633
 10
24.48817526024698
 20
179.8314804991472
 10
24.62392049289701
 20
181.5495328228239
 10
24.81124422326462
 20
183.357778089896
 10
24.96165380175159
 20
184.5635017994104
 10
25.06187699720647
 20
185.2877806295058
 10
25.39318145291196
 20
187.3791074968061
 10
25.83096350450035
 20
189.6823768602286
 10
26.05348329446758
 20
190.7198859627094
  0
LINE
  5
333
330
1F
100
AcDbEntity
  8
0
 62
     2
100
AcDbLine
 10
26.05348106663473
 20
195.219878145494
 30
0.0
 11
24.32529120974834
 21
195.219878145494
 31
0.0
  0
LINE
  5
334
330
1F
100
AcDbEntity
  8
0
 62
     2
100
AcDbLine
 10
28.42529312840895
 20
195.2198781454941
 30
0.0
 11
28.42529312840895
 21
192.9698785563713
 31
0.0
  0
LINE
  5
335
330
1F
100
AcDbEntity
  8
0
 62
     2
100
AcDbLine
 10
26.05348329446758
 20
190.7198855330961
 30
0.0
 11
28.42529312840895
 21
190.7198855330961
 31
0.0
  0
LINE
  5
336
330
1F
100
AcDbEntity
  8
0
 62
     2
100
AcDbLine
 10
28.42529312840895
 20
195.219878145494
 30
0.0
 11
26.05348106663473
 21
195.219878145494
 31
0.0
  0
LINE
  5
337
330
1F
100
AcDbEntity
  8
0
 62
     2
100
AcDbLine
 10
28.42529312840895
 20
190.7198855330961
 30
0.0
 11
28.42529312840895
 21
192.9698785563713
 31
0.0
  0
LINE
  5
338
330
1F
100
AcDbEntity
  8
0
 62
     2
100
AcDbLine
 10
28.42529312840895
 20
156.9698851304117
 30
0.0
 11
28.4252931284089
 21
154.719885541289
 31
0.0
  0
LINE
  5
339
330
1F
100
AcDbEntity
  8
0
 62
     2
100
AcDbLine
 10
28.42529312840895
 20
159.2198855330961
 30
0.0
 11
26.05348332938644
 21
159.2198855330961
 31
0.0
  0
LINE
  5
33A
330
1F
100
AcDbEntity
  8
0
 62
     2
100
AcDbLine
 10
26.05348477392215
 20
154.7198855412897
 30
0.0
 11
28.42529312840895
 21
154.7198855412897
 31
0.0
  0
LINE
  5
33B
330
1F
100
AcDbEntity
  8
0
 62
     2
100
AcDbLine
 10
28.4252931284089
 20
156.9698855412904
 30
0.0
 11
28.4252931284089
 21
159.2198855330961
 31
0.0
  0
LINE
  5
33C
330
1F
100
AcDbEntity
  8
0
 62
     2
100
AcDbLine
 10
35.17529329130178
 20
173.9198849746481
 30
0.0
 11
34.9752932913018
 21
173.7198849746482
 31
0.0
  0
LINE
  5
33D
330
1F
100
AcDbEntity
  8
0
 62
     2
100
AcDbLine
 10
34.9752932913018
 20
176.2198847217795
 30
0.0
 11
35.17529329130178
 21
176.0198847217806
 31
0.0
  0
LINE
  5
33E
330
1F
100
AcDbEntity
  8
0
 62
     2
100
AcDbLine
 10
34.21335357307936
 20
156.1285549935955
 30
0.0
 11
34.21296020632821
 21
156.1295207715814
 31
0.0
  0
LINE
  5
33F
330
1F
100
AcDbEntity
  8
0
 62
     2
100
AcDbLine
 10
34.57775170989089
 20
155.8294921559608
 30
0.0
 11
34.56999201378358
 21
155.8311124607803
 31
0.0
  0
LINE
  5
340
330
1F
100
AcDbEntity
  8
0
 62
     2
100
AcDbLine
 10
34.17529897342263
 20
172.9198912523117
 30
0.0
 11
34.67529298597918
 21
173.4198846693501
 31
0.0
  0
LINE
  5
341
330
1F
100
AcDbEntity
  8
0
 62
     2
100
AcDbLine
 10
34.675292985981
 20
169.4198852799776
 30
0.0
 11
34.17529897342263
 21
169.9198786970119
 31
0.0
  0
LINE
  5
342
330
1F
100
AcDbEntity
  8
0
 62
     2
100
AcDbLine
 10
34.9752932913018
 20
173.7198849746482
 30
0.0
 11
34.67529329130565
 21
173.419884974652
 31
0.0
  0
LINE
  5
343
330
1F
100
AcDbEntity
  8
0
 62
     2
100
AcDbLine
 10
34.67529329130747
 20
169.4198849746757
 30
0.0
 11
34.9752932913018
 21
169.1198849746813
 31
0.0
  0
LINE
  5
344
330
1F
100
AcDbEntity
  8
0
 62
     2
100
AcDbLine
 10
34.17529897342263
 20
180.0198909994469
 30
0.0
 11
34.67529298597265
 21
180.5198844164813
 31
0.0
  0
LINE
  5
345
330
1F
100
AcDbEntity
  8
0
 62
     2
100
AcDbLine
 10
34.67529298596889
 20
176.5198850270879
 30
0.0
 11
34.17529897342263
 21
177.0198784441186
 31
0.0
  0
LINE
  5
346
330
1F
100
AcDbEntity
  8
0
 62
     2
100
AcDbLine
 10
34.97529329130185
 20
180.8198847217858
 30
0.0
 11
34.67529329129911
 21
180.5198847217831
 31
0.0
  0
LINE
  5
347
330
1F
100
AcDbEntity
  8
0
 62
     2
100
AcDbLine
 10
34.6752932912953
 20
176.519884721786
 30
0.0
 11
34.9752932913018
 21
176.2198847217795
 31
0.0
  0
LINE
  5
348
330
1F
100
AcDbEntity
  8
0
 62
     2
100
AcDbLine
 10
30.82529329130182
 20
195.2198781454941
 30
0.0
 11
30.82529329130182
 21
192.9698785563713
 31
0.0
  0
LINE
  5
349
330
1F
100
AcDbEntity
  8
0
 62
     2
100
AcDbLine
 10
30.82529329130182
 20
156.9698855412904
 30
0.0
 11
30.82529329130182
 21
192.9698781454832
 31
0.0
  0
LINE
  5
34A
330
1F
100
AcDbEntity
  8
0
 62
     2
100
AcDbLine
 10
30.82529329130182
 20
156.9698851304117
 30
0.0
 11
30.82529329130182
 21
154.719885541289
 31
0.0
  0
LINE
  5
34B
330
1F
100
AcDbEntity
  8
0
 62
     2
100
AcDbLine
 10
30.82529329130182
 20
195.219878145494
 30
0.0
 11
28.42529312840895
 21
195.219878145494
 31
0.0
  0
LINE
  5
34C
330
1F
100
AcDbEntity
  8
0
 62
     2
100
AcDbLine
 10
30.82529329130182
 20
192.9698785563713
 30
0.0
 11
28.42529312840895
 21
192.9698785563713
 31
0.0
  0
LINE
  5
34D
330
1F
100
AcDbEntity
  8
0
 62
     2
100
AcDbLine
 10
30.82529329130182
 20
156.9698855412904
 30
0.0
 11
28.42529312840895
 21
156.9698855412904
 31
0.0
  0
LINE
  5
34E
330
1F
100
AcDbEntity
  8
0
 62
     2
100
AcDbLine
 10
30.82529329130182
 20
154.719885541289
 30
0.0
 11
28.4252931284089
 21
154.719885541289
 31
0.0
  0
LINE
  5
34F
330
1F
100
AcDbEntity
  8
0
 62
     2
100
AcDbLine
 10
35.17529329130184
 20
156.5987588754494
 30
0.0
 11
35.17529329130184
 21
156.0198855412764
 31
0.0
  0
LINE
  5
350
330
1F
100
AcDbEntity
  8
0
 62
     2
100
AcDbLine
 10
34.9752932913018
 20
156.6881955425359
 30
0.0
 11
34.9752932913018
 21
155.8198855412764
 31
0.0
  0
LINE
  5
351
330
1F
100
AcDbEntity
  8
0
 62
     2
100
AcDbLine
 10
35.17529329130184
 20
157.468764731668
 30
0.0
 11
35.17529329130184
 21
156.5987588754494
 31
0.0
  0
LINE
  5
352
330
1F
100
AcDbEntity
  8
0
 62
     2
100
AcDbLine
 10
34.9752932913018
 20
157.5582013987545
 30
0.0
 11
34.9752932913018
 21
156.6881955425359
 31
0.0
  0
LINE
  5
353
330
1F
100
AcDbEntity
  8
0
 62
     2
100
AcDbLine
 10
35.17529329130184
 20
157.468764731668
 30
0.0
 11
35.17529329130184
 21
158.0343867516335
 31
0.0
  0
LINE
  5
354
330
1F
100
AcDbEntity
  8
0
 62
     2
100
AcDbLine
 10
34.9752932913018
 20
157.5582013987545
 30
0.0
 11
34.9752932913018
 21
157.9622170522616
 31
0.0
  0
LINE
  5
355
330
1F
100
AcDbEntity
  8
0
 62
     2
100
AcDbLine
 10
35.17529329130178
 20
158.0343867828038
 30
0.0
 11
35.17529329130184
 21
159.2172093827393
 31
0.0
  0
LINE
  5
356
330
1F
100
AcDbEntity
  8
0
 62
     2
100
AcDbLine
 10
34.9752932913018
 20
157.9622171792518
 30
0.0
 11
34.9752932913018
 21
159.0172093864452
 31
0.0
  0
LINE
  5
357
330
1F
100
AcDbEntity
  8
0
 62
     2
100
AcDbLine
 10
35.17529329130178
 20
159.6172093827396
 30
0.0
 11
35.17529329130184
 21
159.2172093852099
 31
0.0
  0
LINE
  5
358
330
1F
100
AcDbEntity
  8
0
 62
     2
100
AcDbLine
 10
34.9752932913018
 20
159.6172093827397
 30
0.0
 11
34.9752932913018
 21
159.0172093864452
 31
0.0
  0
LINE
  5
359
330
1F
100
AcDbEntity
  8
0
 62
     2
100
AcDbLine
 10
35.17529329130178
 20
168.919884974679
 30
0.0
 11
35.17529329130184
 21
159.6172093827392
 31
0.0
  0
LINE
  5
35A
330
1F
100
AcDbEntity
  8
0
 62
     2
100
AcDbLine
 10
34.9752932913018
 20
169.1198849746813
 30
0.0
 11
34.9752932913018
 21
159.6172093827393
 31
0.0
  0
LINE
  5
35B
330
1F
100
AcDbEntity
  8
0
 62
     2
100
AcDbLine
 10
35.17529329130178
 20
190.3225524683632
 30
0.0
 11
35.17529329130178
 21
181.0198847217848
 31
0.0
  0
LINE
  5
35C
330
1F
100
AcDbEntity
  8
0
 62
     2
100
AcDbLine
 10
34.97529329130185
 20
190.3225524683632
 30
0.0
 11
34.97529329130185
 21
180.8198847217858
 31
0.0
  0
LINE
  5
35D
330
1F
100
AcDbEntity
  8
0
 62
     2
100
AcDbLine
 10
35.17529329130178
 20
190.7225524659864
 30
0.0
 11
35.17529329130178
 21
190.3225524683632
 31
0.0
  0
LINE
  5
35E
330
1F
100
AcDbEntity
  8
0
 62
     2
100
AcDbLine
 10
34.97529329130185
 20
190.9225524647981
 30
0.0
 11
34.97529329130185
 21
190.3225524683632
 31
0.0
  0
LINE
  5
35F
330
1F
100
AcDbEntity
  8
0
 62
     2
100
AcDbLine
 10
35.17529329130178
 20
190.7206769180011
 30
0.0
 11
35.17529329130184
 21
191.905378962249
 31
0.0
  0
LINE
  5
360
330
1F
100
AcDbEntity
  8
0
 62
     2
100
AcDbLine
 10
34.97529329130185
 20
190.9225524647981
 30
0.0
 11
34.97529329130185
 21
191.9775481946283
 31
0.0
  0
LINE
  5
361
330
1F
100
AcDbEntity
  8
0
 62
     2
100
AcDbLine
 10
35.17529329130178
 20
191.905378962249
 30
0.0
 11
35.17529329130184
 21
192.4710020524823
 31
0.0
  0
LINE
  5
362
330
1F
100
AcDbEntity
  8
0
 62
     2
100
AcDbLine
 10
34.97529329130185
 20
191.9775483984012
 30
0.0
 11
34.97529329130185
 21
192.3815648914369
 31
0.0
  0
LINE
  5
363
330
1F
100
AcDbEntity
  8
0
 62
     2
100
AcDbLine
 10
35.17529329130178
 20
193.3410038233759
 30
0.0
 11
35.17529329130178
 21
192.4710020524751
 31
0.0
  0
LINE
  5
364
330
1F
100
AcDbEntity
  8
0
 62
     2
100
AcDbLine
 10
34.97529329130185
 20
193.2515666623138
 30
0.0
 11
34.97529329130185
 21
192.381564891413
 31
0.0
  0
LINE
  5
365
330
1F
100
AcDbEntity
  8
0
 62
     2
100
AcDbLine
 10
35.17529329130178
 20
193.9198781455
 30
0.0
 11
35.17529329130178
 21
193.3410038233759
 31
0.0
  0
LINE
  5
366
330
1F
100
AcDbEntity
  8
0
 62
     2
100
AcDbLine
 10
34.97529329130185
 20
194.1198781455001
 30
0.0
 11
34.97529329130185
 21
193.2515666623138
 31
0.0
  0
LINE
  5
367
330
1F
100
AcDbEntity
  8
0
 62
     2
100
AcDbLine
 10
35.17529329130178
 20
176.0198847217806
 30
0.0
 11
35.17529329130178
 21
173.9198849746481
 31
0.0
  0
LINE
  5
368
330
1F
100
AcDbEntity
  8
0
 62
     2
100
AcDbLine
 10
34.9752932913018
 20
176.2198847217795
 30
0.0
 11
34.9752932913018
 21
173.7198849746482
 31
0.0
  0
LINE
  5
369
330
1F
100
AcDbEntity
  8
0
 62
     2
100
AcDbLine
 10
35.17529329130184
 20
169.1878341670983
 30
0.0
 11
35.17529329130184
 21
170.9198849746672
 31
0.0
  0
LINE
  5
36A
330
1F
100
AcDbEntity
  8
0
 62
     2
100
AcDbLine
 10
35.17529329130184
 20
168.9198849746672
 30
0.0
 11
35.17529329130184
 21
169.1878341670983
 31
0.0
  0
LINE
  5
36B
330
1F
100
AcDbEntity
  8
0
 62
     2
100
AcDbLine
 10
35.17529329130184
 20
171.9198849746481
 30
0.0
 11
35.17529329130184
 21
170.9198849746672
 31
0.0
  0
LINE
  5
36C
330
1F
100
AcDbEntity
  8
0
 62
     2
100
AcDbLine
 10
34.17529329130184
 20
171.9198849746481
 30
0.0
 11
34.17529329130184
 21
170.9198849746672
 31
0.0
  0
LINE
  5
36D
330
1F
100
AcDbEntity
  8
0
 62
     2
100
AcDbLine
 10
35.17529329130184
 20
172.9198849746481
 30
0.0
 11
35.17529329130184
 21
173.9198849746481
 31
0.0
  0
LINE
  5
36E
330
1F
100
AcDbEntity
  8
0
 62
     2
100
AcDbLine
 10
35.17529329130184
 20
171.9198849746481
 30
0.0
 11
35.17529329130184
 21
172.9198849746481
 31
0.0
  0
LINE
  5
36F
330
1F
100
AcDbEntity
  8
0
 62
     2
100
AcDbLine
 10
35.17529329130184
 20
176.2878339142188
 30
0.0
 11
35.17529329130184
 21
178.0198847217894
 31
0.0
  0
LINE
  5
370
330
1F
100
AcDbEntity
  8
0
 62
     2
100
AcDbLine
 10
35.17529329130184
 20
176.0198847217859
 30
0.0
 11
35.17529329130184
 21
176.2878339142188
 31
0.0
  0
LINE
  5
371
330
1F
100
AcDbEntity
  8
0
 62
     2
100
AcDbLine
 10
35.17529329130178
 20
179.0198847217835
 30
0.0
 11
35.17529329130184
 21
178.0198847217894
 31
0.0
  0
LINE
  5
372
330
1F
100
AcDbEntity
  8
0
 62
     2
100
AcDbLine
 10
34.17529329130184
 20
179.0198847217817
 30
0.0
 11
34.17529329130184
 21
178.0198847217877
 31
0.0
  0
LINE
  5
373
330
1F
100
AcDbEntity
  8
0
 62
     2
100
AcDbLine
 10
35.17529329130184
 20
180.0198847217715
 30
0.0
 11
35.17529329130184
 21
181.0198847217799
 31
0.0
  0
LINE
  5
374
330
1F
100
AcDbEntity
  8
0
 62
     2
100
AcDbLine
 10
35.17529329130184
 20
179.0198847217835
 30
0.0
 11
35.17529329130184
 21
180.0198847217715
 31
0.0
  0
LINE
  5
375
330
1F
100
AcDbEntity
  8
0
 62
     2
100
AcDbLine
 10
34.17529329130184
 20
180.0198847217833
 30
0.0
 11
31.02529329130186
 21
180.0198847217833
 31
0.0
  0
LINE
  5
376
330
1F
100
AcDbEntity
  8
0
 62
     2
100
AcDbLine
 10
34.67529329129911
 20
180.5198847217831
 30
0.0
 11
31.02529329130186
 21
180.5198847217831
 31
0.0
  0
LINE
  5
377
330
1F
100
AcDbEntity
  8
0
 62
     2
100
AcDbLine
 10
31.02529329130186
 20
180.0198847217858
 30
0.0
 11
31.02529329130186
 21
180.5198847217831
 31
0.0
  0
LINE
  5
378
330
1F
100
AcDbEntity
  8
0
 62
     2
100
AcDbLine
 10
34.6752932912953
 20
176.519884721786
 30
0.0
 11
31.02529329130186
 21
176.519884721786
 31
0.0
  0
LINE
  5
379
330
1F
100
AcDbEntity
  8
0
 62
     2
100
AcDbLine
 10
34.17529329130184
 20
177.0198847217822
 30
0.0
 11
31.02529329130186
 21
177.0198847217822
 31
0.0
  0
LINE
  5
37A
330
1F
100
AcDbEntity
  8
0
 62
     2
100
AcDbLine
 10
31.02529329130186
 20
176.519884721786
 30
0.0
 11
31.02529329130186
 21
177.0198847757692
 31
0.0
  0
LINE
  5
37B
330
1F
100
AcDbEntity
  8
0
 62
     2
100
AcDbLine
 10
34.17529329130184
 20
172.9198849746481
 30
0.0
 11
31.02529329130186
 21
172.9198849746481
 31
0.0
  0
LINE
  5
37C
330
1F
100
AcDbEntity
  8
0
 62
     2
100
AcDbLine
 10
34.67529329130565
 20
173.419884974652
 30
0.0
 11
31.02529329130186
 21
173.419884974652
 31
0.0
  0
LINE
  5
37D
330
1F
100
AcDbEntity
  8
0
 62
     2
100
AcDbLine
 10
31.02529329130186
 20
172.9198849746481
 30
0.0
 11
31.02529329130186
 21
173.419884974652
 31
0.0
  0
LINE
  5
37E
330
1F
100
AcDbEntity
  8
0
 62
     2
100
AcDbLine
 10
34.67529329130747
 20
169.4198849746757
 30
0.0
 11
31.02529329130181
 21
169.4198849746757
 31
0.0
  0
LINE
  5
37F
330
1F
100
AcDbEntity
  8
0
 62
     2
100
AcDbLine
 10
34.17529329130184
 20
169.9198849746755
 30
0.0
 11
31.02529329130186
 21
169.9198849746755
 31
0.0
  0
LINE
  5
380
330
1F
100
AcDbEntity
  8
0
 62
     2
100
AcDbLine
 10
31.02529329130186
 20
169.4198849746757
 30
0.0
 11
31.02529329130186
 21
169.9198849746813
 31
0.0
  0
LINE
  5
381
330
1F
100
AcDbEntity
  8
0
 62
     2
100
AcDbLine
 10
34.17529329130184
 20
171.9198849746481
 30
0.0
 11
31.02529329130186
 21
171.9198849746481
 31
0.0
  0
LINE
  5
382
330
1F
100
AcDbEntity
  8
0
 62
     2
100
AcDbLine
 10
34.17529329130184
 20
179.0198847217817
 30
0.0
 11
31.02529329130186
 21
179.0198847217817
 31
0.0
  0
LINE
  5
383
330
1F
100
AcDbEntity
  8
0
 62
     2
100
AcDbLine
 10
34.17529329130184
 20
170.9198849746672
 30
0.0
 11
31.02529329130186
 21
170.9198849746672
 31
0.0
  0
LINE
  5
384
330
1F
100
AcDbEntity
  8
0
 62
     2
100
AcDbLine
 10
34.17529329130184
 20
178.0198847217877
 30
0.0
 11
31.02529329130186
 21
178.0198847217877
 31
0.0
  0
LINE
  5
385
330
1F
100
AcDbEntity
  8
0
 62
     2
100
AcDbLine
 10
34.9752932913018
 20
155.8198855412764
 30
0.0
 11
30.82529329130182
 21
155.8198855412764
 31
0.0
  0
LINE
  5
386
330
1F
100
AcDbEntity
  8
0
 62
     2
100
AcDbLine
 10
34.9752932913018
 20
156.6881955425359
 30
0.0
 11
30.82529329130182
 21
156.6881955425359
 31
0.0
  0
LINE
  5
387
330
1F
100
AcDbEntity
  8
0
 62
     2
100
AcDbLine
 10
34.9752932913018
 20
157.558201398728
 30
0.0
 11
30.82529329130182
 21
157.558201398728
 31
0.0
  0
LINE
  5
388
330
1F
100
AcDbEntity
  8
0
 62
     2
100
AcDbLine
 10
34.9752932913018
 20
157.9622170522616
 30
0.0
 11
30.82529329130182
 21
157.9622170522616
 31
0.0
  0
LINE
  5
389
330
1F
100
AcDbEntity
  8
0
 62
     2
100
AcDbLine
 10
34.9752932913018
 20
159.6172093827393
 30
0.0
 11
30.82529329130182
 21
159.6172093827393
 31
0.0
  0
LINE
  5
38A
330
1F
100
AcDbEntity
  8
0
 62
     2
100
AcDbLine
 10
34.97529329130185
 20
190.3225524683632
 30
0.0
 11
30.82529329130182
 21
190.3225524683632
 31
0.0
  0
LINE
  5
38B
330
1F
100
AcDbEntity
  8
0
 62
     2
100
AcDbLine
 10
34.97529329130185
 20
191.9775481946283
 30
0.0
 11
30.82529329130182
 21
191.9775481946283
 31
0.0
  0
LINE
  5
38C
330
1F
100
AcDbEntity
  8
0
 62
     2
100
AcDbLine
 10
34.97529329130185
 20
192.3815648914369
 30
0.0
 11
30.82529329130182
 21
192.3815648914369
 31
0.0
  0
LINE
  5
38D
330
1F
100
AcDbEntity
  8
0
 62
     2
100
AcDbLine
 10
34.97529329130185
 20
193.2515666623138
 30
0.0
 11
30.82529329130182
 21
193.2515666623138
 31
0.0
  0
LINE
  5
38E
330
1F
100
AcDbEntity
  8
0
 62
     2
100
AcDbLine
 10
34.97529329130185
 20
194.1198781455001
 30
0.0
 11
30.82529329130182
 21
194.1198781455001
 31
0.0
  0
LINE
  5
38F
330
1F
100
AcDbEntity
  8
0
 62
     2
100
AcDbLine
 10
31.02529329130186
 20
169.9198856305852
 30
0.0
 11
31.02529329130186
 21
172.9198849746481
 31
0.0
  0
LINE
  5
390
330
1F
100
AcDbEntity
  8
0
 62
     2
100
AcDbLine
 10
31.02529329130186
 20
177.0198847757692
 30
0.0
 11
31.02529329130186
 21
180.0198853777057
 31
0.0
  0
LINE
  5
391
330
1F
100
AcDbEntity
  8
0
 62
     2
100
AcDbLine
 10
34.17529329130184
 20
178.0198847217877
 30
0.0
 11
34.17529329130184
 21
177.0198847217859
 31
0.0
  0
LINE
  5
392
330
1F
100
AcDbEntity
  8
0
 62
     2
100
AcDbLine
 10
34.17529329130184
 20
170.9198849746672
 30
0.0
 11
34.17529329130178
 21
169.9198849746672
 31
0.0
  0
LINE
  5
393
330
1F
100
AcDbEntity
  8
0
 62
     2
100
AcDbLine
 10
34.17529329130184
 20
180.0198847217799
 30
0.0
 11
34.17529329130184
 21
179.0198847217817
 31
0.0
  0
LINE
  5
394
330
1F
100
AcDbEntity
  8
0
 62
     2
100
AcDbLine
 10
34.17529329130184
 20
172.9198849746481
 30
0.0
 11
34.17529329130184
 21
171.9198849746481
 31
0.0
  0
LINE
  5
395
330
1F
100
AcDbEntity
  8
0
 62
     2
100
AcDbLine
 10
34.17529329130184
 20
179.0198847217817
 30
0.0
 11
35.17529329130184
 21
179.0198847217835
 31
0.0
  0
LINE
  5
396
330
1F
100
AcDbEntity
  8
0
 62
     2
100
AcDbLine
 10
35.17529329130184
 20
178.0198847217894
 30
0.0
 11
34.17529329130184
 21
178.0198847217877
 31
0.0
  0
LINE
  5
397
330
1F
100
AcDbEntity
  8
0
 62
     2
100
AcDbLine
 10
34.28734363538075
 20
176.907834377707
 30
0.0
 11
34.28877601539801
 21
176.9064019976897
 31
0.0
  0
LINE
  5
398
330
1F
100
AcDbEntity
  8
0
 62
     2
100
AcDbLine
 10
34.17529329130184
 20
171.9198849746481
 30
0.0
 11
35.17529329130184
 21
171.9198849746481
 31
0.0
  0
LINE
  5
399
330
1F
100
AcDbEntity
  8
0
 62
     2
100
AcDbLine
 10
35.17529329130184
 20
170.9198849746672
 30
0.0
 11
34.17529329130184
 21
170.9198849746672
 31
0.0
  0
LINE
  5
39A
330
1F
100
AcDbEntity
  8
0
 62
     2
100
AcDbLine
 10
34.28734363536705
 20
169.807834630602
 30
0.0
 11
34.28877601538431
 21
169.8064022505848
 31
0.0
  0
LINE
  5
39B
330
1F
100
AcDbEntity
  8
0
 62
     2
100
AcDbLine
 10
28.4252931284089
 20
156.9698855330961
 30
0.0
 11
25.44917981533649
 21
156.9698855330961
 31
0.0
  0
LINE
  5
39C
330
1F
100
AcDbEntity
  8
0
 62
     2
100
AcDbLine
 10
28.42529312840895
 20
192.9698855330961
 30
0.0
 11
25.44917823457052
 21
192.9698855330961
 31
0.0
  0
ARC
  5
39D
330
1F
100
AcDbEntity
  8
0
 62
     2
100
AcDbCircle
 10
96.95879509634852
 20
174.9698856116952
 30
0.0
 40
75.4035018050466
100
AcDbArc
 50
191.8623265461244
 51
195.5783089878821
  0
ARC
  5
39E
330
1F
100
AcDbEntity
  8
0
 62
     2
100
AcDbCircle
 10
96.95879509634852
 20
174.9698856116952
 30
0.0
 40
75.4035018050466
100
AcDbArc
 50
164.4216969572503
 51
168.1376734538699
  0
LINE
  5
39F
330
1F
100
AcDbEntity
  8
0
 62
     2
100
AcDbLine
 10
31.9752932913018
 20
169.5777054149908
 30
0.0
 11
31.9752932913018
 21
169.575893127086
 31
0.0
  0
LINE
  5
3A0
330
1F
100
AcDbEntity
  8
0
 62
     2
100
AcDbLine
 10
31.9752932913018
 20
172.6285859564176
 30
0.0
 11
31.9752932913018
 21
172.6269917558347
 31
0.0
  0
LINE
  5
3A1
330
1F
100
AcDbEntity
  8
0
 62
     2
100
AcDbLine
 10
31.9752932913018
 20
172.6941363068233
 30
0.0
 11
31.9752932913018
 21
172.6928954280109
 31
0.0
  0
LINE
  5
3A2
330
1F
100
AcDbEntity
  8
0
 62
     2
100
AcDbLine
 10
31.9752932913018
 20
176.6777051620987
 30
0.0
 11
31.9752932913018
 21
176.6758928741939
 31
0.0
  0
LINE
  5
3A3
330
1F
100
AcDbEntity
  8
0
 62
     2
100
AcDbLine
 10
31.9752932913018
 20
179.7285857035483
 30
0.0
 11
31.9752932913018
 21
179.7269915029654
 31
0.0
  0
LINE
  5
3A4
330
1F
100
AcDbEntity
  8
0
 62
     2
100
AcDbLine
 10
31.9752932913018
 20
179.7941360539538
 30
0.0
 11
31.9752932913018
 21
179.7928951751414
 31
0.0
  0
LINE
  5
3A5
330
1F
100
AcDbEntity
  8
0
 62
     2
100
AcDbLine
 10
21.80529329130178
 20
159.469885533096
 30
0.0
 11
21.80529329130178
 21
190.469885533096
 31
0.0
  0
LINE
  5
3A6
330
1F
100
AcDbEntity
  8
0
 62
     2
100
AcDbLine
 10
21.55529329130178
 20
159.719885533096
 30
0.0
 11
21.55529329130178
 21
174.969885533096
 31
0.0
  0
LINE
  5
3A7
330
1F
100
AcDbEntity
  8
0
 62
     2
100
AcDbLine
 10
21.55529329130178
 20
174.969885533096
 30
0.0
 11
21.55529329130178
 21
190.219885533096
 31
0.0
  0
LINE
  5
3A8
330
1F
100
AcDbEntity
  8
0
 62
     2
100
AcDbLine
 10
35.17529329130184
 20
193.9198781455
 30
0.0
 11
34.97529329130185
 21
194.1198781455001
 31
0.0
  0
LINE
  5
3A9
330
1F
100
AcDbEntity
  8
0
 62
     2
100
AcDbLine
 10
34.97529329130185
 20
193.2515666623138
 30
0.0
 11
35.17529329130178
 21
193.3410038233759
 31
0.0
  0
LINE
  5
3AA
330
1F
100
AcDbEntity
  8
0
 62
     2
100
AcDbLine
 10
35.17529329130178
 20
192.4710020524751
 30
0.0
 11
34.97529329130185
 21
192.381564891413
 31
0.0
  0
LINE
  5
3AB
330
1F
100
AcDbEntity
  8
0
 62
     2
100
AcDbLine
 10
35.17529329130178
 20
191.905378962249
 30
0.0
 11
34.97529329130185
 21
191.9775483984012
 31
0.0
  0
LINE
  5
3AC
330
1F
100
AcDbEntity
  8
0
 62
     2
100
AcDbLine
 10
34.97529329130185
 20
190.3225524683632
 30
0.0
 11
35.17529329130178
 21
190.3225524683632
 31
0.0
  0
LINE
  5
3AD
330
1F
100
AcDbEntity
  8
0
 62
     2
100
AcDbLine
 10
35.17529329130184
 20
159.6172093827392
 30
0.0
 11
34.9752932913018
 21
159.6172093827393
 31
0.0
  0
LINE
  5
3AE
330
1F
100
AcDbEntity
  8
0
 62
     2
100
AcDbLine
 10
35.17529329130184
 20
158.0343867828039
 30
0.0
 11
34.9752932913018
 21
157.9622171792519
 31
0.0
  0
LINE
  5
3AF
330
1F
100
AcDbEntity
  8
0
 62
     2
100
AcDbLine
 10
35.17529329130184
 20
157.4687647316681
 30
0.0
 11
34.9752932913018
 21
157.5582013987545
 31
0.0
  0
LINE
  5
3B0
330
1F
100
AcDbEntity
  8
0
 62
     2
100
AcDbLine
 10
35.17529329130184
 20
156.5987588754494
 30
0.0
 11
34.9752932913018
 21
156.6881955425359
 31
0.0
  0
LINE
  5
3B1
330
1F
100
AcDbEntity
  8
0
 62
     2
100
AcDbLine
 10
34.9752932913018
 20
155.8198855412764
 30
0.0
 11
35.17529329130184
 21
156.0198855412764
 31
0.0
  0
CIRCLE
  5
3B2
330
1F
100
AcDbEntity
  8
0
 62
     2
100
AcDbCircle
 10
87.42530778596176
 20
174.9698855332334
 30
0.0
 40
9.0
  0
ARC
  5
3B3
330
1F
100
AcDbEntity
  8
0
 62
     2
100
AcDbCircle
 10
105.4253077708795
 20
192.9698855332334
 30
0.0
 40
2.25
100
AcDbArc
 50
180.0000029575587
 51
269.9999970704449
  0
LINE
  5
3B4
330
1F
100
AcDbEntity
  8
0
 62
     2
100
AcDbLine
 10
107.6753224222799
 20
190.7198855332334
 30
0.0
 11
105.425321332741
 21
190.7198855332334
 31
0.0
  0
LINE
  5
3B5
330
1F
100
AcDbEntity
  8
0
 62
     2
100
AcDbLine
 10
103.1753077708795
 20
192.9698990975961
 30
0.0
 11
103.1753077708795
 21
195.2198926858308
 31
0.0
  0
ARC
  5
3B6
330
1F
100
AcDbEntity
  8
0
 62
     2
100
AcDbCircle
 10
105.4253147708795
 20
156.9698855332334
 30
0.0
 40
2.25
100
AcDbArc
 50
90.00000297048342
 51
179.9999970645676
  0
LINE
  5
3B7
330
1F
100
AcDbEntity
  8
0
 62
     2
100
AcDbLine
 10
105.4253283327503
 20
159.2198855332334
 30
0.0
 11
107.6753224232613
 21
159.2198855332334
 31
0.0
  0
LINE
  5
3B8
330
1F
100
AcDbEntity
  8
0
 62
     2
100
AcDbLine
 10
103.1753147708795
 20
154.7198710023325
 30
0.0
 11
103.1753147708795
 21
156.9698719689874
 31
0.0
  0
LINE
  5
3B9
330
1F
100
AcDbEntity
  8
0
 62
     2
100
AcDbLine
 10
71.675314356012
 20
154.7198855414271
 30
0.0
 11
103.1753151857478
 21
154.7198855414271
 31
0.0
  0
LINE
  5
3BA
330
1F
100
AcDbEntity
  8
0
 62
     2
100
AcDbLine
 10
107.6753078563699
 20
159.21988510362
 30
0.0
 11
107.6753078563688
 21
190.7198859628468
 31
0.0
  0
LINE
  5
3BB
330
1F
100
AcDbEntity
  8
0
 62
     2
100
AcDbLine
 10
103.1753081857386
 20
195.2198781456314
 30
0.0
 11
71.67531435601501
 21
195.2198781456312
 31
0.0
  0
LINE
  5
3BC
330
1F
100
AcDbEntity
  8
0
 62
     2
100
AcDbLine
 10
67.17530785637103
 20
190.7198859628498
 30
0.0
 11
67.1753078563716
 21
159.2198851036169
 31
0.0
  0
LINE
  5
3BD
330
1F
100
AcDbEntity
  8
0
 62
     2
100
AcDbLine
 10
69.4253012090092
 20
190.7198855332335
 30
0.0
 11
67.17529329130184
 21
190.7198855332335
 31
0.0
  0
LINE
  5
3BE
330
1F
100
AcDbEntity
  8
0
 62
     2
100
AcDbLine
 10
71.67531477087948
 20
195.2198926856952
 30
0.0
 11
71.67531477087948
 21
192.9698990974794
 31
0.0
  0
ARC
  5
3BF
330
1F
100
AcDbEntity
  8
0
 62
     2
100
AcDbCircle
 10
69.42531477087948
 20
192.9698855332334
 30
0.0
 40
2.25
100
AcDbArc
 50
270.0000029473294
 51
359.9999999999998
  0
LINE
  5
3C0
330
1F
100
AcDbEntity
  8
0
 62
     2
100
AcDbLine
 10
71.67531477087948
 20
156.9698719688708
 30
0.0
 11
71.67531477087948
 21
154.7198710021952
 31
0.0
  0
LINE
  5
3C1
330
1F
100
AcDbEntity
  8
0
 62
     2
100
AcDbLine
 10
67.17529329135397
 20
159.2198855332334
 30
0.0
 11
69.42530120901489
 21
159.2198855332334
 31
0.0
  0
ARC
  5
3C2
330
1F
100
AcDbEntity
  8
0
 62
     2
100
AcDbCircle
 10
69.42531477087948
 20
156.9698855332334
 30
0.0
 40
2.25
100
AcDbArc
 50
0.0000029575586669
 51
89.99999709345558
  0
CIRCLE
  5
3C3
330
1F
100
AcDbEntity
  8
0
 62
     2
100
AcDbCircle
 10
105.4253078563694
 20
192.9698781456314
 30
0.0
 40
1.350000000000023
  0
ARC
  5
3C4
330
1F
100
AcDbEntity
  8
0
 62
     2
100
AcDbCircle
 10
105.4253078563694
 20
192.9698781456314
 30
0.0
 40
2.250000000000037
100
AcDbArc
 50
0.0000104216354962
 51
89.99999995873372
  0
LINE
  5
3C5
330
1F
100
AcDbEntity
  8
0
 62
     2
100
AcDbLine
 10
107.6753078563688
 20
190.7198855332334
 30
0.0
 11
107.6753078563687
 21
192.9698785565087
 31
0.0
  0
LINE
  5
3C6
330
1F
100
AcDbEntity
  8
0
 62
     2
100
AcDbLine
 10
105.425307856383
 20
195.2198781456314
 30
0.0
 11
103.1753077708795
 21
195.2198781456314
 31
0.0
  0
CIRCLE
  5
3C7
330
1F
100
AcDbEntity
  8
0
 62
     2
100
AcDbCircle
 10
105.4253078563693
 20
156.9698851305491
 30
0.0
 40
1.350000000000023
  0
ARC
  5
3C8
330
1F
100
AcDbEntity
  8
0
 62
     2
100
AcDbCircle
 10
105.4253078563694
 20
156.9698855414264
 30
0.0
 40
2.25
100
AcDbArc
 50
269.9999999999971
 51
359.9999895370953
  0
LINE
  5
3C9
330
1F
100
AcDbEntity
  8
0
 62
     2
100
AcDbLine
 10
103.1753147708795
 20
154.7198855414271
 30
0.0
 11
105.4253078563693
 21
154.7198855414271
 31
0.0
  0
LINE
  5
3CA
330
1F
100
AcDbEntity
  8
0
 62
     2
100
AcDbLine
 10
107.67530785637
 20
156.9698855414277
 30
0.0
 11
107.6753078563699
 21
159.2198855332334
 31
0.0
  0
CIRCLE
  5
3CB
330
1F
100
AcDbEntity
  8
0
 62
     2
100
AcDbCircle
 10
69.42530826724874
 20
156.9698855414262
 30
0.0
 40
1.350000000000023
  0
ARC
  5
3CC
330
1F
100
AcDbEntity
  8
0
 62
     2
100
AcDbCircle
 10
69.42530785637155
 20
156.9698855414264
 30
0.0
 40
2.250000000000037
100
AcDbArc
 50
180.0000104216355
 51
270.0000104216326
  0
LINE
  5
3CD
330
1F
100
AcDbEntity
  8
0
 62
     2
100
AcDbLine
 10
67.1753078563716
 20
159.2198855332334
 30
0.0
 11
67.17530785637166
 21
156.9698851305491
 31
0.0
  0
LINE
  5
3CE
330
1F
100
AcDbEntity
  8
0
 62
     2
100
AcDbLine
 10
69.4253078563695
 20
154.7198855414271
 30
0.0
 11
71.67531477087948
 21
154.7198855414271
 31
0.0
  0
CIRCLE
  5
3CF
330
1F
100
AcDbEntity
  8
0
 62
     2
100
AcDbCircle
 10
69.42530785637143
 20
192.9698785565089
 30
0.0
 40
1.350000000000023
  0
ARC
  5
3D0
330
1F
100
AcDbEntity
  8
0
 62
     2
100
AcDbCircle
 10
69.42530785637132
 20
192.9698781456312
 30
0.0
 40
2.250000000000037
100
AcDbArc
 50
89.99998953709245
 51
179.9999895370932
  0
LINE
  5
3D1
330
1F
100
AcDbEntity
  8
0
 62
     2
100
AcDbLine
 10
67.17530785637098
 20
192.9698781456206
 30
0.0
 11
67.17530785637103
 21
190.7198855332335
 31
0.0
  0
LINE
  5
3D2
330
1F
100
AcDbEntity
  8
0
 62
     2
100
AcDbLine
 10
71.67531477087948
 20
195.2198781456312
 30
0.0
 11
69.42530826724874
 21
195.2198781456312
 31
0.0
  0
CIRCLE
  5
3D3
330
1F
100
AcDbEntity
  8
0
 62
     2
100
AcDbCircle
 10
87.42530778596176
 20
174.9698855332334
 30
0.0
 40
12.3
  0
CIRCLE
  5
3D4
330
1F
100
AcDbEntity
  8
0
 62
     2
100
AcDbCircle
 10
87.42530778596176
 20
174.9698855332334
 30
0.0
 40
12.7
  0
CIRCLE
  5
3D5
330
1F
100
AcDbEntity
  8
0
 62
     2
100
AcDbCircle
 10
87.42530778596176
 20
174.9698855332334
 30
0.0
 40
15.5
  0
CIRCLE
  5
3D6
330
1F
100
AcDbEntity
  8
0
 62
     2
100
AcDbCircle
 10
87.42530778596176
 20
174.9698855332334
 30
0.0
 40
15.25
  0
LINE
  5
3D7
330
1F
100
AcDbEntity
  8
Dimension
100
AcDbLine
 10
80.17397091422288
 20
164.5435672198228
 30
0.0
 11
94.67664465770065
 21
185.3962038466439
 31
0.0
  0
TEXT
  5
3D8
330
1F
100
AcDbEntity
  8
Dimension
100
AcDbText
 10
85.46286733190169
 20
210.023155391689
 30
0.0
 40
3.0
  1
1"x32, 6.47mm deep
 50
0.0000072529875809
  7
VCDSTYLE10
100
AcDbText
  0
LINE
  5
3D9
330
1F
100
AcDbEntity
  8
Dimension
100
AcDbLine
 10
146.2676127075699
 20
187.5056942842291
 30
0.0
 11
147.2432746583019
 21
188.773796708284
 31
0.0
  0
TEXT
  5
3DA
330
1F
100
AcDbEntity
  8
Dimension
100
AcDbText
 10
136.3939457430479
 20
209.9141188919419
 30
0.0
 40
3.0
  1
M1.6x0.35, 4mm deep, 3 holes
 50
-0.0312275557961636
  7
VCDSTYLE10
100
AcDbText
  0
DIMENSION
  5
3E5
330
1F
100
AcDbEntity
  8
Dimension
100
AcDbDimension
280
     0
  2
*D12
 10
21.55529329130178
 20
207.8310976028708
 30
0.0
 11
28.46790222219683
 21
207.8310976028708
 31
0.0
 70
   160
 71
     5
 42
13.62
 73
     0
 74
     0
 75
     0
  3
VCDDIMSTYLE01
100
AcDbAlignedDimension
 13
35.17529329130178
 23
193.9198781455011
 33
0.0
 14
21.55529329130178
 24
190.2698855330961
 34
0.0
100
AcDbRotatedDimension
1001
ACAD
1000
DSTYLE
1002
{
1070
   271
1070
     4
1002
}
  0
DIMENSION
  5
3F1
330
1F
100
AcDbEntity
  8
Dimension
100
AcDbDimension
280
     0
  2
*D13
 10
55.15506695160821
 20
195.2198781456312
 30
0.0
 11
55.15506695160821
 21
174.4835574424597
 31
0.0
 70
   160
 71
     5
 42
40.49999260420418
 73
     0
 74
     0
 75
     0
  3
VCDDIMSTYLE01
100
AcDbAlignedDimension
 13
71.67531477087948
 23
154.7198855414271
 33
0.0
 14
71.67531477087948
 24
195.2198781456312
 34
0.0
 50
90.0
100
AcDbRotatedDimension
1001
ACAD
1000
DSTYLE
1002
{
1070
   271
1070
     4
1002
}
  0
DIMENSION
  5
3FE
330
1F
100
AcDbEntity
  8
Dimension
100
AcDbDimension
280
     0
  2
*D14
 10
107.6753078563699
 20
144.0365577595189
 30
0.0
 11
88.00346165030285
 21
144.0365577595189
 31
0.0
 70
   160
 71
     5
 42
40.49999999999829
 73
     0
 74
     0
 75
     0
  3
VCDDIMSTYLE01
100
AcDbAlignedDimension
 13
67.1753078563716
 23
159.2198855332334
 33
0.0
 14
107.6753078563699
 24
159.2198855332334
 34
0.0
100
AcDbRotatedDimension
1001
ACAD
1000
DSTYLE
1002
{
1070
   271
1070
     4
1002
}
  0
LINE
  5
404
330
1F
100
AcDbEntity
  8
Auxiliary
100
AcDbLine
 10
74.72530778590965
 20
230.7198926858309
 30
0.0
 11
74.7253077859097
 21
231.5698926858309
 31
0.0
  0
LINE
  5
405
330
1F
100
AcDbEntity
  8
Auxiliary
100
AcDbLine
 10
102.8753077176966
 20
227.2198926858309
 30
0.0
 11
102.8753077176965
 21
231.5698926858309
 31
0.0
  0
LINE
  5
406
330
1F
100
AcDbEntity
  8
Auxiliary
100
AcDbLine
 10
71.97530771771227
 20
231.5698926858309
 30
0.0
 11
71.97530771771227
 21
227.2198926858309
 31
0.0
  0
LINE
  5
407
330
1F
100
AcDbEntity
  8
Auxiliary
100
AcDbLine
 10
100.1253077859097
 20
230.7198926858309
 30
0.0
 11
100.1253077859097
 21
231.5698926858309
 31
0.0
  0
LINE
  5
408
330
1F
100
AcDbEntity
  8
Auxiliary
100
AcDbLine
 10
100.4253077859096
 20
234.3698926858309
 30
0.0
 11
100.4253077859096
 21
232.5698926858309
 31
0.0
  0
LINE
  5
409
330
1F
100
AcDbEntity
  8
Auxiliary
100
AcDbLine
 10
74.42530778590964
 20
234.3698926858309
 30
0.0
 11
74.42530778590964
 21
232.5698926858309
 31
0.0
  0
LINE
  5
40A
330
1F
100
AcDbEntity
  8
Auxiliary
100
AcDbLine
 10
100.1253077859096
 20
240.8398926858309
 30
0.0
 11
100.1253077859097
 21
234.3698926858309
 31
0.0
  0
LINE
  5
40B
330
1F
100
AcDbEntity
  8
Auxiliary
100
AcDbLine
 10
74.72530778590965
 20
240.8398926858309
 30
0.0
 11
74.72530778590965
 21
234.3698926858309
 31
0.0
  0
LINE
  5
40C
330
1F
100
AcDbEntity
  8
Auxiliary
100
AcDbLine
 10
100.1253077859097
 20
234.3698926858309
 30
0.0
 11
74.72530778590965
 21
234.3698926858309
 31
0.0
  0
LINE
  5
40D
330
1F
100
AcDbEntity
  8
Auxiliary
100
AcDbLine
 10
97.62530778590968
 20
231.2198926858309
 30
0.0
 11
97.62530778590968
 21
230.7198926858309
 31
0.0
  0
LINE
  5
40E
330
1F
100
AcDbEntity
  8
Auxiliary
100
AcDbLine
 10
77.22530778590965
 20
231.2198926858309
 30
0.0
 11
77.22530778590965
 21
230.7198926858309
 31
0.0
  0
LINE
  5
40F
330
1F
100
AcDbEntity
  8
Auxiliary
100
AcDbLine
 10
96.42530778590964
 20
232.5698926858309
 30
0.0
 11
96.42530778590964
 21
231.2198926858309
 31
0.0
  0
LINE
  5
410
330
1F
100
AcDbEntity
  8
Auxiliary
100
AcDbLine
 10
78.42530778590964
 20
232.5698926858309
 30
0.0
 11
78.42530778590964
 21
231.2198926858309
 31
0.0
  0
LINE
  5
411
330
1F
100
AcDbEntity
  8
Auxiliary
100
AcDbLine
 10
96.42530778590964
 20
231.2198926858309
 30
0.0
 11
78.42530778590964
 21
231.2198926858309
 31
0.0
  0
LINE
  5
412
330
1F
100
AcDbEntity
  8
Auxiliary
100
AcDbLine
 10
77.22530778590965
 20
230.7198926858309
 30
0.0
 11
97.62530778590968
 21
230.7198926858309
 31
0.0
  0
LINE
  5
413
330
1F
100
AcDbEntity
  8
Auxiliary
100
AcDbLine
 10
96.42530778590964
 20
232.5698926858309
 30
0.0
 11
78.42530778590964
 21
232.5698926858309
 31
0.0
  0
LINE
  5
414
330
1F
100
AcDbEntity
  8
Auxiliary
100
AcDbLine
 10
97.62530778590968
 20
231.2198926858309
 30
0.0
 11
96.42530778590964
 21
231.2198926858309
 31
0.0
  0
LINE
  5
415
330
1F
100
AcDbEntity
  8
Auxiliary
100
AcDbLine
 10
78.42530778590964
 20
231.2198926858309
 30
0.0
 11
77.22530778590965
 21
231.2198926858309
 31
0.0
  0
LINE
  5
416
330
1F
100
AcDbEntity
  8
Auxiliary
100
AcDbLine
 10
100.4253077859096
 20
234.3698926858309
 30
0.0
 11
100.1253077859097
 21
234.3698926858309
 31
0.0
  0
LINE
  5
417
330
1F
100
AcDbEntity
  8
Auxiliary
100
AcDbLine
 10
74.72530778590965
 20
234.3698926858309
 30
0.0
 11
74.42530778590964
 21
234.3698926858309
 31
0.0
  0
LINE
  5
418
330
1F
100
AcDbEntity
  8
Auxiliary
100
AcDbLine
 10
100.4253077859096
 20
232.5698926858309
 30
0.0
 11
96.42530778590964
 21
232.5698926858309
 31
0.0
  0
LINE
  5
419
330
1F
100
AcDbEntity
  8
Auxiliary
100
AcDbLine
 10
78.42530778590964
 20
232.5698926858309
 30
0.0
 11
74.42530778590964
 21
232.5698926858309
 31
0.0
  0
LINE
  5
41A
330
1F
100
AcDbEntity
  8
Auxiliary
100
AcDbLine
 10
74.72530778590959
 20
230.7198926858309
 30
0.0
 11
77.22530778590965
 21
230.7198926858309
 31
0.0
  0
LINE
  5
41B
330
1F
100
AcDbEntity
  8
Auxiliary
100
AcDbLine
 10
97.62530778590968
 20
230.7198926858309
 30
0.0
 11
100.1253077859097
 21
230.7198926858309
 31
0.0
  0
ARC
  5
41C
330
1F
100
AcDbEntity
  8
0
 62
     2
100
AcDbCircle
 10
165.4753070908435
 20
193.6198743201838
 30
0.0
 40
0.4999999999999813
100
AcDbArc
 50
90.28711250057582
 51
179.999965015013
  0
ARC
  5
41D
330
1F
100
AcDbEntity
  8
0
 62
     2
100
AcDbCircle
 10
158.3753076490241
 20
193.6198743201954
 30
0.0
 40
0.4999999999999813
100
AcDbArc
 50
90.28711250057582
 51
179.999965015013
  0
ARC
  5
41E
330
1F
100
AcDbEntity
  8
0
 62
     2
100
AcDbCircle
 10
154.3753076490003
 20
156.3198817159836
 30
0.0
 40
0.4999999999999309
100
AcDbArc
 50
270.2871124968239
 51
359.9999650148994
  0
ARC
  5
41F
330
1F
100
AcDbEntity
  8
0
 62
     2
100
AcDbCircle
 10
161.4753073961692
 20
156.3198817159835
 30
0.0
 40
0.4999999999999309
100
AcDbArc
 50
270.2871124968239
 51
359.9999650148994
  0
INSERT
  5
423
330
1F
100
AcDbEntity
  8
Outline
100
AcDbBlockReference
  2
Sheet Border
 10
0.0
 20
0.0
 30
0.0
  0
INSERT
  5
454
330
1F
100
AcDbEntity
  8
Outline
100
AcDbBlockReference
  2
$TitleBlock elphel_parts
 10
200.0
 20
10.0
 30
0.0
  0
ENDSEC
  0
SECTION
  2
OBJECTS
  0
DICTIONARY
  5
C
330
0
100
AcDbDictionary
281
     1
  3
ACAD_DETAILVIEWSTYLE
350
45E
  3
ACAD_GROUP
350
D
  3
ACAD_LAYOUT
350
1A
  3
ACAD_MATERIAL
350
43
  3
ACAD_MLEADERSTYLE
350
6B
  3
ACAD_MLINESTYLE
350
17
  3
ACAD_PLOTSETTINGS
350
19
  3
ACAD_PLOTSTYLENAME
350
E
  3
ACAD_SCALELIST
350
47
  3
ACAD_SECTIONVIEWSTYLE
350
45F
  3
ACAD_TABLESTYLE
350
69
  3
ACAD_VISUALSTYLE
350
2A
  3
ACDB_RECOMPOSE_DATA
350
45B
  3
AcDbVariableDictionary
350
457
  0
SUN
  5
6D
330
29
100
AcDbSun
 90
        1
290
     0
 63
     7
421
 16777215
 40
1.0
291
     1
 91
  2455826
 92
 54000000
292
     0
 70
     2
 71
   256
280
     1
  0
DICTIONARY
  5
45E
102
{ACAD_REACTORS
330
C
102
}
330
C
100
AcDbDictionary
281
     1
  0
DICTIONARY
  5
D
102
{ACAD_REACTORS
330
C
102
}
330
C
100
AcDbDictionary
281
     1
  0
DICTIONARY
  5
1A
102
{ACAD_REACTORS
330
C
102
}
330
C
100
AcDbDictionary
281
     1
  3
Layout1
350
1E
  3
Layout2
350
26
  3
Model
350
22
  0
DICTIONARY
  5
43
102
{ACAD_REACTORS
330
C
102
}
330
C
100
AcDbDictionary
281
     1
  3
ByBlock
350
45
  3
ByLayer
350
44
  3
Global
350
46
  0
DICTIONARY
  5
6B
102
{ACAD_REACTORS
330
C
102
}
330
C
100
AcDbDictionary
281
     1
  3
Standard
350
6C
  0
DICTIONARY
  5
17
102
{ACAD_REACTORS
330
C
102
}
330
C
100
AcDbDictionary
281
     1
  3
Standard
350
18
  0
DICTIONARY
  5
19
102
{ACAD_REACTORS
330
C
102
}
330
C
100
AcDbDictionary
281
     1
  0
ACDBDICTIONARYWDFLT
  5
E
102
{ACAD_REACTORS
330
C
102
}
330
C
100
AcDbDictionary
281
     1
  3
Normal
350
F
100
AcDbDictionaryWithDefault
340
F
  0
DICTIONARY
  5
47
102
{ACAD_REACTORS
330
C
102
}
330
C
100
AcDbDictionary
281
     1
  3
A0
350
48
  3
A1
350
49
  3
A2
350
4A
  3
A3
350
4B
  3
A4
350
4C
  3
A5
350
4D
  3
A6
350
4E
  3
A7
350
4F
  3
A8
350
50
  3
A9
350
51
  3
B0
350
52
  3
B1
350
53
  3
B2
350
54
  3
B3
350
55
  3
B4
350
56
  3
B5
350
57
  3
B6
350
58
  3
B7
350
59
  3
B8
350
5A
  3
B9
350
5B
  3
C0
350
5C
  3
C1
350
5D
  3
C2
350
5E
  3
C3
350
5F
  3
C4
350
60
  3
C5
350
61
  3
C6
350
62
  3
C7
350
63
  3
C8
350
64
  3
C9
350
65
  3
D0
350
66
  3
D1
350
67
  3
D2
350
68
  0
DICTIONARY
  5
45F
102
{ACAD_REACTORS
330
C
102
}
330
C
100
AcDbDictionary
281
     1
  0
DICTIONARY
  5
69
102
{ACAD_REACTORS
330
C
102
}
330
C
100
AcDbDictionary
281
     1
  3
Standard
350
6A
  0
DICTIONARY
  5
2A
102
{ACAD_REACTORS
330
C
102
}
330
C
100
AcDbDictionary
281
     1
  3
2dWireframe
350
2F
  3
Basic
350
32
  3
Brighten
350
36
  3
ColorChange
350
3A
  3
Conceptual
350
34
  3
Dim
350
35
  3
EdgeColorOff
350
3D
  3
Facepattern
350
39
  3
Flat
350
2B
  3
FlatWithEdges
350
2C
  3
Gouraud
350
2D
  3
GouraudWithEdges
350
2E
  3
Hidden
350
31
  3
JitterOff
350
3B
  3
Linepattern
350
38
  3
OverhangOff
350
3C
  3
Realistic
350
33
  3
Shaded
350
42
  3
Shaded with edges
350
41
  3
Shades of Gray
350
3E
  3
Sketchy
350
3F
  3
Thicken
350
37
  3
Wireframe
350
30
  3
X-Ray
350
40
  0
XRECORD
  5
45B
102
{ACAD_REACTORS
330
C
102
}
330
C
100
AcDbXrecord
280
     1
 90
        1
330
6A
  0
DICTIONARY
  5
457
102
{ACAD_REACTORS
330
C
102
}
330
C
100
AcDbDictionary
281
     1
  3
CANNOSCALE
350
458
  3
CMLEADERSTYLE
350
45D
  3
CTABLESTYLE
350
45C
  0
LAYOUT
  5
1E
102
{ACAD_REACTORS
330
1A
102
}
330
1A
100
AcDbPlotSettings
  1

  2
none_device
  4

  6

 40
0.0
 41
0.0
 42
0.0
 43
0.0
 44
0.0
 45
0.0
 46
0.0
 47
0.0
 48
0.0
 49
0.0
140
0.0
141
0.0
142
1.0
143
1.0
 70
   688
 72
     1
 73
     0
 74
     5
  7

 75
    16
 76
     0
 77
     2
 78
   300
147
1.0
148
0.0
149
0.0
100
AcDbLayout
  1
Layout1
 70
     1
 71
     1
 10
0.0
 20
0.0
 11
420.0
 21
297.0
 12
0.0
 22
0.0
 32
0.0
 14
1.000000000000000E+20
 24
1.000000000000000E+20
 34
1.000000000000000E+20
 15
-1.000000000000000E+20
 25
-1.000000000000000E+20
 35
-1.000000000000000E+20
146
0.0
 13
0.0
 23
0.0
 33
0.0
 16
1.0
 26
0.0
 36
0.0
 17
0.0
 27
1.0
 37
0.0
 76
     0
330
1B
  0
LAYOUT
  5
26
102
{ACAD_REACTORS
330
1A
102
}
330
1A
100
AcDbPlotSettings
  1

  2
none_device
  4

  6

 40
0.0
 41
0.0
 42
0.0
 43
0.0
 44
0.0
 45
0.0
 46
0.0
 47
0.0
 48
0.0
 49
0.0
140
0.0
141
0.0
142
1.0
143
1.0
 70
   688
 72
     1
 73
     0
 74
     5
  7

 75
    16
 76
     0
 77
     2
 78
   300
147
1.0
148
0.0
149
0.0
100
AcDbLayout
  1
Layout2
 70
     1
 71
     2
 10
0.0
 20
0.0
 11
0.0
 21
0.0
 12
0.0
 22
0.0
 32
0.0
 14
0.0
 24
0.0
 34
0.0
 15
0.0
 25
0.0
 35
0.0
146
0.0
 13
0.0
 23
0.0
 33
0.0
 16
1.0
 26
0.0
 36
0.0
 17
0.0
 27
1.0
 37
0.0
 76
     0
330
23
  0
LAYOUT
  5
22
102
{ACAD_REACTORS
330
1A
102
}
330
1A
100
AcDbPlotSettings
  1

  2
none_device
  4
Letter_(8.50_x_11.00_Inches)
  6

 40
6.35
 41
6.35
 42
6.35000508
 43
6.35000508
 44
215.9
 45
279.4
 46
0.0
 47
0.0
 48
0.0
 49
0.0
140
0.0
141
0.0
142
1.0
143
1.0
 70
  1712
 72
     1
 73
     0
 74
     0
  7

 75
     0
 76
     0
 77
     2
 78
   300
147
1.0
148
0.0
149
0.0
100
AcDbLayout
  1
Model
 70
     1
 71
     0
 10
0.0
 20
0.0
 11
210.0
 21
297.0
 12
0.0
 22
0.0
 32
0.0
 14
0.0
 24
0.0
 34
0.0
 15
210.0
 25
297.0
 35
0.0
146
0.0
 13
0.0
 23
0.0
 33
0.0
 16
1.0
 26
0.0
 36
0.0
 17
0.0
 27
1.0
 37
0.0
 76
     0
330
1F
331
29
  0
MATERIAL
  5
45
102
{ACAD_REACTORS
330
43
102
}
330
43
100
AcDbMaterial
  1
ByBlock
 72
     1
 94
      127
  0
MATERIAL
  5
44
102
{ACAD_REACTORS
330
43
102
}
330
43
100
AcDbMaterial
  1
ByLayer
 72
     1
 94
      127
  0
MATERIAL
  5
46
102
{ACAD_REACTORS
330
43
102
}
330
43
100
AcDbMaterial
  1
Global
 72
     1
 94
      127
  0
MLEADERSTYLE
  5
6C
102
{ACAD_REACTORS
330
6B
102
}
330
6B
100
AcDbMLeaderStyle
179
     2
170
     2
171
     1
172
     0
 90
        2
 40
0.0
 41
0.0
173
     1
 91
-1056964608
340
14
 92
       -2
290
     1
 42
2.0
291
     1
 43
8.0
  3
Standard
341
0
 44
4.0
300

342
11
174
     1
178
     6
175
     1
176
     0
 93
-1056964608
 45
4.0
292
     0
297
     0
 46
4.0
343
0
 94
-1056964608
 47
1.0
 49
1.0
140
1.0
293
     1
141
0.0
294
     1
177
     0
142
1.0
295
     0
296
     0
143
3.75
271
     0
272
     9
273
     9
298
     0
  0
MLINESTYLE
  5
18
102
{ACAD_REACTORS
330
17
102
}
330
17
100
AcDbMlineStyle
  2
Standard
 70
     0
  3

 62
   256
 51
90.0
 52
90.0
 71
     2
 49
0.5
 62
   256
  6
BYLAYER
 49
-0.5
 62
   256
  6
BYLAYER
  0
ACDBPLACEHOLDER
  5
F
102
{ACAD_REACTORS
330
E
102
}
330
E
  0
SCALE
  5
48
102
{ACAD_REACTORS
330
47
102
}
330
47
100
AcDbScale
 70
     0
300
1:1
140
1.0
141
1.0
290
     1
  0
SCALE
  5
49
102
{ACAD_REACTORS
330
47
102
}
330
47
100
AcDbScale
 70
     0
300
1:2
140
1.0
141
2.0
290
     0
  0
SCALE
  5
4A
102
{ACAD_REACTORS
330
47
102
}
330
47
100
AcDbScale
 70
     0
300
1:4
140
1.0
141
4.0
290
     0
  0
SCALE
  5
4B
102
{ACAD_REACTORS
330
47
102
}
330
47
100
AcDbScale
 70
     0
300
1:5
140
1.0
141
5.0
290
     0
  0
SCALE
  5
4C
102
{ACAD_REACTORS
330
47
102
}
330
47
100
AcDbScale
 70
     0
300
1:8
140
1.0
141
8.0
290
     0
  0
SCALE
  5
4D
102
{ACAD_REACTORS
330
47
102
}
330
47
100
AcDbScale
 70
     0
300
1:10
140
1.0
141
10.0
290
     0
  0
SCALE
  5
4E
102
{ACAD_REACTORS
330
47
102
}
330
47
100
AcDbScale
 70
     0
300
1:16
140
1.0
141
16.0
290
     0
  0
SCALE
  5
4F
102
{ACAD_REACTORS
330
47
102
}
330
47
100
AcDbScale
 70
     0
300
1:20
140
1.0
141
20.0
290
     0
  0
SCALE
  5
50
102
{ACAD_REACTORS
330
47
102
}
330
47
100
AcDbScale
 70
     0
300
1:30
140
1.0
141
30.0
290
     0
  0
SCALE
  5
51
102
{ACAD_REACTORS
330
47
102
}
330
47
100
AcDbScale
 70
     0
300
1:40
140
1.0
141
40.0
290
     0
  0
SCALE
  5
52
102
{ACAD_REACTORS
330
47
102
}
330
47
100
AcDbScale
 70
     0
300
1:50
140
1.0
141
50.0
290
     0
  0
SCALE
  5
53
102
{ACAD_REACTORS
330
47
102
}
330
47
100
AcDbScale
 70
     0
300
1:100
140
1.0
141
100.0
290
     0
  0
SCALE
  5
54
102
{ACAD_REACTORS
330
47
102
}
330
47
100
AcDbScale
 70
     0
300
2:1
140
2.0
141
1.0
290
     0
  0
SCALE
  5
55
102
{ACAD_REACTORS
330
47
102
}
330
47
100
AcDbScale
 70
     0
300
4:1
140
4.0
141
1.0
290
     0
  0
SCALE
  5
56
102
{ACAD_REACTORS
330
47
102
}
330
47
100
AcDbScale
 70
     0
300
8:1
140
8.0
141
1.0
290
     0
  0
SCALE
  5
57
102
{ACAD_REACTORS
330
47
102
}
330
47
100
AcDbScale
 70
     0
300
10:1
140
10.0
141
1.0
290
     0
  0
SCALE
  5
58
102
{ACAD_REACTORS
330
47
102
}
330
47
100
AcDbScale
 70
     0
300
100:1
140
100.0
141
1.0
290
     0
  0
SCALE
  5
59
102
{ACAD_REACTORS
330
47
102
}
330
47
100
AcDbScale
 70
     0
300
1/128" = 1'-0"
140
0.0078125
141
12.0
290
     0
  0
SCALE
  5
5A
102
{ACAD_REACTORS
330
47
102
}
330
47
100
AcDbScale
 70
     0
300
1/64" = 1'-0"
140
0.015625
141
12.0
290
     0
  0
SCALE
  5
5B
102
{ACAD_REACTORS
330
47
102
}
330
47
100
AcDbScale
 70
     0
300
1/32" = 1'-0"
140
0.03125
141
12.0
290
     0
  0
SCALE
  5
5C
102
{ACAD_REACTORS
330
47
102
}
330
47
100
AcDbScale
 70
     0
300
1/16" = 1'-0"
140
0.0625
141
12.0
290
     0
  0
SCALE
  5
5D
102
{ACAD_REACTORS
330
47
102
}
330
47
100
AcDbScale
 70
     0
300
3/32" = 1'-0"
140
0.09375
141
12.0
290
     0
  0
SCALE
  5
5E
102
{ACAD_REACTORS
330
47
102
}
330
47
100
AcDbScale
 70
     0
300
1/8" = 1'-0"
140
0.125
141
12.0
290
     0
  0
SCALE
  5
5F
102
{ACAD_REACTORS
330
47
102
}
330
47
100
AcDbScale
 70
     0
300
3/16" = 1'-0"
140
0.1875
141
12.0
290
     0
  0
SCALE
  5
60
102
{ACAD_REACTORS
330
47
102
}
330
47
100
AcDbScale
 70
     0
300
1/4" = 1'-0"
140
0.25
141
12.0
290
     0
  0
SCALE
  5
61
102
{ACAD_REACTORS
330
47
102
}
330
47
100
AcDbScale
 70
     0
300
3/8" = 1'-0"
140
0.375
141
12.0
290
     0
  0
SCALE
  5
62
102
{ACAD_REACTORS
330
47
102
}
330
47
100
AcDbScale
 70
     0
300
1/2" = 1'-0"
140
0.5
141
12.0
290
     0
  0
SCALE
  5
63
102
{ACAD_REACTORS
330
47
102
}
330
47
100
AcDbScale
 70
     0
300
3/4" = 1'-0"
140
0.75
141
12.0
290
     0
  0
SCALE
  5
64
102
{ACAD_REACTORS
330
47
102
}
330
47
100
AcDbScale
 70
     0
300
1" = 1'-0"
140
1.0
141
12.0
290
     0
  0
SCALE
  5
65
102
{ACAD_REACTORS
330
47
102
}
330
47
100
AcDbScale
 70
     0
300
1-1/2" = 1'-0"
140
1.5
141
12.0
290
     0
  0
SCALE
  5
66
102
{ACAD_REACTORS
330
47
102
}
330
47
100
AcDbScale
 70
     0
300
3" = 1'-0"
140
3.0
141
12.0
290
     0
  0
SCALE
  5
67
102
{ACAD_REACTORS
330
47
102
}
330
47
100
AcDbScale
 70
     0
300
6" = 1'-0"
140
6.0
141
12.0
290
     0
  0
SCALE
  5
68
102
{ACAD_REACTORS
330
47
102
}
330
47
100
AcDbScale
 70
     0
300
1'-0" = 1'-0"
140
12.0
141
12.0
290
     0
  0
TABLESTYLE
  5
6A
102
{ACAD_REACTORS
330
69
102
}
102
{ACAD_XDICTIONARY
360
459
102
}
330
69
100
AcDbTableStyle
  3
Standard
 70
     0
 71
     0
 40
0.06
 41
0.06
280
     0
281
     0
  7
Standard
140
4.5
170
     2
 62
     0
 63
   257
283
     0
 90
        4
 91
        0
  1

274
    -2
284
     1
 64
     0
275
    -2
285
     1
 65
     0
276
    -2
286
     1
 66
     0
277
    -2
287
     1
 67
     0
278
    -2
288
     1
 68
     0
279
    -2
289
     1
 69
     0
  7
Standard
140
6.0
170
     5
 62
     0
 63
   257
283
     0
 90
        4
 91
        0
  1

274
    -2
284
     1
 64
     0
275
    -2
285
     1
 65
     0
276
    -2
286
     1
 66
     0
277
    -2
287
     1
 67
     0
278
    -2
288
     1
 68
     0
279
    -2
289
     1
 69
     0
  7
Standard
140
4.5
170
     5
 62
     0
 63
   257
283
     0
 90
        4
 91
        0
  1

274
    -2
284
     1
 64
     0
275
    -2
285
     1
 65
     0
276
    -2
286
     1
 66
     0
277
    -2
287
     1
 67
     0
278
    -2
288
     1
 68
     0
279
    -2
289
     1
 69
     0
  0
VISUALSTYLE
  5
2F
102
{ACAD_REACTORS
330
2A
102
}
330
2A
100
AcDbVisualStyle
  2
2dWireframe
 70
     4
177
     3
291
     0
 70
    58
 90
        0
176
     1
 90
        2
176
     1
 90
        0
176
     1
 90
        0
176
     1
 40
0.6
176
     1
 40
30.0
176
     1
 62
     7
420
 16777215
176
     1
 90
        1
176
     1
 90
        4
176
     1
 62
     7
176
     1
 62
   257
176
     1
 90
        1
176
     1
 90
        1
176
     1
 40
1.0
176
     1
 90
        0
176
     1
 62
   257
176
     1
 40
1.0
176
     1
 90
        1
176
     1
 90
        6
176
     1
 90
        2
176
     1
 62
     7
176
     1
 90
        5
176
     1
 90
        0
176
     1
 90
        0
176
     1
290
     0
176
     1
 90
        1
176
     1
 40
0.0
176
     1
 90
        0
176
     1
290
     1
176
     1
290
     1
176
     1
290
     0
176
     1
290
     0
176
     1
290
     0
176
     1
290
     0
176
     1
290
     0
176
     1
290
     0
176
     1
290
     0
176
     1
 90
       50
176
     1
 40
0.0
176
     1
 40
1.0
176
     1
 90
        0
176
     1
 62
   178
420
        0
176
     1
 90
       50
176
     1
 90
        3
176
     1
 62
     5
420
      255
176
     1
290
     0
176
     1
 90
       50
176
     1
 90
       50
176
     1
 90
       50
176
     1
290
     0
176
     1
 90
       50
176
     1
 62
   256
176
     0
 40
1.0
176
     0
 90
        2
176
     1
  1
strokes_ogs.tif
176
     1
290
     0
176
     1
 40
1.0
176
     1
 40
1.0
176
     1
  0
VISUALSTYLE
  5
32
102
{ACAD_REACTORS
330
2A
102
}
330
2A
100
AcDbVisualStyle
  2
Basic
 70
     7
177
     3
291
     1
 70
    58
 90
        1
176
     1
 90
        0
176
     1
 90
        1
176
     1
 90
        0
176
     1
 40
0.6
176
     1
 40
30.0
176
     1
 62
     7
420
 16777215
176
     1
 90
        0
176
     1
 90
        4
176
     1
 62
     7
176
     1
 62
   257
176
     1
 90
        1
176
     1
 90
        1
176
     1
 40
1.0
176
     1
 90
        8
176
     1
 62
     7
176
     1
 40
1.0
176
     1
 90
        1
176
     1
 90
        6
176
     1
 90
        2
176
     1
 62
     7
176
     1
 90
        5
176
     1
 90
        0
176
     1
 90
        0
176
     1
290
     0
176
     1
 90
        1
176
     1
 40
0.0
176
     1
 90
        0
176
     1
290
     0
176
     1
290
     1
176
     1
290
     1
176
     1
290
     0
176
     1
290
     0
176
     1
290
     0
176
     1
290
     0
176
     1
290
     0
176
     1
290
     0
176
     1
 90
       50
176
     1
 40
0.0
176
     1
 40
1.0
176
     1
 90
        0
176
     1
 62
   178
420
        0
176
     1
 90
       50
176
     1
 90
        3
176
     1
 62
     5
420
      255
176
     1
290
     0
176
     1
 90
       50
176
     1
 90
       50
176
     1
 90
       50
176
     1
290
     0
176
     1
 90
       50
176
     1
 62
   256
176
     0
 40
1.0
176
     0
 90
        2
176
     1
  1
strokes_ogs.tif
176
     1
290
     0
176
     1
 40
1.0
176
     1
 40
1.0
176
     1
  0
VISUALSTYLE
  5
36
102
{ACAD_REACTORS
330
2A
102
}
330
2A
100
AcDbVisualStyle
  2
Brighten
 70
    12
177
     3
291
     1
 70
    58
 90
        2
176
     1
 90
        2
176
     1
 90
        0
176
     1
 90
        0
176
     1
 40
0.6
176
     1
 40
30.0
176
     1
 62
     7
420
 16777215
176
     1
 90
        1
176
     1
 90
        4
176
     1
 62
     7
176
     1
 62
   257
176
     1
 90
        1
176
     1
 90
        1
176
     1
 40
1.0
176
     1
 90
        8
176
     1
 62
     7
176
     1
 40
1.0
176
     1
 90
        1
176
     1
 90
        6
176
     1
 90
        2
176
     1
 62
     7
176
     1
 90
        5
176
     1
 90
        0
176
     1
 90
        0
176
     1
290
     0
176
     1
 90
        1
176
     1
 40
50.0
176
     1
 90
        0
176
     1
290
     0
176
     1
290
     1
176
     1
290
     1
176
     1
290
     0
176
     1
290
     0
176
     1
290
     0
176
     1
290
     0
176
     1
290
     0
176
     1
290
     0
176
     1
 90
       50
176
     1
 40
0.0
176
     1
 40
1.0
176
     1
 90
        0
176
     1
 62
   178
420
        0
176
     1
 90
       50
176
     1
 90
        3
176
     1
 62
     5
420
      255
176
     1
290
     0
176
     1
 90
       50
176
     1
 90
       50
176
     1
 90
       50
176
     1
290
     0
176
     1
 90
       50
176
     1
 62
   256
176
     0
 40
1.0
176
     0
 90
        2
176
     1
  1
strokes_ogs.tif
176
     1
290
     0
176
     1
 40
1.0
176
     1
 40
1.0
176
     1
  0
VISUALSTYLE
  5
3A
102
{ACAD_REACTORS
330
2A
102
}
330
2A
100
AcDbVisualStyle
  2
ColorChange
 70
    16
177
     3
291
     1
 70
    58
 90
        2
176
     1
 90
        2
176
     1
 90
        3
176
     1
 90
        0
176
     1
 40
0.6
176
     1
 40
30.0
176
     1
 62
     8
420
  8421504
176
     1
 90
        1
176
     1
 90
        4
176
     1
 62
     7
176
     1
 62
   257
176
     1
 90
        1
176
     1
 90
        1
176
     1
 40
1.0
176
     1
 90
        8
176
     1
 62
     8
420
  8421504
176
     1
 40
1.0
176
     1
 90
        1
176
     1
 90
        6
176
     1
 90
        2
176
     1
 62
     7
176
     1
 90
        5
176
     1
 90
        0
176
     1
 90
        0
176
     1
290
     0
176
     1
 90
        1
176
     1
 40
0.0
176
     1
 90
        0
176
     1
290
     0
176
     1
290
     1
176
     1
290
     1
176
     1
290
     0
176
     1
290
     0
176
     1
290
     0
176
     1
290
     0
176
     1
290
     0
176
     1
290
     0
176
     1
 90
       50
176
     1
 40
0.0
176
     1
 40
1.0
176
     1
 90
        0
176
     1
 62
   178
420
        0
176
     1
 90
       50
176
     1
 90
        3
176
     1
 62
     5
420
      255
176
     1
290
     0
176
     1
 90
       50
176
     1
 90
       50
176
     1
 90
       50
176
     1
290
     0
176
     1
 90
       50
176
     1
 62
   256
176
     0
 40
1.0
176
     0
 90
        2
176
     1
  1
strokes_ogs.tif
176
     1
290
     0
176
     1
 40
1.0
176
     1
 40
1.0
176
     1
  0
VISUALSTYLE
  5
34
102
{ACAD_REACTORS
330
2A
102
}
330
2A
100
AcDbVisualStyle
  2
Conceptual
 70
     9
177
     3
291
     0
 70
    58
 90
        3
176
     1
 90
        2
176
     1
 90
        0
176
     1
 90
        0
176
     1
 40
0.6
176
     1
 40
30.0
176
     1
 62
     7
420
 16777215
176
     1
 90
        2
176
     1
 90
        2
176
     1
 62
     7
176
     1
 62
   257
176
     1
 90
        1
176
     1
 90
        1
176
     1
 40
179.0
176
     1
 90
        8
176
     1
 62
     7
176
     1
 40
1.0
176
     1
 90
        1
176
     1
 90
        6
176
     1
 90
        2
176
     1
 62
     7
176
     1
 90
        3
176
     1
 90
        0
176
     1
 90
        0
176
     1
290
     0
176
     1
 90
        1
176
     1
 40
0.0
176
     1
 90
        0
176
     1
290
     0
176
     1
290
     1
176
     1
290
     1
176
     1
290
     0
176
     1
290
     0
176
     1
290
     0
176
     1
290
     0
176
     1
290
     0
176
     1
290
     0
176
     1
 90
       50
176
     1
 40
0.0
176
     1
 40
1.0
176
     1
 90
        0
176
     1
 62
   178
420
        0
176
     1
 90
       50
176
     1
 90
        3
176
     1
 62
     5
420
      255
176
     1
290
     0
176
     1
 90
       50
176
     1
 90
       50
176
     1
 90
       50
176
     1
290
     0
176
     1
 90
       50
176
     1
 62
   256
176
     0
 40
1.0
176
     0
 90
        2
176
     1
  1
strokes_ogs.tif
176
     1
290
     0
176
     1
 40
1.0
176
     1
 40
1.0
176
     1
  0
VISUALSTYLE
  5
35
102
{ACAD_REACTORS
330
2A
102
}
330
2A
100
AcDbVisualStyle
  2
Dim
 70
    11
177
     3
291
     1
 70
    58
 90
        2
176
     1
 90
        2
176
     1
 90
        0
176
     1
 90
        0
176
     1
 40
0.6
176
     1
 40
30.0
176
     1
 62
     7
420
 16777215
176
     1
 90
        1
176
     1
 90
        4
176
     1
 62
     7
176
     1
 62
   257
176
     1
 90
        1
176
     1
 90
        1
176
     1
 40
1.0
176
     1
 90
        8
176
     1
 62
     7
176
     1
 40
1.0
176
     1
 90
        1
176
     1
 90
        6
176
     1
 90
        2
176
     1
 62
     7
176
     1
 90
        5
176
     1
 90
        0
176
     1
 90
        0
176
     1
290
     0
176
     1
 90
        1
176
     1
 40
-50.0
176
     1
 90
        0
176
     1
290
     0
176
     1
290
     1
176
     1
290
     1
176
     1
290
     0
176
     1
290
     0
176
     1
290
     0
176
     1
290
     0
176
     1
290
     0
176
     1
290
     0
176
     1
 90
       50
176
     1
 40
0.0
176
     1
 40
1.0
176
     1
 90
        0
176
     1
 62
   178
420
        0
176
     1
 90
       50
176
     1
 90
        3
176
     1
 62
     5
420
      255
176
     1
290
     0
176
     1
 90
       50
176
     1
 90
       50
176
     1
 90
       50
176
     1
290
     0
176
     1
 90
       50
176
     1
 62
   256
176
     0
 40
1.0
176
     0
 90
        2
176
     1
  1
strokes_ogs.tif
176
     1
290
     0
176
     1
 40
1.0
176
     1
 40
1.0
176
     1
  0
VISUALSTYLE
  5
3D
102
{ACAD_REACTORS
330
2A
102
}
330
2A
100
AcDbVisualStyle
  2
EdgeColorOff
 70
    22
177
     3
291
     1
 70
    58
 90
        2
176
     0
 90
        2
176
     0
 90
        0
176
     0
 90
        0
176
     0
 40
0.6
176
     0
 40
30.0
176
     0
 62
     7
420
 16777215
176
     0
 90
        1
176
     0
 90
        4
176
     0
 62
     7
176
     0
 62
   257
176
     0
 90
        1
176
     0
 90
        1
176
     0
 40
1.0
176
     0
 90
        8
176
     2
 62
     7
176
     0
 40
1.0
176
     0
 90
        1
176
     0
 90
        6
176
     0
 90
        2
176
     0
 62
     7
176
     0
 90
        5
176
     0
 90
        0
176
     0
 90
        0
176
     0
290
     0
176
     0
 90
        1
176
     0
 40
0.0
176
     0
 90
        0
176
     0
290
     0
176
     0
290
     1
176
     0
290
     1
176
     0
290
     0
176
     0
290
     0
176
     0
290
     0
176
     0
290
     0
176
     0
290
     0
176
     0
290
     0
176
     0
 90
       50
176
     0
 40
0.0
176
     0
 40
1.0
176
     0
 90
        0
176
     0
 62
   178
420
        0
176
     0
 90
       50
176
     0
 90
        3
176
     0
 62
     5
420
      255
176
     0
290
     0
176
     0
 90
       50
176
     0
 90
       50
176
     0
 90
       50
176
     0
290
     0
176
     0
 90
       50
176
     0
 62
   256
176
     0
 40
1.0
176
     0
 90
        2
176
     0
  1
strokes_ogs.tif
176
     0
290
     0
176
     0
 40
1.0
176
     0
 40
1.0
176
     0
  0
VISUALSTYLE
  5
39
102
{ACAD_REACTORS
330
2A
102
}
330
2A
100
AcDbVisualStyle
  2
Facepattern
 70
    15
177
     3
291
     1
 70
    58
 90
        2
176
     1
 90
        2
176
     1
 90
        0
176
     1
 90
        0
176
     1
 40
0.6
176
     1
 40
30.0
176
     1
 62
     7
420
 16777215
176
     1
 90
        1
176
     1
 90
        4
176
     1
 62
     7
176
     1
 62
   257
176
     1
 90
        1
176
     1
 90
        1
176
     1
 40
1.0
176
     1
 90
        8
176
     1
 62
     7
176
     1
 40
1.0
176
     1
 90
        1
176
     1
 90
        6
176
     1
 90
        2
176
     1
 62
     7
176
     1
 90
        5
176
     1
 90
        0
176
     1
 90
        0
176
     1
290
     0
176
     1
 90
        1
176
     1
 40
0.0
176
     1
 90
        0
176
     1
290
     0
176
     1
290
     1
176
     1
290
     1
176
     1
290
     0
176
     1
290
     0
176
     1
290
     0
176
     1
290
     0
176
     1
290
     0
176
     1
290
     0
176
     1
 90
       50
176
     1
 40
0.0
176
     1
 40
1.0
176
     1
 90
        0
176
     1
 62
   178
420
        0
176
     1
 90
       50
176
     1
 90
        3
176
     1
 62
     5
420
      255
176
     1
290
     0
176
     1
 90
       50
176
     1
 90
       50
176
     1
 90
       50
176
     1
290
     0
176
     1
 90
       50
176
     1
 62
   256
176
     0
 40
1.0
176
     0
 90
        2
176
     1
  1
strokes_ogs.tif
176
     1
290
     0
176
     1
 40
1.0
176
     1
 40
1.0
176
     1
  0
VISUALSTYLE
  5
2B
102
{ACAD_REACTORS
330
2A
102
}
330
2A
100
AcDbVisualStyle
  2
Flat
 70
     0
177
     3
291
     1
 70
    58
 90
        2
176
     1
 90
        1
176
     1
 90
        1
176
     1
 90
        2
176
     1
 40
0.6
176
     1
 40
30.0
176
     1
 62
     7
420
 16777215
176
     1
 90
        0
176
     1
 90
        0
176
     1
 62
     7
176
     1
 62
   257
176
     1
 90
        1
176
     1
 90
        1
176
     1
 40
1.0
176
     1
 90
        8
176
     1
 62
     7
176
     1
 40
1.0
176
     1
 90
        1
176
     1
 90
        6
176
     1
 90
        2
176
     1
 62
     7
176
     1
 90
        5
176
     1
 90
        0
176
     1
 90
        0
176
     1
290
     0
176
     1
 90
       13
176
     1
 40
0.0
176
     1
 90
        0
176
     1
290
     0
176
     1
290
     1
176
     1
290
     1
176
     1
290
     0
176
     1
290
     0
176
     1
290
     0
176
     1
290
     0
176
     1
290
     0
176
     1
290
     0
176
     1
 90
       50
176
     1
 40
0.0
176
     1
 40
1.0
176
     1
 90
        0
176
     1
 62
   178
420
        0
176
     1
 90
       50
176
     1
 90
        3
176
     1
 62
     5
420
      255
176
     1
290
     0
176
     1
 90
       50
176
     1
 90
       50
176
     1
 90
       50
176
     1
290
     0
176
     1
 90
       50
176
     1
 62
   256
176
     0
 40
1.0
176
     0
 90
        2
176
     1
  1
strokes_ogs.tif
176
     1
290
     0
176
     1
 40
1.0
176
     1
 40
1.0
176
     1
  0
VISUALSTYLE
  5
2C
102
{ACAD_REACTORS
330
2A
102
}
330
2A
100
AcDbVisualStyle
  2
FlatWithEdges
 70
     1
177
     3
291
     1
 70
    58
 90
        2
176
     1
 90
        1
176
     1
 90
        1
176
     1
 90
        2
176
     1
 40
0.6
176
     1
 40
30.0
176
     1
 62
     7
420
 16777215
176
     1
 90
        1
176
     1
 90
        0
176
     1
 62
     7
176
     1
 62
   257
176
     1
 90
        1
176
     1
 90
        1
176
     1
 40
1.0
176
     1
 90
        0
176
     1
 62
   257
176
     1
 40
1.0
176
     1
 90
        1
176
     1
 90
        6
176
     1
 90
        2
176
     1
 62
     7
176
     1
 90
        5
176
     1
 90
        0
176
     1
 90
        0
176
     1
290
     0
176
     1
 90
       13
176
     1
 40
0.0
176
     1
 90
        0
176
     1
290
     0
176
     1
290
     1
176
     1
290
     1
176
     1
290
     0
176
     1
290
     0
176
     1
290
     0
176
     1
290
     0
176
     1
290
     0
176
     1
290
     0
176
     1
 90
       50
176
     1
 40
0.0
176
     1
 40
1.0
176
     1
 90
        0
176
     1
 62
   178
420
        0
176
     1
 90
       50
176
     1
 90
        3
176
     1
 62
     5
420
      255
176
     1
290
     0
176
     1
 90
       50
176
     1
 90
       50
176
     1
 90
       50
176
     1
290
     0
176
     1
 90
       50
176
     1
 62
   256
176
     0
 40
1.0
176
     0
 90
        2
176
     1
  1
strokes_ogs.tif
176
     1
290
     0
176
     1
 40
1.0
176
     1
 40
1.0
176
     1
  0
VISUALSTYLE
  5
2D
102
{ACAD_REACTORS
330
2A
102
}
330
2A
100
AcDbVisualStyle
  2
Gouraud
 70
     2
177
     3
291
     1
 70
    58
 90
        2
176
     1
 90
        2
176
     1
 90
        1
176
     1
 90
        2
176
     1
 40
0.6
176
     1
 40
30.0
176
     1
 62
     7
420
 16777215
176
     1
 90
        0
176
     1
 90
        0
176
     1
 62
     7
176
     1
 62
   257
176
     1
 90
        1
176
     1
 90
        1
176
     1
 40
1.0
176
     1
 90
        0
176
     1
 62
     7
176
     1
 40
1.0
176
     1
 90
        1
176
     1
 90
        6
176
     1
 90
        2
176
     1
 62
     7
176
     1
 90
        5
176
     1
 90
        0
176
     1
 90
        0
176
     1
290
     0
176
     1
 90
       13
176
     1
 40
0.0
176
     1
 90
        0
176
     1
290
     0
176
     1
290
     1
176
     1
290
     1
176
     1
290
     0
176
     1
290
     0
176
     1
290
     0
176
     1
290
     0
176
     1
290
     0
176
     1
290
     0
176
     1
 90
       50
176
     1
 40
0.0
176
     1
 40
1.0
176
     1
 90
        0
176
     1
 62
   178
420
        0
176
     1
 90
       50
176
     1
 90
        3
176
     1
 62
     5
420
      255
176
     1
290
     0
176
     1
 90
       50
176
     1
 90
       50
176
     1
 90
       50
176
     1
290
     0
176
     1
 90
       50
176
     1
 62
   256
176
     0
 40
1.0
176
     0
 90
        2
176
     1
  1
strokes_ogs.tif
176
     1
290
     0
176
     1
 40
1.0
176
     1
 40
1.0
176
     1
  0
VISUALSTYLE
  5
2E
102
{ACAD_REACTORS
330
2A
102
}
330
2A
100
AcDbVisualStyle
  2
GouraudWithEdges
 70
     3
177
     3
291
     1
 70
    58
 90
        2
176
     1
 90
        2
176
     1
 90
        1
176
     1
 90
        2
176
     1
 40
0.6
176
     1
 40
30.0
176
     1
 62
     7
420
 16777215
176
     1
 90
        1
176
     1
 90
        0
176
     1
 62
     7
176
     1
 62
   257
176
     1
 90
        1
176
     1
 90
        1
176
     1
 40
1.0
176
     1
 90
        0
176
     1
 62
   257
176
     1
 40
1.0
176
     1
 90
        1
176
     1
 90
        6
176
     1
 90
        2
176
     1
 62
     7
176
     1
 90
        5
176
     1
 90
        0
176
     1
 90
        0
176
     1
290
     0
176
     1
 90
       13
176
     1
 40
0.0
176
     1
 90
        0
176
     1
290
     0
176
     1
290
     1
176
     1
290
     1
176
     1
290
     0
176
     1
290
     0
176
     1
290
     0
176
     1
290
     0
176
     1
290
     0
176
     1
290
     0
176
     1
 90
       50
176
     1
 40
0.0
176
     1
 40
1.0
176
     1
 90
        0
176
     1
 62
   178
420
        0
176
     1
 90
       50
176
     1
 90
        3
176
     1
 62
     5
420
      255
176
     1
290
     0
176
     1
 90
       50
176
     1
 90
       50
176
     1
 90
       50
176
     1
290
     0
176
     1
 90
       50
176
     1
 62
   256
176
     0
 40
1.0
176
     0
 90
        2
176
     1
  1
strokes_ogs.tif
176
     1
290
     0
176
     1
 40
1.0
176
     1
 40
1.0
176
     1
  0
VISUALSTYLE
  5
31
102
{ACAD_REACTORS
330
2A
102
}
330
2A
100
AcDbVisualStyle
  2
Hidden
 70
     6
177
     3
291
     0
 70
    58
 90
        1
176
     1
 90
        2
176
     1
 90
        2
176
     1
 90
        0
176
     1
 40
0.6
176
     1
 40
30.0
176
     1
 62
     7
420
 16777215
176
     1
 90
        2
176
     1
 90
        2
176
     1
 62
     7
176
     1
 62
   257
176
     1
 90
        2
176
     1
 90
        1
176
     1
 40
40.0
176
     1
 90
        0
176
     1
 62
   257
176
     1
 40
1.0
176
     1
 90
        1
176
     1
 90
        6
176
     1
 90
        2
176
     1
 62
     7
176
     1
 90
        3
176
     1
 90
        0
176
     1
 90
        0
176
     1
290
     0
176
     1
 90
        1
176
     1
 40
0.0
176
     1
 90
        0
176
     1
290
     0
176
     1
290
     1
176
     1
290
     1
176
     1
290
     0
176
     1
290
     0
176
     1
290
     0
176
     1
290
     0
176
     1
290
     0
176
     1
290
     0
176
     1
 90
       50
176
     1
 40
0.0
176
     1
 40
1.0
176
     1
 90
        0
176
     1
 62
   178
420
        0
176
     1
 90
       50
176
     1
 90
        3
176
     1
 62
     5
420
      255
176
     1
290
     0
176
     1
 90
       50
176
     1
 90
       50
176
     1
 90
       50
176
     1
290
     0
176
     1
 90
       50
176
     1
 62
   256
176
     0
 40
1.0
176
     0
 90
        2
176
     1
  1
strokes_ogs.tif
176
     1
290
     0
176
     1
 40
1.0
176
     1
 40
1.0
176
     1
  0
VISUALSTYLE
  5
3B
102
{ACAD_REACTORS
330
2A
102
}
330
2A
100
AcDbVisualStyle
  2
JitterOff
 70
    20
177
     3
291
     1
 70
    58
 90
        2
176
     0
 90
        2
176
     0
 90
        0
176
     0
 90
        0
176
     0
 40
0.6
176
     0
 40
30.0
176
     0
 62
     7
420
 16777215
176
     0
 90
        1
176
     0
 90
        4
176
     0
 62
     7
176
     0
 62
   257
176
     0
 90
        1
176
     0
 90
        1
176
     0
 40
1.0
176
     0
 90
       10
176
     2
 62
     7
176
     0
 40
1.0
176
     0
 90
        1
176
     0
 90
        6
176
     0
 90
        2
176
     0
 62
     7
176
     0
 90
        5
176
     0
 90
        0
176
     0
 90
        0
176
     0
290
     0
176
     0
 90
        1
176
     0
 40
0.0
176
     0
 90
        0
176
     0
290
     0
176
     0
290
     1
176
     0
290
     1
176
     0
290
     0
176
     0
290
     0
176
     0
290
     0
176
     0
290
     0
176
     0
290
     0
176
     0
290
     0
176
     0
 90
       50
176
     0
 40
0.0
176
     0
 40
1.0
176
     0
 90
        0
176
     0
 62
   178
420
        0
176
     0
 90
       50
176
     0
 90
        3
176
     0
 62
     5
420
      255
176
     0
290
     0
176
     0
 90
       50
176
     0
 90
       50
176
     0
 90
       50
176
     0
290
     0
176
     0
 90
       50
176
     0
 62
   256
176
     0
 40
1.0
176
     0
 90
        2
176
     0
  1
strokes_ogs.tif
176
     0
290
     0
176
     0
 40
1.0
176
     0
 40
1.0
176
     0
  0
VISUALSTYLE
  5
38
102
{ACAD_REACTORS
330
2A
102
}
330
2A
100
AcDbVisualStyle
  2
Linepattern
 70
    14
177
     3
291
     1
 70
    58
 90
        2
176
     1
 90
        2
176
     1
 90
        0
176
     1
 90
        0
176
     1
 40
0.6
176
     1
 40
30.0
176
     1
 62
     7
420
 16777215
176
     1
 90
        1
176
     1
 90
        4
176
     1
 62
     7
176
     1
 62
   257
176
     1
 90
        7
176
     1
 90
        7
176
     1
 40
1.0
176
     1
 90
        8
176
     1
 62
     7
176
     1
 40
1.0
176
     1
 90
        1
176
     1
 90
        6
176
     1
 90
        2
176
     1
 62
     7
176
     1
 90
        5
176
     1
 90
        0
176
     1
 90
        0
176
     1
290
     0
176
     1
 90
        1
176
     1
 40
0.0
176
     1
 90
        0
176
     1
290
     0
176
     1
290
     1
176
     1
290
     1
176
     1
290
     0
176
     1
290
     0
176
     1
290
     0
176
     1
290
     0
176
     1
290
     0
176
     1
290
     0
176
     1
 90
       50
176
     1
 40
0.0
176
     1
 40
1.0
176
     1
 90
        0
176
     1
 62
   178
420
        0
176
     1
 90
       50
176
     1
 90
        3
176
     1
 62
     5
420
      255
176
     1
290
     0
176
     1
 90
       50
176
     1
 90
       50
176
     1
 90
       50
176
     1
290
     0
176
     1
 90
       50
176
     1
 62
   256
176
     0
 40
1.0
176
     0
 90
        2
176
     1
  1
strokes_ogs.tif
176
     1
290
     0
176
     1
 40
1.0
176
     1
 40
1.0
176
     1
  0
VISUALSTYLE
  5
3C
102
{ACAD_REACTORS
330
2A
102
}
330
2A
100
AcDbVisualStyle
  2
OverhangOff
 70
    21
177
     3
291
     1
 70
    58
 90
        2
176
     0
 90
        2
176
     0
 90
        0
176
     0
 90
        0
176
     0
 40
0.6
176
     0
 40
30.0
176
     0
 62
     7
420
 16777215
176
     0
 90
        1
176
     0
 90
        4
176
     0
 62
     7
176
     0
 62
   257
176
     0
 90
        1
176
     0
 90
        1
176
     0
 40
1.0
176
     0
 90
        9
176
     2
 62
     7
176
     0
 40
1.0
176
     0
 90
        1
176
     0
 90
        6
176
     0
 90
        2
176
     0
 62
     7
176
     0
 90
        5
176
     0
 90
        0
176
     0
 90
        0
176
     0
290
     0
176
     0
 90
        1
176
     0
 40
0.0
176
     0
 90
        0
176
     0
290
     0
176
     0
290
     1
176
     0
290
     1
176
     0
290
     0
176
     0
290
     0
176
     0
290
     0
176
     0
290
     0
176
     0
290
     0
176
     0
290
     0
176
     0
 90
       50
176
     0
 40
0.0
176
     0
 40
1.0
176
     0
 90
        0
176
     0
 62
   178
420
        0
176
     0
 90
       50
176
     0
 90
        3
176
     0
 62
     5
420
      255
176
     0
290
     0
176
     0
 90
       50
176
     0
 90
       50
176
     0
 90
       50
176
     0
290
     0
176
     0
 90
       50
176
     0
 62
   256
176
     0
 40
1.0
176
     0
 90
        2
176
     0
  1
strokes_ogs.tif
176
     0
290
     0
176
     0
 40
1.0
176
     0
 40
1.0
176
     0
  0
VISUALSTYLE
  5
33
102
{ACAD_REACTORS
330
2A
102
}
330
2A
100
AcDbVisualStyle
  2
Realistic
 70
     8
177
     3
291
     0
 70
    58
 90
        2
176
     1
 90
        3
176
     1
 90
        0
176
     1
 90
        2
176
     1
 40
0.6
176
     1
 40
30.0
176
     1
 62
     7
420
 16777215
176
     1
 90
        0
176
     1
 90
        0
176
     1
 62
     7
176
     1
 62
   257
176
     1
 90
        1
176
     1
 90
        1
176
     1
 40
1.0
176
     1
 90
        8
176
     1
 62
   257
176
     1
 40
1.0
176
     1
 90
        1
176
     1
 90
        6
176
     1
 90
        2
176
     1
 62
     7
176
     1
 90
        3
176
     1
 90
        0
176
     1
 90
        0
176
     1
290
     0
176
     1
 90
       13
176
     1
 40
0.0
176
     1
 90
        0
176
     1
290
     0
176
     1
290
     1
176
     1
290
     1
176
     1
290
     0
176
     1
290
     0
176
     1
290
     0
176
     1
290
     0
176
     1
290
     0
176
     1
290
     0
176
     1
 90
       50
176
     1
 40
0.0
176
     1
 40
1.0
176
     1
 90
        0
176
     1
 62
   178
420
        0
176
     1
 90
       50
176
     1
 90
        3
176
     1
 62
     5
420
      255
176
     1
290
     0
176
     1
 90
       50
176
     1
 90
       50
176
     1
 90
       50
176
     1
290
     0
176
     1
 90
       50
176
     1
 62
   256
176
     0
 40
1.0
176
     0
 90
        2
176
     1
  1
strokes_ogs.tif
176
     1
290
     0
176
     1
 40
1.0
176
     1
 40
1.0
176
     1
  0
VISUALSTYLE
  5
42
102
{ACAD_REACTORS
330
2A
102
}
330
2A
100
AcDbVisualStyle
  2
Shaded
 70
    27
177
     3
291
     0
 70
    58
 90
        2
176
     1
 90
        2
176
     1
 90
        1
176
     1
 90
        2
176
     1
 40
0.6
176
     1
 40
30.0
176
     1
 62
     7
420
 16777215
176
     1
 90
        0
176
     1
 90
        4
176
     1
 62
     7
176
     1
 62
   257
176
     1
 90
        1
176
     1
 90
        1
176
     1
 40
1.0
176
     1
 90
        8
176
     1
 62
   257
176
     1
 40
1.0
176
     1
 90
        1
176
     1
 90
        6
176
     1
 90
        2
176
     1
 62
     8
420
  7895160
176
     1
 90
        3
176
     1
 90
        0
176
     1
 90
        0
176
     1
290
     0
176
     1
 90
        5
176
     1
 40
0.0
176
     1
 90
        0
176
     1
290
     0
176
     1
290
     1
176
     1
290
     1
176
     1
290
     0
176
     1
290
     0
176
     1
290
     0
176
     1
290
     0
176
     1
290
     0
176
     1
290
     0
176
     1
 90
       50
176
     1
 40
0.0
176
     1
 40
1.0
176
     1
 90
        0
176
     1
 62
   178
420
        0
176
     1
 90
       50
176
     1
 90
        3
176
     1
 62
     5
420
      255
176
     1
290
     0
176
     1
 90
       50
176
     1
 90
       50
176
     1
 90
       50
176
     1
290
     0
176
     1
 90
       50
176
     1
 62
   256
176
     0
 40
1.0
176
     0
 90
        2
176
     1
  1
strokes_ogs.tif
176
     1
290
     0
176
     1
 40
1.0
176
     1
 40
1.0
176
     1
  0
VISUALSTYLE
  5
41
102
{ACAD_REACTORS
330
2A
102
}
330
2A
100
AcDbVisualStyle
  2
Shaded with edges
 70
    26
177
     3
291
     0
 70
    58
 90
        2
176
     1
 90
        2
176
     1
 90
        1
176
     1
 90
        2
176
     1
 40
0.6
176
     1
 40
30.0
176
     1
 62
     7
420
 16777215
176
     1
 90
        1
176
     1
 90
       10
176
     1
 62
     7
176
     1
 62
   257
176
     1
 90
        2
176
     1
 90
        1
176
     1
 40
1.0
176
     1
 90
        8
176
     1
 62
   257
176
     1
 40
1.0
176
     1
 90
        1
176
     1
 90
        6
176
     1
 90
        2
176
     1
 62
     7
176
     1
 90
        3
176
     1
 90
        0
176
     1
 90
        0
176
     1
290
     0
176
     1
 90
        5
176
     1
 40
0.0
176
     1
 90
        0
176
     1
290
     0
176
     1
290
     1
176
     1
290
     1
176
     1
290
     0
176
     1
290
     0
176
     1
290
     0
176
     1
290
     0
176
     1
290
     0
176
     1
290
     0
176
     1
 90
       50
176
     1
 40
0.0
176
     1
 40
1.0
176
     1
 90
        0
176
     1
 62
   178
420
        0
176
     1
 90
       50
176
     1
 90
        3
176
     1
 62
     5
420
      255
176
     1
290
     0
176
     1
 90
       50
176
     1
 90
       50
176
     1
 90
       50
176
     1
290
     0
176
     1
 90
       50
176
     1
 62
   256
176
     0
 40
1.0
176
     0
 90
        2
176
     1
  1
strokes_ogs.tif
176
     1
290
     0
176
     1
 40
1.0
176
     1
 40
1.0
176
     1
  0
VISUALSTYLE
  5
3E
102
{ACAD_REACTORS
330
2A
102
}
330
2A
100
AcDbVisualStyle
  2
Shades of Gray
 70
    23
177
     3
291
     0
 70
    58
 90
        2
176
     1
 90
        2
176
     1
 90
        3
176
     1
 90
        0
176
     1
 40
0.6
176
     1
 40
30.0
176
     1
 62
     7
420
 16777215
176
     1
 90
        2
176
     1
 90
        2
176
     1
 62
     7
176
     1
 62
     7
176
     1
 90
        1
176
     1
 90
        1
176
     1
 40
40.0
176
     1
 90
        8
176
     1
 62
     7
176
     1
 40
1.0
176
     1
 90
        1
176
     1
 90
        6
176
     1
 90
        2
176
     1
 62
     7
176
     1
 90
        3
176
     1
 90
        0
176
     1
 90
        0
176
     1
290
     0
176
     1
 90
        1
176
     1
 40
0.0
176
     1
 90
        0
176
     1
290
     0
176
     1
290
     1
176
     1
290
     1
176
     1
290
     0
176
     1
290
     0
176
     1
290
     0
176
     1
290
     0
176
     1
290
     0
176
     1
290
     0
176
     1
 90
       50
176
     1
 40
0.0
176
     1
 40
1.0
176
     1
 90
        0
176
     1
 62
   178
420
        0
176
     1
 90
       50
176
     1
 90
        3
176
     1
 62
     5
420
      255
176
     1
290
     0
176
     1
 90
       50
176
     1
 90
       50
176
     1
 90
       50
176
     1
290
     0
176
     1
 90
       50
176
     1
 62
   256
176
     0
 40
1.0
176
     0
 90
        2
176
     1
  1
strokes_ogs.tif
176
     1
290
     0
176
     1
 40
1.0
176
     1
 40
1.0
176
     1
  0
VISUALSTYLE
  5
3F
102
{ACAD_REACTORS
330
2A
102
}
330
2A
100
AcDbVisualStyle
  2
Sketchy
 70
    24
177
     3
291
     0
 70
    58
 90
        1
176
     1
 90
        2
176
     1
 90
        2
176
     1
 90
        0
176
     1
 40
0.6
176
     1
 40
30.0
176
     1
 62
     7
420
 16777215
176
     1
 90
        2
176
     1
 90
        2
176
     1
 62
     7
176
     1
 62
     7
176
     1
 90
        1
176
     1
 90
        1
176
     1
 40
40.0
176
     1
 90
       11
176
     1
 62
     7
176
     1
 40
1.0
176
     1
 90
        1
176
     1
 90
        6
176
     1
 90
        2
176
     1
 62
     7
176
     1
 90
        6
176
     1
 90
        0
176
     1
 90
        0
176
     1
290
     0
176
     1
 90
        1
176
     1
 40
0.0
176
     1
 90
        0
176
     1
290
     0
176
     1
290
     1
176
     1
290
     1
176
     1
290
     0
176
     1
290
     0
176
     1
290
     0
176
     1
290
     0
176
     1
290
     0
176
     1
290
     0
176
     1
 90
       50
176
     1
 40
0.0
176
     1
 40
1.0
176
     1
 90
        0
176
     1
 62
   178
420
        0
176
     1
 90
       50
176
     1
 90
        3
176
     1
 62
     5
420
      255
176
     1
290
     0
176
     1
 90
       50
176
     1
 90
       50
176
     1
 90
       50
176
     1
290
     0
176
     1
 90
       50
176
     1
 62
   256
176
     0
 40
1.0
176
     0
 90
        2
176
     1
  1
strokes_ogs.tif
176
     1
290
     0
176
     1
 40
1.0
176
     1
 40
1.0
176
     1
  0
VISUALSTYLE
  5
37
102
{ACAD_REACTORS
330
2A
102
}
330
2A
100
AcDbVisualStyle
  2
Thicken
 70
    13
177
     3
291
     1
 70
    58
 90
        2
176
     1
 90
        2
176
     1
 90
        0
176
     1
 90
        0
176
     1
 40
0.6
176
     1
 40
30.0
176
     1
 62
     7
420
 16777215
176
     1
 90
        1
176
     1
 90
        4
176
     1
 62
     7
176
     1
 62
   257
176
     1
 90
        1
176
     1
 90
        1
176
     1
 40
1.0
176
     1
 90
       12
176
     1
 62
     7
176
     1
 40
1.0
176
     1
 90
        1
176
     1
 90
        6
176
     1
 90
        2
176
     1
 62
     7
176
     1
 90
        5
176
     1
 90
        0
176
     1
 90
        0
176
     1
290
     0
176
     1
 90
        1
176
     1
 40
0.0
176
     1
 90
        0
176
     1
290
     0
176
     1
290
     1
176
     1
290
     1
176
     1
290
     0
176
     1
290
     0
176
     1
290
     0
176
     1
290
     0
176
     1
290
     0
176
     1
290
     0
176
     1
 90
       50
176
     1
 40
0.0
176
     1
 40
1.0
176
     1
 90
        0
176
     1
 62
   178
420
        0
176
     1
 90
       50
176
     1
 90
        3
176
     1
 62
     5
420
      255
176
     1
290
     0
176
     1
 90
       50
176
     1
 90
       50
176
     1
 90
       50
176
     1
290
     0
176
     1
 90
       50
176
     1
 62
   256
176
     0
 40
1.0
176
     0
 90
        2
176
     1
  1
strokes_ogs.tif
176
     1
290
     0
176
     1
 40
1.0
176
     1
 40
1.0
176
     1
  0
VISUALSTYLE
  5
30
102
{ACAD_REACTORS
330
2A
102
}
330
2A
100
AcDbVisualStyle
  2
Wireframe
 70
     5
177
     3
291
     0
 70
    58
 90
        0
176
     1
 90
        2
176
     1
 90
        0
176
     1
 90
        0
176
     1
 40
0.6
176
     1
 40
30.0
176
     1
 62
     7
420
 16777215
176
     1
 90
        1
176
     1
 90
        4
176
     1
 62
     7
176
     1
 62
   257
176
     1
 90
        1
176
     1
 90
        1
176
     1
 40
1.0
176
     1
 90
        0
176
     1
 62
   257
176
     1
 40
1.0
176
     1
 90
        1
176
     1
 90
        6
176
     1
 90
        2
176
     1
 62
     7
176
     1
 90
        3
176
     1
 90
        0
176
     1
 90
        0
176
     1
290
     0
176
     1
 90
        1
176
     1
 40
0.0
176
     1
 90
        0
176
     1
290
     0
176
     1
290
     1
176
     1
290
     1
176
     1
290
     0
176
     1
290
     0
176
     1
290
     0
176
     1
290
     0
176
     1
290
     0
176
     1
290
     0
176
     1
 90
       50
176
     1
 40
0.0
176
     1
 40
1.0
176
     1
 90
        0
176
     1
 62
   178
420
        0
176
     1
 90
       50
176
     1
 90
        3
176
     1
 62
     5
420
      255
176
     1
290
     0
176
     1
 90
       50
176
     1
 90
       50
176
     1
 90
       50
176
     1
290
     0
176
     1
 90
       50
176
     1
 62
   256
176
     0
 40
1.0
176
     0
 90
        2
176
     1
  1
strokes_ogs.tif
176
     1
290
     0
176
     1
 40
1.0
176
     1
 40
1.0
176
     1
  0
VISUALSTYLE
  5
40
102
{ACAD_REACTORS
330
2A
102
}
330
2A
100
AcDbVisualStyle
  2
X-Ray
 70
    25
177
     3
291
     0
 70
    58
 90
        2
176
     1
 90
        2
176
     1
 90
        1
176
     1
 90
        1
176
     1
 40
0.5
176
     1
 40
30.0
176
     1
 62
     7
420
 16777215
176
     1
 90
        1
176
     1
 90
        0
176
     1
 62
     7
176
     1
 62
   257
176
     1
 90
        1
176
     1
 90
        1
176
     1
 40
1.0
176
     1
 90
        8
176
     1
 62
     7
176
     1
 40
1.0
176
     1
 90
        1
176
     1
 90
        6
176
     1
 90
        2
176
     1
 62
     7
176
     1
 90
        3
176
     1
 90
        0
176
     1
 90
        0
176
     1
290
     0
176
     1
 90
       13
176
     1
 40
0.0
176
     1
 90
        0
176
     1
290
     0
176
     1
290
     1
176
     1
290
     1
176
     1
290
     0
176
     1
290
     0
176
     1
290
     0
176
     1
290
     0
176
     1
290
     0
176
     1
290
     0
176
     1
 90
       50
176
     1
 40
0.0
176
     1
 40
1.0
176
     1
 90
        0
176
     1
 62
   178
420
        0
176
     1
 90
       50
176
     1
 90
        3
176
     1
 62
     5
420
      255
176
     1
290
     0
176
     1
 90
       50
176
     1
 90
       50
176
     1
 90
       50
176
     1
290
     0
176
     1
 90
       50
176
     1
 62
   256
176
     0
 40
1.0
176
     0
 90
        2
176
     1
  1
strokes_ogs.tif
176
     1
290
     0
176
     1
 40
1.0
176
     1
 40
1.0
176
     1
  0
DICTIONARYVAR
  5
458
102
{ACAD_REACTORS
330
457
102
}
330
457
100
DictionaryVariables
280
     0
  1
1:1
  0
DICTIONARYVAR
  5
45D
102
{ACAD_REACTORS
330
457
102
}
330
457
100
DictionaryVariables
280
     0
  1
Standard
  0
DICTIONARYVAR
  5
45C
102
{ACAD_REACTORS
330
457
102
}
330
457
100
DictionaryVariables
280
     0
  1
Standard
  0
DICTIONARY
  5
459
330
6A
100
AcDbDictionary
280
     1
281
     1
  3
ACAD_ROUNDTRIP_2008_TABLESTYLE_CELLSTYLEMAP
360
45A
  0
CELLSTYLEMAP
  5
45A
102
{ACAD_REACTORS
330
459
102
}
330
459
100
AcDbCellStyleMap
 90
        3
300
CELLSTYLE
  1
TABLEFORMAT_BEGIN
 90
        5
170
     1
 91
        0
 92
    32768
 62
   257
 93
        1
300
CONTENTFORMAT
  1
CONTENTFORMAT_BEGIN
 90
        0
 91
        0
 92
        4
 93
        0
300

 40
0.0
140
1.0
 94
        5
 62
     0
340
11
144
6.0
309
CONTENTFORMAT_END
171
     1
301
MARGIN
  1
CELLMARGIN_BEGIN
 40
1.5
 40
1.5
 40
1.5
 40
1.5
 40
1.5
 40
1.5
309
CELLMARGIN_END
 94
        6
 95
        1
302
GRIDFORMAT
  1
GRIDFORMAT_BEGIN
 90
        0
 91
        1
 62
     0
 92
       -2
340
14
 93
        0
 40
0.045
309
GRIDFORMAT_END
 95
        2
302
GRIDFORMAT
  1
GRIDFORMAT_BEGIN
 90
        0
 91
        1
 62
     0
 92
       -2
340
14
 93
        0
 40
0.045
309
GRIDFORMAT_END
 95
        4
302
GRIDFORMAT
  1
GRIDFORMAT_BEGIN
 90
        0
 91
        1
 62
     0
 92
       -2
340
14
 93
        0
 40
0.045
309
GRIDFORMAT_END
 95
        8
302
GRIDFORMAT
  1
GRIDFORMAT_BEGIN
 90
        0
 91
        1
 62
     0
 92
       -2
340
14
 93
        0
 40
0.045
309
GRIDFORMAT_END
 95
       16
302
GRIDFORMAT
  1
GRIDFORMAT_BEGIN
 90
        0
 91
        1
 62
     0
 92
       -2
340
14
 93
        0
 40
0.045
309
GRIDFORMAT_END
 95
       32
302
GRIDFORMAT
  1
GRIDFORMAT_BEGIN
 90
        0
 91
        1
 62
     0
 92
       -2
340
14
 93
        0
 40
0.045
309
GRIDFORMAT_END
309
TABLEFORMAT_END
  1
CELLSTYLE_BEGIN
 90
        1
 91
        1
300
_TITLE
309
CELLSTYLE_END
300
CELLSTYLE
  1
TABLEFORMAT_BEGIN
 90
        5
170
     1
 91
        0
 92
        0
 62
   257
 93
        1
300
CONTENTFORMAT
  1
CONTENTFORMAT_BEGIN
 90
        0
 91
        0
 92
        4
 93
        0
300

 40
0.0
140
1.0
 94
        5
 62
     0
340
11
144
4.5
309
CONTENTFORMAT_END
171
     1
301
MARGIN
  1
CELLMARGIN_BEGIN
 40
1.5
 40
1.5
 40
1.5
 40
1.5
 40
1.5
 40
1.5
309
CELLMARGIN_END
 94
        6
 95
        1
302
GRIDFORMAT
  1
GRIDFORMAT_BEGIN
 90
        0
 91
        1
 62
     0
 92
       -2
340
14
 93
        0
 40
0.045
309
GRIDFORMAT_END
 95
        2
302
GRIDFORMAT
  1
GRIDFORMAT_BEGIN
 90
        0
 91
        1
 62
     0
 92
       -2
340
14
 93
        0
 40
0.045
309
GRIDFORMAT_END
 95
        4
302
GRIDFORMAT
  1
GRIDFORMAT_BEGIN
 90
        0
 91
        1
 62
     0
 92
       -2
340
14
 93
        0
 40
0.045
309
GRIDFORMAT_END
 95
        8
302
GRIDFORMAT
  1
GRIDFORMAT_BEGIN
 90
        0
 91
        1
 62
     0
 92
       -2
340
14
 93
        0
 40
0.045
309
GRIDFORMAT_END
 95
       16
302
GRIDFORMAT
  1
GRIDFORMAT_BEGIN
 90
        0
 91
        1
 62
     0
 92
       -2
340
14
 93
        0
 40
0.045
309
GRIDFORMAT_END
 95
       32
302
GRIDFORMAT
  1
GRIDFORMAT_BEGIN
 90
        0
 91
        1
 62
     0
 92
       -2
340
14
 93
        0
 40
0.045
309
GRIDFORMAT_END
309
TABLEFORMAT_END
  1
CELLSTYLE_BEGIN
 90
        2
 91
        1
300
_HEADER
309
CELLSTYLE_END
300
CELLSTYLE
  1
TABLEFORMAT_BEGIN
 90
        5
170
     1
 91
        0
 92
        0
 62
   257
 93
        1
300
CONTENTFORMAT
  1
CONTENTFORMAT_BEGIN
 90
        0
 91
        0
 92
        4
 93
        0
300

 40
0.0
140
1.0
 94
        2
 62
     0
340
11
144
4.5
309
CONTENTFORMAT_END
171
     1
301
MARGIN
  1
CELLMARGIN_BEGIN
 40
1.5
 40
1.5
 40
1.5
 40
1.5
 40
1.5
 40
1.5
309
CELLMARGIN_END
 94
        6
 95
        1
302
GRIDFORMAT
  1
GRIDFORMAT_BEGIN
 90
        0
 91
        1
 62
     0
 92
       -2
340
14
 93
        0
 40
0.045
309
GRIDFORMAT_END
 95
        2
302
GRIDFORMAT
  1
GRIDFORMAT_BEGIN
 90
        0
 91
        1
 62
     0
 92
       -2
340
14
 93
        0
 40
0.045
309
GRIDFORMAT_END
 95
        4
302
GRIDFORMAT
  1
GRIDFORMAT_BEGIN
 90
        0
 91
        1
 62
     0
 92
       -2
340
14
 93
        0
 40
0.045
309
GRIDFORMAT_END
 95
        8
302
GRIDFORMAT
  1
GRIDFORMAT_BEGIN
 90
        0
 91
        1
 62
     0
 92
       -2
340
14
 93
        0
 40
0.045
309
GRIDFORMAT_END
 95
       16
302
GRIDFORMAT
  1
GRIDFORMAT_BEGIN
 90
        0
 91
        1
 62
     0
 92
       -2
340
14
 93
        0
 40
0.045
309
GRIDFORMAT_END
 95
       32
302
GRIDFORMAT
  1
GRIDFORMAT_BEGIN
 90
        0
 91
        1
 62
     0
 92
       -2
340
14
 93
        0
 40
0.045
309
GRIDFORMAT_END
309
TABLEFORMAT_END
  1
CELLSTYLE_BEGIN
 90
        3
 91
        2
300
_DATA
309
CELLSTYLE_END
  0
ENDSEC
  0
EOF
