  0
SECTION
  2
HEADER
  9
$ACADVER
  1
AC1027
  9
$ACADMAINTVER
 70
     8
  9
$DWGCODEPAGE
  3
ANSI_1252
  9
$REQUIREDVERSIONS
160
                 0
  9
$INSBASE
 10
0.0
 20
0.0
 30
0.0
  9
$EXTMIN
 10
0.0
 20
0.0
 30
0.0
  9
$EXTMAX
 10
210.0
 20
297.0
 30
0.0
  9
$LIMMIN
 10
0.0
 20
0.0
  9
$LIMMAX
 10
210.0
 20
297.0
  9
$ORTHOMODE
 70
     0
  9
$REGENMODE
 70
     1
  9
$FILLMODE
 70
     1
  9
$QTEXTMODE
 70
     0
  9
$MIRRTEXT
 70
     1
  9
$LTSCALE
 40
1.0
  9
$ATTMODE
 70
     1
  9
$TEXTSIZE
 40
2.5
  9
$TRACEWID
 40
1.0
  9
$TEXTSTYLE
  7
Standard
  9
$CLAYER
  8
Dimension
  9
$CELTYPE
  6
ByLayer
  9
$CECOLOR
 62
   256
  9
$CELTSCALE
 40
1.0
  9
$DISPSILH
 70
     0
  9
$DIMSCALE
 40
1.0
  9
$DIMASZ
 40
2.5
  9
$DIMEXO
 40
0.625
  9
$DIMDLI
 40
3.75
  9
$DIMRND
 40
0.0
  9
$DIMDLE
 40
0.0
  9
$DIMEXE
 40
1.25
  9
$DIMTP
 40
0.0
  9
$DIMTM
 40
0.0
  9
$DIMTXT
 40
2.5
  9
$DIMCEN
 40
2.5
  9
$DIMTSZ
 40
0.0
  9
$DIMTOL
 70
     0
  9
$DIMLIM
 70
     0
  9
$DIMTIH
 70
     0
  9
$DIMTOH
 70
     0
  9
$DIMSE1
 70
     0
  9
$DIMSE2
 70
     0
  9
$DIMTAD
 70
     1
  9
$DIMZIN
 70
     8
  9
$DIMBLK
  1

  9
$DIMASO
 70
     1
  9
$DIMSHO
 70
     1
  9
$DIMPOST
  1

  9
$DIMAPOST
  1

  9
$DIMALT
 70
     0
  9
$DIMALTD
 70
     3
  9
$DIMALTF
 40
0.03937007874016
  9
$DIMLFAC
 40
1.0
  9
$DIMTOFL
 70
     1
  9
$DIMTVP
 40
0.0
  9
$DIMTIX
 70
     0
  9
$DIMSOXD
 70
     0
  9
$DIMSAH
 70
     0
  9
$DIMBLK1
  1

  9
$DIMBLK2
  1

  9
$DIMSTYLE
  2
ISO-25
  9
$DIMCLRD
 70
     0
  9
$DIMCLRE
 70
     0
  9
$DIMCLRT
 70
     0
  9
$DIMTFAC
 40
1.0
  9
$DIMGAP
 40
0.625
  9
$DIMJUST
 70
     0
  9
$DIMSD1
 70
     0
  9
$DIMSD2
 70
     0
  9
$DIMTOLJ
 70
     0
  9
$DIMTZIN
 70
     8
  9
$DIMALTZ
 70
     0
  9
$DIMALTTZ
 70
     0
  9
$DIMUPT
 70
     0
  9
$DIMDEC
 70
     2
  9
$DIMTDEC
 70
     2
  9
$DIMALTU
 70
     2
  9
$DIMALTTD
 70
     3
  9
$DIMTXSTY
  7
Standard
  9
$DIMAUNIT
 70
     0
  9
$DIMADEC
 70
     0
  9
$DIMALTRND
 40
0.0
  9
$DIMAZIN
 70
     0
  9
$DIMDSEP
 70
    44
  9
$DIMATFIT
 70
     3
  9
$DIMFRAC
 70
     0
  9
$DIMLDRBLK
  1

  9
$DIMLUNIT
 70
     2
  9
$DIMLWD
 70
    -2
  9
$DIMLWE
 70
    -2
  9
$DIMTMOVE
 70
     0
  9
$DIMFXL
 40
1.0
  9
$DIMFXLON
 70
     0
  9
$DIMJOGANG
 40
0.7853981633974483
  9
$DIMTFILL
 70
     0
  9
$DIMTFILLCLR
 70
     0
  9
$DIMARCSYM
 70
     0
  9
$DIMLTYPE
  6

  9
$DIMLTEX1
  6

  9
$DIMLTEX2
  6

  9
$DIMTXTDIRECTION
 70
     0
  9
$LUNITS
 70
     2
  9
$LUPREC
 70
     4
  9
$SKETCHINC
 40
1.0
  9
$FILLETRAD
 40
10.0
  9
$AUNITS
 70
     0
  9
$AUPREC
 70
     0
  9
$MENU
  1
.
  9
$ELEVATION
 40
0.0
  9
$PELEVATION
 40
0.0
  9
$THICKNESS
 40
0.0
  9
$LIMCHECK
 70
     0
  9
$CHAMFERA
 40
0.0
  9
$CHAMFERB
 40
0.0
  9
$CHAMFERC
 40
0.0
  9
$CHAMFERD
 40
0.0
  9
$SKPOLY
 70
     0
  9
$TDCREATE
 40
2457509.477604167
  9
$TDUCREATE
 40
2457509.769270833
  9
$TDUPDATE
 40
2457509.477615741
  9
$TDUUPDATE
 40
2457509.769282408
  9
$TDINDWG
 40
0.0000000116
  9
$TDUSRTIMER
 40
0.0000000116
  9
$USRTIMER
 70
     1
  9
$ANGBASE
 50
0.0
  9
$ANGDIR
 70
     0
  9
$PDMODE
 70
     0
  9
$PDSIZE
 40
0.0
  9
$PLINEWID
 40
0.0
  9
$SPLFRAME
 70
     0
  9
$SPLINETYPE
 70
     6
  9
$SPLINESEGS
 70
     8
  9
$HANDSEED
  5
202
  9
$SURFTAB1
 70
     6
  9
$SURFTAB2
 70
     6
  9
$SURFTYPE
 70
     6
  9
$SURFU
 70
     6
  9
$SURFV
 70
     6
  9
$UCSBASE
  2

  9
$UCSNAME
  2

  9
$UCSORG
 10
0.0
 20
0.0
 30
0.0
  9
$UCSXDIR
 10
1.0
 20
0.0
 30
0.0
  9
$UCSYDIR
 10
0.0
 20
1.0
 30
0.0
  9
$UCSORTHOREF
  2

  9
$UCSORTHOVIEW
 70
     0
  9
$UCSORGTOP
 10
0.0
 20
0.0
 30
0.0
  9
$UCSORGBOTTOM
 10
0.0
 20
0.0
 30
0.0
  9
$UCSORGLEFT
 10
0.0
 20
0.0
 30
0.0
  9
$UCSORGRIGHT
 10
0.0
 20
0.0
 30
0.0
  9
$UCSORGFRONT
 10
0.0
 20
0.0
 30
0.0
  9
$UCSORGBACK
 10
0.0
 20
0.0
 30
0.0
  9
$PUCSBASE
  2

  9
$PUCSNAME
  2

  9
$PUCSORG
 10
0.0
 20
0.0
 30
0.0
  9
$PUCSXDIR
 10
1.0
 20
0.0
 30
0.0
  9
$PUCSYDIR
 10
0.0
 20
1.0
 30
0.0
  9
$PUCSORTHOREF
  2

  9
$PUCSORTHOVIEW
 70
     0
  9
$PUCSORGTOP
 10
0.0
 20
0.0
 30
0.0
  9
$PUCSORGBOTTOM
 10
0.0
 20
0.0
 30
0.0
  9
$PUCSORGLEFT
 10
0.0
 20
0.0
 30
0.0
  9
$PUCSORGRIGHT
 10
0.0
 20
0.0
 30
0.0
  9
$PUCSORGFRONT
 10
0.0
 20
0.0
 30
0.0
  9
$PUCSORGBACK
 10
0.0
 20
0.0
 30
0.0
  9
$USERI1
 70
     0
  9
$USERI2
 70
     0
  9
$USERI3
 70
     0
  9
$USERI4
 70
     0
  9
$USERI5
 70
     0
  9
$USERR1
 40
0.0
  9
$USERR2
 40
0.0
  9
$USERR3
 40
0.0
  9
$USERR4
 40
0.0
  9
$USERR5
 40
0.0
  9
$WORLDVIEW
 70
     1
  9
$SHADEDGE
 70
     3
  9
$SHADEDIF
 70
    70
  9
$TILEMODE
 70
     1
  9
$MAXACTVP
 70
    64
  9
$PINSBASE
 10
0.0
 20
0.0
 30
0.0
  9
$PLIMCHECK
 70
     0
  9
$PEXTMIN
 10
1.000000000000000E+20
 20
1.000000000000000E+20
 30
1.000000000000000E+20
  9
$PEXTMAX
 10
-1.000000000000000E+20
 20
-1.000000000000000E+20
 30
-1.000000000000000E+20
  9
$PLIMMIN
 10
0.0
 20
0.0
  9
$PLIMMAX
 10
420.0
 20
297.0
  9
$UNITMODE
 70
     0
  9
$VISRETAIN
 70
     1
  9
$PLINEGEN
 70
     0
  9
$PSLTSCALE
 70
     1
  9
$TREEDEPTH
 70
  3020
  9
$CMLSTYLE
  2
Standard
  9
$CMLJUST
 70
     0
  9
$CMLSCALE
 40
20.0
  9
$PROXYGRAPHICS
 70
     1
  9
$MEASUREMENT
 70
     1
  9
$CELWEIGHT
370
    -1
  9
$ENDCAPS
280
     0
  9
$JOINSTYLE
280
     0
  9
$LWDISPLAY
290
     0
  9
$INSUNITS
 70
     4
  9
$HYPERLINKBASE
  1

  9
$STYLESHEET
  1

  9
$XEDIT
290
     1
  9
$CEPSNTYPE
380
     0
  9
$PSTYLEMODE
290
     1
  9
$FINGERPRINTGUID
  2
{2b79ad88-920c-4abb-aeab-e6a820dcd39a}
  9
$VERSIONGUID
  2
{FAEB1C32-E019-11D5-929B-00C0DF256EC4}
  9
$EXTNAMES
290
     1
  9
$PSVPSCALE
 40
0.0
  9
$OLESTARTUP
290
     0
  9
$SORTENTS
280
   127
  9
$INDEXCTL
280
     0
  9
$HIDETEXT
280
     1
  9
$XCLIPFRAME
280
     2
  9
$HALOGAP
280
     0
  9
$OBSCOLOR
 70
   257
  9
$OBSLTYPE
280
     0
  9
$INTERSECTIONDISPLAY
280
     0
  9
$INTERSECTIONCOLOR
 70
   257
  9
$DIMASSOC
280
     2
  9
$PROJECTNAME
  1

  9
$CAMERADISPLAY
290
     0
  9
$LENSLENGTH
 40
50.0
  9
$CAMERAHEIGHT
 40
0.0
  9
$STEPSPERSEC
 40
2.0
  9
$STEPSIZE
 40
6.0
  9
$3DDWFPREC
 40
2.0
  9
$PSOLWIDTH
 40
5.0
  9
$PSOLHEIGHT
 40
80.0
  9
$LOFTANG1
 40
1.570796326794897
  9
$LOFTANG2
 40
1.570796326794897
  9
$LOFTMAG1
 40
0.0
  9
$LOFTMAG2
 40
0.0
  9
$LOFTPARAM
 70
     7
  9
$LOFTNORMALS
280
     1
  9
$LATITUDE
 40
37.795
  9
$LONGITUDE
 40
-122.394
  9
$NORTHDIRECTION
 40
0.0
  9
$TIMEZONE
 70
 -8000
  9
$LIGHTGLYPHDISPLAY
280
     1
  9
$TILEMODELIGHTSYNCH
280
     1
  9
$CMATERIAL
347
44
  9
$SOLIDHIST
280
     0
  9
$SHOWHIST
280
     1
  9
$DWFFRAME
280
     2
  9
$DGNFRAME
280
     2
  9
$REALWORLDSCALE
290
     1
  9
$INTERFERECOLOR
 62
   256
  9
$CSHADOW
280
     0
  9
$SHADOWPLANELOCATION
 40
0.0
  0
ENDSEC
  0
SECTION
  2
CLASSES
  0
CLASS
  1
ACDBDICTIONARYWDFLT
  2
AcDbDictionaryWithDefault
  3
ObjectDBX Classes
 90
        0
 91
        4
280
     0
281
     0
  0
CLASS
  1
VISUALSTYLE
  2
AcDbVisualStyle
  3
ObjectDBX Classes
 90
     4095
 91
        4
280
     0
281
     0
  0
CLASS
  1
MATERIAL
  2
AcDbMaterial
  3
ObjectDBX Classes
 90
     1153
 91
        4
280
     0
281
     0
  0
CLASS
  1
SCALE
  2
AcDbScale
  3
ObjectDBX Classes
 90
     1153
 91
        4
280
     0
281
     0
  0
CLASS
  1
TABLESTYLE
  2
AcDbTableStyle
  3
ObjectDBX Classes
 90
     4095
 91
        4
280
     0
281
     0
  0
CLASS
  1
MLEADERSTYLE
  2
AcDbMLeaderStyle
  3
ACDB_MLEADERSTYLE_CLASS
 90
     4095
 91
        4
280
     0
281
     0
  0
CLASS
  1
SUN
  2
AcDbSun
  3
SCENEOE
 90
     1153
 91
        4
280
     0
281
     0
  0
CLASS
  1
DICTIONARYVAR
  2
AcDbDictionaryVar
  3
ObjectDBX Classes
 90
        0
 91
        4
280
     0
281
     0
  0
CLASS
  1
CELLSTYLEMAP
  2
AcDbCellStyleMap
  3
ObjectDBX Classes
 90
     1152
 91
        4
280
     0
281
     0
  0
ENDSEC
  0
SECTION
  2
TABLES
  0
TABLE
  2
VPORT
  5
8
330
0
100
AcDbSymbolTable
 70
     1
  0
VPORT
  5
29
330
8
100
AcDbSymbolTableRecord
100
AcDbViewportTableRecord
  2
*Active
 70
     0
 10
0.0
 20
0.0
 11
1.0
 21
1.0
 12
98.56139096679912
 22
151.4170844625751
 13
0.0
 23
0.0
 14
10.0
 24
10.0
 15
10.0
 25
10.0
 16
0.0
 26
0.0
 36
1.0
 17
0.0
 27
0.0
 37
0.0
 40
369.9537554222393
 41
1.863590772316951
 42
50.0
 43
0.0
 44
0.0
 50
0.0
 51
0.0
 71
     0
 72
   100
 73
     1
 74
     3
 75
     0
 76
     0
 77
     0
 78
     0
281
     0
 65
     1
110
0.0
120
0.0
130
0.0
111
1.0
121
0.0
131
0.0
112
0.0
122
1.0
132
0.0
 79
     0
146
0.0
348
2F
 60
     3
 61
     5
292
     1
282
     1
141
0.0
142
0.0
 63
   250
361
6D
  0
ENDTAB
  0
TABLE
  2
LTYPE
  5
5
330
0
100
AcDbSymbolTable
 70
     7
  0
LTYPE
  5
14
330
5
100
AcDbSymbolTableRecord
100
AcDbLinetypeTableRecord
  2
ByBlock
 70
     0
  3

 72
    65
 73
     0
 40
0.0
  0
LTYPE
  5
15
330
5
100
AcDbSymbolTableRecord
100
AcDbLinetypeTableRecord
  2
ByLayer
 70
     0
  3

 72
    65
 73
     0
 40
0.0
  0
LTYPE
  5
16
330
5
100
AcDbSymbolTableRecord
100
AcDbLinetypeTableRecord
  2
Continuous
 70
     0
  3
Solid line
 72
    65
 73
     0
 40
0.0
  0
LTYPE
  5
6E
330
5
100
AcDbSymbolTableRecord
100
AcDbLinetypeTableRecord
  2
DOT
 70
     0
  3
Dot . . . . . . . . . . . . . . . . . . . . . . . .
 72
    65
 73
     2
 40
2.032
 49
1.016
 74
     0
 49
-1.016
 74
     0
  0
LTYPE
  5
6F
330
5
100
AcDbSymbolTableRecord
100
AcDbLinetypeTableRecord
  2
CENTER
 70
     0
  3
Center ____ _ ____ _ ____ _ ____ _ ____ _ ____
 72
    65
 73
     4
 40
13.208
 49
8.128
 74
     0
 49
-1.524
 74
     0
 49
2.032
 74
     0
 49
-1.524
 74
     0
  0
LTYPE
  5
70
330
5
100
AcDbSymbolTableRecord
100
AcDbLinetypeTableRecord
  2
HIDDEN2
 70
     0
  3
Hidden (.5x) _ _ _ _ _ _ _ _ _ _ _ _ _ _ _ _ _
 72
    65
 73
     2
 40
4.762499999999999
 49
3.175
 74
     0
 49
-1.5875
 74
     0
  0
LTYPE
  5
71
330
5
100
AcDbSymbolTableRecord
100
AcDbLinetypeTableRecord
  2
DASHED
 70
     0
  3
Dashed __ __ __ __ __ __ __ __ __ __ __ __ __ _
 72
    65
 73
     2
 40
9.652
 49
8.128
 74
     0
 49
-1.524
 74
     0
  0
LTYPE
  5
72
330
5
100
AcDbSymbolTableRecord
100
AcDbLinetypeTableRecord
  2
PHANTOM2
 70
     0
  3
Phantom (.5x) ___ _ _ ___ _ _ ___ _ _ ___ _ _
 72
    65
 73
     6
 40
14.732
 49
8.128
 74
     0
 49
-1.524
 74
     0
 49
1.016
 74
     0
 49
-1.524
 74
     0
 49
1.016
 74
     0
 49
-1.524
 74
     0
  0
LTYPE
  5
73
330
5
100
AcDbSymbolTableRecord
100
AcDbLinetypeTableRecord
  2
DASHDOT
 70
     0
  3
Dash dot __ . __ . __ . __ . __ . __ . __ . __
 72
    65
 73
     4
 40
11.176
 49
8.128
 74
     0
 49
-1.524
 74
     0
 49
0.0
 74
     0
 49
-1.524
 74
     0
  0
ENDTAB
  0
TABLE
  2
LAYER
  5
2
330
0
100
AcDbSymbolTable
 70
     8
  0
LAYER
  5
10
330
2
100
AcDbSymbolTableRecord
100
AcDbLayerTableRecord
  2
0
 70
     0
 62
     7
  6
Continuous
370
    -3
390
F
347
46
348
0
  0
LAYER
  5
74
330
2
100
AcDbSymbolTableRecord
100
AcDbLayerTableRecord
  2
Outline
 70
     0
 62
     7
  6
Continuous
370
    -3
390
F
347
46
348
0
  0
LAYER
  5
75
330
2
100
AcDbSymbolTableRecord
100
AcDbLayerTableRecord
  2
Axis
 70
     0
 62
     5
  6
DASHDOT
370
    -3
390
F
347
46
348
0
  0
LAYER
  5
76
330
2
100
AcDbSymbolTableRecord
100
AcDbLayerTableRecord
  2
Dimension
 70
     0
 62
     7
  6
Continuous
370
    -3
390
F
347
46
348
0
  0
LAYER
  5
77
330
2
100
AcDbSymbolTableRecord
100
AcDbLayerTableRecord
  2
Hatch
 70
     0
 62
     5
  6
Continuous
370
    -3
390
F
347
46
348
0
  0
LAYER
  5
78
330
2
100
AcDbSymbolTableRecord
100
AcDbLayerTableRecord
  2
Auxiliary
 70
     0
 62
     1
  6
DOT
370
    -3
390
F
347
46
348
0
  0
LAYER
  5
79
330
2
100
AcDbSymbolTableRecord
100
AcDbLayerTableRecord
  2
Invisible
 70
     0
 62
     6
  6
DOT
370
    -3
390
F
347
46
348
0
  0
LAYER
  5
D4
330
2
100
AcDbSymbolTableRecord
100
AcDbLayerTableRecord
  2
Defpoints
 70
     0
 62
     7
  6
Continuous
290
     0
370
    -3
390
F
347
46
348
0
  0
ENDTAB
  0
TABLE
  2
STYLE
  5
3
330
0
100
AcDbSymbolTable
 70
    33
  0
STYLE
  5
11
330
3
100
AcDbSymbolTableRecord
100
AcDbTextStyleTableRecord
  2
Standard
 70
     0
 40
0.0
 41
1.0
 50
0.0
 71
     0
 42
2.5
  3
txt
  4

  0
STYLE
  5
7A
330
3
100
AcDbSymbolTableRecord
100
AcDbTextStyleTableRecord
  2
VCDSTYLE01
 70
     0
 40
0.0
 41
1.0
 50
0.0
 71
     0
 42
2.5
  3
txt
  4

  0
STYLE
  5
7B
330
3
100
AcDbSymbolTableRecord
100
AcDbTextStyleTableRecord
  2
VCDSTYLE02
 70
     0
 40
0.0
 41
1.0
 50
0.0
 71
     0
 42
2.5
  3
txt
  4

  0
STYLE
  5
7C
330
3
100
AcDbSymbolTableRecord
100
AcDbTextStyleTableRecord
  2
VCDSTYLE03
 70
     0
 40
0.0
 41
1.0
 50
0.0
 71
     0
 42
2.5
  3
txt
  4

  0
STYLE
  5
7D
330
3
100
AcDbSymbolTableRecord
100
AcDbTextStyleTableRecord
  2
VCDSTYLE04
 70
     0
 40
0.0
 41
1.0
 50
0.0
 71
     0
 42
2.5
  3
txt
  4

  0
STYLE
  5
7E
330
3
100
AcDbSymbolTableRecord
100
AcDbTextStyleTableRecord
  2
VCDSTYLE05
 70
     0
 40
0.0
 41
1.0
 50
0.0
 71
     0
 42
2.5
  3
txt
  4

  0
STYLE
  5
7F
330
3
100
AcDbSymbolTableRecord
100
AcDbTextStyleTableRecord
  2
VCDSTYLE06
 70
     0
 40
0.0
 41
1.0
 50
0.0
 71
     0
 42
2.5
  3
txt
  4

  0
STYLE
  5
80
330
3
100
AcDbSymbolTableRecord
100
AcDbTextStyleTableRecord
  2
VCDSTYLE07
 70
     0
 40
0.0
 41
1.0
 50
0.0
 71
     0
 42
2.5
  3
txt
  4

  0
STYLE
  5
81
330
3
100
AcDbSymbolTableRecord
100
AcDbTextStyleTableRecord
  2
VCDSTYLE08
 70
     0
 40
0.0
 41
1.0
 50
0.0
 71
     0
 42
2.5
  3
txt
  4

  0
STYLE
  5
82
330
3
100
AcDbSymbolTableRecord
100
AcDbTextStyleTableRecord
  2
VCDSTYLE09
 70
     0
 40
0.0
 41
1.0
 50
0.0
 71
     0
 42
2.5
  3
txt
  4

  0
STYLE
  5
83
330
3
100
AcDbSymbolTableRecord
100
AcDbTextStyleTableRecord
  2
VCDSTYLE10
 70
     0
 40
0.0
 41
1.0
 50
0.0
 71
     0
 42
2.5
  3
Sans Serif.ttf
  4

1001
ACAD
1000
Sans Serif
1071
        0
  0
STYLE
  5
84
330
3
100
AcDbSymbolTableRecord
100
AcDbTextStyleTableRecord
  2
VCDSTYLE11
 70
     0
 40
0.0
 41
1.0
 50
0.0
 71
     0
 42
2.5
  3
Sans Serif.ttf
  4

1001
ACAD
1000
Sans Serif
1071
 16777216
  0
STYLE
  5
85
330
3
100
AcDbSymbolTableRecord
100
AcDbTextStyleTableRecord
  2
VCDSTYLE12
 70
     0
 40
0.0
 41
1.0
 50
0.0
 71
     0
 42
2.5
  3
DejaVu Sans.ttf
  4

1001
ACAD
1000
DejaVu Sans
1071
        0
  0
STYLE
  5
86
330
3
100
AcDbSymbolTableRecord
100
AcDbTextStyleTableRecord
  2
VCDSTYLE13
 70
     0
 40
0.0
 41
1.0
 50
0.0
 71
     0
 42
2.5
  3
DejaVu Sans.ttf
  4

1001
ACAD
1000
DejaVu Sans
1071
 16777216
  0
STYLE
  5
87
330
3
100
AcDbSymbolTableRecord
100
AcDbTextStyleTableRecord
  2
VCDSTYLE14
 70
     0
 40
0.0
 41
1.0
 50
0.0
 71
     0
 42
2.5
  3
DejaVu Sans Mono.ttf
  4

1001
ACAD
1000
DejaVu Sans Mono
1071
        0
  0
STYLE
  5
88
330
3
100
AcDbSymbolTableRecord
100
AcDbTextStyleTableRecord
  2
VCDSTYLE15
 70
     0
 40
0.0
 41
1.0
 50
0.0
 71
     0
 42
2.5
  3
DejaVu Sans Mono.ttf
  4

1001
ACAD
1000
DejaVu Sans Mono
1071
 16777216
  0
STYLE
  5
89
330
3
100
AcDbSymbolTableRecord
100
AcDbTextStyleTableRecord
  2
VCDSTYLE16
 70
     0
 40
0.0
 41
1.0
 50
0.0
 71
     0
 42
2.5
  3
UnDotum.ttf
  4

1001
ACAD
1000
UnDotum
1071
        0
  0
STYLE
  5
8A
330
3
100
AcDbSymbolTableRecord
100
AcDbTextStyleTableRecord
  2
VCDSTYLE17
 70
     0
 40
0.0
 41
1.0
 50
0.0
 71
     0
 42
2.5
  3
UnDotum.ttf
  4

1001
ACAD
1000
UnDotum
1071
 16777216
  0
STYLE
  5
8B
330
3
100
AcDbSymbolTableRecord
100
AcDbTextStyleTableRecord
  2
VCDSTYLE18
 70
     0
 40
0.0
 41
1.0
 50
0.0
 71
     0
 42
2.5
  3
Sans Serif.ttf
  4

1001
ACAD
1000
Sans Serif
1071
        0
  0
STYLE
  5
8C
330
3
100
AcDbSymbolTableRecord
100
AcDbTextStyleTableRecord
  2
VCDSTYLE19
 70
     0
 40
0.0
 41
1.0
 50
0.0
 71
     0
 42
2.5
  3
Sans Serif.ttf
  4

1001
ACAD
1000
Sans Serif
1071
 16777216
  0
STYLE
  5
8D
330
3
100
AcDbSymbolTableRecord
100
AcDbTextStyleTableRecord
  2
VCDSTYLE20
 70
     0
 40
0.0
 41
1.0
 50
0.0
 71
     0
 42
2.5
  3
Sans Serif.ttf
  4

1001
ACAD
1000
Sans Serif
1071
        0
  0
STYLE
  5
8E
330
3
100
AcDbSymbolTableRecord
100
AcDbTextStyleTableRecord
  2
VCDSTYLE21
 70
     0
 40
0.0
 41
1.0
 50
0.0
 71
     0
 42
2.5
  3
Sans Serif.ttf
  4

1001
ACAD
1000
Sans Serif
1071
 16777216
  0
STYLE
  5
8F
330
3
100
AcDbSymbolTableRecord
100
AcDbTextStyleTableRecord
  2
VCDSTYLE22
 70
     0
 40
0.0
 41
1.0
 50
0.0
 71
     0
 42
2.5
  3
Monospace.ttf
  4

1001
ACAD
1000
Monospace
1071
        0
  0
STYLE
  5
90
330
3
100
AcDbSymbolTableRecord
100
AcDbTextStyleTableRecord
  2
VCDSTYLE23
 70
     0
 40
0.0
 41
1.0
 50
0.0
 71
     0
 42
2.5
  3
Monospace.ttf
  4

1001
ACAD
1000
Monospace
1071
 16777216
  0
STYLE
  5
91
330
3
100
AcDbSymbolTableRecord
100
AcDbTextStyleTableRecord
  2
VCDSTYLE24
 70
     0
 40
0.0
 41
1.0
 50
0.0
 71
     0
 42
2.5
  3
URW Gothic L.ttf
  4

1001
ACAD
1000
URW Gothic L
1071
        0
  0
STYLE
  5
92
330
3
100
AcDbSymbolTableRecord
100
AcDbTextStyleTableRecord
  2
VCDSTYLE25
 70
     0
 40
0.0
 41
1.0
 50
0.0
 71
     0
 42
2.5
  3
URW Gothic L.ttf
  4

1001
ACAD
1000
URW Gothic L
1071
 16777216
  0
STYLE
  5
93
330
3
100
AcDbSymbolTableRecord
100
AcDbTextStyleTableRecord
  2
VCDSTYLE26
 70
     0
 40
0.0
 41
1.0
 50
0.0
 71
     0
 42
2.5
  3
Waree.ttf
  4

1001
ACAD
1000
Waree
1071
        0
  0
STYLE
  5
94
330
3
100
AcDbSymbolTableRecord
100
AcDbTextStyleTableRecord
  2
VCDSTYLE27
 70
     0
 40
0.0
 41
1.0
 50
0.0
 71
     0
 42
2.5
  3
Waree.ttf
  4

1001
ACAD
1000
Waree
1071
 16777216
  0
STYLE
  5
95
330
3
100
AcDbSymbolTableRecord
100
AcDbTextStyleTableRecord
  2
VCDSTYLE28
 70
     0
 40
0.0
 41
1.0
 50
0.0
 71
     0
 42
2.5
  3
Nimbus Mono L.ttf
  4

1001
ACAD
1000
Nimbus Mono L
1071
        0
  0
STYLE
  5
96
330
3
100
AcDbSymbolTableRecord
100
AcDbTextStyleTableRecord
  2
VCDSTYLE29
 70
     0
 40
0.0
 41
1.0
 50
0.0
 71
     0
 42
2.5
  3
Nimbus Sans L.ttf
  4

1001
ACAD
1000
Nimbus Sans L
1071
        0
  0
STYLE
  5
97
330
3
100
AcDbSymbolTableRecord
100
AcDbTextStyleTableRecord
  2
VCDSTYLE30
 70
     0
 40
0.0
 41
1.0
 50
0.0
 71
     0
 42
2.5
  3
Nimbus Sans L.ttf
  4

1001
ACAD
1000
Nimbus Sans L
1071
 16777216
  0
STYLE
  5
98
330
3
100
AcDbSymbolTableRecord
100
AcDbTextStyleTableRecord
  2
VCDSTYLE31
 70
     0
 40
0.0
 41
1.0
 50
0.0
 71
     0
 42
2.5
  3
Serif.ttf
  4

1001
ACAD
1000
Serif
1071
        0
  0
STYLE
  5
99
330
3
100
AcDbSymbolTableRecord
100
AcDbTextStyleTableRecord
  2
VCDSTYLE32
 70
     0
 40
0.0
 41
1.0
 50
0.0
 71
     0
 42
2.5
  3
Serif.ttf
  4

1001
ACAD
1000
Serif
1071
 16777216
  0
ENDTAB
  0
TABLE
  2
VIEW
  5
6
330
0
100
AcDbSymbolTable
 70
     0
  0
ENDTAB
  0
TABLE
  2
UCS
  5
7
330
0
100
AcDbSymbolTable
 70
     0
  0
ENDTAB
  0
TABLE
  2
APPID
  5
9
330
0
100
AcDbSymbolTable
 70
     1
  0
APPID
  5
12
330
9
100
AcDbSymbolTableRecord
100
AcDbRegAppTableRecord
  2
ACAD
 70
     0
  0
ENDTAB
  0
TABLE
  2
DIMSTYLE
  5
A
330
0
100
AcDbSymbolTable
 70
     2
100
AcDbDimStyleTable
  0
DIMSTYLE
105
27
330
A
100
AcDbSymbolTableRecord
100
AcDbDimStyleTableRecord
  2
ISO-25
 70
     0
 41
2.5
 42
0.625
 43
3.75
 44
1.25
 73
     0
 74
     0
 77
     1
 78
     8
140
2.5
141
2.5
143
0.03937007874016
147
0.625
171
     3
172
     1
178
     0
271
     2
272
     2
274
     3
278
    44
283
     0
284
     8
340
11
  0
DIMSTYLE
105
D2
102
{ACAD_REACTORS
330
D3
330
E4
330
F1
102
}
330
A
100
AcDbSymbolTableRecord
100
AcDbDimStyleTableRecord
  2
VCDDIMSTYLE01
 70
     0
 41
3.75
 42
0.0
 43
8.0
 44
1.0
 73
     0
 74
     0
 77
     1
 78
     8
 79
     2
140
3.0
147
1.0
172
     1
173
     1
178
     0
179
     3
271
     5
275
     1
288
     1
289
     0
340
83
  0
ENDTAB
  0
TABLE
  2
BLOCK_RECORD
  5
1
330
0
100
AcDbSymbolTable
 70
    15
  0
BLOCK_RECORD
  5
1F
330
1
100
AcDbSymbolTableRecord
100
AcDbBlockTableRecord
  2
*Model_Space
340
22
 70
     0
280
     1
281
     0
  0
BLOCK_RECORD
  5
1B
330
1
100
AcDbSymbolTableRecord
100
AcDbBlockTableRecord
  2
*Paper_Space
340
1E
 70
     0
280
     1
281
     0
  0
BLOCK_RECORD
  5
23
330
1
100
AcDbSymbolTableRecord
100
AcDbBlockTableRecord
  2
*Paper_Space0
340
26
 70
     0
280
     1
281
     0
  0
BLOCK_RECORD
  5
9A
330
1
100
AcDbSymbolTableRecord
100
AcDbBlockTableRecord
  2
#ARROW
340
0
102
{BLKREFS
331
9D
102
}
 70
     0
280
     1
281
     0
  0
BLOCK_RECORD
  5
A0
330
1
100
AcDbSymbolTableRecord
100
AcDbBlockTableRecord
  2
#ARROW(1)
340
0
102
{BLKREFS
331
A3
102
}
 70
     0
280
     1
281
     0
  0
BLOCK_RECORD
  5
A6
330
1
100
AcDbSymbolTableRecord
100
AcDbBlockTableRecord
  2
$AttrValue elphel_parts
340
0
102
{BLKREFS
331
A8
102
}
 70
     0
280
     1
281
     0
  0
BLOCK_RECORD
  5
AB
330
1
100
AcDbSymbolTableRecord
100
AcDbBlockTableRecord
  2
$AttrValue elphel_parts(1)
340
0
102
{BLKREFS
331
AD
102
}
 70
     0
280
     1
281
     0
  0
BLOCK_RECORD
  5
B0
330
1
100
AcDbSymbolTableRecord
100
AcDbBlockTableRecord
  2
$AttrValue elphel_parts(2)
340
0
102
{BLKREFS
331
B2
102
}
 70
     0
280
     1
281
     0
  0
BLOCK_RECORD
  5
B5
330
1
100
AcDbSymbolTableRecord
100
AcDbBlockTableRecord
  2
$AttrValue elphel_parts(3)
340
0
102
{BLKREFS
331
B7
102
}
 70
     0
280
     1
281
     0
  0
BLOCK_RECORD
  5
BA
330
1
100
AcDbSymbolTableRecord
100
AcDbBlockTableRecord
  2
$AttrValue elphel_parts(4)
340
0
102
{BLKREFS
331
BC
102
}
 70
     0
280
     1
281
     0
  0
BLOCK_RECORD
  5
BF
330
1
100
AcDbSymbolTableRecord
100
AcDbBlockTableRecord
  2
$AttrValue elphel_parts(5)
340
0
102
{BLKREFS
331
C1
102
}
 70
     0
280
     1
281
     0
  0
BLOCK_RECORD
  5
C4
330
1
100
AcDbSymbolTableRecord
100
AcDbBlockTableRecord
  2
$AttrValue elphel_parts(6)
340
0
102
{BLKREFS
331
C6
102
}
 70
     0
280
     1
281
     0
  0
BLOCK_RECORD
  5
C9
330
1
100
AcDbSymbolTableRecord
100
AcDbBlockTableRecord
  2
*D10
340
0
 70
     0
280
     1
281
     0
  0
BLOCK_RECORD
  5
DD
330
1
100
AcDbSymbolTableRecord
100
AcDbBlockTableRecord
  2
*D11
340
0
 70
     0
280
     1
281
     0
  0
BLOCK_RECORD
  5
EA
330
1
100
AcDbSymbolTableRecord
100
AcDbBlockTableRecord
  2
*D12
340
0
 70
     0
280
     1
281
     0
  0
BLOCK_RECORD
  5
1C2
330
1
100
AcDbSymbolTableRecord
100
AcDbBlockTableRecord
  2
$TitleBlock elphel_parts
340
0
102
{BLKREFS
331
1F0
102
}
 70
     0
280
     1
281
     0
  0
BLOCK_RECORD
  5
1F3
330
1
100
AcDbSymbolTableRecord
100
AcDbBlockTableRecord
  2
Sheet Border
340
0
102
{BLKREFS
331
1F6
102
}
 70
     0
280
     1
281
     0
  0
ENDTAB
  0
ENDSEC
  0
SECTION
  2
BLOCKS
  0
BLOCK
  5
20
330
1F
100
AcDbEntity
  8
0
100
AcDbBlockBegin
  2
*Model_Space
 70
     0
 10
0.0
 20
0.0
 30
0.0
  3
*Model_Space
  1

  0
ENDBLK
  5
21
330
1F
100
AcDbEntity
  8
0
100
AcDbBlockEnd
  0
BLOCK
  5
1C
330
1B
100
AcDbEntity
 67
     1
  8
0
100
AcDbBlockBegin
  2
*Paper_Space
 70
     0
 10
0.0
 20
0.0
 30
0.0
  3
*Paper_Space
  1

  0
ENDBLK
  5
1D
330
1B
100
AcDbEntity
 67
     1
  8
0
100
AcDbBlockEnd
  0
BLOCK
  5
24
330
23
100
AcDbEntity
  8
0
100
AcDbBlockBegin
  2
*Paper_Space0
 70
     0
 10
0.0
 20
0.0
 30
0.0
  3
*Paper_Space0
  1

  0
ENDBLK
  5
25
330
23
100
AcDbEntity
  8
0
100
AcDbBlockEnd
  0
BLOCK
  5
9E
330
9A
100
AcDbEntity
  8
0
100
AcDbBlockBegin
  2
#ARROW
 70
     0
 10
0.0
 20
0.0
 30
0.0
  3
#ARROW
  1

  0
LINE
  5
9B
330
9A
100
AcDbEntity
  8
Dimension
100
AcDbLine
 10
0.0
 20
0.0
 30
0.0
 11
3.789608232994411
 21
4.156861128354052
 31
0.0
  0
LWPOLYLINE
  5
9C
330
9A
100
AcDbEntity
  8
Dimension
100
AcDbPolyline
 90
       16
 70
     0
 43
0.0
 10
1.750941116725016
 20
0.9409730101133391
 10
3.789608232994411
 20
4.156861128354052
 10
0.7754643719379288
 20
1.830267742122686
 10
1.750941116725016
 20
0.9409730101133391
 10
1.688546192827658
 20
1.21998465977947
 10
3.181356746285459
 20
3.489663675237352
 10
1.059041654638534
 20
1.793873348135378
 10
1.688546192827658
 20
1.21998465977947
 10
1.626151268930286
 20
1.498996309445573
 10
2.573105259576522
 20
2.822466222120624
 10
1.342618937339154
 20
1.75747895414807
 10
1.626151268930286
 20
1.498996309445573
 10
1.563756345032928
 20
1.778007959111704
 10
1.964853772867571
 20
2.155268769003925
 10
1.626196220039773
 20
1.721084560160733
 10
1.563756345032928
 20
1.778007959111704
  0
ENDBLK
  5
9F
330
9A
100
AcDbEntity
  8
0
100
AcDbBlockEnd
  0
BLOCK
  5
A4
330
A0
100
AcDbEntity
  8
0
100
AcDbBlockBegin
  2
#ARROW(1)
 70
     0
 10
0.0
 20
0.0
 30
0.0
  3
#ARROW(1)
  1

  0
LINE
  5
A1
330
A0
100
AcDbEntity
  8
Dimension
100
AcDbLine
 10
0.0
 20
0.0
 30
0.0
 11
9.320418240135012
 21
10.22366479603241
 31
0.0
  0
LWPOLYLINE
  5
A2
330
A0
100
AcDbEntity
  8
Dimension
100
AcDbPolyline
 90
       16
 70
     0
 43
0.0
 10
2.038667116269394
 20
3.215888118240713
 10
0.0
 20
0.0
 10
3.014143861056482
 20
2.326593386231366
 10
2.038667116269394
 20
3.215888118240713
 10
2.101062040166752
 20
2.93687646857461
 10
0.6082514867089515
 20
0.6671974531166995
 10
2.730566578355862
 20
2.362987780218674
 10
2.101062040166752
 20
2.93687646857461
 10
2.16345696406411
 20
2.657864818908479
 10
1.216502973417889
 20
1.334394906233427
 10
2.446989295655257
 20
2.399382174206011
 10
2.16345696406411
 20
2.657864818908479
 10
2.225851887961468
 20
2.378853169242348
 10
1.82475446012684
 20
2.001592359350127
 10
2.163412012954637
 20
2.435776568193319
 10
2.225851887961468
 20
2.378853169242348
  0
ENDBLK
  5
A5
330
A0
100
AcDbEntity
  8
0
100
AcDbBlockEnd
  0
BLOCK
  5
A9
330
A6
100
AcDbEntity
  8
0
100
AcDbBlockBegin
  2
$AttrValue elphel_parts
 70
     0
 10
0.0
 20
0.0
 30
0.0
  3
$AttrValue elphel_parts
  1

  0
TEXT
  5
A7
330
A6
100
AcDbEntity
  8
0
 62
     2
100
AcDbText
 10
0.0
 20
0.0
 30
0.0
 40
2.0
  1
black anodize
  7
VCDSTYLE04
100
AcDbText
  0
ENDBLK
  5
AA
330
A6
100
AcDbEntity
  8
0
100
AcDbBlockEnd
  0
BLOCK
  5
AE
330
AB
100
AcDbEntity
  8
0
100
AcDbBlockBegin
  2
$AttrValue elphel_parts(1)
 70
     0
 10
0.0
 20
0.0
 30
0.0
  3
$AttrValue elphel_parts(1)
  1

  0
TEXT
  5
AC
330
AB
100
AcDbEntity
  8
0
 62
     2
100
AcDbText
 10
0.0
 20
0.0
 30
0.0
 40
2.0
  1
aluminum
  7
VCDSTYLE04
100
AcDbText
  0
ENDBLK
  5
AF
330
AB
100
AcDbEntity
  8
0
100
AcDbBlockEnd
  0
BLOCK
  5
B3
330
B0
100
AcDbEntity
  8
0
100
AcDbBlockBegin
  2
$AttrValue elphel_parts(2)
 70
     0
 10
0.0
 20
0.0
 30
0.0
  3
$AttrValue elphel_parts(2)
  1

  0
TEXT
  5
B1
330
B0
100
AcDbEntity
  8
0
 62
     2
100
AcDbText
 10
0.0
 20
0.0
 30
0.0
 40
2.0
  1
2.93
  7
VCDSTYLE04
100
AcDbText
  0
ENDBLK
  5
B4
330
B0
100
AcDbEntity
  8
0
100
AcDbBlockEnd
  0
BLOCK
  5
B8
330
B5
100
AcDbEntity
  8
0
100
AcDbBlockBegin
  2
$AttrValue elphel_parts(3)
 70
     0
 10
0.0
 20
0.0
 30
0.0
  3
$AttrValue elphel_parts(3)
  1

  0
TEXT
  5
B6
330
B5
100
AcDbEntity
  8
0
100
AcDbText
 10
0.0
 20
0.0
 30
0.0
 40
1.5
  1
2015
  7
VCDSTYLE10
100
AcDbText
  0
ENDBLK
  5
B9
330
B5
100
AcDbEntity
  8
0
100
AcDbBlockEnd
  0
BLOCK
  5
BD
330
BA
100
AcDbEntity
  8
0
100
AcDbBlockBegin
  2
$AttrValue elphel_parts(4)
 70
     0
 10
0.0
 20
0.0
 30
0.0
  3
$AttrValue elphel_parts(4)
  1

  0
TEXT
  5
BB
330
BA
100
AcDbEntity
  8
0
 62
     2
100
AcDbText
 10
0.0
 20
0.0
 30
0.0
 40
3.0
  1
Sensor adjustment plate
  7
VCDSTYLE04
100
AcDbText
  0
ENDBLK
  5
BE
330
BA
100
AcDbEntity
  8
0
100
AcDbBlockEnd
  0
BLOCK
  5
C2
330
BF
100
AcDbEntity
  8
0
100
AcDbBlockBegin
  2
$AttrValue elphel_parts(5)
 70
     0
 10
0.0
 20
0.0
 30
0.0
  3
$AttrValue elphel_parts(5)
  1

  0
TEXT
  5
C0
330
BF
100
AcDbEntity
  8
Auxiliary
  6
Continuous
100
AcDbText
 10
0.0
 20
0.0
 30
0.0
 40
8.0
  1
A
  7
VCDSTYLE22
100
AcDbText
  0
ENDBLK
  5
C3
330
BF
100
AcDbEntity
  8
0
100
AcDbBlockEnd
  0
BLOCK
  5
C7
330
C4
100
AcDbEntity
  8
0
100
AcDbBlockBegin
  2
$AttrValue elphel_parts(6)
 70
     0
 10
0.0
 20
0.0
 30
0.0
  3
$AttrValue elphel_parts(6)
  1

  0
TEXT
  5
C5
330
C4
100
AcDbEntity
  8
0
 62
     2
100
AcDbText
 10
0.0
 20
0.0
 30
0.0
 40
6.0
  1
0393-12-30
  7
VCDSTYLE22
100
AcDbText
  0
ENDBLK
  5
C8
330
C4
100
AcDbEntity
  8
0
100
AcDbBlockEnd
  0
BLOCK
  5
D9
330
C9
100
AcDbEntity
  8
0
100
AcDbBlockBegin
  2
*D10
 70
     1
 10
0.0
 20
0.0
 30
0.0
  3
*D10
  1

  0
LINE
  5
CA
330
C9
100
AcDbEntity
  8
Dimension
 62
     0
370
    -2
100
AcDbLine
 10
57.2245646848049
 20
181.3660888052301
 30
0.0
 11
66.1210825962238
 21
181.3660888052301
 31
0.0
  0
LINE
  5
CB
330
C9
100
AcDbEntity
  8
Dimension
 62
     0
370
    -2
100
AcDbLine
 10
57.22456468480558
 20
177.8160888052302
 30
0.0
 11
66.1210825962238
 21
177.8160888052302
 31
0.0
  0
LINE
  5
CC
330
C9
100
AcDbEntity
  8
Dimension
 62
     0
370
    -2
100
AcDbLine
 10
65.1210825962238
 20
181.3660888052301
 30
0.0
 11
65.1210825962238
 21
199.3557070235825
 31
0.0
  0
LINE
  5
CD
330
C9
100
AcDbEntity
  8
Dimension
 62
     0
370
    -2
100
AcDbLine
 10
65.1210825962238
 20
181.3660888052301
 30
0.0
 11
65.1210825962238
 21
177.8160888052302
 31
0.0
  0
LINE
  5
CE
330
C9
100
AcDbEntity
  8
Dimension
 62
     0
370
    -2
100
AcDbLine
 10
65.1210825962238
 20
185.1160888052301
 30
0.0
 11
65.1210825962238
 21
188.8660888052301
 31
0.0
  0
LINE
  5
CF
330
C9
100
AcDbEntity
  8
Dimension
 62
     0
370
    -2
100
AcDbLine
 10
65.1210825962238
 20
174.0660888052302
 30
0.0
 11
65.1210825962238
 21
170.3160888052302
 31
0.0
  0
SOLID
  5
D0
330
C9
100
AcDbEntity
  8
Dimension
 62
     0
100
AcDbTrace
 10
64.4960825962238
 20
185.1160888052301
 30
0.0
 11
65.7460825962238
 21
185.1160888052301
 31
0.0
 12
65.1210825962238
 22
181.3660888052301
 32
0.0
 13
65.1210825962238
 23
181.3660888052301
 33
0.0
  0
SOLID
  5
D1
330
C9
100
AcDbEntity
  8
Dimension
 62
     0
100
AcDbTrace
 10
65.7460825962238
 20
174.0660888052302
 30
0.0
 11
64.4960825962238
 21
174.0660888052302
 31
0.0
 12
65.1210825962238
 22
177.8160888052302
 32
0.0
 13
65.1210825962238
 23
177.8160888052302
 33
0.0
  0
MTEXT
  5
D5
330
C9
100
AcDbEntity
  8
Dimension
 62
     0
100
AcDbMText
 10
62.56482003761698
 20
194.1108979144063
 30
0.0
 40
3.0
 41
0.0
 46
0.0
 71
     5
 72
     1
  1
\A1;3.55
  7
VCDSTYLE10
 11
0.0
 21
1.0
 31
0.0
 73
     1
 44
1.0
  0
POINT
  5
D6
330
C9
100
AcDbEntity
  8
Defpoints
 62
     0
100
AcDbPoint
 10
57.2245646848049
 20
181.3660888052301
 30
0.0
  0
POINT
  5
D7
330
C9
100
AcDbEntity
  8
Defpoints
 62
     0
100
AcDbPoint
 10
57.22456468480558
 20
177.8160888052302
 30
0.0
  0
POINT
  5
D8
330
C9
100
AcDbEntity
  8
Defpoints
 62
     0
100
AcDbPoint
 10
65.1210825962238
 20
177.8160888052302
 30
0.0
  0
ENDBLK
  5
DA
330
C9
100
AcDbEntity
  8
0
100
AcDbBlockEnd
  0
BLOCK
  5
E8
330
DD
100
AcDbEntity
  8
0
100
AcDbBlockBegin
  2
*D11
 70
     1
 10
0.0
 20
0.0
 30
0.0
  3
*D11
  1

  0
LINE
  5
DE
330
DD
100
AcDbEntity
  8
Dimension
 62
     0
370
    -2
100
AcDbLine
 10
96.19442848146215
 20
213.3660888052302
 30
0.0
 11
78.86586946545597
 21
213.3660888052302
 31
0.0
  0
LINE
  5
DF
330
DD
100
AcDbEntity
  8
Dimension
 62
     0
370
    -2
100
AcDbLine
 10
92.52456468480554
 20
246.3058125455223
 30
0.0
 11
78.86586946545597
 21
246.3058125455223
 31
0.0
  0
LINE
  5
E0
330
DD
100
AcDbEntity
  8
Dimension
 62
     0
370
    -2
100
AcDbLine
 10
79.86586946545597
 20
217.1160888052302
 30
0.0
 11
79.86586946545597
 21
242.5558125455223
 31
0.0
  0
SOLID
  5
E1
330
DD
100
AcDbEntity
  8
Dimension
 62
     0
100
AcDbTrace
 10
79.24086946545597
 20
217.1160888052302
 30
0.0
 11
80.49086946545597
 21
217.1160888052302
 31
0.0
 12
79.86586946545597
 22
213.3660888052302
 32
0.0
 13
79.86586946545597
 23
213.3660888052302
 33
0.0
  0
SOLID
  5
E2
330
DD
100
AcDbEntity
  8
Dimension
 62
     0
100
AcDbTrace
 10
80.49086946545597
 20
242.5558125455223
 30
0.0
 11
79.24086946545597
 21
242.5558125455223
 31
0.0
 12
79.86586946545597
 22
246.3058125455223
 32
0.0
 13
79.86586946545597
 23
246.3058125455223
 33
0.0
  0
MTEXT
  5
E3
330
DD
100
AcDbEntity
  8
Dimension
 62
     0
100
AcDbMText
 10
77.30960690684915
 20
227.9384703206337
 30
0.0
 40
3.0
 41
0.0
 46
0.0
 71
     5
 72
     1
  1
\A1;32.94
  7
VCDSTYLE10
 11
0.0
 21
1.0
 31
0.0
 73
     1
 44
1.0
  0
POINT
  5
E5
330
DD
100
AcDbEntity
  8
Defpoints
 62
     0
100
AcDbPoint
 10
96.19442848146215
 20
213.3660888052302
 30
0.0
  0
POINT
  5
E6
330
DD
100
AcDbEntity
  8
Defpoints
 62
     0
100
AcDbPoint
 10
92.52456468480554
 20
246.3058125455223
 30
0.0
  0
POINT
  5
E7
330
DD
100
AcDbEntity
  8
Defpoints
 62
     0
100
AcDbPoint
 10
79.86586946545597
 20
246.3058125455223
 30
0.0
  0
ENDBLK
  5
E9
330
DD
100
AcDbEntity
  8
0
100
AcDbBlockEnd
  0
BLOCK
  5
F5
330
EA
100
AcDbEntity
  8
0
100
AcDbBlockBegin
  2
*D12
 70
     1
 10
0.0
 20
0.0
 30
0.0
  3
*D12
  1

  0
LINE
  5
EB
330
EA
100
AcDbEntity
  8
Dimension
 62
     0
370
    -2
100
AcDbLine
 10
89.22456468480559
 20
243.0058125455223
 30
0.0
 11
89.22456468480559
 21
256.0646684593693
 31
0.0
  0
LINE
  5
EC
330
EA
100
AcDbEntity
  8
Dimension
 62
     0
370
    -2
100
AcDbLine
 10
122.1642848169257
 20
243.0058125455223
 30
0.0
 11
122.1642848169257
 21
256.0646684593693
 31
0.0
  0
LINE
  5
ED
330
EA
100
AcDbEntity
  8
Dimension
 62
     0
370
    -2
100
AcDbLine
 10
92.97456468480559
 20
255.0646684593693
 30
0.0
 11
118.4142848169257
 21
255.0646684593693
 31
0.0
  0
SOLID
  5
EE
330
EA
100
AcDbEntity
  8
Dimension
 62
     0
100
AcDbTrace
 10
92.97456468480559
 20
255.6896684593693
 30
0.0
 11
92.97456468480559
 21
254.4396684593693
 31
0.0
 12
89.22456468480559
 22
255.0646684593693
 32
0.0
 13
89.22456468480559
 23
255.0646684593693
 33
0.0
  0
SOLID
  5
EF
330
EA
100
AcDbEntity
  8
Dimension
 62
     0
100
AcDbTrace
 10
118.4142848169257
 20
254.4396684593693
 30
0.0
 11
118.4142848169257
 21
255.6896684593693
 31
0.0
 12
122.1642848169257
 22
255.0646684593693
 32
0.0
 13
122.1642848169257
 23
255.0646684593693
 33
0.0
  0
MTEXT
  5
F0
330
EA
100
AcDbEntity
  8
Dimension
 62
     0
100
AcDbMText
 10
103.4213034141653
 20
257.6209310179761
 30
0.0
 40
3.0
 41
0.0
 46
0.0
 71
     5
 72
     1
  1
\A1;32.94
  7
VCDSTYLE10
 73
     1
 44
1.0
  0
POINT
  5
F2
330
EA
100
AcDbEntity
  8
Defpoints
 62
     0
100
AcDbPoint
 10
89.22456468480559
 20
243.0058125455223
 30
0.0
  0
POINT
  5
F3
330
EA
100
AcDbEntity
  8
Defpoints
 62
     0
100
AcDbPoint
 10
122.1642848169257
 20
243.0058125455223
 30
0.0
  0
POINT
  5
F4
330
EA
100
AcDbEntity
  8
Defpoints
 62
     0
100
AcDbPoint
 10
122.1642848169257
 20
255.0646684593693
 30
0.0
  0
ENDBLK
  5
F6
330
EA
100
AcDbEntity
  8
0
100
AcDbBlockEnd
  0
BLOCK
  5
1F1
330
1C2
100
AcDbEntity
  8
0
100
AcDbBlockBegin
  2
$TitleBlock elphel_parts
 70
     0
 10
0.0
 20
0.0
 30
0.0
  3
$TitleBlock elphel_parts
  1

  0
TEXT
  5
1C3
330
1C2
100
AcDbEntity
  8
Outline
 62
     2
100
AcDbText
 10
-168.3495635986328
 20
16.18584442138672
 30
0.0
 40
1.841060042381287
  1
Surface
  7
VCDSTYLE02
100
AcDbText
  0
LWPOLYLINE
  5
1C4
330
1C2
100
AcDbEntity
  8
Outline
 62
     2
100
AcDbPolyline
 90
        5
 70
     0
 43
0.0
 10
-0.4602650136366151
 20
0.4602650136366293
 10
-82.38743744095697
 20
0.4602650136366293
 10
-82.38743744095697
 20
15.18874545000888
 10
-0.4602650136366151
 20
15.18874545000888
 10
-0.4602650136366151
 20
0.0
  0
LINE
  5
1C5
330
1C2
100
AcDbEntity
  8
Outline
 62
     2
100
AcDbLine
 10
0.0000000000000568
 20
15.64901046364552
 30
0.0
 11
0.0000000000000568
 21
0.0
 31
0.0
  0
LINE
  5
1C6
330
1C2
100
AcDbEntity
  8
Outline
 62
     2
100
AcDbLine
 10
-97.57618289096607
 20
15.64901046364552
 30
0.0
 11
-97.57618289096607
 21
19.56126307955689
 31
0.0
  0
LINE
  5
1C7
330
1C2
100
AcDbEntity
  8
Outline
 62
     2
100
AcDbLine
 10
-170.298055045554
 20
15.64901046364552
 30
0.0
 11
-82.84770245459381
 21
15.64901046364552
 31
0.0
  0
LINE
  5
1C8
330
1C2
100
AcDbEntity
  8
Outline
 62
     2
100
AcDbLine
 10
-170.298055045554
 20
0.0
 30
0.0
 11
-82.84770245459381
 21
0.0
 31
0.0
  0
LINE
  5
1C9
330
1C2
100
AcDbEntity
  8
Outline
 62
     2
100
AcDbLine
 10
-82.84770245459381
 20
0.0
 30
0.0
 11
-82.84770245459381
 21
15.64901046364552
 31
0.0
  0
LINE
  5
1CA
330
1C2
100
AcDbEntity
  8
Outline
 62
     2
100
AcDbLine
 10
-170.298055045554
 20
19.56126307955689
 30
0.0
 11
0.0000000000000568
 21
19.56126307955689
 31
0.0
  0
LINE
  5
1CB
330
1C2
100
AcDbEntity
  8
Outline
 62
     2
100
AcDbLine
 10
0.0000000000000568
 20
0.0
 30
0.0
 11
-82.84770245459381
 21
0.0
 31
0.0
  0
LINE
  5
1CC
330
1C2
100
AcDbEntity
  8
Outline
 62
     2
100
AcDbLine
 10
-82.84770245459381
 20
15.64901046364552
 30
0.0
 11
0.0000000000000568
 21
15.64901046364552
 31
0.0
  0
TEXT
  5
1CD
330
1C2
100
AcDbEntity
  8
Outline
 62
     2
100
AcDbText
 10
-81.25203704833984
 20
44.91454315185547
 30
0.0
 40
0.9205300211906433
  1
Description
  7
VCDSTYLE02
100
AcDbText
  0
LINE
  5
1CE
330
1C2
100
AcDbEntity
  8
Outline
 62
     2
100
AcDbLine
 10
-170.298055045554
 20
27.38576831137964
 30
0.0
 11
0.0000000000000568
 21
27.38576831137964
 31
0.0
  0
LINE
  5
1CF
330
1C2
100
AcDbEntity
  8
Outline
 62
     2
100
AcDbLine
 10
0.0000000000000568
 20
46.94703139093654
 30
0.0
 11
-170.298055045554
 21
46.94703139093654
 31
0.0
  0
LINE
  5
1D0
330
1C2
100
AcDbEntity
  8
Outline
 62
     2
100
AcDbLine
 10
-170.298055045554
 20
27.38576831137964
 30
0.0
 11
-82.84770245459381
 21
27.38576831137964
 31
0.0
  0
LINE
  5
1D1
330
1C2
100
AcDbEntity
  8
Outline
 62
     2
100
AcDbLine
 10
-170.298055045554
 20
31.29802092729101
 30
0.0
 11
-170.298055045554
 21
46.94703139093654
 31
0.0
  0
LINE
  5
1D2
330
1C2
100
AcDbEntity
  8
Outline
 62
     2
100
AcDbLine
 10
-82.84770245459381
 20
46.94703139093654
 30
0.0
 11
-82.84770245459381
 21
31.29802092729101
 31
0.0
  0
LINE
  5
1D3
330
1C2
100
AcDbEntity
  8
Outline
 62
     2
100
AcDbLine
 10
0.0000000000000568
 20
31.29802092729101
 30
0.0
 11
0.0000000000000568
 21
46.94703139093654
 31
0.0
  0
LINE
  5
1D4
330
1C2
100
AcDbEntity
  8
Outline
 62
     2
100
AcDbLine
 10
-157.0483207857146
 20
46.94703139093654
 30
0.0
 11
-157.0483207857146
 21
31.29802092729101
 31
0.0
  0
TEXT
  5
1D5
330
1C2
100
AcDbEntity
  8
Outline
 62
     2
100
AcDbText
 10
-168.3495635986328
 20
28.04717826843262
 30
0.0
 40
1.841060042381287
  1
Material
  7
VCDSTYLE02
100
AcDbText
  0
LINE
  5
1D6
330
1C2
100
AcDbEntity
  8
Outline
 62
     2
100
AcDbLine
 10
-170.298055045554
 20
0.0
 30
0.0
 11
-170.298055045554
 21
31.29802092729101
 31
0.0
  0
LINE
  5
1D7
330
1C2
100
AcDbEntity
  8
Outline
 62
     2
100
AcDbLine
 10
-150.9056121242796
 20
15.64901046364552
 30
0.0
 11
-150.9056121242796
 21
31.29802092729101
 31
0.0
  0
LINE
  5
1D8
330
1C2
100
AcDbEntity
  8
Outline
 62
     2
100
AcDbLine
 10
-82.84770245459381
 20
31.29802092729101
 30
0.0
 11
-82.84770245459381
 21
15.64901046364552
 31
0.0
  0
LINE
  5
1D9
330
1C2
100
AcDbEntity
  8
Outline
100
AcDbLine
 10
-170.298055045554
 20
23.47351569546827
 30
0.0
 11
-82.84770245459381
 21
23.47351569546827
 31
0.0
  0
LINE
  5
1DA
330
1C2
100
AcDbEntity
  8
Outline
 62
     2
100
AcDbLine
 10
-170.298055045554
 20
23.47351569546827
 30
0.0
 11
0.0000000000000568
 21
23.47351569546827
 31
0.0
  0
TEXT
  5
1DB
330
1C2
100
AcDbEntity
  8
Outline
 62
     2
100
AcDbText
 10
-168.3495635986328
 20
24.13492584228516
 30
0.0
 40
1.841060042381287
  1
Finish
  7
VCDSTYLE02
100
AcDbText
  0
LINE
  5
1DC
330
1C2
100
AcDbEntity
  8
Outline
 62
     2
100
AcDbLine
 10
0.0000000000000568
 20
15.64901046364552
 30
0.0
 11
0.0000000000000568
 21
31.29802092729101
 31
0.0
  0
TEXT
  5
1DD
330
1C2
100
AcDbEntity
  8
Outline
 62
     2
100
AcDbText
 10
-81.25203704833984
 20
12.55433559417725
 30
0.0
 40
0.9205300211906433
  1
Notes
  7
VCDSTYLE02
100
AcDbText
  0
LINE
  5
1DE
330
1C2
100
AcDbEntity
  8
Outline
 62
     2
100
AcDbLine
 10
-170.298055045554
 20
31.29802092729101
 30
0.0
 11
-82.84770245459381
 21
31.29802092729101
 31
0.0
  0
TEXT
  5
1DF
330
1C2
100
AcDbEntity
  8
Outline
 62
     2
100
AcDbText
 10
-168.3495635986328
 20
20.20714569091797
 30
0.0
 40
1.841060042381287
  1
Weight(g)
  7
VCDSTYLE02
100
AcDbText
  0
TEXT
  5
1E0
330
1C2
100
AcDbEntity
  8
Outline
100
AcDbText
 10
-167.9451904296875
 20
7.327913284301758
 30
0.0
 40
1.200000047683716
  1
Permission is also granted to copy, distribute and/or modify this document under the terms of the
 50
360.0
  7
VCDSTYLE10
100
AcDbText
  0
TEXT
  5
1E1
330
1C2
100
AcDbEntity
  8
Outline
100
AcDbText
 10
-167.9451904296875
 20
5.407913684844971
 30
0.0
 40
1.200000047683716
  1
GNU Free Documentation License, Version 1.3 or any later version published by the Free Software
 50
360.0
  7
VCDSTYLE10
100
AcDbText
  0
TEXT
  5
1E2
330
1C2
100
AcDbEntity
  8
Outline
100
AcDbText
 10
-167.9451904296875
 20
3.487913608551025
 30
0.0
 40
1.200000047683716
  1
Foundation; with no Invariant Sections, no Front-Cover Texts, and no Back-Cover Texts.  A copy of
 50
360.0
  7
VCDSTYLE10
100
AcDbText
  0
TEXT
  5
1E3
330
1C2
100
AcDbEntity
  8
Outline
100
AcDbText
 10
-167.9451904296875
 20
1.56791353225708
 30
0.0
 40
1.200000047683716
  1
the license is included in the section entitled "GNU Free Documentation License".
 50
360.0
  7
VCDSTYLE10
100
AcDbText
  0
TEXT
  5
1E4
330
1C2
100
AcDbEntity
  8
Outline
 62
     2
100
AcDbText
 10
-156.5416564941406
 20
45.10939788818359
 30
0.0
 40
0.9205300211906433
  1
Part #
  7
VCDSTYLE02
100
AcDbText
  0
TEXT
  5
1E5
330
1C2
100
AcDbEntity
  8
Outline
 62
     2
100
AcDbText
 10
-169.0979461669922
 20
45.19255065917969
 30
0.0
 40
0.9205300211906433
  1
Revision
  7
VCDSTYLE02
100
AcDbText
  0
TEXT
  5
1E6
330
1C2
100
AcDbEntity
  8
Outline
100
AcDbText
 10
-168.0283508300781
 20
12.77079391479492
 30
0.0
 40
1.5
  1
Copyright (c)                 Elphel, Inc.
 50
360.0
  7
VCDSTYLE10
100
AcDbText
  0
TEXT
  5
1E7
330
1C2
100
AcDbEntity
  8
Outline
100
AcDbText
 10
-168.0283508300781
 20
10.37079429626465
 30
0.0
 40
1.5
  1
Licensed under CERN OHL v.1.1 or later - see http://ohwr.org/cernohl
 50
360.0
  7
VCDSTYLE10
100
AcDbText
  0
TEXT
  5
1E8
330
1C2
100
AcDbEntity
  8
Outline
100
AcDbText
 10
-168.0283508300781
 20
7.970794200897217
 30
0.0
 40
1.5
  1
 
 50
360.0
  7
VCDSTYLE10
100
AcDbText
  0
LINE
  5
1E9
330
1C2
100
AcDbEntity
  8
Outline
 62
     2
100
AcDbLine
 10
-59.83011277766059
 20
27.38576831137964
 30
0.0
 11
-59.83011277766059
 21
15.64901046364552
 31
0.0
  0
TEXT
  5
1EA
330
1C2
100
AcDbEntity
  8
Outline
 62
     2
100
AcDbText
 10
-82.25203704833984
 20
24.13492584228516
 30
0.0
 40
1.841060042381287
  1
Serial No.
  7
VCDSTYLE02
100
AcDbText
  0
TEXT
  5
1EB
330
1C2
100
AcDbEntity
  8
Outline
 62
     2
100
AcDbText
 10
-82.25203704833984
 20
16.18584442138672
 30
0.0
 40
1.841060042381287
  1
Date
  7
VCDSTYLE02
100
AcDbText
  0
TEXT
  5
1EC
330
1C2
100
AcDbEntity
  8
Outline
 62
     2
100
AcDbText
 10
-82.25203704833984
 20
20.20714569091797
 30
0.0
 40
1.841060042381287
  1
Assembly No.
  7
VCDSTYLE02
100
AcDbText
  0
LINE
  5
1ED
330
1C2
100
AcDbEntity
  8
Outline
 62
     2
100
AcDbLine
 10
-14.79493342379411
 20
19.56126307955689
 30
0.0
 11
-14.79493342379411
 21
15.64901046364552
 31
0.0
  0
LINE
  5
1EE
330
1C2
100
AcDbEntity
  8
Outline
 62
     2
100
AcDbLine
 10
-26.81252310072733
 20
19.56126307955689
 30
0.0
 11
-26.81252310072733
 21
15.64901046364552
 31
0.0
  0
TEXT
  5
1EF
330
1C2
100
AcDbEntity
  8
Outline
 62
     2
100
AcDbText
 10
-25.21685791015625
 20
16.18584442138672
 30
0.0
 40
1.841060042381287
  1
Scale
  7
VCDSTYLE02
100
AcDbText
  0
ENDBLK
  5
1F2
330
1C2
100
AcDbEntity
  8
0
100
AcDbBlockEnd
  0
BLOCK
  5
1F7
330
1F3
100
AcDbEntity
  8
0
100
AcDbBlockBegin
  2
Sheet Border
 70
     0
 10
0.0
 20
0.0
 30
0.0
  3
Sheet Border
  1

  0
LWPOLYLINE
  5
1F4
330
1F3
100
AcDbEntity
  8
Outline
 62
     2
100
AcDbPolyline
 90
        5
 70
     0
 43
0.0
 10
5.0
 20
5.0
 10
205.0
 20
5.0
 10
205.0
 20
292.0
 10
5.0
 20
292.0
 10
5.0
 20
5.0
  0
LWPOLYLINE
  5
1F5
330
1F3
100
AcDbEntity
  8
Outline
 62
     2
100
AcDbPolyline
 90
        5
 70
     0
 43
0.0
 10
0.0
 20
0.0
 10
210.0
 20
0.0
 10
210.0
 20
297.0
 10
0.0
 20
297.0
 10
0.0
 20
0.0
  0
ENDBLK
  5
1F8
330
1F3
100
AcDbEntity
  8
0
100
AcDbBlockEnd
  0
ENDSEC
  0
SECTION
  2
ENTITIES
  0
INSERT
  5
9D
330
1F
100
AcDbEntity
  8
Dimension
100
AcDbBlockReference
  2
#ARROW
 10
106.3658462912187
 20
136.0981700987058
 30
0.0
  0
INSERT
  5
A3
330
1F
100
AcDbEntity
  8
Dimension
100
AcDbBlockReference
  2
#ARROW(1)
 10
111.2333875327093
 20
141.4374272813473
 30
0.0
  0
INSERT
  5
A8
330
1F
100
AcDbEntity
  8
Dimension
100
AcDbBlockReference
  2
$AttrValue elphel_parts
 10
50.43000000000006
 20
34.4112
 30
0.0
  0
INSERT
  5
AD
330
1F
100
AcDbEntity
  8
Dimension
100
AcDbBlockReference
  2
$AttrValue elphel_parts(1)
 10
50.43000000000006
 20
38.1451
 30
0.0
  0
INSERT
  5
B2
330
1F
100
AcDbEntity
  8
Dimension
100
AcDbBlockReference
  2
$AttrValue elphel_parts(2)
 10
50.43000000000006
 20
30.3694
 30
0.0
  0
INSERT
  5
B7
330
1F
100
AcDbEntity
  8
Dimension
100
AcDbBlockReference
  2
$AttrValue elphel_parts(3)
 10
47.37900000000005
 20
22.801
 30
0.0
  0
INSERT
  5
BC
330
1F
100
AcDbEntity
  8
Dimension
100
AcDbBlockReference
  2
$AttrValue elphel_parts(4)
 10
119.3813000000001
 20
49.8706
 30
0.0
  0
INSERT
  5
C1
330
1F
100
AcDbEntity
  8
Dimension
100
AcDbBlockReference
  2
$AttrValue elphel_parts(5)
 10
32.70900000000006
 20
44.4461
 30
0.0
  0
INSERT
  5
C6
330
1F
100
AcDbEntity
  8
Dimension
100
AcDbBlockReference
  2
$AttrValue elphel_parts(6)
 10
44.76700000000005
 20
44.7335
 30
0.0
  0
DIMENSION
  5
D3
330
1F
100
AcDbEntity
  8
Dimension
100
AcDbDimension
280
     0
  2
*D10
 10
65.1210825962238
 20
177.8160888052302
 30
0.0
 11
65.1210825962238
 21
194.1108979144063
 31
0.0
 70
   160
 71
     5
 42
3.549999999999983
 73
     0
 74
     0
 75
     0
  3
VCDDIMSTYLE01
100
AcDbAlignedDimension
 13
57.2245646848049
 23
181.3660888052301
 33
0.0
 14
57.22456468480558
 24
177.8160888052302
 34
0.0
 50
90.0
100
AcDbRotatedDimension
  0
TEXT
  5
DB
330
1F
100
AcDbEntity
  8
Dimension
100
AcDbText
 10
111.5717181323695
 20
152.6334042230209
 30
0.0
 40
3.0
  1
M1.6x0.35, thru, 4 holes
 50
0.000090717981912
  7
VCDSTYLE10
100
AcDbText
  0
LINE
  5
DC
330
1F
100
AcDbEntity
  8
Dimension
100
AcDbLine
 10
110.1554545242131
 20
140.2550312270599
 30
0.0
 11
111.2333875327093
 21
141.4374272813473
 31
0.0
  0
DIMENSION
  5
E4
330
1F
100
AcDbEntity
  8
Dimension
100
AcDbDimension
280
     0
  2
*D11
 10
79.86586946545597
 20
246.3058125455223
 30
0.0
 11
79.86586946545597
 21
227.9384703206337
 31
0.0
 70
   160
  1
32.94
 71
     5
 42
32.93972374029204
 73
     0
 74
     0
 75
     0
  3
VCDDIMSTYLE01
100
AcDbAlignedDimension
 13
96.19442848146215
 23
213.3660888052302
 33
0.0
 14
92.52456468480554
 24
246.3058125455223
 34
0.0
 50
90.0
100
AcDbRotatedDimension
1001
ACAD
1000
DSTYLE
1002
{
1070
   271
1070
     4
1002
}
  0
DIMENSION
  5
F1
330
1F
100
AcDbEntity
  8
Dimension
100
AcDbDimension
280
     0
  2
*D12
 10
122.1642848169257
 20
255.0646684593693
 30
0.0
 11
103.4213034141653
 21
255.0646684593693
 31
0.0
 70
   160
  1
32.94
 71
     5
 42
32.9397201321201
 73
     0
 74
     0
 75
     0
  3
VCDDIMSTYLE01
100
AcDbAlignedDimension
 13
89.22456468480559
 23
243.0058125455223
 33
0.0
 14
122.1642848169257
 24
243.0058125455223
 34
0.0
100
AcDbRotatedDimension
1001
ACAD
1000
DSTYLE
1002
{
1070
   271
1070
     4
1002
}
  0
CIRCLE
  5
F7
330
1F
100
AcDbEntity
  8
Auxiliary
100
AcDbCircle
 10
92.5245646848052
 20
243.0058125455223
 30
0.0
 40
2.0
  0
CIRCLE
  5
F8
330
1F
100
AcDbEntity
  8
Auxiliary
100
AcDbCircle
 10
118.8657768315704
 20
216.6660888052317
 30
0.0
 40
2.0
  0
CIRCLE
  5
F9
330
1F
100
AcDbEntity
  8
Auxiliary
100
AcDbCircle
 10
118.8642848169252
 20
243.0058125455223
 30
0.0
 40
2.0
  0
LINE
  5
FA
330
1F
100
AcDbEntity
  8
0
 62
     2
100
AcDbLine
 10
111.6944282907224
 20
245.0359487262963
 30
0.0
 11
98.19442854373072
 21
245.0359487262958
 31
0.0
  0
LINE
  5
FB
330
1F
100
AcDbEntity
  8
0
 62
     2
100
AcDbLine
 10
98.19442866847318
 20
214.6359487263027
 30
0.0
 11
111.6944284155883
 21
214.6359487263029
 31
0.0
  0
LINE
  5
FC
330
1F
100
AcDbEntity
  8
0
 62
     2
100
AcDbLine
 10
114.1944283535823
 20
244.0359487347864
 30
0.0
 11
114.1944283535823
 21
246.3058125455223
 31
0.0
  0
LINE
  5
FD
330
1F
100
AcDbEntity
  8
0
 62
     2
100
AcDbLine
 10
112.6944282907357
 20
246.3058125455223
 30
0.0
 11
112.6944282907223
 21
246.0359487262467
 31
0.0
  0
LINE
  5
FE
330
1F
100
AcDbEntity
  8
0
 62
     2
100
AcDbLine
 10
114.1944283535823
 20
246.3058125455233
 30
0.0
 11
112.6944283535823
 21
246.3058125455223
 31
0.0
  0
LINE
  5
FF
330
1F
100
AcDbEntity
  8
0
 62
     2
100
AcDbLine
 10
114.1944284155903
 20
213.3660888052317
 30
0.0
 11
114.1944284155903
 21
215.635948734785
 31
0.0
  0
LINE
  5
100
330
1F
100
AcDbEntity
  8
0
 62
     2
100
AcDbLine
 10
112.6944284155903
 20
213.3660888052317
 30
0.0
 11
114.1944284155903
 21
213.3660888052315
 31
0.0
  0
LINE
  5
101
330
1F
100
AcDbEntity
  8
0
 62
     2
100
AcDbLine
 10
112.6944284155883
 20
213.6359487263101
 30
0.0
 11
112.6944284155903
 21
213.3660888052317
 31
0.0
  0
LINE
  5
102
330
1F
100
AcDbEntity
  8
0
 62
     2
100
AcDbLine
 10
103.4559284732711
 20
233.2869487347877
 30
0.0
 11
107.932928473268
 21
233.2869487347878
 31
0.0
  0
ARC
  5
103
330
1F
100
AcDbEntity
  8
0
 62
     2
100
AcDbCircle
 10
103.4559284732702
 20
232.7869487347877
 30
0.0
 40
0.5
100
AcDbArc
 50
89.99999999989252
 51
179.9999999999463
  0
LINE
  5
104
330
1F
100
AcDbEntity
  8
0
 62
     2
100
AcDbLine
 10
102.95592847327
 20
226.8849487347822
 30
0.0
 11
102.9559284732704
 21
232.7869487347881
 31
0.0
  0
ARC
  5
105
330
1F
100
AcDbEntity
  8
0
 62
     2
100
AcDbCircle
 10
103.4559284732701
 20
226.8849487347872
 30
0.0
 40
0.5000000000001137
100
AcDbArc
 50
180.0
 51
269.9999999993912
  0
LINE
  5
106
330
1F
100
AcDbEntity
  8
0
 62
     2
100
AcDbLine
 10
107.9329284732685
 20
226.3849487347873
 30
0.0
 11
103.4559284732697
 21
226.3849487347872
 31
0.0
  0
ARC
  5
107
330
1F
100
AcDbEntity
  8
0
 62
     2
100
AcDbCircle
 10
107.9329284732696
 20
226.8849487347873
 30
0.0
 40
0.5
100
AcDbArc
 50
269.9999999998762
 51
359.9999999999994
  0
LINE
  5
108
330
1F
100
AcDbEntity
  8
0
 62
     2
100
AcDbLine
 10
108.4329284732694
 20
232.786948734788
 30
0.0
 11
108.4329284732697
 21
226.8849487347874
 31
0.0
  0
ARC
  5
109
330
1F
100
AcDbEntity
  8
0
 62
     2
100
AcDbCircle
 10
107.9329284732689
 20
232.786948734788
 30
0.0
 40
0.5
100
AcDbArc
 50
0.0
 51
90.00000000010425
  0
LINE
  5
10A
330
1F
100
AcDbEntity
  8
0
 62
     2
100
AcDbLine
 10
97.19442848146191
 20
215.1121461967049
 30
0.0
 11
97.19442848146191
 21
214.6359487347861
 31
0.0
  0
LINE
  5
10B
330
1F
100
AcDbEntity
  8
0
 62
     2
100
AcDbLine
 10
97.19442848146231
 20
245.0359487347892
 30
0.0
 11
97.19442848146191
 21
215.1121461967049
 31
0.0
  0
LINE
  5
10C
330
1F
100
AcDbEntity
  8
0
 62
     2
100
AcDbLine
 10
114.1944284814614
 20
215.635948734785
 30
0.0
 11
114.194428481462
 21
244.0359487347864
 31
0.0
  0
CIRCLE
  5
10D
330
1F
100
AcDbEntity
  8
0
 62
     2
100
AcDbCircle
 10
92.5245646848052
 20
243.0058125455223
 30
0.0
 40
0.8500000000000227
  0
CIRCLE
  5
10E
330
1F
100
AcDbEntity
  8
0
 62
     2
100
AcDbCircle
 10
118.8642848169252
 20
243.0058125455223
 30
0.0
 40
0.8500000000000227
  0
CIRCLE
  5
10F
330
1F
100
AcDbEntity
  8
0
 62
     2
100
AcDbCircle
 10
118.8627928022799
 20
216.6660888052317
 30
0.0
 40
0.8500000000000227
  0
ARC
  5
110
330
1F
100
AcDbEntity
  8
0
 62
     2
100
AcDbCircle
 10
118.8627928022802
 20
216.6660888052317
 30
0.0
 40
3.299999999999955
100
AcDbArc
 50
270.0
 51
89.9999999999999
  0
LINE
  5
111
330
1F
100
AcDbEntity
  8
0
 62
     2
100
AcDbLine
 10
116.1944284814616
 20
219.9660888052339
 30
0.0
 11
118.8627928022802
 21
219.9660888052339
 31
0.0
  0
ARC
  5
112
330
1F
100
AcDbEntity
  8
0
 62
     2
100
AcDbCircle
 10
116.1944284814611
 20
220.9660888052313
 30
0.0
 40
1.0
100
AcDbArc
 50
180.0
 51
270.0000000005203
  0
LINE
  5
113
330
1F
100
AcDbEntity
  8
0
 62
     2
100
AcDbLine
 10
115.1944284814615
 20
238.7058125455164
 30
0.0
 11
115.1944284814614
 21
220.9660888052399
 31
0.0
  0
ARC
  5
114
330
1F
100
AcDbEntity
  8
0
 62
     2
100
AcDbCircle
 10
116.1944284814612
 20
238.7058125455259
 30
0.0
 40
1.0
100
AcDbArc
 50
90.0
 51
180.0000000005406
  0
LINE
  5
115
330
1F
100
AcDbEntity
  8
0
 62
     2
100
AcDbLine
 10
118.8642848169257
 20
239.7058125455224
 30
0.0
 11
116.1944284814574
 21
239.7058125455117
 31
0.0
  0
ARC
  5
116
330
1F
100
AcDbEntity
  8
0
 62
     2
100
AcDbCircle
 10
118.8642848169257
 20
243.0058125455223
 30
0.0
 40
3.299999999999955
100
AcDbArc
 50
270.0
 51
89.99999999999994
  0
LINE
  5
117
330
1F
100
AcDbEntity
  8
0
 62
     2
100
AcDbLine
 10
117.1944284814378
 20
246.3058125455251
 30
0.0
 11
118.8642848169257
 21
246.3058125455251
 31
0.0
  0
LINE
  5
118
330
1F
100
AcDbEntity
  8
0
 62
     2
100
AcDbLine
 10
114.1944283535823
 20
246.3058125455223
 30
0.0
 11
117.1944284814378
 21
246.3058125455223
 31
0.0
  0
LINE
  5
119
330
1F
100
AcDbEntity
  8
0
 62
     2
100
AcDbLine
 10
97.19442854372099
 20
246.3058125455223
 30
0.0
 11
97.19442854376659
 21
245.0359487262957
 31
0.0
  0
LINE
  5
11A
330
1F
100
AcDbEntity
  8
0
 62
     2
100
AcDbLine
 10
94.19442848145967
 20
246.3058125455216
 30
0.0
 11
97.19442854025029
 21
246.3058125455216
 31
0.0
  0
LINE
  5
11B
330
1F
100
AcDbEntity
  8
0
 62
     2
100
AcDbLine
 10
92.52456468480554
 20
246.3058125455223
 30
0.0
 11
94.19442848145967
 21
246.3058125455223
 31
0.0
  0
ARC
  5
11C
330
1F
100
AcDbEntity
  8
0
 62
     2
100
AcDbCircle
 10
92.52456468480554
 20
243.0058125455223
 30
0.0
 40
3.299999999999955
100
AcDbArc
 50
90.0
 51
269.9999999999999
  0
LINE
  5
11D
330
1F
100
AcDbEntity
  8
0
 62
     2
100
AcDbLine
 10
95.19442848146367
 20
239.7058125455218
 30
0.0
 11
92.52456468480554
 21
239.7058125455229
 31
0.0
  0
ARC
  5
11E
330
1F
100
AcDbEntity
  8
0
 62
     2
100
AcDbCircle
 10
95.19442848146215
 20
238.7058125455215
 30
0.0
 40
1.0
100
AcDbArc
 50
0.0
 51
89.99999999991223
  0
LINE
  5
11F
330
1F
100
AcDbEntity
  8
0
 62
     2
100
AcDbLine
 10
96.19442848146215
 20
213.3660888052302
 30
0.0
 11
96.19442848146215
 21
238.7058125455215
 31
0.0
  0
LINE
  5
120
330
1F
100
AcDbEntity
  8
0
 62
     2
100
AcDbLine
 10
97.19442866847247
 20
213.3660888052302
 30
0.0
 11
96.19442848146215
 21
213.3660888052302
 31
0.0
  0
LINE
  5
121
330
1F
100
AcDbEntity
  8
0
 62
     2
100
AcDbLine
 10
97.19442866847585
 20
214.6359487263027
 30
0.0
 11
97.19442866847247
 21
213.3660888052302
 31
0.0
  0
LINE
  5
122
330
1F
100
AcDbEntity
  8
0
 62
     2
100
AcDbLine
 10
118.8627928022764
 20
213.3660888052306
 30
0.0
 11
114.1944284155903
 21
213.3660888052323
 31
0.0
  0
ARC
  5
123
330
1F
100
AcDbEntity
  8
0
 62
     6
100
AcDbCircle
 10
100.6944210284612
 20
218.3359483562568
 30
0.0
 40
0.8000000000000018
100
AcDbArc
 50
354.9999999999995
 51
274.9999999999995
  0
ARC
  5
124
330
1F
100
AcDbEntity
  8
0
 62
     6
100
AcDbCircle
 10
110.6944210284612
 20
241.3359483562568
 30
0.0
 40
0.7999999999999947
100
AcDbArc
 50
354.9999999999995
 51
274.9999999999995
  0
ARC
  5
125
330
1F
100
AcDbEntity
  8
0
 62
     2
100
AcDbCircle
 10
110.6944284732697
 20
224.3359487347878
 30
0.0
 40
1.5
100
AcDbArc
 50
270.0000000000798
 51
0.0
  0
LINE
  5
126
330
1F
100
AcDbEntity
  8
0
 62
     2
100
AcDbLine
 10
110.6944284732717
 20
222.8359487347875
 30
0.0
 11
100.6944284732716
 21
222.835948734788
 31
0.0
  0
ARC
  5
127
330
1F
100
AcDbEntity
  8
0
 62
     2
100
AcDbCircle
 10
100.6944284732699
 20
224.3359487347878
 30
0.0
 40
1.5
100
AcDbArc
 50
180.0
 51
270.0000000000651
  0
LINE
  5
128
330
1F
100
AcDbEntity
  8
0
 62
     2
100
AcDbLine
 10
99.19442847326988
 20
224.3359487347817
 30
0.0
 11
99.19442847326954
 21
235.3359487347922
 31
0.0
  0
ARC
  5
129
330
1F
100
AcDbEntity
  8
0
 62
     2
100
AcDbCircle
 10
100.6944284732695
 20
235.3359487347878
 30
0.0
 40
1.5
100
AcDbArc
 50
90.00000000019976
 51
180.0
  0
LINE
  5
12A
330
1F
100
AcDbEntity
  8
0
 62
     2
100
AcDbLine
 10
100.6944284732643
 20
236.8359487347881
 30
0.0
 11
110.6944284732716
 21
236.8359487347881
 31
0.0
  0
ARC
  5
12B
330
1F
100
AcDbEntity
  8
0
 62
     2
100
AcDbCircle
 10
110.6944284732695
 20
235.3359487347878
 30
0.0
 40
1.5
100
AcDbArc
 50
0.0
 51
89.99999999975086
  0
LINE
  5
12C
330
1F
100
AcDbEntity
  8
0
 62
     2
100
AcDbLine
 10
112.1944284732695
 20
235.3359487347922
 30
0.0
 11
112.1944284732698
 21
224.335948734782
 31
0.0
  0
ARC
  5
12D
330
1F
100
AcDbEntity
  8
0
 62
     6
100
AcDbCircle
 10
100.6944210284612
 20
241.3359483562568
 30
0.0
 40
0.7999999999999983
100
AcDbArc
 50
354.9999999999995
 51
274.9999999999995
  0
ARC
  5
12E
330
1F
100
AcDbEntity
  8
0
 62
     6
100
AcDbCircle
 10
110.6944210284612
 20
218.3359483562568
 30
0.0
 40
0.7999999999999983
100
AcDbArc
 50
355.0000000000015
 51
275.0000000000014
  0
LINE
  5
12F
330
1F
100
AcDbEntity
  8
0
 62
     2
100
AcDbLine
 10
103.4559284732714
 20
233.4369487347877
 30
0.0
 11
107.9329284732677
 21
233.4369487347878
 31
0.0
  0
ARC
  5
130
330
1F
100
AcDbEntity
  8
0
 62
     2
100
AcDbCircle
 10
103.4559284732702
 20
232.7869487347877
 30
0.0
 40
0.6500000000000004
100
AcDbArc
 50
89.99999999989353
 51
129.6750300638959
  0
ARC
  5
131
330
1F
100
AcDbEntity
  8
0
 62
     2
100
AcDbCircle
 10
103.4559284732702
 20
232.7869487347877
 30
0.0
 40
0.6500000000000004
100
AcDbArc
 50
129.6750300638952
 51
180.0000000000184
  0
LINE
  5
132
330
1F
100
AcDbEntity
  8
0
 62
     2
100
AcDbLine
 10
102.80592847327
 20
226.8849487347807
 30
0.0
 11
102.8059284732704
 21
232.7869487347881
 31
0.0
  0
ARC
  5
133
330
1F
100
AcDbEntity
  8
0
 62
     2
100
AcDbCircle
 10
103.4559284732701
 20
226.8849487347872
 30
0.0
 40
0.6500000000001147
100
AcDbArc
 50
180.0
 51
219.6750300633169
  0
ARC
  5
134
330
1F
100
AcDbEntity
  8
0
 62
     2
100
AcDbCircle
 10
103.4559284732701
 20
226.8849487347872
 30
0.0
 40
0.6500000000001147
100
AcDbArc
 50
219.6750300638854
 51
270.0000000000225
  0
LINE
  5
135
330
1F
100
AcDbEntity
  8
0
 62
     2
100
AcDbLine
 10
107.9329284732682
 20
226.2349487347874
 30
0.0
 11
103.4559284732697
 21
226.2349487347872
 31
0.0
  0
ARC
  5
136
330
1F
100
AcDbEntity
  8
0
 62
     2
100
AcDbCircle
 10
107.9329284732696
 20
226.8849487347873
 30
0.0
 40
0.6500000000000005
100
AcDbArc
 50
269.999999999876
 51
309.6750300639131
  0
ARC
  5
137
330
1F
100
AcDbEntity
  8
0
 62
     2
100
AcDbCircle
 10
107.9329284732696
 20
226.8849487347873
 30
0.0
 40
0.6500000000000005
100
AcDbArc
 50
309.6750300639138
 51
359.9999999999999
  0
LINE
  5
138
330
1F
100
AcDbEntity
  8
0
 62
     2
100
AcDbLine
 10
108.5829284732694
 20
232.786948734788
 30
0.0
 11
108.5829284732697
 21
226.8849487347874
 31
0.0
  0
ARC
  5
139
330
1F
100
AcDbEntity
  8
0
 62
     2
100
AcDbCircle
 10
107.9329284732689
 20
232.786948734788
 30
0.0
 40
0.6499999999999985
100
AcDbArc
 50
0.0
 51
39.67503006383333
  0
ARC
  5
13A
330
1F
100
AcDbEntity
  8
0
 62
     2
100
AcDbCircle
 10
107.9329284732689
 20
232.786948734788
 30
0.0
 40
0.6499999999999985
100
AcDbArc
 50
39.67503006383473
 51
90.00000000010577
  0
LINE
  5
13B
330
1F
100
AcDbEntity
  8
0
 62
     2
100
AcDbLine
 10
108.4329284732689
 20
232.786948734788
 30
0.0
 11
108.5829284732689
 21
232.786948734788
 31
0.0
  0
LINE
  5
13C
330
1F
100
AcDbEntity
  8
0
 62
     2
100
AcDbLine
 10
108.5829284732697
 20
226.8849487347874
 30
0.0
 11
108.4329284732697
 21
226.8849487347874
 31
0.0
  0
LINE
  5
13D
330
1F
100
AcDbEntity
  8
0
 62
     2
100
AcDbLine
 10
107.9329284732685
 20
226.3849487347873
 30
0.0
 11
107.9329284732682
 21
226.2349487347873
 31
0.0
  0
LINE
  5
13E
330
1F
100
AcDbEntity
  8
0
 62
     2
100
AcDbLine
 10
103.4559284732697
 20
226.2349487347872
 30
0.0
 11
103.4559284732697
 21
226.3849487347872
 31
0.0
  0
LINE
  5
13F
330
1F
100
AcDbEntity
  8
0
 62
     2
100
AcDbLine
 10
102.95592847327
 20
226.8849487347822
 30
0.0
 11
102.80592847327
 21
226.8849487347807
 31
0.0
  0
LINE
  5
140
330
1F
100
AcDbEntity
  8
0
 62
     2
100
AcDbLine
 10
102.8059284732704
 20
232.7869487347881
 30
0.0
 11
102.9559284732704
 21
232.7869487347881
 31
0.0
  0
LINE
  5
141
330
1F
100
AcDbEntity
  8
0
 62
     2
100
AcDbLine
 10
107.932928473268
 20
233.286948734788
 30
0.0
 11
107.9329284732677
 21
233.436948734788
 31
0.0
  0
LINE
  5
142
330
1F
100
AcDbEntity
  8
0
 62
     2
100
AcDbLine
 10
103.4559284732711
 20
233.2869487347877
 30
0.0
 11
103.4559284732714
 21
233.4369487347877
 31
0.0
  0
ARC
  5
143
330
1F
100
AcDbEntity
  8
0
 62
     2
100
AcDbCircle
 10
98.1944286684732
 20
213.6359487263023
 30
0.0
 40
1.0
100
AcDbArc
 50
89.99999999997883
 51
179.9999999998255
  0
ARC
  5
144
330
1F
100
AcDbEntity
  8
0
 62
     2
100
AcDbCircle
 10
111.6944284155883
 20
213.6359487263029
 30
0.0
 40
1.0
100
AcDbArc
 50
0.0
 51
89.99999999958796
  0
ARC
  5
145
330
1F
100
AcDbEntity
  8
0
 62
     2
100
AcDbCircle
 10
111.6944282907223
 20
246.0359487262953
 30
0.0
 40
1.0
100
AcDbArc
 50
270.0000000000586
 51
0.0000000000002036
  0
ARC
  5
146
330
1F
100
AcDbEntity
  8
0
 62
     2
100
AcDbCircle
 10
98.19442854373068
 20
246.0359487262958
 30
0.0
 40
1.0
100
AcDbArc
 50
180.0
 51
269.9999999979443
  0
CIRCLE
  5
147
330
1F
100
AcDbEntity
  8
0
 62
     2
100
AcDbCircle
 10
100.6944210284612
 20
241.3359483562568
 30
0.0
 40
0.61058
  0
CIRCLE
  5
148
330
1F
100
AcDbEntity
  8
0
 62
     2
100
AcDbCircle
 10
110.6944210284612
 20
241.3359483562568
 30
0.0
 40
0.61058
  0
CIRCLE
  5
149
330
1F
100
AcDbEntity
  8
0
 62
     2
100
AcDbCircle
 10
110.6944210284612
 20
218.3359483562568
 30
0.0
 40
0.61058
  0
CIRCLE
  5
14A
330
1F
100
AcDbEntity
  8
0
 62
     2
100
AcDbCircle
 10
100.6944210284612
 20
218.3359483562568
 30
0.0
 40
0.61058
  0
ARC
  5
14B
330
1F
100
AcDbEntity
  8
0
 62
     6
100
AcDbCircle
 10
100.6944210284612
 20
140.8462292542036
 30
0.0
 40
0.8
100
AcDbArc
 50
354.9999999999995
 51
274.9999999999995
  0
ARC
  5
14C
330
1F
100
AcDbEntity
  8
0
 62
     6
100
AcDbCircle
 10
110.6944210284612
 20
117.8462292542036
 30
0.0
 40
0.8
100
AcDbArc
 50
354.9999999999995
 51
274.9999999999995
  0
LINE
  5
14D
330
1F
100
AcDbEntity
  8
0
 62
     2
100
AcDbLine
 10
96.19442848146215
 20
112.8763650649383
 30
0.0
 11
96.19442848146215
 21
120.4763650649389
 31
0.0
  0
LINE
  5
14E
330
1F
100
AcDbEntity
  8
0
 62
     2
100
AcDbLine
 10
115.1944284814614
 20
145.8160888052291
 30
0.0
 11
115.1944284814614
 21
138.2160888052204
 31
0.0
  0
LINE
  5
14F
330
1F
100
AcDbEntity
  8
0
 62
     2
100
AcDbLine
 10
115.1944284814615
 20
120.476365064944
 30
0.0
 11
115.1944284814615
 21
112.8763650649365
 31
0.0
  0
LINE
  5
150
330
1F
100
AcDbEntity
  8
0
 62
     2
100
AcDbLine
 10
97.19442854372099
 20
112.8763650649381
 30
0.0
 11
97.19442854373068
 21
113.1462288842005
 31
0.0
  0
LINE
  5
151
330
1F
100
AcDbEntity
  8
0
 62
     2
100
AcDbLine
 10
98.19442854373072
 20
114.1462288841646
 30
0.0
 11
111.6944282907224
 21
114.1462288841646
 31
0.0
  0
LINE
  5
152
330
1F
100
AcDbEntity
  8
0
 62
     2
100
AcDbLine
 10
112.6944284155903
 20
145.8160888052286
 30
0.0
 11
112.6944284155883
 21
145.5462288841502
 31
0.0
  0
LINE
  5
153
330
1F
100
AcDbEntity
  8
0
 62
     2
100
AcDbLine
 10
111.6944284155883
 20
144.5462288841575
 30
0.0
 11
98.19442866847318
 21
144.5462288841579
 31
0.0
  0
ARC
  5
154
330
1F
100
AcDbEntity
  8
0
 62
     2
100
AcDbCircle
 10
107.9329284732696
 20
132.2972288756731
 30
0.0
 40
0.5
100
AcDbArc
 50
0.0
 51
90.00000000012336
  0
LINE
  5
155
330
1F
100
AcDbEntity
  8
0
 62
     2
100
AcDbLine
 10
108.4329284732694
 20
126.3952288756741
 30
0.0
 11
108.4329284732697
 21
132.2972288756706
 31
0.0
  0
ARC
  5
156
330
1F
100
AcDbEntity
  8
0
 62
     2
100
AcDbCircle
 10
107.9329284732689
 20
126.3952288756724
 30
0.0
 40
0.5
100
AcDbArc
 50
269.9999999998974
 51
0.0000000000015776
  0
LINE
  5
157
330
1F
100
AcDbEntity
  8
0
 62
     2
100
AcDbLine
 10
103.4559284732711
 20
125.8952288756727
 30
0.0
 11
107.932928473268
 21
125.8952288756725
 31
0.0
  0
ARC
  5
158
330
1F
100
AcDbEntity
  8
0
 62
     2
100
AcDbCircle
 10
103.4559284732702
 20
126.3952288756727
 30
0.0
 40
0.5
100
AcDbArc
 50
180.0
 51
270.0000000000538
  0
LINE
  5
159
330
1F
100
AcDbEntity
  8
0
 62
     2
100
AcDbLine
 10
102.95592847327
 20
132.2972288756782
 30
0.0
 11
102.9559284732704
 21
126.3952288756722
 31
0.0
  0
ARC
  5
15A
330
1F
100
AcDbEntity
  8
0
 62
     2
100
AcDbCircle
 10
103.4559284732701
 20
132.2972288756732
 30
0.0
 40
0.5000000000001137
100
AcDbArc
 50
90.0000000000391
 51
179.99999999943
  0
LINE
  5
15B
330
1F
100
AcDbEntity
  8
0
 62
     2
100
AcDbLine
 10
107.9329284732685
 20
132.797228875673
 30
0.0
 11
103.4559284732697
 21
132.797228875673
 31
0.0
  0
LINE
  5
15C
330
1F
100
AcDbEntity
  8
0
 62
     2
100
AcDbLine
 10
115.1944284814615
 20
120.476365064944
 30
0.0
 11
115.1944284814614
 21
138.2160888052204
 31
0.0
  0
LINE
  5
15D
330
1F
100
AcDbEntity
  8
0
 62
     2
100
AcDbLine
 10
112.6944283535823
 20
112.8763650649381
 30
0.0
 11
115.1944284814615
 21
112.8763650649381
 31
0.0
  0
LINE
  5
15E
330
1F
100
AcDbEntity
  8
0
 62
     2
100
AcDbLine
 10
112.6944282907223
 20
113.1462288842137
 30
0.0
 11
112.6944282907357
 21
112.8763650649381
 31
0.0
  0
LINE
  5
15F
330
1F
100
AcDbEntity
  8
0
 62
     2
100
AcDbLine
 10
96.19442848146215
 20
112.8763650649388
 30
0.0
 11
97.19442854025029
 21
112.8763650649388
 31
0.0
  0
LINE
  5
160
330
1F
100
AcDbEntity
  8
0
 62
     2
100
AcDbLine
 10
96.19442848146215
 20
145.8160888052301
 30
0.0
 11
96.19442848146215
 21
120.4763650649389
 31
0.0
  0
LINE
  5
161
330
1F
100
AcDbEntity
  8
0
 62
     2
100
AcDbLine
 10
97.19442866847247
 20
145.8160888052301
 30
0.0
 11
96.19442848146215
 21
145.8160888052301
 31
0.0
  0
LINE
  5
162
330
1F
100
AcDbEntity
  8
0
 62
     2
100
AcDbLine
 10
97.1944286684732
 20
145.546228884155
 30
0.0
 11
97.19442866847247
 21
145.8160888052301
 31
0.0
  0
LINE
  5
163
330
1F
100
AcDbEntity
  8
0
 62
     2
100
AcDbLine
 10
115.1944284814614
 20
145.8160888052284
 30
0.0
 11
112.6944284155903
 21
145.8160888052275
 31
0.0
  0
ARC
  5
164
330
1F
100
AcDbEntity
  8
0
 62
     6
100
AcDbCircle
 10
100.6944210284612
 20
117.8462292542036
 30
0.0
 40
0.8
100
AcDbArc
 50
354.9999999999995
 51
274.9999999999995
  0
ARC
  5
165
330
1F
100
AcDbEntity
  8
0
 62
     6
100
AcDbCircle
 10
110.6944210284612
 20
140.8462292542036
 30
0.0
 40
0.8
100
AcDbArc
 50
354.9999999999995
 51
274.9999999999995
  0
CIRCLE
  5
166
330
1F
100
AcDbEntity
  8
0
 62
     2
100
AcDbCircle
 10
92.5245646848052
 20
116.1763650649379
 30
0.0
 40
2.0
  0
ARC
  5
167
330
1F
100
AcDbEntity
  8
0
 62
     2
100
AcDbCircle
 10
95.19442848146214
 20
120.4763650649389
 30
0.0
 40
1.0
100
AcDbArc
 50
270.0000000000879
 51
0.0000000000001018
  0
LINE
  5
168
330
1F
100
AcDbEntity
  8
0
 62
     2
100
AcDbLine
 10
95.19442848146367
 20
119.4763650649386
 30
0.0
 11
92.52456468480554
 21
119.476365064938
 31
0.0
  0
ARC
  5
169
330
1F
100
AcDbEntity
  8
0
 62
     2
100
AcDbCircle
 10
92.52456468480554
 20
116.176365064938
 30
0.0
 40
3.299999999999955
100
AcDbArc
 50
90.0
 51
269.9999999999999
  0
LINE
  5
16A
330
1F
100
AcDbEntity
  8
0
 62
     2
100
AcDbLine
 10
92.52456468480554
 20
112.8763650649381
 30
0.0
 11
94.19442848145965
 21
112.8763650649388
 31
0.0
  0
LINE
  5
16B
330
1F
100
AcDbEntity
  8
0
 62
     2
100
AcDbLine
 10
94.19442848145967
 20
112.8763650649388
 30
0.0
 11
96.19442848146215
 21
112.8763650649383
 31
0.0
  0
CIRCLE
  5
16C
330
1F
100
AcDbEntity
  8
0
 62
     2
100
AcDbCircle
 10
118.8627928022799
 20
142.5160888052285
 30
0.0
 40
2.0
  0
LINE
  5
16D
330
1F
100
AcDbEntity
  8
0
 62
     2
100
AcDbLine
 10
118.8627928022764
 20
145.8160888052298
 30
0.0
 11
115.1944284814614
 21
145.8160888052291
 31
0.0
  0
ARC
  5
16E
330
1F
100
AcDbEntity
  8
0
 62
     2
100
AcDbCircle
 10
116.1944284814611
 20
138.2160888052291
 30
0.0
 40
1.0
100
AcDbArc
 50
89.99999999997476
 51
180.0000000004952
  0
LINE
  5
16F
330
1F
100
AcDbEntity
  8
0
 62
     2
100
AcDbLine
 10
116.1944284814616
 20
139.2160888052265
 30
0.0
 11
118.8627928022802
 21
139.2160888052287
 31
0.0
  0
ARC
  5
170
330
1F
100
AcDbEntity
  8
0
 62
     2
100
AcDbCircle
 10
118.8627928022802
 20
142.5160888052287
 30
0.0
 40
3.299999999999955
100
AcDbArc
 50
270.0
 51
89.9999999999999
  0
CIRCLE
  5
171
330
1F
100
AcDbEntity
  8
0
 62
     2
100
AcDbCircle
 10
118.8642848169252
 20
116.1763650649379
 30
0.0
 40
2.0
  0
LINE
  5
172
330
1F
100
AcDbEntity
  8
0
 62
     2
100
AcDbLine
 10
115.1944284814615
 20
112.8763650649365
 30
0.0
 11
117.1944284814378
 21
112.8763650649352
 31
0.0
  0
LINE
  5
173
330
1F
100
AcDbEntity
  8
0
 62
     2
100
AcDbLine
 10
117.1944284814378
 20
112.8763650649352
 30
0.0
 11
118.8642848169257
 21
112.8763650649381
 31
0.0
  0
ARC
  5
174
330
1F
100
AcDbEntity
  8
0
 62
     2
100
AcDbCircle
 10
118.8642848169257
 20
116.176365064938
 30
0.0
 40
3.299999999999955
100
AcDbArc
 50
270.0
 51
89.99999999999984
  0
LINE
  5
175
330
1F
100
AcDbEntity
  8
0
 62
     2
100
AcDbLine
 10
118.8642848169257
 20
119.476365064938
 30
0.0
 11
116.1944284814612
 21
119.4763650649433
 31
0.0
  0
ARC
  5
176
330
1F
100
AcDbEntity
  8
0
 62
     2
100
AcDbCircle
 10
116.1944284814612
 20
120.4763650649345
 30
0.0
 40
1.0
100
AcDbArc
 50
180.0
 51
270.0000000005406
  0
CIRCLE
  5
177
330
1F
100
AcDbEntity
  8
0
 62
     2
100
AcDbCircle
 10
92.5245646848052
 20
116.176365064938
 30
0.0
 40
0.8500000000000227
  0
CIRCLE
  5
178
330
1F
100
AcDbEntity
  8
0
 62
     2
100
AcDbCircle
 10
118.8627928022799
 20
142.5160888052287
 30
0.0
 40
0.8500000000000227
  0
CIRCLE
  5
179
330
1F
100
AcDbEntity
  8
0
 62
     2
100
AcDbCircle
 10
118.8642848169252
 20
116.176365064938
 30
0.0
 40
0.8500000000000227
  0
ARC
  5
17A
330
1F
100
AcDbEntity
  8
0
 62
     2
100
AcDbCircle
 10
98.19442866847318
 20
145.546228884158
 30
0.0
 40
1.0
100
AcDbArc
 50
180.0
 51
269.9999999998468
  0
ARC
  5
17B
330
1F
100
AcDbEntity
  8
0
 62
     2
100
AcDbCircle
 10
111.6944284155883
 20
145.5462288841575
 30
0.0
 40
1.0
100
AcDbArc
 50
269.9999999999992
 51
0.0000000000001527
  0
ARC
  5
17C
330
1F
100
AcDbEntity
  8
0
 62
     2
100
AcDbCircle
 10
111.6944282907223
 20
113.1462288841651
 30
0.0
 40
1.0
100
AcDbArc
 50
0.0
 51
89.99999999715608
  0
ARC
  5
17D
330
1F
100
AcDbEntity
  8
0
 62
     2
100
AcDbCircle
 10
98.19442854373068
 20
113.1462288841645
 30
0.0
 40
1.0
100
AcDbArc
 50
89.99999999999756
 51
179.9999999979419
  0
CIRCLE
  5
17E
330
1F
100
AcDbEntity
  8
0
 62
     2
100
AcDbCircle
 10
100.6944210284612
 20
117.8462292542036
 30
0.0
 40
0.61058
  0
CIRCLE
  5
17F
330
1F
100
AcDbEntity
  8
0
 62
     2
100
AcDbCircle
 10
110.6944210284612
 20
117.8462292542036
 30
0.0
 40
0.61058
  0
CIRCLE
  5
180
330
1F
100
AcDbEntity
  8
0
 62
     2
100
AcDbCircle
 10
110.6944210284612
 20
140.8462292542036
 30
0.0
 40
0.61058
  0
CIRCLE
  5
181
330
1F
100
AcDbEntity
  8
0
 62
     2
100
AcDbCircle
 10
100.6944210284612
 20
140.8462292542036
 30
0.0
 40
0.61058
  0
LINE
  5
182
330
1F
100
AcDbEntity
  8
0
 62
     2
100
AcDbLine
 10
57.2245646848049
 20
181.3660888052301
 30
0.0
 11
49.62456468479623
 21
181.3660888052302
 31
0.0
  0
LINE
  5
183
330
1F
100
AcDbEntity
  8
0
 62
     2
100
AcDbLine
 10
31.88484094451982
 20
181.3660888052302
 30
0.0
 11
24.2848409445123
 21
181.3660888052302
 31
0.0
  0
LINE
  5
184
330
1F
100
AcDbEntity
  8
0
 62
     2
100
AcDbLine
 10
31.88484094451982
 20
181.3660888052302
 30
0.0
 11
49.62456468479624
 21
181.3660888052302
 31
0.0
  0
LINE
  5
185
330
1F
100
AcDbEntity
  8
0
 62
     2
100
AcDbLine
 10
57.2245646848049
 20
180.3660888052301
 30
0.0
 11
57.2245646848049
 21
181.3660888052301
 31
0.0
  0
LINE
  5
186
330
1F
100
AcDbEntity
  8
0
 62
     2
100
AcDbLine
 10
49.62456468479623
 20
180.3660888052302
 30
0.0
 11
50.62456468480487
 21
180.3660888052302
 31
0.0
  0
LINE
  5
187
330
1F
100
AcDbEntity
  8
0
 62
     2
100
AcDbLine
 10
57.22456468480444
 20
180.3660888052301
 30
0.0
 11
50.62456468480453
 21
180.3660888052302
 31
0.0
  0
LINE
  5
188
330
1F
100
AcDbEntity
  8
0
 62
     2
100
AcDbLine
 10
49.62456468479623
 20
177.8160888052302
 30
0.0
 11
49.62456468479623
 21
180.3660888052302
 31
0.0
  0
LINE
  5
189
330
1F
100
AcDbEntity
  8
0
 62
     2
100
AcDbLine
 10
24.2848409445123
 20
181.3660888052302
 30
0.0
 11
24.2848409445123
 21
180.3660888052302
 31
0.0
  0
LINE
  5
18A
330
1F
100
AcDbEntity
  8
0
 62
     2
100
AcDbLine
 10
30.88484094451379
 20
180.3660888052302
 30
0.0
 11
24.28484094451388
 21
180.3660888052302
 31
0.0
  0
LINE
  5
18B
330
1F
100
AcDbEntity
  8
0
 62
     2
100
AcDbLine
 10
30.88484094451027
 20
180.3660888052302
 30
0.0
 11
31.8848409445197
 21
180.3660888052302
 31
0.0
  0
LINE
  5
18C
330
1F
100
AcDbEntity
  8
0
 62
     2
100
AcDbLine
 10
31.88484094451982
 20
177.8160888052302
 30
0.0
 11
31.88484094451982
 21
180.3660888052302
 31
0.0
  0
LINE
  5
18D
330
1F
100
AcDbEntity
  8
0
 62
     2
100
AcDbLine
 10
57.22456468480444
 20
177.8160888052302
 30
0.0
 11
50.62456468480453
 21
177.8160888052302
 31
0.0
  0
LINE
  5
18E
330
1F
100
AcDbEntity
  8
0
 62
     2
100
AcDbLine
 10
49.62456468479623
 20
177.8160888052302
 30
0.0
 11
50.62456468480487
 21
177.8160888052302
 31
0.0
  0
LINE
  5
18F
330
1F
100
AcDbEntity
  8
0
 62
     2
100
AcDbLine
 10
31.88484094451982
 20
177.8160888052302
 30
0.0
 11
49.62456468479624
 21
177.8160888052302
 31
0.0
  0
LINE
  5
190
330
1F
100
AcDbEntity
  8
0
 62
     2
100
AcDbLine
 10
30.88484094451027
 20
177.8160888052302
 30
0.0
 11
31.8848409445197
 21
177.8160888052302
 31
0.0
  0
LINE
  5
191
330
1F
100
AcDbEntity
  8
0
 62
     2
100
AcDbLine
 10
30.88484094451379
 20
177.8160888052302
 30
0.0
 11
24.28484094451388
 21
177.8160888052302
 31
0.0
  0
LINE
  5
192
330
1F
100
AcDbEntity
  8
0
 62
     2
100
AcDbLine
 10
50.62456468480453
 20
177.8160888052302
 30
0.0
 11
50.62456468480453
 21
180.3660888052302
 31
0.0
  0
LINE
  5
193
330
1F
100
AcDbEntity
  8
0
 62
     2
100
AcDbLine
 10
30.88484094451379
 20
177.8160888052302
 30
0.0
 11
30.88484094451379
 21
180.3660888052302
 31
0.0
  0
LINE
  5
194
330
1F
100
AcDbEntity
  8
0
 62
     2
100
AcDbLine
 10
24.28484094451388
 20
177.8160888052302
 30
0.0
 11
24.28484094451388
 21
180.3660888052302
 31
0.0
  0
LINE
  5
195
330
1F
100
AcDbEntity
  8
0
 62
     2
100
AcDbLine
 10
57.22456468480558
 20
177.8160888052302
 30
0.0
 11
57.22456468480558
 21
180.3660888052302
 31
0.0
  0
LINE
  5
196
330
1F
100
AcDbEntity
  8
0
 62
     2
100
AcDbLine
 10
187.1040085572175
 20
181.3660888052302
 30
0.0
 11
179.5040085572169
 21
181.3660888052302
 31
0.0
  0
LINE
  5
197
330
1F
100
AcDbEntity
  8
0
 62
     2
100
AcDbLine
 10
154.1642848169257
 20
181.3660888052301
 30
0.0
 11
179.5040085572169
 21
181.3660888052302
 31
0.0
  0
LINE
  5
198
330
1F
100
AcDbEntity
  8
0
 62
     2
100
AcDbLine
 10
179.5040085572119
 20
180.3660888052302
 30
0.0
 11
180.5040085572169
 21
180.3660888052302
 31
0.0
  0
LINE
  5
199
330
1F
100
AcDbEntity
  8
0
 62
     2
100
AcDbLine
 10
187.1040085572177
 20
180.3660888052302
 30
0.0
 11
180.5040085572178
 21
180.3660888052302
 31
0.0
  0
LINE
  5
19A
330
1F
100
AcDbEntity
  8
0
 62
     2
100
AcDbLine
 10
187.1040085572175
 20
180.3660888052302
 30
0.0
 11
187.1040085572175
 21
181.3660888052302
 31
0.0
  0
LINE
  5
19B
330
1F
100
AcDbEntity
  8
0
 62
     2
100
AcDbLine
 10
179.5040085572119
 20
177.8160888052302
 30
0.0
 11
179.5040085572119
 21
180.3660888052302
 31
0.0
  0
LINE
  5
19C
330
1F
100
AcDbEntity
  8
0
 62
     2
100
AcDbLine
 10
187.1040085572177
 20
177.8160888052302
 30
0.0
 11
180.5040085572178
 21
177.8160888052302
 31
0.0
  0
LINE
  5
19D
330
1F
100
AcDbEntity
  8
0
 62
     2
100
AcDbLine
 10
179.5040085572119
 20
177.8160888052302
 30
0.0
 11
180.5040085572169
 21
177.8160888052302
 31
0.0
  0
LINE
  5
19E
330
1F
100
AcDbEntity
  8
0
 62
     2
100
AcDbLine
 10
154.1642848169257
 20
177.8160888052302
 30
0.0
 11
179.5040085572169
 21
177.8160888052302
 31
0.0
  0
LINE
  5
19F
330
1F
100
AcDbEntity
  8
0
 62
     2
100
AcDbLine
 10
187.1040085572177
 20
177.8160888052302
 30
0.0
 11
187.1040085572177
 21
180.3660888052302
 31
0.0
  0
LINE
  5
1A0
330
1F
100
AcDbEntity
  8
0
 62
     2
100
AcDbLine
 10
180.5040085572178
 20
177.8160888052302
 30
0.0
 11
180.5040085572178
 21
180.3660888052302
 31
0.0
  0
LINE
  5
1A1
330
1F
100
AcDbEntity
  8
0
 62
     2
100
AcDbLine
 10
154.1642848169257
 20
177.8160888052302
 30
0.0
 11
154.1642848169257
 21
181.3660888052301
 31
0.0
  0
LINE
  5
1A2
330
1F
100
AcDbEntity
  8
0
 62
     2
100
AcDbLine
 10
122.1642848169257
 20
177.8160888052302
 30
0.0
 11
122.1642848169257
 21
180.3660888052302
 31
0.0
  0
LINE
  5
1A3
330
1F
100
AcDbEntity
  8
0
 62
     2
100
AcDbLine
 10
89.22456468480559
 20
177.8160888052302
 30
0.0
 11
89.22456468480559
 21
180.3660888052302
 31
0.0
  0
LINE
  5
1A4
330
1F
100
AcDbEntity
  8
0
 62
     2
100
AcDbLine
 10
111.6944282907224
 20
179.7160888052302
 30
0.0
 11
98.19442854373072
 21
179.7160888052302
 31
0.0
  0
LINE
  5
1A5
330
1F
100
AcDbEntity
  8
0
 62
     2
100
AcDbLine
 10
98.19442854373072
 20
181.3660888052302
 30
0.0
 11
111.6944282907224
 21
181.3660888052302
 31
0.0
  0
LINE
  5
1A6
330
1F
100
AcDbEntity
  8
0
 62
     2
100
AcDbLine
 10
112.6944283535823
 20
181.3660888052302
 30
0.0
 11
115.1944284814615
 21
181.3660888052302
 31
0.0
  0
LINE
  5
1A7
330
1F
100
AcDbEntity
  8
0
 62
     2
100
AcDbLine
 10
96.19442848146215
 20
181.3660888052302
 30
0.0
 11
97.19442854025029
 21
181.3660888052302
 31
0.0
  0
LINE
  5
1A8
330
1F
100
AcDbEntity
  8
0
 62
     2
100
AcDbLine
 10
92.52456468480554
 20
180.3660888052302
 30
0.0
 11
89.22456468480559
 21
180.3660888052302
 31
0.0
  0
LINE
  5
1A9
330
1F
100
AcDbEntity
  8
0
 62
     2
100
AcDbLine
 10
92.52456468480554
 20
180.3660888052302
 30
0.0
 11
94.19442848145965
 21
180.3660888052302
 31
0.0
  0
LINE
  5
1AA
330
1F
100
AcDbEntity
  8
0
 62
     2
100
AcDbLine
 10
96.19442848146215
 20
180.3660888052302
 30
0.0
 11
96.19442848146215
 21
181.3660888052302
 31
0.0
  0
LINE
  5
1AB
330
1F
100
AcDbEntity
  8
0
 62
     2
100
AcDbLine
 10
94.19442848145967
 20
180.3660888052302
 30
0.0
 11
96.19442848146215
 21
180.3660888052302
 31
0.0
  0
LINE
  5
1AC
330
1F
100
AcDbEntity
  8
0
 62
     2
100
AcDbLine
 10
115.1944284814615
 20
180.3660888052302
 30
0.0
 11
117.1944284814378
 21
180.3660888052302
 31
0.0
  0
LINE
  5
1AD
330
1F
100
AcDbEntity
  8
0
 62
     2
100
AcDbLine
 10
115.1944284814615
 20
181.3660888052302
 30
0.0
 11
115.1944284814615
 21
180.3660888052302
 31
0.0
  0
LINE
  5
1AE
330
1F
100
AcDbEntity
  8
0
 62
     2
100
AcDbLine
 10
117.1944284814378
 20
180.3660888052302
 30
0.0
 11
118.8642848169257
 21
180.3660888052302
 31
0.0
  0
LINE
  5
1AF
330
1F
100
AcDbEntity
  8
0
 62
     2
100
AcDbLine
 10
122.1642848169257
 20
180.3660888052302
 30
0.0
 11
118.8642848169257
 21
180.3660888052302
 31
0.0
  0
LINE
  5
1B0
330
1F
100
AcDbEntity
  8
0
 62
     2
100
AcDbLine
 10
114.1944283535823
 20
177.8160888052302
 30
0.0
 11
114.1944283535823
 21
179.7160888052302
 31
0.0
  0
LINE
  5
1B1
330
1F
100
AcDbEntity
  8
0
 62
     2
100
AcDbLine
 10
114.1944283535823
 20
179.7160888052302
 30
0.0
 11
112.6944283535823
 21
179.7160888052302
 31
0.0
  0
LINE
  5
1B2
330
1F
100
AcDbEntity
  8
0
 62
     2
100
AcDbLine
 10
98.19442854373072
 20
179.7160888052302
 30
0.0
 11
98.19442854373072
 21
181.3660888052302
 31
0.0
  0
LINE
  5
1B3
330
1F
100
AcDbEntity
  8
0
 62
     2
100
AcDbLine
 10
111.6944282907224
 20
179.7160888052301
 30
0.0
 11
111.6944282907224
 21
181.3660888052301
 31
0.0
  0
LINE
  5
1B4
330
1F
100
AcDbEntity
  8
0
 62
     2
100
AcDbLine
 10
122.1642848169257
 20
177.8160888052302
 30
0.0
 11
118.8642848169257
 21
177.8160888052302
 31
0.0
  0
LINE
  5
1B5
330
1F
100
AcDbEntity
  8
0
 62
     2
100
AcDbLine
 10
117.1944284814378
 20
177.8160888052302
 30
0.0
 11
118.8642848169257
 21
177.8160888052302
 31
0.0
  0
LINE
  5
1B6
330
1F
100
AcDbEntity
  8
0
 62
     2
100
AcDbLine
 10
114.1944283535823
 20
177.8160888052302
 30
0.0
 11
117.1944284814378
 21
177.8160888052302
 31
0.0
  0
LINE
  5
1B7
330
1F
100
AcDbEntity
  8
0
 62
     2
100
AcDbLine
 10
94.19442848145967
 20
177.8160888052302
 30
0.0
 11
97.19442854025029
 21
177.8160888052302
 31
0.0
  0
LINE
  5
1B8
330
1F
100
AcDbEntity
  8
0
 62
     2
100
AcDbLine
 10
92.52456468480554
 20
177.8160888052302
 30
0.0
 11
94.19442848145967
 21
177.8160888052302
 31
0.0
  0
LINE
  5
1B9
330
1F
100
AcDbEntity
  8
0
 62
     2
100
AcDbLine
 10
92.52456468480554
 20
177.8160888052302
 30
0.0
 11
89.22456468480559
 21
177.8160888052302
 31
0.0
  0
LINE
  5
1BA
330
1F
100
AcDbEntity
  8
0
 62
     2
100
AcDbLine
 10
118.8642848169257
 20
177.8160888052302
 30
0.0
 11
118.8642848169257
 21
180.3660888052302
 31
0.0
  0
LINE
  5
1BB
330
1F
100
AcDbEntity
  8
0
 62
     2
100
AcDbLine
 10
112.6944283535823
 20
179.7160888052302
 30
0.0
 11
112.6944283535823
 21
181.3660888052302
 31
0.0
  0
LINE
  5
1BC
330
1F
100
AcDbEntity
  8
0
 62
     2
100
AcDbLine
 10
97.19442854372099
 20
177.8160888052302
 30
0.0
 11
97.19442854372099
 21
181.3660888052302
 31
0.0
  0
LINE
  5
1BD
330
1F
100
AcDbEntity
  8
0
 62
     2
100
AcDbLine
 10
92.52456468480554
 20
177.8160888052302
 30
0.0
 11
92.52456468480554
 21
180.3660888052302
 31
0.0
  0
LINE
  5
1BE
330
1F
100
AcDbEntity
  8
0
 62
     2
100
AcDbLine
 10
111.6944282907233
 20
181.3660888052302
 30
0.0
 11
112.6944282907223
 21
181.3660888052302
 31
0.0
  0
LINE
  5
1BF
330
1F
100
AcDbEntity
  8
0
 62
     2
100
AcDbLine
 10
112.6944282907223
 20
179.7160888052302
 30
0.0
 11
111.6944282907233
 21
179.7160888052302
 31
0.0
  0
LINE
  5
1C0
330
1F
100
AcDbEntity
  8
0
 62
     2
100
AcDbLine
 10
97.19442854373061
 20
181.3660888052302
 30
0.0
 11
98.19442854373072
 21
181.3660888052302
 31
0.0
  0
LINE
  5
1C1
330
1F
100
AcDbEntity
  8
0
 62
     2
100
AcDbLine
 10
98.19442854373072
 20
179.7160888052302
 30
0.0
 11
97.19442854373061
 21
179.7160888052302
 31
0.0
  0
INSERT
  5
1F0
330
1F
100
AcDbEntity
  8
Outline
100
AcDbBlockReference
  2
$TitleBlock elphel_parts
 10
200.0
 20
10.0
 30
0.0
  0
INSERT
  5
1F6
330
1F
100
AcDbEntity
  8
Outline
100
AcDbBlockReference
  2
Sheet Border
 10
0.0
 20
0.0
 30
0.0
  0
ENDSEC
  0
SECTION
  2
OBJECTS
  0
DICTIONARY
  5
C
330
0
100
AcDbDictionary
281
     1
  3
ACAD_DETAILVIEWSTYLE
350
200
  3
ACAD_GROUP
350
D
  3
ACAD_LAYOUT
350
1A
  3
ACAD_MATERIAL
350
43
  3
ACAD_MLEADERSTYLE
350
6B
  3
ACAD_MLINESTYLE
350
17
  3
ACAD_PLOTSETTINGS
350
19
  3
ACAD_PLOTSTYLENAME
350
E
  3
ACAD_SCALELIST
350
47
  3
ACAD_SECTIONVIEWSTYLE
350
201
  3
ACAD_TABLESTYLE
350
69
  3
ACAD_VISUALSTYLE
350
2A
  3
ACDB_RECOMPOSE_DATA
350
1FD
  3
AcDbVariableDictionary
350
1F9
  0
SUN
  5
6D
330
29
100
AcDbSun
 90
        1
290
     0
 63
     7
421
 16777215
 40
1.0
291
     1
 91
  2455826
 92
 54000000
292
     0
 70
     2
 71
   256
280
     1
  0
DICTIONARY
  5
200
102
{ACAD_REACTORS
330
C
102
}
330
C
100
AcDbDictionary
281
     1
  0
DICTIONARY
  5
D
102
{ACAD_REACTORS
330
C
102
}
330
C
100
AcDbDictionary
281
     1
  0
DICTIONARY
  5
1A
102
{ACAD_REACTORS
330
C
102
}
330
C
100
AcDbDictionary
281
     1
  3
Layout1
350
1E
  3
Layout2
350
26
  3
Model
350
22
  0
DICTIONARY
  5
43
102
{ACAD_REACTORS
330
C
102
}
330
C
100
AcDbDictionary
281
     1
  3
ByBlock
350
45
  3
ByLayer
350
44
  3
Global
350
46
  0
DICTIONARY
  5
6B
102
{ACAD_REACTORS
330
C
102
}
330
C
100
AcDbDictionary
281
     1
  3
Standard
350
6C
  0
DICTIONARY
  5
17
102
{ACAD_REACTORS
330
C
102
}
330
C
100
AcDbDictionary
281
     1
  3
Standard
350
18
  0
DICTIONARY
  5
19
102
{ACAD_REACTORS
330
C
102
}
330
C
100
AcDbDictionary
281
     1
  0
ACDBDICTIONARYWDFLT
  5
E
102
{ACAD_REACTORS
330
C
102
}
330
C
100
AcDbDictionary
281
     1
  3
Normal
350
F
100
AcDbDictionaryWithDefault
340
F
  0
DICTIONARY
  5
47
102
{ACAD_REACTORS
330
C
102
}
330
C
100
AcDbDictionary
281
     1
  3
A0
350
48
  3
A1
350
49
  3
A2
350
4A
  3
A3
350
4B
  3
A4
350
4C
  3
A5
350
4D
  3
A6
350
4E
  3
A7
350
4F
  3
A8
350
50
  3
A9
350
51
  3
B0
350
52
  3
B1
350
53
  3
B2
350
54
  3
B3
350
55
  3
B4
350
56
  3
B5
350
57
  3
B6
350
58
  3
B7
350
59
  3
B8
350
5A
  3
B9
350
5B
  3
C0
350
5C
  3
C1
350
5D
  3
C2
350
5E
  3
C3
350
5F
  3
C4
350
60
  3
C5
350
61
  3
C6
350
62
  3
C7
350
63
  3
C8
350
64
  3
C9
350
65
  3
D0
350
66
  3
D1
350
67
  3
D2
350
68
  0
DICTIONARY
  5
201
102
{ACAD_REACTORS
330
C
102
}
330
C
100
AcDbDictionary
281
     1
  0
DICTIONARY
  5
69
102
{ACAD_REACTORS
330
C
102
}
330
C
100
AcDbDictionary
281
     1
  3
Standard
350
6A
  0
DICTIONARY
  5
2A
102
{ACAD_REACTORS
330
C
102
}
330
C
100
AcDbDictionary
281
     1
  3
2dWireframe
350
2F
  3
Basic
350
32
  3
Brighten
350
36
  3
ColorChange
350
3A
  3
Conceptual
350
34
  3
Dim
350
35
  3
EdgeColorOff
350
3D
  3
Facepattern
350
39
  3
Flat
350
2B
  3
FlatWithEdges
350
2C
  3
Gouraud
350
2D
  3
GouraudWithEdges
350
2E
  3
Hidden
350
31
  3
JitterOff
350
3B
  3
Linepattern
350
38
  3
OverhangOff
350
3C
  3
Realistic
350
33
  3
Shaded
350
42
  3
Shaded with edges
350
41
  3
Shades of Gray
350
3E
  3
Sketchy
350
3F
  3
Thicken
350
37
  3
Wireframe
350
30
  3
X-Ray
350
40
  0
XRECORD
  5
1FD
102
{ACAD_REACTORS
330
C
102
}
330
C
100
AcDbXrecord
280
     1
 90
        1
330
6A
  0
DICTIONARY
  5
1F9
102
{ACAD_REACTORS
330
C
102
}
330
C
100
AcDbDictionary
281
     1
  3
CANNOSCALE
350
1FA
  3
CMLEADERSTYLE
350
1FF
  3
CTABLESTYLE
350
1FE
  0
LAYOUT
  5
1E
102
{ACAD_REACTORS
330
1A
102
}
330
1A
100
AcDbPlotSettings
  1

  2
none_device
  4

  6

 40
0.0
 41
0.0
 42
0.0
 43
0.0
 44
0.0
 45
0.0
 46
0.0
 47
0.0
 48
0.0
 49
0.0
140
0.0
141
0.0
142
1.0
143
1.0
 70
   688
 72
     1
 73
     0
 74
     5
  7

 75
    16
 76
     0
 77
     2
 78
   300
147
1.0
148
0.0
149
0.0
100
AcDbLayout
  1
Layout1
 70
     1
 71
     1
 10
0.0
 20
0.0
 11
420.0
 21
297.0
 12
0.0
 22
0.0
 32
0.0
 14
1.000000000000000E+20
 24
1.000000000000000E+20
 34
1.000000000000000E+20
 15
-1.000000000000000E+20
 25
-1.000000000000000E+20
 35
-1.000000000000000E+20
146
0.0
 13
0.0
 23
0.0
 33
0.0
 16
1.0
 26
0.0
 36
0.0
 17
0.0
 27
1.0
 37
0.0
 76
     0
330
1B
  0
LAYOUT
  5
26
102
{ACAD_REACTORS
330
1A
102
}
330
1A
100
AcDbPlotSettings
  1

  2
none_device
  4

  6

 40
0.0
 41
0.0
 42
0.0
 43
0.0
 44
0.0
 45
0.0
 46
0.0
 47
0.0
 48
0.0
 49
0.0
140
0.0
141
0.0
142
1.0
143
1.0
 70
   688
 72
     1
 73
     0
 74
     5
  7

 75
    16
 76
     0
 77
     2
 78
   300
147
1.0
148
0.0
149
0.0
100
AcDbLayout
  1
Layout2
 70
     1
 71
     2
 10
0.0
 20
0.0
 11
0.0
 21
0.0
 12
0.0
 22
0.0
 32
0.0
 14
0.0
 24
0.0
 34
0.0
 15
0.0
 25
0.0
 35
0.0
146
0.0
 13
0.0
 23
0.0
 33
0.0
 16
1.0
 26
0.0
 36
0.0
 17
0.0
 27
1.0
 37
0.0
 76
     0
330
23
  0
LAYOUT
  5
22
102
{ACAD_REACTORS
330
1A
102
}
330
1A
100
AcDbPlotSettings
  1

  2
none_device
  4
Letter_(8.50_x_11.00_Inches)
  6

 40
6.35
 41
6.35
 42
6.35000508
 43
6.35000508
 44
215.9
 45
279.4
 46
0.0
 47
0.0
 48
0.0
 49
0.0
140
0.0
141
0.0
142
1.0
143
1.0
 70
  1712
 72
     1
 73
     0
 74
     0
  7

 75
     0
 76
     0
 77
     2
 78
   300
147
1.0
148
0.0
149
0.0
100
AcDbLayout
  1
Model
 70
     1
 71
     0
 10
0.0
 20
0.0
 11
210.0
 21
297.0
 12
0.0
 22
0.0
 32
0.0
 14
0.0
 24
0.0
 34
0.0
 15
210.0
 25
297.0
 35
0.0
146
0.0
 13
0.0
 23
0.0
 33
0.0
 16
1.0
 26
0.0
 36
0.0
 17
0.0
 27
1.0
 37
0.0
 76
     0
330
1F
331
29
  0
MATERIAL
  5
45
102
{ACAD_REACTORS
330
43
102
}
330
43
100
AcDbMaterial
  1
ByBlock
 72
     1
 94
      127
  0
MATERIAL
  5
44
102
{ACAD_REACTORS
330
43
102
}
330
43
100
AcDbMaterial
  1
ByLayer
 72
     1
 94
      127
  0
MATERIAL
  5
46
102
{ACAD_REACTORS
330
43
102
}
330
43
100
AcDbMaterial
  1
Global
 72
     1
 94
      127
  0
MLEADERSTYLE
  5
6C
102
{ACAD_REACTORS
330
6B
102
}
330
6B
100
AcDbMLeaderStyle
179
     2
170
     2
171
     1
172
     0
 90
        2
 40
0.0
 41
0.0
173
     1
 91
-1056964608
340
14
 92
       -2
290
     1
 42
2.0
291
     1
 43
8.0
  3
Standard
341
0
 44
4.0
300

342
11
174
     1
178
     6
175
     1
176
     0
 93
-1056964608
 45
4.0
292
     0
297
     0
 46
4.0
343
0
 94
-1056964608
 47
1.0
 49
1.0
140
1.0
293
     1
141
0.0
294
     1
177
     0
142
1.0
295
     0
296
     0
143
3.75
271
     0
272
     9
273
     9
298
     0
  0
MLINESTYLE
  5
18
102
{ACAD_REACTORS
330
17
102
}
330
17
100
AcDbMlineStyle
  2
Standard
 70
     0
  3

 62
   256
 51
90.0
 52
90.0
 71
     2
 49
0.5
 62
   256
  6
BYLAYER
 49
-0.5
 62
   256
  6
BYLAYER
  0
ACDBPLACEHOLDER
  5
F
102
{ACAD_REACTORS
330
E
102
}
330
E
  0
SCALE
  5
48
102
{ACAD_REACTORS
330
47
102
}
330
47
100
AcDbScale
 70
     0
300
1:1
140
1.0
141
1.0
290
     1
  0
SCALE
  5
49
102
{ACAD_REACTORS
330
47
102
}
330
47
100
AcDbScale
 70
     0
300
1:2
140
1.0
141
2.0
290
     0
  0
SCALE
  5
4A
102
{ACAD_REACTORS
330
47
102
}
330
47
100
AcDbScale
 70
     0
300
1:4
140
1.0
141
4.0
290
     0
  0
SCALE
  5
4B
102
{ACAD_REACTORS
330
47
102
}
330
47
100
AcDbScale
 70
     0
300
1:5
140
1.0
141
5.0
290
     0
  0
SCALE
  5
4C
102
{ACAD_REACTORS
330
47
102
}
330
47
100
AcDbScale
 70
     0
300
1:8
140
1.0
141
8.0
290
     0
  0
SCALE
  5
4D
102
{ACAD_REACTORS
330
47
102
}
330
47
100
AcDbScale
 70
     0
300
1:10
140
1.0
141
10.0
290
     0
  0
SCALE
  5
4E
102
{ACAD_REACTORS
330
47
102
}
330
47
100
AcDbScale
 70
     0
300
1:16
140
1.0
141
16.0
290
     0
  0
SCALE
  5
4F
102
{ACAD_REACTORS
330
47
102
}
330
47
100
AcDbScale
 70
     0
300
1:20
140
1.0
141
20.0
290
     0
  0
SCALE
  5
50
102
{ACAD_REACTORS
330
47
102
}
330
47
100
AcDbScale
 70
     0
300
1:30
140
1.0
141
30.0
290
     0
  0
SCALE
  5
51
102
{ACAD_REACTORS
330
47
102
}
330
47
100
AcDbScale
 70
     0
300
1:40
140
1.0
141
40.0
290
     0
  0
SCALE
  5
52
102
{ACAD_REACTORS
330
47
102
}
330
47
100
AcDbScale
 70
     0
300
1:50
140
1.0
141
50.0
290
     0
  0
SCALE
  5
53
102
{ACAD_REACTORS
330
47
102
}
330
47
100
AcDbScale
 70
     0
300
1:100
140
1.0
141
100.0
290
     0
  0
SCALE
  5
54
102
{ACAD_REACTORS
330
47
102
}
330
47
100
AcDbScale
 70
     0
300
2:1
140
2.0
141
1.0
290
     0
  0
SCALE
  5
55
102
{ACAD_REACTORS
330
47
102
}
330
47
100
AcDbScale
 70
     0
300
4:1
140
4.0
141
1.0
290
     0
  0
SCALE
  5
56
102
{ACAD_REACTORS
330
47
102
}
330
47
100
AcDbScale
 70
     0
300
8:1
140
8.0
141
1.0
290
     0
  0
SCALE
  5
57
102
{ACAD_REACTORS
330
47
102
}
330
47
100
AcDbScale
 70
     0
300
10:1
140
10.0
141
1.0
290
     0
  0
SCALE
  5
58
102
{ACAD_REACTORS
330
47
102
}
330
47
100
AcDbScale
 70
     0
300
100:1
140
100.0
141
1.0
290
     0
  0
SCALE
  5
59
102
{ACAD_REACTORS
330
47
102
}
330
47
100
AcDbScale
 70
     0
300
1/128" = 1'-0"
140
0.0078125
141
12.0
290
     0
  0
SCALE
  5
5A
102
{ACAD_REACTORS
330
47
102
}
330
47
100
AcDbScale
 70
     0
300
1/64" = 1'-0"
140
0.015625
141
12.0
290
     0
  0
SCALE
  5
5B
102
{ACAD_REACTORS
330
47
102
}
330
47
100
AcDbScale
 70
     0
300
1/32" = 1'-0"
140
0.03125
141
12.0
290
     0
  0
SCALE
  5
5C
102
{ACAD_REACTORS
330
47
102
}
330
47
100
AcDbScale
 70
     0
300
1/16" = 1'-0"
140
0.0625
141
12.0
290
     0
  0
SCALE
  5
5D
102
{ACAD_REACTORS
330
47
102
}
330
47
100
AcDbScale
 70
     0
300
3/32" = 1'-0"
140
0.09375
141
12.0
290
     0
  0
SCALE
  5
5E
102
{ACAD_REACTORS
330
47
102
}
330
47
100
AcDbScale
 70
     0
300
1/8" = 1'-0"
140
0.125
141
12.0
290
     0
  0
SCALE
  5
5F
102
{ACAD_REACTORS
330
47
102
}
330
47
100
AcDbScale
 70
     0
300
3/16" = 1'-0"
140
0.1875
141
12.0
290
     0
  0
SCALE
  5
60
102
{ACAD_REACTORS
330
47
102
}
330
47
100
AcDbScale
 70
     0
300
1/4" = 1'-0"
140
0.25
141
12.0
290
     0
  0
SCALE
  5
61
102
{ACAD_REACTORS
330
47
102
}
330
47
100
AcDbScale
 70
     0
300
3/8" = 1'-0"
140
0.375
141
12.0
290
     0
  0
SCALE
  5
62
102
{ACAD_REACTORS
330
47
102
}
330
47
100
AcDbScale
 70
     0
300
1/2" = 1'-0"
140
0.5
141
12.0
290
     0
  0
SCALE
  5
63
102
{ACAD_REACTORS
330
47
102
}
330
47
100
AcDbScale
 70
     0
300
3/4" = 1'-0"
140
0.75
141
12.0
290
     0
  0
SCALE
  5
64
102
{ACAD_REACTORS
330
47
102
}
330
47
100
AcDbScale
 70
     0
300
1" = 1'-0"
140
1.0
141
12.0
290
     0
  0
SCALE
  5
65
102
{ACAD_REACTORS
330
47
102
}
330
47
100
AcDbScale
 70
     0
300
1-1/2" = 1'-0"
140
1.5
141
12.0
290
     0
  0
SCALE
  5
66
102
{ACAD_REACTORS
330
47
102
}
330
47
100
AcDbScale
 70
     0
300
3" = 1'-0"
140
3.0
141
12.0
290
     0
  0
SCALE
  5
67
102
{ACAD_REACTORS
330
47
102
}
330
47
100
AcDbScale
 70
     0
300
6" = 1'-0"
140
6.0
141
12.0
290
     0
  0
SCALE
  5
68
102
{ACAD_REACTORS
330
47
102
}
330
47
100
AcDbScale
 70
     0
300
1'-0" = 1'-0"
140
12.0
141
12.0
290
     0
  0
TABLESTYLE
  5
6A
102
{ACAD_REACTORS
330
69
102
}
102
{ACAD_XDICTIONARY
360
1FB
102
}
330
69
100
AcDbTableStyle
  3
Standard
 70
     0
 71
     0
 40
0.06
 41
0.06
280
     0
281
     0
  7
Standard
140
4.5
170
     2
 62
     0
 63
   257
283
     0
 90
        4
 91
        0
  1

274
    -2
284
     1
 64
     0
275
    -2
285
     1
 65
     0
276
    -2
286
     1
 66
     0
277
    -2
287
     1
 67
     0
278
    -2
288
     1
 68
     0
279
    -2
289
     1
 69
     0
  7
Standard
140
6.0
170
     5
 62
     0
 63
   257
283
     0
 90
        4
 91
        0
  1

274
    -2
284
     1
 64
     0
275
    -2
285
     1
 65
     0
276
    -2
286
     1
 66
     0
277
    -2
287
     1
 67
     0
278
    -2
288
     1
 68
     0
279
    -2
289
     1
 69
     0
  7
Standard
140
4.5
170
     5
 62
     0
 63
   257
283
     0
 90
        4
 91
        0
  1

274
    -2
284
     1
 64
     0
275
    -2
285
     1
 65
     0
276
    -2
286
     1
 66
     0
277
    -2
287
     1
 67
     0
278
    -2
288
     1
 68
     0
279
    -2
289
     1
 69
     0
  0
VISUALSTYLE
  5
2F
102
{ACAD_REACTORS
330
2A
102
}
330
2A
100
AcDbVisualStyle
  2
2dWireframe
 70
     4
177
     3
291
     0
 70
    58
 90
        0
176
     1
 90
        2
176
     1
 90
        0
176
     1
 90
        0
176
     1
 40
0.6
176
     1
 40
30.0
176
     1
 62
     7
420
 16777215
176
     1
 90
        1
176
     1
 90
        4
176
     1
 62
     7
176
     1
 62
   257
176
     1
 90
        1
176
     1
 90
        1
176
     1
 40
1.0
176
     1
 90
        0
176
     1
 62
   257
176
     1
 40
1.0
176
     1
 90
        1
176
     1
 90
        6
176
     1
 90
        2
176
     1
 62
     7
176
     1
 90
        5
176
     1
 90
        0
176
     1
 90
        0
176
     1
290
     0
176
     1
 90
        1
176
     1
 40
0.0
176
     1
 90
        0
176
     1
290
     1
176
     1
290
     1
176
     1
290
     0
176
     1
290
     0
176
     1
290
     0
176
     1
290
     0
176
     1
290
     0
176
     1
290
     0
176
     1
290
     0
176
     1
 90
       50
176
     1
 40
0.0
176
     1
 40
1.0
176
     1
 90
        0
176
     1
 62
   178
420
        0
176
     1
 90
       50
176
     1
 90
        3
176
     1
 62
     5
420
      255
176
     1
290
     0
176
     1
 90
       50
176
     1
 90
       50
176
     1
 90
       50
176
     1
290
     0
176
     1
 90
       50
176
     1
 62
   256
176
     0
 40
1.0
176
     0
 90
        2
176
     1
  1
strokes_ogs.tif
176
     1
290
     0
176
     1
 40
1.0
176
     1
 40
1.0
176
     1
  0
VISUALSTYLE
  5
32
102
{ACAD_REACTORS
330
2A
102
}
330
2A
100
AcDbVisualStyle
  2
Basic
 70
     7
177
     3
291
     1
 70
    58
 90
        1
176
     1
 90
        0
176
     1
 90
        1
176
     1
 90
        0
176
     1
 40
0.6
176
     1
 40
30.0
176
     1
 62
     7
420
 16777215
176
     1
 90
        0
176
     1
 90
        4
176
     1
 62
     7
176
     1
 62
   257
176
     1
 90
        1
176
     1
 90
        1
176
     1
 40
1.0
176
     1
 90
        8
176
     1
 62
     7
176
     1
 40
1.0
176
     1
 90
        1
176
     1
 90
        6
176
     1
 90
        2
176
     1
 62
     7
176
     1
 90
        5
176
     1
 90
        0
176
     1
 90
        0
176
     1
290
     0
176
     1
 90
        1
176
     1
 40
0.0
176
     1
 90
        0
176
     1
290
     0
176
     1
290
     1
176
     1
290
     1
176
     1
290
     0
176
     1
290
     0
176
     1
290
     0
176
     1
290
     0
176
     1
290
     0
176
     1
290
     0
176
     1
 90
       50
176
     1
 40
0.0
176
     1
 40
1.0
176
     1
 90
        0
176
     1
 62
   178
420
        0
176
     1
 90
       50
176
     1
 90
        3
176
     1
 62
     5
420
      255
176
     1
290
     0
176
     1
 90
       50
176
     1
 90
       50
176
     1
 90
       50
176
     1
290
     0
176
     1
 90
       50
176
     1
 62
   256
176
     0
 40
1.0
176
     0
 90
        2
176
     1
  1
strokes_ogs.tif
176
     1
290
     0
176
     1
 40
1.0
176
     1
 40
1.0
176
     1
  0
VISUALSTYLE
  5
36
102
{ACAD_REACTORS
330
2A
102
}
330
2A
100
AcDbVisualStyle
  2
Brighten
 70
    12
177
     3
291
     1
 70
    58
 90
        2
176
     1
 90
        2
176
     1
 90
        0
176
     1
 90
        0
176
     1
 40
0.6
176
     1
 40
30.0
176
     1
 62
     7
420
 16777215
176
     1
 90
        1
176
     1
 90
        4
176
     1
 62
     7
176
     1
 62
   257
176
     1
 90
        1
176
     1
 90
        1
176
     1
 40
1.0
176
     1
 90
        8
176
     1
 62
     7
176
     1
 40
1.0
176
     1
 90
        1
176
     1
 90
        6
176
     1
 90
        2
176
     1
 62
     7
176
     1
 90
        5
176
     1
 90
        0
176
     1
 90
        0
176
     1
290
     0
176
     1
 90
        1
176
     1
 40
50.0
176
     1
 90
        0
176
     1
290
     0
176
     1
290
     1
176
     1
290
     1
176
     1
290
     0
176
     1
290
     0
176
     1
290
     0
176
     1
290
     0
176
     1
290
     0
176
     1
290
     0
176
     1
 90
       50
176
     1
 40
0.0
176
     1
 40
1.0
176
     1
 90
        0
176
     1
 62
   178
420
        0
176
     1
 90
       50
176
     1
 90
        3
176
     1
 62
     5
420
      255
176
     1
290
     0
176
     1
 90
       50
176
     1
 90
       50
176
     1
 90
       50
176
     1
290
     0
176
     1
 90
       50
176
     1
 62
   256
176
     0
 40
1.0
176
     0
 90
        2
176
     1
  1
strokes_ogs.tif
176
     1
290
     0
176
     1
 40
1.0
176
     1
 40
1.0
176
     1
  0
VISUALSTYLE
  5
3A
102
{ACAD_REACTORS
330
2A
102
}
330
2A
100
AcDbVisualStyle
  2
ColorChange
 70
    16
177
     3
291
     1
 70
    58
 90
        2
176
     1
 90
        2
176
     1
 90
        3
176
     1
 90
        0
176
     1
 40
0.6
176
     1
 40
30.0
176
     1
 62
     8
420
  8421504
176
     1
 90
        1
176
     1
 90
        4
176
     1
 62
     7
176
     1
 62
   257
176
     1
 90
        1
176
     1
 90
        1
176
     1
 40
1.0
176
     1
 90
        8
176
     1
 62
     8
420
  8421504
176
     1
 40
1.0
176
     1
 90
        1
176
     1
 90
        6
176
     1
 90
        2
176
     1
 62
     7
176
     1
 90
        5
176
     1
 90
        0
176
     1
 90
        0
176
     1
290
     0
176
     1
 90
        1
176
     1
 40
0.0
176
     1
 90
        0
176
     1
290
     0
176
     1
290
     1
176
     1
290
     1
176
     1
290
     0
176
     1
290
     0
176
     1
290
     0
176
     1
290
     0
176
     1
290
     0
176
     1
290
     0
176
     1
 90
       50
176
     1
 40
0.0
176
     1
 40
1.0
176
     1
 90
        0
176
     1
 62
   178
420
        0
176
     1
 90
       50
176
     1
 90
        3
176
     1
 62
     5
420
      255
176
     1
290
     0
176
     1
 90
       50
176
     1
 90
       50
176
     1
 90
       50
176
     1
290
     0
176
     1
 90
       50
176
     1
 62
   256
176
     0
 40
1.0
176
     0
 90
        2
176
     1
  1
strokes_ogs.tif
176
     1
290
     0
176
     1
 40
1.0
176
     1
 40
1.0
176
     1
  0
VISUALSTYLE
  5
34
102
{ACAD_REACTORS
330
2A
102
}
330
2A
100
AcDbVisualStyle
  2
Conceptual
 70
     9
177
     3
291
     0
 70
    58
 90
        3
176
     1
 90
        2
176
     1
 90
        0
176
     1
 90
        0
176
     1
 40
0.6
176
     1
 40
30.0
176
     1
 62
     7
420
 16777215
176
     1
 90
        2
176
     1
 90
        2
176
     1
 62
     7
176
     1
 62
   257
176
     1
 90
        1
176
     1
 90
        1
176
     1
 40
179.0
176
     1
 90
        8
176
     1
 62
     7
176
     1
 40
1.0
176
     1
 90
        1
176
     1
 90
        6
176
     1
 90
        2
176
     1
 62
     7
176
     1
 90
        3
176
     1
 90
        0
176
     1
 90
        0
176
     1
290
     0
176
     1
 90
        1
176
     1
 40
0.0
176
     1
 90
        0
176
     1
290
     0
176
     1
290
     1
176
     1
290
     1
176
     1
290
     0
176
     1
290
     0
176
     1
290
     0
176
     1
290
     0
176
     1
290
     0
176
     1
290
     0
176
     1
 90
       50
176
     1
 40
0.0
176
     1
 40
1.0
176
     1
 90
        0
176
     1
 62
   178
420
        0
176
     1
 90
       50
176
     1
 90
        3
176
     1
 62
     5
420
      255
176
     1
290
     0
176
     1
 90
       50
176
     1
 90
       50
176
     1
 90
       50
176
     1
290
     0
176
     1
 90
       50
176
     1
 62
   256
176
     0
 40
1.0
176
     0
 90
        2
176
     1
  1
strokes_ogs.tif
176
     1
290
     0
176
     1
 40
1.0
176
     1
 40
1.0
176
     1
  0
VISUALSTYLE
  5
35
102
{ACAD_REACTORS
330
2A
102
}
330
2A
100
AcDbVisualStyle
  2
Dim
 70
    11
177
     3
291
     1
 70
    58
 90
        2
176
     1
 90
        2
176
     1
 90
        0
176
     1
 90
        0
176
     1
 40
0.6
176
     1
 40
30.0
176
     1
 62
     7
420
 16777215
176
     1
 90
        1
176
     1
 90
        4
176
     1
 62
     7
176
     1
 62
   257
176
     1
 90
        1
176
     1
 90
        1
176
     1
 40
1.0
176
     1
 90
        8
176
     1
 62
     7
176
     1
 40
1.0
176
     1
 90
        1
176
     1
 90
        6
176
     1
 90
        2
176
     1
 62
     7
176
     1
 90
        5
176
     1
 90
        0
176
     1
 90
        0
176
     1
290
     0
176
     1
 90
        1
176
     1
 40
-50.0
176
     1
 90
        0
176
     1
290
     0
176
     1
290
     1
176
     1
290
     1
176
     1
290
     0
176
     1
290
     0
176
     1
290
     0
176
     1
290
     0
176
     1
290
     0
176
     1
290
     0
176
     1
 90
       50
176
     1
 40
0.0
176
     1
 40
1.0
176
     1
 90
        0
176
     1
 62
   178
420
        0
176
     1
 90
       50
176
     1
 90
        3
176
     1
 62
     5
420
      255
176
     1
290
     0
176
     1
 90
       50
176
     1
 90
       50
176
     1
 90
       50
176
     1
290
     0
176
     1
 90
       50
176
     1
 62
   256
176
     0
 40
1.0
176
     0
 90
        2
176
     1
  1
strokes_ogs.tif
176
     1
290
     0
176
     1
 40
1.0
176
     1
 40
1.0
176
     1
  0
VISUALSTYLE
  5
3D
102
{ACAD_REACTORS
330
2A
102
}
330
2A
100
AcDbVisualStyle
  2
EdgeColorOff
 70
    22
177
     3
291
     1
 70
    58
 90
        2
176
     0
 90
        2
176
     0
 90
        0
176
     0
 90
        0
176
     0
 40
0.6
176
     0
 40
30.0
176
     0
 62
     7
420
 16777215
176
     0
 90
        1
176
     0
 90
        4
176
     0
 62
     7
176
     0
 62
   257
176
     0
 90
        1
176
     0
 90
        1
176
     0
 40
1.0
176
     0
 90
        8
176
     2
 62
     7
176
     0
 40
1.0
176
     0
 90
        1
176
     0
 90
        6
176
     0
 90
        2
176
     0
 62
     7
176
     0
 90
        5
176
     0
 90
        0
176
     0
 90
        0
176
     0
290
     0
176
     0
 90
        1
176
     0
 40
0.0
176
     0
 90
        0
176
     0
290
     0
176
     0
290
     1
176
     0
290
     1
176
     0
290
     0
176
     0
290
     0
176
     0
290
     0
176
     0
290
     0
176
     0
290
     0
176
     0
290
     0
176
     0
 90
       50
176
     0
 40
0.0
176
     0
 40
1.0
176
     0
 90
        0
176
     0
 62
   178
420
        0
176
     0
 90
       50
176
     0
 90
        3
176
     0
 62
     5
420
      255
176
     0
290
     0
176
     0
 90
       50
176
     0
 90
       50
176
     0
 90
       50
176
     0
290
     0
176
     0
 90
       50
176
     0
 62
   256
176
     0
 40
1.0
176
     0
 90
        2
176
     0
  1
strokes_ogs.tif
176
     0
290
     0
176
     0
 40
1.0
176
     0
 40
1.0
176
     0
  0
VISUALSTYLE
  5
39
102
{ACAD_REACTORS
330
2A
102
}
330
2A
100
AcDbVisualStyle
  2
Facepattern
 70
    15
177
     3
291
     1
 70
    58
 90
        2
176
     1
 90
        2
176
     1
 90
        0
176
     1
 90
        0
176
     1
 40
0.6
176
     1
 40
30.0
176
     1
 62
     7
420
 16777215
176
     1
 90
        1
176
     1
 90
        4
176
     1
 62
     7
176
     1
 62
   257
176
     1
 90
        1
176
     1
 90
        1
176
     1
 40
1.0
176
     1
 90
        8
176
     1
 62
     7
176
     1
 40
1.0
176
     1
 90
        1
176
     1
 90
        6
176
     1
 90
        2
176
     1
 62
     7
176
     1
 90
        5
176
     1
 90
        0
176
     1
 90
        0
176
     1
290
     0
176
     1
 90
        1
176
     1
 40
0.0
176
     1
 90
        0
176
     1
290
     0
176
     1
290
     1
176
     1
290
     1
176
     1
290
     0
176
     1
290
     0
176
     1
290
     0
176
     1
290
     0
176
     1
290
     0
176
     1
290
     0
176
     1
 90
       50
176
     1
 40
0.0
176
     1
 40
1.0
176
     1
 90
        0
176
     1
 62
   178
420
        0
176
     1
 90
       50
176
     1
 90
        3
176
     1
 62
     5
420
      255
176
     1
290
     0
176
     1
 90
       50
176
     1
 90
       50
176
     1
 90
       50
176
     1
290
     0
176
     1
 90
       50
176
     1
 62
   256
176
     0
 40
1.0
176
     0
 90
        2
176
     1
  1
strokes_ogs.tif
176
     1
290
     0
176
     1
 40
1.0
176
     1
 40
1.0
176
     1
  0
VISUALSTYLE
  5
2B
102
{ACAD_REACTORS
330
2A
102
}
330
2A
100
AcDbVisualStyle
  2
Flat
 70
     0
177
     3
291
     1
 70
    58
 90
        2
176
     1
 90
        1
176
     1
 90
        1
176
     1
 90
        2
176
     1
 40
0.6
176
     1
 40
30.0
176
     1
 62
     7
420
 16777215
176
     1
 90
        0
176
     1
 90
        0
176
     1
 62
     7
176
     1
 62
   257
176
     1
 90
        1
176
     1
 90
        1
176
     1
 40
1.0
176
     1
 90
        8
176
     1
 62
     7
176
     1
 40
1.0
176
     1
 90
        1
176
     1
 90
        6
176
     1
 90
        2
176
     1
 62
     7
176
     1
 90
        5
176
     1
 90
        0
176
     1
 90
        0
176
     1
290
     0
176
     1
 90
       13
176
     1
 40
0.0
176
     1
 90
        0
176
     1
290
     0
176
     1
290
     1
176
     1
290
     1
176
     1
290
     0
176
     1
290
     0
176
     1
290
     0
176
     1
290
     0
176
     1
290
     0
176
     1
290
     0
176
     1
 90
       50
176
     1
 40
0.0
176
     1
 40
1.0
176
     1
 90
        0
176
     1
 62
   178
420
        0
176
     1
 90
       50
176
     1
 90
        3
176
     1
 62
     5
420
      255
176
     1
290
     0
176
     1
 90
       50
176
     1
 90
       50
176
     1
 90
       50
176
     1
290
     0
176
     1
 90
       50
176
     1
 62
   256
176
     0
 40
1.0
176
     0
 90
        2
176
     1
  1
strokes_ogs.tif
176
     1
290
     0
176
     1
 40
1.0
176
     1
 40
1.0
176
     1
  0
VISUALSTYLE
  5
2C
102
{ACAD_REACTORS
330
2A
102
}
330
2A
100
AcDbVisualStyle
  2
FlatWithEdges
 70
     1
177
     3
291
     1
 70
    58
 90
        2
176
     1
 90
        1
176
     1
 90
        1
176
     1
 90
        2
176
     1
 40
0.6
176
     1
 40
30.0
176
     1
 62
     7
420
 16777215
176
     1
 90
        1
176
     1
 90
        0
176
     1
 62
     7
176
     1
 62
   257
176
     1
 90
        1
176
     1
 90
        1
176
     1
 40
1.0
176
     1
 90
        0
176
     1
 62
   257
176
     1
 40
1.0
176
     1
 90
        1
176
     1
 90
        6
176
     1
 90
        2
176
     1
 62
     7
176
     1
 90
        5
176
     1
 90
        0
176
     1
 90
        0
176
     1
290
     0
176
     1
 90
       13
176
     1
 40
0.0
176
     1
 90
        0
176
     1
290
     0
176
     1
290
     1
176
     1
290
     1
176
     1
290
     0
176
     1
290
     0
176
     1
290
     0
176
     1
290
     0
176
     1
290
     0
176
     1
290
     0
176
     1
 90
       50
176
     1
 40
0.0
176
     1
 40
1.0
176
     1
 90
        0
176
     1
 62
   178
420
        0
176
     1
 90
       50
176
     1
 90
        3
176
     1
 62
     5
420
      255
176
     1
290
     0
176
     1
 90
       50
176
     1
 90
       50
176
     1
 90
       50
176
     1
290
     0
176
     1
 90
       50
176
     1
 62
   256
176
     0
 40
1.0
176
     0
 90
        2
176
     1
  1
strokes_ogs.tif
176
     1
290
     0
176
     1
 40
1.0
176
     1
 40
1.0
176
     1
  0
VISUALSTYLE
  5
2D
102
{ACAD_REACTORS
330
2A
102
}
330
2A
100
AcDbVisualStyle
  2
Gouraud
 70
     2
177
     3
291
     1
 70
    58
 90
        2
176
     1
 90
        2
176
     1
 90
        1
176
     1
 90
        2
176
     1
 40
0.6
176
     1
 40
30.0
176
     1
 62
     7
420
 16777215
176
     1
 90
        0
176
     1
 90
        0
176
     1
 62
     7
176
     1
 62
   257
176
     1
 90
        1
176
     1
 90
        1
176
     1
 40
1.0
176
     1
 90
        0
176
     1
 62
     7
176
     1
 40
1.0
176
     1
 90
        1
176
     1
 90
        6
176
     1
 90
        2
176
     1
 62
     7
176
     1
 90
        5
176
     1
 90
        0
176
     1
 90
        0
176
     1
290
     0
176
     1
 90
       13
176
     1
 40
0.0
176
     1
 90
        0
176
     1
290
     0
176
     1
290
     1
176
     1
290
     1
176
     1
290
     0
176
     1
290
     0
176
     1
290
     0
176
     1
290
     0
176
     1
290
     0
176
     1
290
     0
176
     1
 90
       50
176
     1
 40
0.0
176
     1
 40
1.0
176
     1
 90
        0
176
     1
 62
   178
420
        0
176
     1
 90
       50
176
     1
 90
        3
176
     1
 62
     5
420
      255
176
     1
290
     0
176
     1
 90
       50
176
     1
 90
       50
176
     1
 90
       50
176
     1
290
     0
176
     1
 90
       50
176
     1
 62
   256
176
     0
 40
1.0
176
     0
 90
        2
176
     1
  1
strokes_ogs.tif
176
     1
290
     0
176
     1
 40
1.0
176
     1
 40
1.0
176
     1
  0
VISUALSTYLE
  5
2E
102
{ACAD_REACTORS
330
2A
102
}
330
2A
100
AcDbVisualStyle
  2
GouraudWithEdges
 70
     3
177
     3
291
     1
 70
    58
 90
        2
176
     1
 90
        2
176
     1
 90
        1
176
     1
 90
        2
176
     1
 40
0.6
176
     1
 40
30.0
176
     1
 62
     7
420
 16777215
176
     1
 90
        1
176
     1
 90
        0
176
     1
 62
     7
176
     1
 62
   257
176
     1
 90
        1
176
     1
 90
        1
176
     1
 40
1.0
176
     1
 90
        0
176
     1
 62
   257
176
     1
 40
1.0
176
     1
 90
        1
176
     1
 90
        6
176
     1
 90
        2
176
     1
 62
     7
176
     1
 90
        5
176
     1
 90
        0
176
     1
 90
        0
176
     1
290
     0
176
     1
 90
       13
176
     1
 40
0.0
176
     1
 90
        0
176
     1
290
     0
176
     1
290
     1
176
     1
290
     1
176
     1
290
     0
176
     1
290
     0
176
     1
290
     0
176
     1
290
     0
176
     1
290
     0
176
     1
290
     0
176
     1
 90
       50
176
     1
 40
0.0
176
     1
 40
1.0
176
     1
 90
        0
176
     1
 62
   178
420
        0
176
     1
 90
       50
176
     1
 90
        3
176
     1
 62
     5
420
      255
176
     1
290
     0
176
     1
 90
       50
176
     1
 90
       50
176
     1
 90
       50
176
     1
290
     0
176
     1
 90
       50
176
     1
 62
   256
176
     0
 40
1.0
176
     0
 90
        2
176
     1
  1
strokes_ogs.tif
176
     1
290
     0
176
     1
 40
1.0
176
     1
 40
1.0
176
     1
  0
VISUALSTYLE
  5
31
102
{ACAD_REACTORS
330
2A
102
}
330
2A
100
AcDbVisualStyle
  2
Hidden
 70
     6
177
     3
291
     0
 70
    58
 90
        1
176
     1
 90
        2
176
     1
 90
        2
176
     1
 90
        0
176
     1
 40
0.6
176
     1
 40
30.0
176
     1
 62
     7
420
 16777215
176
     1
 90
        2
176
     1
 90
        2
176
     1
 62
     7
176
     1
 62
   257
176
     1
 90
        2
176
     1
 90
        1
176
     1
 40
40.0
176
     1
 90
        0
176
     1
 62
   257
176
     1
 40
1.0
176
     1
 90
        1
176
     1
 90
        6
176
     1
 90
        2
176
     1
 62
     7
176
     1
 90
        3
176
     1
 90
        0
176
     1
 90
        0
176
     1
290
     0
176
     1
 90
        1
176
     1
 40
0.0
176
     1
 90
        0
176
     1
290
     0
176
     1
290
     1
176
     1
290
     1
176
     1
290
     0
176
     1
290
     0
176
     1
290
     0
176
     1
290
     0
176
     1
290
     0
176
     1
290
     0
176
     1
 90
       50
176
     1
 40
0.0
176
     1
 40
1.0
176
     1
 90
        0
176
     1
 62
   178
420
        0
176
     1
 90
       50
176
     1
 90
        3
176
     1
 62
     5
420
      255
176
     1
290
     0
176
     1
 90
       50
176
     1
 90
       50
176
     1
 90
       50
176
     1
290
     0
176
     1
 90
       50
176
     1
 62
   256
176
     0
 40
1.0
176
     0
 90
        2
176
     1
  1
strokes_ogs.tif
176
     1
290
     0
176
     1
 40
1.0
176
     1
 40
1.0
176
     1
  0
VISUALSTYLE
  5
3B
102
{ACAD_REACTORS
330
2A
102
}
330
2A
100
AcDbVisualStyle
  2
JitterOff
 70
    20
177
     3
291
     1
 70
    58
 90
        2
176
     0
 90
        2
176
     0
 90
        0
176
     0
 90
        0
176
     0
 40
0.6
176
     0
 40
30.0
176
     0
 62
     7
420
 16777215
176
     0
 90
        1
176
     0
 90
        4
176
     0
 62
     7
176
     0
 62
   257
176
     0
 90
        1
176
     0
 90
        1
176
     0
 40
1.0
176
     0
 90
       10
176
     2
 62
     7
176
     0
 40
1.0
176
     0
 90
        1
176
     0
 90
        6
176
     0
 90
        2
176
     0
 62
     7
176
     0
 90
        5
176
     0
 90
        0
176
     0
 90
        0
176
     0
290
     0
176
     0
 90
        1
176
     0
 40
0.0
176
     0
 90
        0
176
     0
290
     0
176
     0
290
     1
176
     0
290
     1
176
     0
290
     0
176
     0
290
     0
176
     0
290
     0
176
     0
290
     0
176
     0
290
     0
176
     0
290
     0
176
     0
 90
       50
176
     0
 40
0.0
176
     0
 40
1.0
176
     0
 90
        0
176
     0
 62
   178
420
        0
176
     0
 90
       50
176
     0
 90
        3
176
     0
 62
     5
420
      255
176
     0
290
     0
176
     0
 90
       50
176
     0
 90
       50
176
     0
 90
       50
176
     0
290
     0
176
     0
 90
       50
176
     0
 62
   256
176
     0
 40
1.0
176
     0
 90
        2
176
     0
  1
strokes_ogs.tif
176
     0
290
     0
176
     0
 40
1.0
176
     0
 40
1.0
176
     0
  0
VISUALSTYLE
  5
38
102
{ACAD_REACTORS
330
2A
102
}
330
2A
100
AcDbVisualStyle
  2
Linepattern
 70
    14
177
     3
291
     1
 70
    58
 90
        2
176
     1
 90
        2
176
     1
 90
        0
176
     1
 90
        0
176
     1
 40
0.6
176
     1
 40
30.0
176
     1
 62
     7
420
 16777215
176
     1
 90
        1
176
     1
 90
        4
176
     1
 62
     7
176
     1
 62
   257
176
     1
 90
        7
176
     1
 90
        7
176
     1
 40
1.0
176
     1
 90
        8
176
     1
 62
     7
176
     1
 40
1.0
176
     1
 90
        1
176
     1
 90
        6
176
     1
 90
        2
176
     1
 62
     7
176
     1
 90
        5
176
     1
 90
        0
176
     1
 90
        0
176
     1
290
     0
176
     1
 90
        1
176
     1
 40
0.0
176
     1
 90
        0
176
     1
290
     0
176
     1
290
     1
176
     1
290
     1
176
     1
290
     0
176
     1
290
     0
176
     1
290
     0
176
     1
290
     0
176
     1
290
     0
176
     1
290
     0
176
     1
 90
       50
176
     1
 40
0.0
176
     1
 40
1.0
176
     1
 90
        0
176
     1
 62
   178
420
        0
176
     1
 90
       50
176
     1
 90
        3
176
     1
 62
     5
420
      255
176
     1
290
     0
176
     1
 90
       50
176
     1
 90
       50
176
     1
 90
       50
176
     1
290
     0
176
     1
 90
       50
176
     1
 62
   256
176
     0
 40
1.0
176
     0
 90
        2
176
     1
  1
strokes_ogs.tif
176
     1
290
     0
176
     1
 40
1.0
176
     1
 40
1.0
176
     1
  0
VISUALSTYLE
  5
3C
102
{ACAD_REACTORS
330
2A
102
}
330
2A
100
AcDbVisualStyle
  2
OverhangOff
 70
    21
177
     3
291
     1
 70
    58
 90
        2
176
     0
 90
        2
176
     0
 90
        0
176
     0
 90
        0
176
     0
 40
0.6
176
     0
 40
30.0
176
     0
 62
     7
420
 16777215
176
     0
 90
        1
176
     0
 90
        4
176
     0
 62
     7
176
     0
 62
   257
176
     0
 90
        1
176
     0
 90
        1
176
     0
 40
1.0
176
     0
 90
        9
176
     2
 62
     7
176
     0
 40
1.0
176
     0
 90
        1
176
     0
 90
        6
176
     0
 90
        2
176
     0
 62
     7
176
     0
 90
        5
176
     0
 90
        0
176
     0
 90
        0
176
     0
290
     0
176
     0
 90
        1
176
     0
 40
0.0
176
     0
 90
        0
176
     0
290
     0
176
     0
290
     1
176
     0
290
     1
176
     0
290
     0
176
     0
290
     0
176
     0
290
     0
176
     0
290
     0
176
     0
290
     0
176
     0
290
     0
176
     0
 90
       50
176
     0
 40
0.0
176
     0
 40
1.0
176
     0
 90
        0
176
     0
 62
   178
420
        0
176
     0
 90
       50
176
     0
 90
        3
176
     0
 62
     5
420
      255
176
     0
290
     0
176
     0
 90
       50
176
     0
 90
       50
176
     0
 90
       50
176
     0
290
     0
176
     0
 90
       50
176
     0
 62
   256
176
     0
 40
1.0
176
     0
 90
        2
176
     0
  1
strokes_ogs.tif
176
     0
290
     0
176
     0
 40
1.0
176
     0
 40
1.0
176
     0
  0
VISUALSTYLE
  5
33
102
{ACAD_REACTORS
330
2A
102
}
330
2A
100
AcDbVisualStyle
  2
Realistic
 70
     8
177
     3
291
     0
 70
    58
 90
        2
176
     1
 90
        3
176
     1
 90
        0
176
     1
 90
        2
176
     1
 40
0.6
176
     1
 40
30.0
176
     1
 62
     7
420
 16777215
176
     1
 90
        0
176
     1
 90
        0
176
     1
 62
     7
176
     1
 62
   257
176
     1
 90
        1
176
     1
 90
        1
176
     1
 40
1.0
176
     1
 90
        8
176
     1
 62
   257
176
     1
 40
1.0
176
     1
 90
        1
176
     1
 90
        6
176
     1
 90
        2
176
     1
 62
     7
176
     1
 90
        3
176
     1
 90
        0
176
     1
 90
        0
176
     1
290
     0
176
     1
 90
       13
176
     1
 40
0.0
176
     1
 90
        0
176
     1
290
     0
176
     1
290
     1
176
     1
290
     1
176
     1
290
     0
176
     1
290
     0
176
     1
290
     0
176
     1
290
     0
176
     1
290
     0
176
     1
290
     0
176
     1
 90
       50
176
     1
 40
0.0
176
     1
 40
1.0
176
     1
 90
        0
176
     1
 62
   178
420
        0
176
     1
 90
       50
176
     1
 90
        3
176
     1
 62
     5
420
      255
176
     1
290
     0
176
     1
 90
       50
176
     1
 90
       50
176
     1
 90
       50
176
     1
290
     0
176
     1
 90
       50
176
     1
 62
   256
176
     0
 40
1.0
176
     0
 90
        2
176
     1
  1
strokes_ogs.tif
176
     1
290
     0
176
     1
 40
1.0
176
     1
 40
1.0
176
     1
  0
VISUALSTYLE
  5
42
102
{ACAD_REACTORS
330
2A
102
}
330
2A
100
AcDbVisualStyle
  2
Shaded
 70
    27
177
     3
291
     0
 70
    58
 90
        2
176
     1
 90
        2
176
     1
 90
        1
176
     1
 90
        2
176
     1
 40
0.6
176
     1
 40
30.0
176
     1
 62
     7
420
 16777215
176
     1
 90
        0
176
     1
 90
        4
176
     1
 62
     7
176
     1
 62
   257
176
     1
 90
        1
176
     1
 90
        1
176
     1
 40
1.0
176
     1
 90
        8
176
     1
 62
   257
176
     1
 40
1.0
176
     1
 90
        1
176
     1
 90
        6
176
     1
 90
        2
176
     1
 62
     8
420
  7895160
176
     1
 90
        3
176
     1
 90
        0
176
     1
 90
        0
176
     1
290
     0
176
     1
 90
        5
176
     1
 40
0.0
176
     1
 90
        0
176
     1
290
     0
176
     1
290
     1
176
     1
290
     1
176
     1
290
     0
176
     1
290
     0
176
     1
290
     0
176
     1
290
     0
176
     1
290
     0
176
     1
290
     0
176
     1
 90
       50
176
     1
 40
0.0
176
     1
 40
1.0
176
     1
 90
        0
176
     1
 62
   178
420
        0
176
     1
 90
       50
176
     1
 90
        3
176
     1
 62
     5
420
      255
176
     1
290
     0
176
     1
 90
       50
176
     1
 90
       50
176
     1
 90
       50
176
     1
290
     0
176
     1
 90
       50
176
     1
 62
   256
176
     0
 40
1.0
176
     0
 90
        2
176
     1
  1
strokes_ogs.tif
176
     1
290
     0
176
     1
 40
1.0
176
     1
 40
1.0
176
     1
  0
VISUALSTYLE
  5
41
102
{ACAD_REACTORS
330
2A
102
}
330
2A
100
AcDbVisualStyle
  2
Shaded with edges
 70
    26
177
     3
291
     0
 70
    58
 90
        2
176
     1
 90
        2
176
     1
 90
        1
176
     1
 90
        2
176
     1
 40
0.6
176
     1
 40
30.0
176
     1
 62
     7
420
 16777215
176
     1
 90
        1
176
     1
 90
       10
176
     1
 62
     7
176
     1
 62
   257
176
     1
 90
        2
176
     1
 90
        1
176
     1
 40
1.0
176
     1
 90
        8
176
     1
 62
   257
176
     1
 40
1.0
176
     1
 90
        1
176
     1
 90
        6
176
     1
 90
        2
176
     1
 62
     7
176
     1
 90
        3
176
     1
 90
        0
176
     1
 90
        0
176
     1
290
     0
176
     1
 90
        5
176
     1
 40
0.0
176
     1
 90
        0
176
     1
290
     0
176
     1
290
     1
176
     1
290
     1
176
     1
290
     0
176
     1
290
     0
176
     1
290
     0
176
     1
290
     0
176
     1
290
     0
176
     1
290
     0
176
     1
 90
       50
176
     1
 40
0.0
176
     1
 40
1.0
176
     1
 90
        0
176
     1
 62
   178
420
        0
176
     1
 90
       50
176
     1
 90
        3
176
     1
 62
     5
420
      255
176
     1
290
     0
176
     1
 90
       50
176
     1
 90
       50
176
     1
 90
       50
176
     1
290
     0
176
     1
 90
       50
176
     1
 62
   256
176
     0
 40
1.0
176
     0
 90
        2
176
     1
  1
strokes_ogs.tif
176
     1
290
     0
176
     1
 40
1.0
176
     1
 40
1.0
176
     1
  0
VISUALSTYLE
  5
3E
102
{ACAD_REACTORS
330
2A
102
}
330
2A
100
AcDbVisualStyle
  2
Shades of Gray
 70
    23
177
     3
291
     0
 70
    58
 90
        2
176
     1
 90
        2
176
     1
 90
        3
176
     1
 90
        0
176
     1
 40
0.6
176
     1
 40
30.0
176
     1
 62
     7
420
 16777215
176
     1
 90
        2
176
     1
 90
        2
176
     1
 62
     7
176
     1
 62
     7
176
     1
 90
        1
176
     1
 90
        1
176
     1
 40
40.0
176
     1
 90
        8
176
     1
 62
     7
176
     1
 40
1.0
176
     1
 90
        1
176
     1
 90
        6
176
     1
 90
        2
176
     1
 62
     7
176
     1
 90
        3
176
     1
 90
        0
176
     1
 90
        0
176
     1
290
     0
176
     1
 90
        1
176
     1
 40
0.0
176
     1
 90
        0
176
     1
290
     0
176
     1
290
     1
176
     1
290
     1
176
     1
290
     0
176
     1
290
     0
176
     1
290
     0
176
     1
290
     0
176
     1
290
     0
176
     1
290
     0
176
     1
 90
       50
176
     1
 40
0.0
176
     1
 40
1.0
176
     1
 90
        0
176
     1
 62
   178
420
        0
176
     1
 90
       50
176
     1
 90
        3
176
     1
 62
     5
420
      255
176
     1
290
     0
176
     1
 90
       50
176
     1
 90
       50
176
     1
 90
       50
176
     1
290
     0
176
     1
 90
       50
176
     1
 62
   256
176
     0
 40
1.0
176
     0
 90
        2
176
     1
  1
strokes_ogs.tif
176
     1
290
     0
176
     1
 40
1.0
176
     1
 40
1.0
176
     1
  0
VISUALSTYLE
  5
3F
102
{ACAD_REACTORS
330
2A
102
}
330
2A
100
AcDbVisualStyle
  2
Sketchy
 70
    24
177
     3
291
     0
 70
    58
 90
        1
176
     1
 90
        2
176
     1
 90
        2
176
     1
 90
        0
176
     1
 40
0.6
176
     1
 40
30.0
176
     1
 62
     7
420
 16777215
176
     1
 90
        2
176
     1
 90
        2
176
     1
 62
     7
176
     1
 62
     7
176
     1
 90
        1
176
     1
 90
        1
176
     1
 40
40.0
176
     1
 90
       11
176
     1
 62
     7
176
     1
 40
1.0
176
     1
 90
        1
176
     1
 90
        6
176
     1
 90
        2
176
     1
 62
     7
176
     1
 90
        6
176
     1
 90
        0
176
     1
 90
        0
176
     1
290
     0
176
     1
 90
        1
176
     1
 40
0.0
176
     1
 90
        0
176
     1
290
     0
176
     1
290
     1
176
     1
290
     1
176
     1
290
     0
176
     1
290
     0
176
     1
290
     0
176
     1
290
     0
176
     1
290
     0
176
     1
290
     0
176
     1
 90
       50
176
     1
 40
0.0
176
     1
 40
1.0
176
     1
 90
        0
176
     1
 62
   178
420
        0
176
     1
 90
       50
176
     1
 90
        3
176
     1
 62
     5
420
      255
176
     1
290
     0
176
     1
 90
       50
176
     1
 90
       50
176
     1
 90
       50
176
     1
290
     0
176
     1
 90
       50
176
     1
 62
   256
176
     0
 40
1.0
176
     0
 90
        2
176
     1
  1
strokes_ogs.tif
176
     1
290
     0
176
     1
 40
1.0
176
     1
 40
1.0
176
     1
  0
VISUALSTYLE
  5
37
102
{ACAD_REACTORS
330
2A
102
}
330
2A
100
AcDbVisualStyle
  2
Thicken
 70
    13
177
     3
291
     1
 70
    58
 90
        2
176
     1
 90
        2
176
     1
 90
        0
176
     1
 90
        0
176
     1
 40
0.6
176
     1
 40
30.0
176
     1
 62
     7
420
 16777215
176
     1
 90
        1
176
     1
 90
        4
176
     1
 62
     7
176
     1
 62
   257
176
     1
 90
        1
176
     1
 90
        1
176
     1
 40
1.0
176
     1
 90
       12
176
     1
 62
     7
176
     1
 40
1.0
176
     1
 90
        1
176
     1
 90
        6
176
     1
 90
        2
176
     1
 62
     7
176
     1
 90
        5
176
     1
 90
        0
176
     1
 90
        0
176
     1
290
     0
176
     1
 90
        1
176
     1
 40
0.0
176
     1
 90
        0
176
     1
290
     0
176
     1
290
     1
176
     1
290
     1
176
     1
290
     0
176
     1
290
     0
176
     1
290
     0
176
     1
290
     0
176
     1
290
     0
176
     1
290
     0
176
     1
 90
       50
176
     1
 40
0.0
176
     1
 40
1.0
176
     1
 90
        0
176
     1
 62
   178
420
        0
176
     1
 90
       50
176
     1
 90
        3
176
     1
 62
     5
420
      255
176
     1
290
     0
176
     1
 90
       50
176
     1
 90
       50
176
     1
 90
       50
176
     1
290
     0
176
     1
 90
       50
176
     1
 62
   256
176
     0
 40
1.0
176
     0
 90
        2
176
     1
  1
strokes_ogs.tif
176
     1
290
     0
176
     1
 40
1.0
176
     1
 40
1.0
176
     1
  0
VISUALSTYLE
  5
30
102
{ACAD_REACTORS
330
2A
102
}
330
2A
100
AcDbVisualStyle
  2
Wireframe
 70
     5
177
     3
291
     0
 70
    58
 90
        0
176
     1
 90
        2
176
     1
 90
        0
176
     1
 90
        0
176
     1
 40
0.6
176
     1
 40
30.0
176
     1
 62
     7
420
 16777215
176
     1
 90
        1
176
     1
 90
        4
176
     1
 62
     7
176
     1
 62
   257
176
     1
 90
        1
176
     1
 90
        1
176
     1
 40
1.0
176
     1
 90
        0
176
     1
 62
   257
176
     1
 40
1.0
176
     1
 90
        1
176
     1
 90
        6
176
     1
 90
        2
176
     1
 62
     7
176
     1
 90
        3
176
     1
 90
        0
176
     1
 90
        0
176
     1
290
     0
176
     1
 90
        1
176
     1
 40
0.0
176
     1
 90
        0
176
     1
290
     0
176
     1
290
     1
176
     1
290
     1
176
     1
290
     0
176
     1
290
     0
176
     1
290
     0
176
     1
290
     0
176
     1
290
     0
176
     1
290
     0
176
     1
 90
       50
176
     1
 40
0.0
176
     1
 40
1.0
176
     1
 90
        0
176
     1
 62
   178
420
        0
176
     1
 90
       50
176
     1
 90
        3
176
     1
 62
     5
420
      255
176
     1
290
     0
176
     1
 90
       50
176
     1
 90
       50
176
     1
 90
       50
176
     1
290
     0
176
     1
 90
       50
176
     1
 62
   256
176
     0
 40
1.0
176
     0
 90
        2
176
     1
  1
strokes_ogs.tif
176
     1
290
     0
176
     1
 40
1.0
176
     1
 40
1.0
176
     1
  0
VISUALSTYLE
  5
40
102
{ACAD_REACTORS
330
2A
102
}
330
2A
100
AcDbVisualStyle
  2
X-Ray
 70
    25
177
     3
291
     0
 70
    58
 90
        2
176
     1
 90
        2
176
     1
 90
        1
176
     1
 90
        1
176
     1
 40
0.5
176
     1
 40
30.0
176
     1
 62
     7
420
 16777215
176
     1
 90
        1
176
     1
 90
        0
176
     1
 62
     7
176
     1
 62
   257
176
     1
 90
        1
176
     1
 90
        1
176
     1
 40
1.0
176
     1
 90
        8
176
     1
 62
     7
176
     1
 40
1.0
176
     1
 90
        1
176
     1
 90
        6
176
     1
 90
        2
176
     1
 62
     7
176
     1
 90
        3
176
     1
 90
        0
176
     1
 90
        0
176
     1
290
     0
176
     1
 90
       13
176
     1
 40
0.0
176
     1
 90
        0
176
     1
290
     0
176
     1
290
     1
176
     1
290
     1
176
     1
290
     0
176
     1
290
     0
176
     1
290
     0
176
     1
290
     0
176
     1
290
     0
176
     1
290
     0
176
     1
 90
       50
176
     1
 40
0.0
176
     1
 40
1.0
176
     1
 90
        0
176
     1
 62
   178
420
        0
176
     1
 90
       50
176
     1
 90
        3
176
     1
 62
     5
420
      255
176
     1
290
     0
176
     1
 90
       50
176
     1
 90
       50
176
     1
 90
       50
176
     1
290
     0
176
     1
 90
       50
176
     1
 62
   256
176
     0
 40
1.0
176
     0
 90
        2
176
     1
  1
strokes_ogs.tif
176
     1
290
     0
176
     1
 40
1.0
176
     1
 40
1.0
176
     1
  0
DICTIONARYVAR
  5
1FA
102
{ACAD_REACTORS
330
1F9
102
}
330
1F9
100
DictionaryVariables
280
     0
  1
1:1
  0
DICTIONARYVAR
  5
1FF
102
{ACAD_REACTORS
330
1F9
102
}
330
1F9
100
DictionaryVariables
280
     0
  1
Standard
  0
DICTIONARYVAR
  5
1FE
102
{ACAD_REACTORS
330
1F9
102
}
330
1F9
100
DictionaryVariables
280
     0
  1
Standard
  0
DICTIONARY
  5
1FB
330
6A
100
AcDbDictionary
280
     1
281
     1
  3
ACAD_ROUNDTRIP_2008_TABLESTYLE_CELLSTYLEMAP
360
1FC
  0
CELLSTYLEMAP
  5
1FC
102
{ACAD_REACTORS
330
1FB
102
}
330
1FB
100
AcDbCellStyleMap
 90
        3
300
CELLSTYLE
  1
TABLEFORMAT_BEGIN
 90
        5
170
     1
 91
        0
 92
    32768
 62
   257
 93
        1
300
CONTENTFORMAT
  1
CONTENTFORMAT_BEGIN
 90
        0
 91
        0
 92
        4
 93
        0
300

 40
0.0
140
1.0
 94
        5
 62
     0
340
11
144
6.0
309
CONTENTFORMAT_END
171
     1
301
MARGIN
  1
CELLMARGIN_BEGIN
 40
1.5
 40
1.5
 40
1.5
 40
1.5
 40
1.5
 40
1.5
309
CELLMARGIN_END
 94
        6
 95
        1
302
GRIDFORMAT
  1
GRIDFORMAT_BEGIN
 90
        0
 91
        1
 62
     0
 92
       -2
340
14
 93
        0
 40
0.045
309
GRIDFORMAT_END
 95
        2
302
GRIDFORMAT
  1
GRIDFORMAT_BEGIN
 90
        0
 91
        1
 62
     0
 92
       -2
340
14
 93
        0
 40
0.045
309
GRIDFORMAT_END
 95
        4
302
GRIDFORMAT
  1
GRIDFORMAT_BEGIN
 90
        0
 91
        1
 62
     0
 92
       -2
340
14
 93
        0
 40
0.045
309
GRIDFORMAT_END
 95
        8
302
GRIDFORMAT
  1
GRIDFORMAT_BEGIN
 90
        0
 91
        1
 62
     0
 92
       -2
340
14
 93
        0
 40
0.045
309
GRIDFORMAT_END
 95
       16
302
GRIDFORMAT
  1
GRIDFORMAT_BEGIN
 90
        0
 91
        1
 62
     0
 92
       -2
340
14
 93
        0
 40
0.045
309
GRIDFORMAT_END
 95
       32
302
GRIDFORMAT
  1
GRIDFORMAT_BEGIN
 90
        0
 91
        1
 62
     0
 92
       -2
340
14
 93
        0
 40
0.045
309
GRIDFORMAT_END
309
TABLEFORMAT_END
  1
CELLSTYLE_BEGIN
 90
        1
 91
        1
300
_TITLE
309
CELLSTYLE_END
300
CELLSTYLE
  1
TABLEFORMAT_BEGIN
 90
        5
170
     1
 91
        0
 92
        0
 62
   257
 93
        1
300
CONTENTFORMAT
  1
CONTENTFORMAT_BEGIN
 90
        0
 91
        0
 92
        4
 93
        0
300

 40
0.0
140
1.0
 94
        5
 62
     0
340
11
144
4.5
309
CONTENTFORMAT_END
171
     1
301
MARGIN
  1
CELLMARGIN_BEGIN
 40
1.5
 40
1.5
 40
1.5
 40
1.5
 40
1.5
 40
1.5
309
CELLMARGIN_END
 94
        6
 95
        1
302
GRIDFORMAT
  1
GRIDFORMAT_BEGIN
 90
        0
 91
        1
 62
     0
 92
       -2
340
14
 93
        0
 40
0.045
309
GRIDFORMAT_END
 95
        2
302
GRIDFORMAT
  1
GRIDFORMAT_BEGIN
 90
        0
 91
        1
 62
     0
 92
       -2
340
14
 93
        0
 40
0.045
309
GRIDFORMAT_END
 95
        4
302
GRIDFORMAT
  1
GRIDFORMAT_BEGIN
 90
        0
 91
        1
 62
     0
 92
       -2
340
14
 93
        0
 40
0.045
309
GRIDFORMAT_END
 95
        8
302
GRIDFORMAT
  1
GRIDFORMAT_BEGIN
 90
        0
 91
        1
 62
     0
 92
       -2
340
14
 93
        0
 40
0.045
309
GRIDFORMAT_END
 95
       16
302
GRIDFORMAT
  1
GRIDFORMAT_BEGIN
 90
        0
 91
        1
 62
     0
 92
       -2
340
14
 93
        0
 40
0.045
309
GRIDFORMAT_END
 95
       32
302
GRIDFORMAT
  1
GRIDFORMAT_BEGIN
 90
        0
 91
        1
 62
     0
 92
       -2
340
14
 93
        0
 40
0.045
309
GRIDFORMAT_END
309
TABLEFORMAT_END
  1
CELLSTYLE_BEGIN
 90
        2
 91
        1
300
_HEADER
309
CELLSTYLE_END
300
CELLSTYLE
  1
TABLEFORMAT_BEGIN
 90
        5
170
     1
 91
        0
 92
        0
 62
   257
 93
        1
300
CONTENTFORMAT
  1
CONTENTFORMAT_BEGIN
 90
        0
 91
        0
 92
        4
 93
        0
300

 40
0.0
140
1.0
 94
        2
 62
     0
340
11
144
4.5
309
CONTENTFORMAT_END
171
     1
301
MARGIN
  1
CELLMARGIN_BEGIN
 40
1.5
 40
1.5
 40
1.5
 40
1.5
 40
1.5
 40
1.5
309
CELLMARGIN_END
 94
        6
 95
        1
302
GRIDFORMAT
  1
GRIDFORMAT_BEGIN
 90
        0
 91
        1
 62
     0
 92
       -2
340
14
 93
        0
 40
0.045
309
GRIDFORMAT_END
 95
        2
302
GRIDFORMAT
  1
GRIDFORMAT_BEGIN
 90
        0
 91
        1
 62
     0
 92
       -2
340
14
 93
        0
 40
0.045
309
GRIDFORMAT_END
 95
        4
302
GRIDFORMAT
  1
GRIDFORMAT_BEGIN
 90
        0
 91
        1
 62
     0
 92
       -2
340
14
 93
        0
 40
0.045
309
GRIDFORMAT_END
 95
        8
302
GRIDFORMAT
  1
GRIDFORMAT_BEGIN
 90
        0
 91
        1
 62
     0
 92
       -2
340
14
 93
        0
 40
0.045
309
GRIDFORMAT_END
 95
       16
302
GRIDFORMAT
  1
GRIDFORMAT_BEGIN
 90
        0
 91
        1
 62
     0
 92
       -2
340
14
 93
        0
 40
0.045
309
GRIDFORMAT_END
 95
       32
302
GRIDFORMAT
  1
GRIDFORMAT_BEGIN
 90
        0
 91
        1
 62
     0
 92
       -2
340
14
 93
        0
 40
0.045
309
GRIDFORMAT_END
309
TABLEFORMAT_END
  1
CELLSTYLE_BEGIN
 90
        3
 91
        2
300
_DATA
309
CELLSTYLE_END
  0
ENDSEC
  0
EOF
