  0
SECTION
  2
HEADER
  9
$ACADVER
  1
AC1027
  9
$ACADMAINTVER
 70
     8
  9
$DWGCODEPAGE
  3
ANSI_1252
  9
$REQUIREDVERSIONS
160
                 0
  9
$INSBASE
 10
0.0
 20
0.0
 30
0.0
  9
$EXTMIN
 10
0.0
 20
0.0
 30
0.0
  9
$EXTMAX
 10
210.0
 20
297.0
 30
0.0
  9
$LIMMIN
 10
0.0
 20
0.0
  9
$LIMMAX
 10
210.0
 20
297.0
  9
$ORTHOMODE
 70
     0
  9
$REGENMODE
 70
     1
  9
$FILLMODE
 70
     1
  9
$QTEXTMODE
 70
     0
  9
$MIRRTEXT
 70
     1
  9
$LTSCALE
 40
1.0
  9
$ATTMODE
 70
     1
  9
$TEXTSIZE
 40
2.5
  9
$TRACEWID
 40
1.0
  9
$TEXTSTYLE
  7
Standard
  9
$CLAYER
  8
Outline
  9
$CELTYPE
  6
ByLayer
  9
$CECOLOR
 62
   256
  9
$CELTSCALE
 40
1.0
  9
$DISPSILH
 70
     0
  9
$DIMSCALE
 40
1.0
  9
$DIMASZ
 40
2.5
  9
$DIMEXO
 40
0.625
  9
$DIMDLI
 40
3.75
  9
$DIMRND
 40
0.0
  9
$DIMDLE
 40
0.0
  9
$DIMEXE
 40
1.25
  9
$DIMTP
 40
0.0
  9
$DIMTM
 40
0.0
  9
$DIMTXT
 40
2.5
  9
$DIMCEN
 40
2.5
  9
$DIMTSZ
 40
0.0
  9
$DIMTOL
 70
     0
  9
$DIMLIM
 70
     0
  9
$DIMTIH
 70
     0
  9
$DIMTOH
 70
     0
  9
$DIMSE1
 70
     0
  9
$DIMSE2
 70
     0
  9
$DIMTAD
 70
     1
  9
$DIMZIN
 70
     8
  9
$DIMBLK
  1

  9
$DIMASO
 70
     1
  9
$DIMSHO
 70
     1
  9
$DIMPOST
  1

  9
$DIMAPOST
  1

  9
$DIMALT
 70
     0
  9
$DIMALTD
 70
     3
  9
$DIMALTF
 40
0.03937007874016
  9
$DIMLFAC
 40
1.0
  9
$DIMTOFL
 70
     1
  9
$DIMTVP
 40
0.0
  9
$DIMTIX
 70
     0
  9
$DIMSOXD
 70
     0
  9
$DIMSAH
 70
     0
  9
$DIMBLK1
  1

  9
$DIMBLK2
  1

  9
$DIMSTYLE
  2
ISO-25
  9
$DIMCLRD
 70
     0
  9
$DIMCLRE
 70
     0
  9
$DIMCLRT
 70
     0
  9
$DIMTFAC
 40
1.0
  9
$DIMGAP
 40
0.625
  9
$DIMJUST
 70
     0
  9
$DIMSD1
 70
     0
  9
$DIMSD2
 70
     0
  9
$DIMTOLJ
 70
     0
  9
$DIMTZIN
 70
     8
  9
$DIMALTZ
 70
     0
  9
$DIMALTTZ
 70
     0
  9
$DIMUPT
 70
     0
  9
$DIMDEC
 70
     2
  9
$DIMTDEC
 70
     2
  9
$DIMALTU
 70
     2
  9
$DIMALTTD
 70
     3
  9
$DIMTXSTY
  7
Standard
  9
$DIMAUNIT
 70
     0
  9
$DIMADEC
 70
     0
  9
$DIMALTRND
 40
0.0
  9
$DIMAZIN
 70
     0
  9
$DIMDSEP
 70
    44
  9
$DIMATFIT
 70
     3
  9
$DIMFRAC
 70
     0
  9
$DIMLDRBLK
  1

  9
$DIMLUNIT
 70
     2
  9
$DIMLWD
 70
    -2
  9
$DIMLWE
 70
    -2
  9
$DIMTMOVE
 70
     0
  9
$DIMFXL
 40
1.0
  9
$DIMFXLON
 70
     0
  9
$DIMJOGANG
 40
0.7853981633974483
  9
$DIMTFILL
 70
     0
  9
$DIMTFILLCLR
 70
     0
  9
$DIMARCSYM
 70
     0
  9
$DIMLTYPE
  6

  9
$DIMLTEX1
  6

  9
$DIMLTEX2
  6

  9
$DIMTXTDIRECTION
 70
     0
  9
$LUNITS
 70
     2
  9
$LUPREC
 70
     4
  9
$SKETCHINC
 40
1.0
  9
$FILLETRAD
 40
10.0
  9
$AUNITS
 70
     0
  9
$AUPREC
 70
     0
  9
$MENU
  1
.
  9
$ELEVATION
 40
0.0
  9
$PELEVATION
 40
0.0
  9
$THICKNESS
 40
0.0
  9
$LIMCHECK
 70
     0
  9
$CHAMFERA
 40
0.0
  9
$CHAMFERB
 40
0.0
  9
$CHAMFERC
 40
0.0
  9
$CHAMFERD
 40
0.0
  9
$SKPOLY
 70
     0
  9
$TDCREATE
 40
2457509.65693287
  9
$TDUCREATE
 40
2457509.948599537
  9
$TDUPDATE
 40
2457509.65693287
  9
$TDUUPDATE
 40
2457509.948599537
  9
$TDINDWG
 40
0.0000000116
  9
$TDUSRTIMER
 40
0.0000000116
  9
$USRTIMER
 70
     1
  9
$ANGBASE
 50
0.0
  9
$ANGDIR
 70
     0
  9
$PDMODE
 70
     0
  9
$PDSIZE
 40
0.0
  9
$PLINEWID
 40
0.0
  9
$SPLFRAME
 70
     0
  9
$SPLINETYPE
 70
     6
  9
$SPLINESEGS
 70
     8
  9
$HANDSEED
  5
2DB
  9
$SURFTAB1
 70
     6
  9
$SURFTAB2
 70
     6
  9
$SURFTYPE
 70
     6
  9
$SURFU
 70
     6
  9
$SURFV
 70
     6
  9
$UCSBASE
  2

  9
$UCSNAME
  2

  9
$UCSORG
 10
0.0
 20
0.0
 30
0.0
  9
$UCSXDIR
 10
1.0
 20
0.0
 30
0.0
  9
$UCSYDIR
 10
0.0
 20
1.0
 30
0.0
  9
$UCSORTHOREF
  2

  9
$UCSORTHOVIEW
 70
     0
  9
$UCSORGTOP
 10
0.0
 20
0.0
 30
0.0
  9
$UCSORGBOTTOM
 10
0.0
 20
0.0
 30
0.0
  9
$UCSORGLEFT
 10
0.0
 20
0.0
 30
0.0
  9
$UCSORGRIGHT
 10
0.0
 20
0.0
 30
0.0
  9
$UCSORGFRONT
 10
0.0
 20
0.0
 30
0.0
  9
$UCSORGBACK
 10
0.0
 20
0.0
 30
0.0
  9
$PUCSBASE
  2

  9
$PUCSNAME
  2

  9
$PUCSORG
 10
0.0
 20
0.0
 30
0.0
  9
$PUCSXDIR
 10
1.0
 20
0.0
 30
0.0
  9
$PUCSYDIR
 10
0.0
 20
1.0
 30
0.0
  9
$PUCSORTHOREF
  2

  9
$PUCSORTHOVIEW
 70
     0
  9
$PUCSORGTOP
 10
0.0
 20
0.0
 30
0.0
  9
$PUCSORGBOTTOM
 10
0.0
 20
0.0
 30
0.0
  9
$PUCSORGLEFT
 10
0.0
 20
0.0
 30
0.0
  9
$PUCSORGRIGHT
 10
0.0
 20
0.0
 30
0.0
  9
$PUCSORGFRONT
 10
0.0
 20
0.0
 30
0.0
  9
$PUCSORGBACK
 10
0.0
 20
0.0
 30
0.0
  9
$USERI1
 70
     0
  9
$USERI2
 70
     0
  9
$USERI3
 70
     0
  9
$USERI4
 70
     0
  9
$USERI5
 70
     0
  9
$USERR1
 40
0.0
  9
$USERR2
 40
0.0
  9
$USERR3
 40
0.0
  9
$USERR4
 40
0.0
  9
$USERR5
 40
0.0
  9
$WORLDVIEW
 70
     1
  9
$SHADEDGE
 70
     3
  9
$SHADEDIF
 70
    70
  9
$TILEMODE
 70
     1
  9
$MAXACTVP
 70
    64
  9
$PINSBASE
 10
0.0
 20
0.0
 30
0.0
  9
$PLIMCHECK
 70
     0
  9
$PEXTMIN
 10
1.000000000000000E+20
 20
1.000000000000000E+20
 30
1.000000000000000E+20
  9
$PEXTMAX
 10
-1.000000000000000E+20
 20
-1.000000000000000E+20
 30
-1.000000000000000E+20
  9
$PLIMMIN
 10
0.0
 20
0.0
  9
$PLIMMAX
 10
420.0
 20
297.0
  9
$UNITMODE
 70
     0
  9
$VISRETAIN
 70
     1
  9
$PLINEGEN
 70
     0
  9
$PSLTSCALE
 70
     1
  9
$TREEDEPTH
 70
  3020
  9
$CMLSTYLE
  2
Standard
  9
$CMLJUST
 70
     0
  9
$CMLSCALE
 40
20.0
  9
$PROXYGRAPHICS
 70
     1
  9
$MEASUREMENT
 70
     1
  9
$CELWEIGHT
370
    -1
  9
$ENDCAPS
280
     0
  9
$JOINSTYLE
280
     0
  9
$LWDISPLAY
290
     0
  9
$INSUNITS
 70
     4
  9
$HYPERLINKBASE
  1

  9
$STYLESHEET
  1

  9
$XEDIT
290
     1
  9
$CEPSNTYPE
380
     0
  9
$PSTYLEMODE
290
     1
  9
$FINGERPRINTGUID
  2
{6ceaf223-8f1e-4246-a91e-b9a3ded997ef}
  9
$VERSIONGUID
  2
{FAEB1C32-E019-11D5-929B-00C0DF256EC4}
  9
$EXTNAMES
290
     1
  9
$PSVPSCALE
 40
0.0
  9
$OLESTARTUP
290
     0
  9
$SORTENTS
280
   127
  9
$INDEXCTL
280
     0
  9
$HIDETEXT
280
     1
  9
$XCLIPFRAME
280
     2
  9
$HALOGAP
280
     0
  9
$OBSCOLOR
 70
   257
  9
$OBSLTYPE
280
     0
  9
$INTERSECTIONDISPLAY
280
     0
  9
$INTERSECTIONCOLOR
 70
   257
  9
$DIMASSOC
280
     2
  9
$PROJECTNAME
  1

  9
$CAMERADISPLAY
290
     0
  9
$LENSLENGTH
 40
50.0
  9
$CAMERAHEIGHT
 40
0.0
  9
$STEPSPERSEC
 40
2.0
  9
$STEPSIZE
 40
6.0
  9
$3DDWFPREC
 40
2.0
  9
$PSOLWIDTH
 40
5.0
  9
$PSOLHEIGHT
 40
80.0
  9
$LOFTANG1
 40
1.570796326794897
  9
$LOFTANG2
 40
1.570796326794897
  9
$LOFTMAG1
 40
0.0
  9
$LOFTMAG2
 40
0.0
  9
$LOFTPARAM
 70
     7
  9
$LOFTNORMALS
280
     1
  9
$LATITUDE
 40
37.795
  9
$LONGITUDE
 40
-122.394
  9
$NORTHDIRECTION
 40
0.0
  9
$TIMEZONE
 70
 -8000
  9
$LIGHTGLYPHDISPLAY
280
     1
  9
$TILEMODELIGHTSYNCH
280
     1
  9
$CMATERIAL
347
44
  9
$SOLIDHIST
280
     0
  9
$SHOWHIST
280
     1
  9
$DWFFRAME
280
     2
  9
$DGNFRAME
280
     2
  9
$REALWORLDSCALE
290
     1
  9
$INTERFERECOLOR
 62
   256
  9
$CSHADOW
280
     0
  9
$SHADOWPLANELOCATION
 40
0.0
  0
ENDSEC
  0
SECTION
  2
CLASSES
  0
CLASS
  1
ACDBDICTIONARYWDFLT
  2
AcDbDictionaryWithDefault
  3
ObjectDBX Classes
 90
        0
 91
        4
280
     0
281
     0
  0
CLASS
  1
VISUALSTYLE
  2
AcDbVisualStyle
  3
ObjectDBX Classes
 90
     4095
 91
        4
280
     0
281
     0
  0
CLASS
  1
MATERIAL
  2
AcDbMaterial
  3
ObjectDBX Classes
 90
     1153
 91
        4
280
     0
281
     0
  0
CLASS
  1
SCALE
  2
AcDbScale
  3
ObjectDBX Classes
 90
     1153
 91
        4
280
     0
281
     0
  0
CLASS
  1
TABLESTYLE
  2
AcDbTableStyle
  3
ObjectDBX Classes
 90
     4095
 91
        4
280
     0
281
     0
  0
CLASS
  1
MLEADERSTYLE
  2
AcDbMLeaderStyle
  3
ACDB_MLEADERSTYLE_CLASS
 90
     4095
 91
        4
280
     0
281
     0
  0
CLASS
  1
SUN
  2
AcDbSun
  3
SCENEOE
 90
     1153
 91
        4
280
     0
281
     0
  0
CLASS
  1
DICTIONARYVAR
  2
AcDbDictionaryVar
  3
ObjectDBX Classes
 90
        0
 91
        4
280
     0
281
     0
  0
CLASS
  1
CELLSTYLEMAP
  2
AcDbCellStyleMap
  3
ObjectDBX Classes
 90
     1152
 91
        4
280
     0
281
     0
  0
ENDSEC
  0
SECTION
  2
TABLES
  0
TABLE
  2
VPORT
  5
8
330
0
100
AcDbSymbolTable
 70
     1
  0
VPORT
  5
29
330
8
100
AcDbSymbolTableRecord
100
AcDbViewportTableRecord
  2
*Active
 70
     0
 10
0.0
 20
0.0
 11
1.0
 21
1.0
 12
138.8071276617114
 22
148.5380174655641
 13
0.0
 23
0.0
 14
10.0
 24
10.0
 15
10.0
 25
10.0
 16
0.0
 26
0.0
 36
1.0
 17
0.0
 27
0.0
 37
0.0
 40
366.2542178680333
 41
1.863590772316951
 42
50.0
 43
0.0
 44
0.0
 50
0.0
 51
0.0
 71
     0
 72
   100
 73
     1
 74
     3
 75
     0
 76
     0
 77
     0
 78
     0
281
     0
 65
     1
110
0.0
120
0.0
130
0.0
111
1.0
121
0.0
131
0.0
112
0.0
122
1.0
132
0.0
 79
     0
146
0.0
348
2F
 60
     3
 61
     5
292
     1
282
     1
141
0.0
142
0.0
 63
   250
361
6D
  0
ENDTAB
  0
TABLE
  2
LTYPE
  5
5
330
0
100
AcDbSymbolTable
 70
     7
  0
LTYPE
  5
14
330
5
100
AcDbSymbolTableRecord
100
AcDbLinetypeTableRecord
  2
ByBlock
 70
     0
  3

 72
    65
 73
     0
 40
0.0
  0
LTYPE
  5
15
330
5
100
AcDbSymbolTableRecord
100
AcDbLinetypeTableRecord
  2
ByLayer
 70
     0
  3

 72
    65
 73
     0
 40
0.0
  0
LTYPE
  5
16
330
5
100
AcDbSymbolTableRecord
100
AcDbLinetypeTableRecord
  2
Continuous
 70
     0
  3
Solid line
 72
    65
 73
     0
 40
0.0
  0
LTYPE
  5
6E
330
5
100
AcDbSymbolTableRecord
100
AcDbLinetypeTableRecord
  2
DOT
 70
     0
  3
Dot . . . . . . . . . . . . . . . . . . . . . . . .
 72
    65
 73
     2
 40
2.032
 49
1.016
 74
     0
 49
-1.016
 74
     0
  0
LTYPE
  5
6F
330
5
100
AcDbSymbolTableRecord
100
AcDbLinetypeTableRecord
  2
CENTER
 70
     0
  3
Center ____ _ ____ _ ____ _ ____ _ ____ _ ____
 72
    65
 73
     4
 40
13.208
 49
8.128
 74
     0
 49
-1.524
 74
     0
 49
2.032
 74
     0
 49
-1.524
 74
     0
  0
LTYPE
  5
70
330
5
100
AcDbSymbolTableRecord
100
AcDbLinetypeTableRecord
  2
HIDDEN2
 70
     0
  3
Hidden (.5x) _ _ _ _ _ _ _ _ _ _ _ _ _ _ _ _ _
 72
    65
 73
     2
 40
4.762499999999999
 49
3.175
 74
     0
 49
-1.5875
 74
     0
  0
LTYPE
  5
71
330
5
100
AcDbSymbolTableRecord
100
AcDbLinetypeTableRecord
  2
DASHED
 70
     0
  3
Dashed __ __ __ __ __ __ __ __ __ __ __ __ __ _
 72
    65
 73
     2
 40
9.652
 49
8.128
 74
     0
 49
-1.524
 74
     0
  0
LTYPE
  5
72
330
5
100
AcDbSymbolTableRecord
100
AcDbLinetypeTableRecord
  2
PHANTOM2
 70
     0
  3
Phantom (.5x) ___ _ _ ___ _ _ ___ _ _ ___ _ _
 72
    65
 73
     6
 40
14.732
 49
8.128
 74
     0
 49
-1.524
 74
     0
 49
1.016
 74
     0
 49
-1.524
 74
     0
 49
1.016
 74
     0
 49
-1.524
 74
     0
  0
LTYPE
  5
73
330
5
100
AcDbSymbolTableRecord
100
AcDbLinetypeTableRecord
  2
DASHDOT
 70
     0
  3
Dash dot __ . __ . __ . __ . __ . __ . __ . __
 72
    65
 73
     4
 40
11.176
 49
8.128
 74
     0
 49
-1.524
 74
     0
 49
0.0
 74
     0
 49
-1.524
 74
     0
  0
ENDTAB
  0
TABLE
  2
LAYER
  5
2
330
0
100
AcDbSymbolTable
 70
     8
  0
LAYER
  5
10
330
2
100
AcDbSymbolTableRecord
100
AcDbLayerTableRecord
  2
0
 70
     0
 62
     7
  6
Continuous
370
    -3
390
F
347
46
348
0
  0
LAYER
  5
74
330
2
100
AcDbSymbolTableRecord
100
AcDbLayerTableRecord
  2
Outline
 70
     0
 62
     7
  6
Continuous
370
    -3
390
F
347
46
348
0
  0
LAYER
  5
75
330
2
100
AcDbSymbolTableRecord
100
AcDbLayerTableRecord
  2
Axis
 70
     0
 62
     5
  6
DASHDOT
370
    -3
390
F
347
46
348
0
  0
LAYER
  5
76
330
2
100
AcDbSymbolTableRecord
100
AcDbLayerTableRecord
  2
Dimension
 70
     0
 62
     7
  6
Continuous
370
    -3
390
F
347
46
348
0
  0
LAYER
  5
77
330
2
100
AcDbSymbolTableRecord
100
AcDbLayerTableRecord
  2
Hatch
 70
     0
 62
     5
  6
Continuous
370
    -3
390
F
347
46
348
0
  0
LAYER
  5
78
330
2
100
AcDbSymbolTableRecord
100
AcDbLayerTableRecord
  2
Auxiliary
 70
     0
 62
     1
  6
DOT
370
    -3
390
F
347
46
348
0
  0
LAYER
  5
79
330
2
100
AcDbSymbolTableRecord
100
AcDbLayerTableRecord
  2
Invisible
 70
     0
 62
     6
  6
DOT
370
    -3
390
F
347
46
348
0
  0
LAYER
  5
201
330
2
100
AcDbSymbolTableRecord
100
AcDbLayerTableRecord
  2
Defpoints
 70
     0
 62
     7
  6
Continuous
290
     0
370
    -3
390
F
347
46
348
0
  0
ENDTAB
  0
TABLE
  2
STYLE
  5
3
330
0
100
AcDbSymbolTable
 70
    33
  0
STYLE
  5
11
330
3
100
AcDbSymbolTableRecord
100
AcDbTextStyleTableRecord
  2
Standard
 70
     0
 40
0.0
 41
1.0
 50
0.0
 71
     0
 42
2.5
  3
txt
  4

  0
STYLE
  5
7A
330
3
100
AcDbSymbolTableRecord
100
AcDbTextStyleTableRecord
  2
VCDSTYLE01
 70
     0
 40
0.0
 41
1.0
 50
0.0
 71
     0
 42
2.5
  3
txt
  4

  0
STYLE
  5
7B
330
3
100
AcDbSymbolTableRecord
100
AcDbTextStyleTableRecord
  2
VCDSTYLE02
 70
     0
 40
0.0
 41
1.0
 50
0.0
 71
     0
 42
2.5
  3
txt
  4

  0
STYLE
  5
7C
330
3
100
AcDbSymbolTableRecord
100
AcDbTextStyleTableRecord
  2
VCDSTYLE03
 70
     0
 40
0.0
 41
1.0
 50
0.0
 71
     0
 42
2.5
  3
txt
  4

  0
STYLE
  5
7D
330
3
100
AcDbSymbolTableRecord
100
AcDbTextStyleTableRecord
  2
VCDSTYLE04
 70
     0
 40
0.0
 41
1.0
 50
0.0
 71
     0
 42
2.5
  3
txt
  4

  0
STYLE
  5
7E
330
3
100
AcDbSymbolTableRecord
100
AcDbTextStyleTableRecord
  2
VCDSTYLE05
 70
     0
 40
0.0
 41
1.0
 50
0.0
 71
     0
 42
2.5
  3
txt
  4

  0
STYLE
  5
7F
330
3
100
AcDbSymbolTableRecord
100
AcDbTextStyleTableRecord
  2
VCDSTYLE06
 70
     0
 40
0.0
 41
1.0
 50
0.0
 71
     0
 42
2.5
  3
txt
  4

  0
STYLE
  5
80
330
3
100
AcDbSymbolTableRecord
100
AcDbTextStyleTableRecord
  2
VCDSTYLE07
 70
     0
 40
0.0
 41
1.0
 50
0.0
 71
     0
 42
2.5
  3
txt
  4

  0
STYLE
  5
81
330
3
100
AcDbSymbolTableRecord
100
AcDbTextStyleTableRecord
  2
VCDSTYLE08
 70
     0
 40
0.0
 41
1.0
 50
0.0
 71
     0
 42
2.5
  3
txt
  4

  0
STYLE
  5
82
330
3
100
AcDbSymbolTableRecord
100
AcDbTextStyleTableRecord
  2
VCDSTYLE09
 70
     0
 40
0.0
 41
1.0
 50
0.0
 71
     0
 42
2.5
  3
txt
  4

  0
STYLE
  5
83
330
3
100
AcDbSymbolTableRecord
100
AcDbTextStyleTableRecord
  2
VCDSTYLE10
 70
     0
 40
0.0
 41
1.0
 50
0.0
 71
     0
 42
2.5
  3
Sans Serif.ttf
  4

1001
ACAD
1000
Sans Serif
1071
        0
  0
STYLE
  5
84
330
3
100
AcDbSymbolTableRecord
100
AcDbTextStyleTableRecord
  2
VCDSTYLE11
 70
     0
 40
0.0
 41
1.0
 50
0.0
 71
     0
 42
2.5
  3
Sans Serif.ttf
  4

1001
ACAD
1000
Sans Serif
1071
 16777216
  0
STYLE
  5
85
330
3
100
AcDbSymbolTableRecord
100
AcDbTextStyleTableRecord
  2
VCDSTYLE12
 70
     0
 40
0.0
 41
1.0
 50
0.0
 71
     0
 42
2.5
  3
DejaVu Sans.ttf
  4

1001
ACAD
1000
DejaVu Sans
1071
        0
  0
STYLE
  5
86
330
3
100
AcDbSymbolTableRecord
100
AcDbTextStyleTableRecord
  2
VCDSTYLE13
 70
     0
 40
0.0
 41
1.0
 50
0.0
 71
     0
 42
2.5
  3
DejaVu Sans.ttf
  4

1001
ACAD
1000
DejaVu Sans
1071
 16777216
  0
STYLE
  5
87
330
3
100
AcDbSymbolTableRecord
100
AcDbTextStyleTableRecord
  2
VCDSTYLE14
 70
     0
 40
0.0
 41
1.0
 50
0.0
 71
     0
 42
2.5
  3
DejaVu Sans Mono.ttf
  4

1001
ACAD
1000
DejaVu Sans Mono
1071
        0
  0
STYLE
  5
88
330
3
100
AcDbSymbolTableRecord
100
AcDbTextStyleTableRecord
  2
VCDSTYLE15
 70
     0
 40
0.0
 41
1.0
 50
0.0
 71
     0
 42
2.5
  3
DejaVu Sans Mono.ttf
  4

1001
ACAD
1000
DejaVu Sans Mono
1071
 16777216
  0
STYLE
  5
89
330
3
100
AcDbSymbolTableRecord
100
AcDbTextStyleTableRecord
  2
VCDSTYLE16
 70
     0
 40
0.0
 41
1.0
 50
0.0
 71
     0
 42
2.5
  3
UnDotum.ttf
  4

1001
ACAD
1000
UnDotum
1071
        0
  0
STYLE
  5
8A
330
3
100
AcDbSymbolTableRecord
100
AcDbTextStyleTableRecord
  2
VCDSTYLE17
 70
     0
 40
0.0
 41
1.0
 50
0.0
 71
     0
 42
2.5
  3
UnDotum.ttf
  4

1001
ACAD
1000
UnDotum
1071
 16777216
  0
STYLE
  5
8B
330
3
100
AcDbSymbolTableRecord
100
AcDbTextStyleTableRecord
  2
VCDSTYLE18
 70
     0
 40
0.0
 41
1.0
 50
0.0
 71
     0
 42
2.5
  3
Sans Serif.ttf
  4

1001
ACAD
1000
Sans Serif
1071
        0
  0
STYLE
  5
8C
330
3
100
AcDbSymbolTableRecord
100
AcDbTextStyleTableRecord
  2
VCDSTYLE19
 70
     0
 40
0.0
 41
1.0
 50
0.0
 71
     0
 42
2.5
  3
Sans Serif.ttf
  4

1001
ACAD
1000
Sans Serif
1071
 16777216
  0
STYLE
  5
8D
330
3
100
AcDbSymbolTableRecord
100
AcDbTextStyleTableRecord
  2
VCDSTYLE20
 70
     0
 40
0.0
 41
1.0
 50
0.0
 71
     0
 42
2.5
  3
Sans Serif.ttf
  4

1001
ACAD
1000
Sans Serif
1071
        0
  0
STYLE
  5
8E
330
3
100
AcDbSymbolTableRecord
100
AcDbTextStyleTableRecord
  2
VCDSTYLE21
 70
     0
 40
0.0
 41
1.0
 50
0.0
 71
     0
 42
2.5
  3
Sans Serif.ttf
  4

1001
ACAD
1000
Sans Serif
1071
 16777216
  0
STYLE
  5
8F
330
3
100
AcDbSymbolTableRecord
100
AcDbTextStyleTableRecord
  2
VCDSTYLE22
 70
     0
 40
0.0
 41
1.0
 50
0.0
 71
     0
 42
2.5
  3
Monospace.ttf
  4

1001
ACAD
1000
Monospace
1071
        0
  0
STYLE
  5
90
330
3
100
AcDbSymbolTableRecord
100
AcDbTextStyleTableRecord
  2
VCDSTYLE23
 70
     0
 40
0.0
 41
1.0
 50
0.0
 71
     0
 42
2.5
  3
Monospace.ttf
  4

1001
ACAD
1000
Monospace
1071
 16777216
  0
STYLE
  5
91
330
3
100
AcDbSymbolTableRecord
100
AcDbTextStyleTableRecord
  2
VCDSTYLE24
 70
     0
 40
0.0
 41
1.0
 50
0.0
 71
     0
 42
2.5
  3
URW Gothic L.ttf
  4

1001
ACAD
1000
URW Gothic L
1071
        0
  0
STYLE
  5
92
330
3
100
AcDbSymbolTableRecord
100
AcDbTextStyleTableRecord
  2
VCDSTYLE25
 70
     0
 40
0.0
 41
1.0
 50
0.0
 71
     0
 42
2.5
  3
URW Gothic L.ttf
  4

1001
ACAD
1000
URW Gothic L
1071
 16777216
  0
STYLE
  5
93
330
3
100
AcDbSymbolTableRecord
100
AcDbTextStyleTableRecord
  2
VCDSTYLE26
 70
     0
 40
0.0
 41
1.0
 50
0.0
 71
     0
 42
2.5
  3
Waree.ttf
  4

1001
ACAD
1000
Waree
1071
        0
  0
STYLE
  5
94
330
3
100
AcDbSymbolTableRecord
100
AcDbTextStyleTableRecord
  2
VCDSTYLE27
 70
     0
 40
0.0
 41
1.0
 50
0.0
 71
     0
 42
2.5
  3
Waree.ttf
  4

1001
ACAD
1000
Waree
1071
 16777216
  0
STYLE
  5
95
330
3
100
AcDbSymbolTableRecord
100
AcDbTextStyleTableRecord
  2
VCDSTYLE28
 70
     0
 40
0.0
 41
1.0
 50
0.0
 71
     0
 42
2.5
  3
Nimbus Mono L.ttf
  4

1001
ACAD
1000
Nimbus Mono L
1071
        0
  0
STYLE
  5
96
330
3
100
AcDbSymbolTableRecord
100
AcDbTextStyleTableRecord
  2
VCDSTYLE29
 70
     0
 40
0.0
 41
1.0
 50
0.0
 71
     0
 42
2.5
  3
Nimbus Sans L.ttf
  4

1001
ACAD
1000
Nimbus Sans L
1071
        0
  0
STYLE
  5
97
330
3
100
AcDbSymbolTableRecord
100
AcDbTextStyleTableRecord
  2
VCDSTYLE30
 70
     0
 40
0.0
 41
1.0
 50
0.0
 71
     0
 42
2.5
  3
Nimbus Sans L.ttf
  4

1001
ACAD
1000
Nimbus Sans L
1071
 16777216
  0
STYLE
  5
98
330
3
100
AcDbSymbolTableRecord
100
AcDbTextStyleTableRecord
  2
VCDSTYLE31
 70
     0
 40
0.0
 41
1.0
 50
0.0
 71
     0
 42
2.5
  3
Serif.ttf
  4

1001
ACAD
1000
Serif
1071
        0
  0
STYLE
  5
99
330
3
100
AcDbSymbolTableRecord
100
AcDbTextStyleTableRecord
  2
VCDSTYLE32
 70
     0
 40
0.0
 41
1.0
 50
0.0
 71
     0
 42
2.5
  3
Serif.ttf
  4

1001
ACAD
1000
Serif
1071
 16777216
  0
ENDTAB
  0
TABLE
  2
VIEW
  5
6
330
0
100
AcDbSymbolTable
 70
     0
  0
ENDTAB
  0
TABLE
  2
UCS
  5
7
330
0
100
AcDbSymbolTable
 70
     0
  0
ENDTAB
  0
TABLE
  2
APPID
  5
9
330
0
100
AcDbSymbolTable
 70
     1
  0
APPID
  5
12
330
9
100
AcDbSymbolTableRecord
100
AcDbRegAppTableRecord
  2
ACAD
 70
     0
  0
ENDTAB
  0
TABLE
  2
DIMSTYLE
  5
A
330
0
100
AcDbSymbolTable
 70
     2
100
AcDbDimStyleTable
  0
DIMSTYLE
105
27
330
A
100
AcDbSymbolTableRecord
100
AcDbDimStyleTableRecord
  2
ISO-25
 70
     0
 41
2.5
 42
0.625
 43
3.75
 44
1.25
 73
     0
 74
     0
 77
     1
 78
     8
140
2.5
141
2.5
143
0.03937007874016
147
0.625
171
     3
172
     1
178
     0
271
     2
272
     2
274
     3
278
    44
283
     0
284
     8
340
11
  0
DIMSTYLE
105
1FF
102
{ACAD_REACTORS
330
200
330
20E
330
21D
102
}
330
A
100
AcDbSymbolTableRecord
100
AcDbDimStyleTableRecord
  2
VCDDIMSTYLE01
 70
     0
 41
5.0
 42
0.0
 43
8.0
 44
1.0
 73
     0
 74
     0
 77
     1
 78
     8
 79
     2
140
4.0
147
1.0
172
     1
173
     1
178
     0
179
     3
271
     5
275
     1
288
     1
289
     0
340
7B
  0
ENDTAB
  0
TABLE
  2
BLOCK_RECORD
  5
1
330
0
100
AcDbSymbolTable
 70
    12
  0
BLOCK_RECORD
  5
1F
330
1
100
AcDbSymbolTableRecord
100
AcDbBlockTableRecord
  2
*Model_Space
340
22
 70
     0
280
     1
281
     0
  0
BLOCK_RECORD
  5
1B
330
1
100
AcDbSymbolTableRecord
100
AcDbBlockTableRecord
  2
*Paper_Space
340
1E
 70
     0
280
     1
281
     0
  0
BLOCK_RECORD
  5
23
330
1
100
AcDbSymbolTableRecord
100
AcDbBlockTableRecord
  2
*Paper_Space0
340
26
 70
     0
280
     1
281
     0
  0
BLOCK_RECORD
  5
9A
330
1
100
AcDbSymbolTableRecord
100
AcDbBlockTableRecord
  2
$AttrValue elphel_parts
340
0
102
{BLKREFS
331
9C
102
}
 70
     0
280
     1
281
     0
  0
BLOCK_RECORD
  5
9F
330
1
100
AcDbSymbolTableRecord
100
AcDbBlockTableRecord
  2
$AttrValue elphel_parts(1)
340
0
102
{BLKREFS
331
A1
102
}
 70
     0
280
     1
281
     0
  0
BLOCK_RECORD
  5
A4
330
1
100
AcDbSymbolTableRecord
100
AcDbBlockTableRecord
  2
$AttrValue elphel_parts(2)
340
0
102
{BLKREFS
331
A6
102
}
 70
     0
280
     1
281
     0
  0
BLOCK_RECORD
  5
A9
330
1
100
AcDbSymbolTableRecord
100
AcDbBlockTableRecord
  2
$AttrValue elphel_parts(3)
340
0
102
{BLKREFS
331
AB
102
}
 70
     0
280
     1
281
     0
  0
BLOCK_RECORD
  5
AE
330
1
100
AcDbSymbolTableRecord
100
AcDbBlockTableRecord
  2
$AttrValue elphel_parts(4)
340
0
102
{BLKREFS
331
B0
102
}
 70
     0
280
     1
281
     0
  0
BLOCK_RECORD
  5
B3
330
1
100
AcDbSymbolTableRecord
100
AcDbBlockTableRecord
  2
$AttrValue elphel_parts(5)
340
0
102
{BLKREFS
331
B5
102
}
 70
     0
280
     1
281
     0
  0
BLOCK_RECORD
  5
1F8
330
1
100
AcDbSymbolTableRecord
100
AcDbBlockTableRecord
  2
*D7
340
0
 70
     0
280
     1
281
     0
  0
BLOCK_RECORD
  5
207
330
1
100
AcDbSymbolTableRecord
100
AcDbBlockTableRecord
  2
*D8
340
0
 70
     0
280
     1
281
     0
  0
BLOCK_RECORD
  5
214
330
1
100
AcDbSymbolTableRecord
100
AcDbBlockTableRecord
  2
*D9
340
0
 70
     0
280
     1
281
     0
  0
BLOCK_RECORD
  5
224
330
1
100
AcDbSymbolTableRecord
100
AcDbBlockTableRecord
  2
$TitleBlock elphel_parts
340
0
102
{BLKREFS
331
252
102
}
 70
     0
280
     1
281
     0
  0
BLOCK_RECORD
  5
255
330
1
100
AcDbSymbolTableRecord
100
AcDbBlockTableRecord
  2
Sheet Border
340
0
102
{BLKREFS
331
258
102
}
 70
     0
280
     1
281
     0
  0
ENDTAB
  0
ENDSEC
  0
SECTION
  2
BLOCKS
  0
BLOCK
  5
20
330
1F
100
AcDbEntity
  8
0
100
AcDbBlockBegin
  2
*Model_Space
 70
     0
 10
0.0
 20
0.0
 30
0.0
  3
*Model_Space
  1

  0
ENDBLK
  5
21
330
1F
100
AcDbEntity
  8
0
100
AcDbBlockEnd
  0
BLOCK
  5
1C
330
1B
100
AcDbEntity
 67
     1
  8
0
100
AcDbBlockBegin
  2
*Paper_Space
 70
     0
 10
0.0
 20
0.0
 30
0.0
  3
*Paper_Space
  1

  0
ENDBLK
  5
1D
330
1B
100
AcDbEntity
 67
     1
  8
0
100
AcDbBlockEnd
  0
BLOCK
  5
24
330
23
100
AcDbEntity
  8
0
100
AcDbBlockBegin
  2
*Paper_Space0
 70
     0
 10
0.0
 20
0.0
 30
0.0
  3
*Paper_Space0
  1

  0
ENDBLK
  5
25
330
23
100
AcDbEntity
  8
0
100
AcDbBlockEnd
  0
BLOCK
  5
9D
330
9A
100
AcDbEntity
  8
0
100
AcDbBlockBegin
  2
$AttrValue elphel_parts
 70
     0
 10
0.0
 20
0.0
 30
0.0
  3
$AttrValue elphel_parts
  1

  0
TEXT
  5
9B
330
9A
100
AcDbEntity
  8
0
 62
     2
100
AcDbText
 10
0.0
 20
0.0
 30
0.0
 40
2.0
  1
black anodize
  7
VCDSTYLE04
100
AcDbText
  0
ENDBLK
  5
9E
330
9A
100
AcDbEntity
  8
0
100
AcDbBlockEnd
  0
BLOCK
  5
A2
330
9F
100
AcDbEntity
  8
0
100
AcDbBlockBegin
  2
$AttrValue elphel_parts(1)
 70
     0
 10
0.0
 20
0.0
 30
0.0
  3
$AttrValue elphel_parts(1)
  1

  0
TEXT
  5
A0
330
9F
100
AcDbEntity
  8
0
 62
     2
100
AcDbText
 10
0.0
 20
0.0
 30
0.0
 40
2.0
  1
Aluminum 6061-T6
  7
VCDSTYLE04
100
AcDbText
  0
ENDBLK
  5
A3
330
9F
100
AcDbEntity
  8
0
100
AcDbBlockEnd
  0
BLOCK
  5
A7
330
A4
100
AcDbEntity
  8
0
100
AcDbBlockBegin
  2
$AttrValue elphel_parts(2)
 70
     0
 10
0.0
 20
0.0
 30
0.0
  3
$AttrValue elphel_parts(2)
  1

  0
TEXT
  5
A5
330
A4
100
AcDbEntity
  8
0
 62
     2
100
AcDbText
 10
0.0
 20
0.0
 30
0.0
 40
2.0
  1
13.3
  7
VCDSTYLE04
100
AcDbText
  0
ENDBLK
  5
A8
330
A4
100
AcDbEntity
  8
0
100
AcDbBlockEnd
  0
BLOCK
  5
AC
330
A9
100
AcDbEntity
  8
0
100
AcDbBlockBegin
  2
$AttrValue elphel_parts(3)
 70
     0
 10
0.0
 20
0.0
 30
0.0
  3
$AttrValue elphel_parts(3)
  1

  0
TEXT
  5
AA
330
A9
100
AcDbEntity
  8
0
100
AcDbText
 10
0.0
 20
0.0
 30
0.0
 40
1.5
  1
2015
  7
VCDSTYLE10
100
AcDbText
  0
ENDBLK
  5
AD
330
A9
100
AcDbEntity
  8
0
100
AcDbBlockEnd
  0
BLOCK
  5
B1
330
AE
100
AcDbEntity
  8
0
100
AcDbBlockBegin
  2
$AttrValue elphel_parts(4)
 70
     0
 10
0.0
 20
0.0
 30
0.0
  3
$AttrValue elphel_parts(4)
  1

  0
TEXT
  5
AF
330
AE
100
AcDbEntity
  8
0
 62
     2
100
AcDbText
 10
0.0
 20
0.0
 30
0.0
 40
3.0
  1
SFE M12 adapter
  7
VCDSTYLE04
100
AcDbText
  0
ENDBLK
  5
B2
330
AE
100
AcDbEntity
  8
0
100
AcDbBlockEnd
  0
BLOCK
  5
B6
330
B3
100
AcDbEntity
  8
0
100
AcDbBlockBegin
  2
$AttrValue elphel_parts(5)
 70
     0
 10
0.0
 20
0.0
 30
0.0
  3
$AttrValue elphel_parts(5)
  1

  0
TEXT
  5
B4
330
B3
100
AcDbEntity
  8
0
 62
     2
100
AcDbText
 10
0.0
 20
0.0
 30
0.0
 40
6.0
  1
393-12-44
  7
VCDSTYLE22
100
AcDbText
  0
ENDBLK
  5
B7
330
B3
100
AcDbEntity
  8
0
100
AcDbBlockEnd
  0
BLOCK
  5
205
330
1F8
100
AcDbEntity
  8
0
100
AcDbBlockBegin
  2
*D7
 70
     1
 10
0.0
 20
0.0
 30
0.0
  3
*D7
  1

  0
LINE
  5
1F9
330
1F8
100
AcDbEntity
  8
Dimension
 62
     0
370
    -2
100
AcDbLine
 10
164.4360633829942
 20
232.3537009631022
 30
0.0
 11
177.5163143949268
 21
232.3537009631022
 31
0.0
  0
LINE
  5
1FA
330
1F8
100
AcDbEntity
  8
Dimension
 62
     0
370
    -2
100
AcDbLine
 10
164.4360633829941
 20
191.8537009631042
 30
0.0
 11
177.5163143949268
 21
191.8537009631042
 31
0.0
  0
LINE
  5
1FB
330
1F8
100
AcDbEntity
  8
Dimension
 62
     0
370
    -2
100
AcDbLine
 10
176.5163143949268
 20
227.3537009631022
 30
0.0
 11
176.5163143949268
 21
196.8537009631042
 31
0.0
  0
SOLID
  5
1FC
330
1F8
100
AcDbEntity
  8
Dimension
 62
     0
100
AcDbTrace
 10
177.3496477282602
 20
227.3537009631022
 30
0.0
 11
175.6829810615935
 21
227.3537009631022
 31
0.0
 12
176.5163143949268
 22
232.3537009631022
 32
0.0
 13
176.5163143949268
 23
232.3537009631022
 33
0.0
  0
SOLID
  5
1FD
330
1F8
100
AcDbEntity
  8
Dimension
 62
     0
100
AcDbTrace
 10
175.6829810615935
 20
196.8537009631042
 30
0.0
 11
177.3496477282602
 21
196.8537009631042
 31
0.0
 12
176.5163143949268
 22
191.8537009631042
 32
0.0
 13
176.5163143949268
 23
191.8537009631042
 33
0.0
  0
MTEXT
  5
1FE
330
1F8
100
AcDbEntity
  8
Dimension
 62
     0
100
AcDbMText
 10
173.5163143949268
 20
212.8817300891813
 30
0.0
 40
4.0
 41
0.0
 46
0.0
 71
     5
 72
     1
  1
\A1;40.5
  7
VCDSTYLE02
 11
0.0
 21
1.0
 31
0.0
 73
     1
 44
1.0
  0
POINT
  5
202
330
1F8
100
AcDbEntity
  8
Defpoints
 62
     0
100
AcDbPoint
 10
164.4360633829942
 20
232.3537009631022
 30
0.0
  0
POINT
  5
203
330
1F8
100
AcDbEntity
  8
Defpoints
 62
     0
100
AcDbPoint
 10
164.4360633829941
 20
191.8537009631042
 30
0.0
  0
POINT
  5
204
330
1F8
100
AcDbEntity
  8
Defpoints
 62
     0
100
AcDbPoint
 10
176.5163143949268
 20
191.8537009631042
 30
0.0
  0
ENDBLK
  5
206
330
1F8
100
AcDbEntity
  8
0
100
AcDbBlockEnd
  0
BLOCK
  5
212
330
207
100
AcDbEntity
  8
0
100
AcDbBlockBegin
  2
*D8
 70
     1
 10
0.0
 20
0.0
 30
0.0
  3
*D8
  1

  0
LINE
  5
208
330
207
100
AcDbEntity
  8
Dimension
 62
     0
370
    -2
100
AcDbLine
 10
126.1860703679119
 20
230.1037009631022
 30
0.0
 11
126.1860703679119
 21
243.3246042039694
 31
0.0
  0
LINE
  5
209
330
207
100
AcDbEntity
  8
Dimension
 62
     0
370
    -2
100
AcDbLine
 10
166.6860629721168
 20
230.1037009631023
 30
0.0
 11
166.6860629721168
 21
243.3246042039694
 31
0.0
  0
LINE
  5
20A
330
207
100
AcDbEntity
  8
Dimension
 62
     0
370
    -2
100
AcDbLine
 10
131.1860703679119
 20
242.3246042039694
 30
0.0
 11
161.6860629721168
 21
242.3246042039694
 31
0.0
  0
SOLID
  5
20B
330
207
100
AcDbEntity
  8
Dimension
 62
     0
100
AcDbTrace
 10
131.1860703679119
 20
243.1579375373027
 30
0.0
 11
131.1860703679119
 21
241.491270870636
 31
0.0
 12
126.1860703679119
 22
242.3246042039694
 32
0.0
 13
126.1860703679119
 23
242.3246042039694
 33
0.0
  0
SOLID
  5
20C
330
207
100
AcDbEntity
  8
Dimension
 62
     0
100
AcDbTrace
 10
161.6860629721168
 20
241.491270870636
 30
0.0
 11
161.6860629721168
 21
243.1579375373027
 31
0.0
 12
166.6860629721168
 22
242.3246042039694
 32
0.0
 13
166.6860629721168
 23
242.3246042039694
 33
0.0
  0
MTEXT
  5
20D
330
207
100
AcDbEntity
  8
Dimension
 62
     0
100
AcDbMText
 10
146.6000526096068
 20
245.3246042039694
 30
0.0
 40
4.0
 41
0.0
 46
0.0
 71
     5
 72
     1
  1
\A1;40.5
  7
VCDSTYLE02
 73
     1
 44
1.0
  0
POINT
  5
20F
330
207
100
AcDbEntity
  8
Defpoints
 62
     0
100
AcDbPoint
 10
126.1860703679119
 20
230.1037009631022
 30
0.0
  0
POINT
  5
210
330
207
100
AcDbEntity
  8
Defpoints
 62
     0
100
AcDbPoint
 10
166.6860629721168
 20
230.1037009631023
 30
0.0
  0
POINT
  5
211
330
207
100
AcDbEntity
  8
Defpoints
 62
     0
100
AcDbPoint
 10
166.6860629721168
 20
242.3246042039694
 30
0.0
  0
ENDBLK
  5
213
330
207
100
AcDbEntity
  8
0
100
AcDbBlockEnd
  0
BLOCK
  5
222
330
214
100
AcDbEntity
  8
0
100
AcDbBlockBegin
  2
*D9
 70
     1
 10
0.0
 20
0.0
 30
0.0
  3
*D9
  1

  0
LINE
  5
215
330
214
100
AcDbEntity
  8
Dimension
 62
     0
370
    -2
100
AcDbLine
 10
90.43644182861038
 20
159.8537009631039
 30
0.0
 11
100.9626036374821
 21
159.8537009631039
 31
0.0
  0
LINE
  5
216
330
214
100
AcDbEntity
  8
Dimension
 62
     0
370
    -2
100
AcDbLine
 10
92.8860703679225
 20
153.3537009631039
 30
0.0
 11
100.9626036374821
 21
153.3537009631039
 31
0.0
  0
LINE
  5
217
330
214
100
AcDbEntity
  8
Dimension
 62
     0
370
    -2
100
AcDbLine
 10
99.96260363748215
 20
159.8537009631039
 30
0.0
 11
99.96260363748215
 21
180.0441771535801
 31
0.0
  0
LINE
  5
218
330
214
100
AcDbEntity
  8
Dimension
 62
     0
370
    -2
100
AcDbLine
 10
99.96260363748215
 20
159.8537009631039
 30
0.0
 11
99.96260363748215
 21
153.3537009631039
 31
0.0
  0
LINE
  5
219
330
214
100
AcDbEntity
  8
Dimension
 62
     0
370
    -2
100
AcDbLine
 10
99.96260363748215
 20
164.8537009631039
 30
0.0
 11
99.96260363748215
 21
169.8537009631039
 31
0.0
  0
LINE
  5
21A
330
214
100
AcDbEntity
  8
Dimension
 62
     0
370
    -2
100
AcDbLine
 10
99.96260363748215
 20
148.3537009631039
 30
0.0
 11
99.96260363748215
 21
143.3537009631039
 31
0.0
  0
SOLID
  5
21B
330
214
100
AcDbEntity
  8
Dimension
 62
     0
100
AcDbTrace
 10
99.12927030414882
 20
164.8537009631039
 30
0.0
 11
100.7959369708155
 21
164.8537009631039
 31
0.0
 12
99.96260363748215
 22
159.8537009631039
 32
0.0
 13
99.96260363748215
 23
159.8537009631039
 33
0.0
  0
SOLID
  5
21C
330
214
100
AcDbEntity
  8
Dimension
 62
     0
100
AcDbTrace
 10
100.7959369708155
 20
148.3537009631039
 30
0.0
 11
99.12927030414882
 21
148.3537009631039
 31
0.0
 12
99.96260363748215
 22
153.3537009631039
 32
0.0
 13
99.96260363748215
 23
153.3537009631039
 33
0.0
  0
MTEXT
  5
21E
330
214
100
AcDbEntity
  8
Dimension
 62
     0
100
AcDbMText
 10
96.96260363748215
 20
174.948939058342
 30
0.0
 40
4.0
 41
0.0
 46
0.0
 71
     5
 72
     1
  1
\A1;6.5
  7
VCDSTYLE02
 11
0.0
 21
1.0
 31
0.0
 73
     1
 44
1.0
  0
POINT
  5
21F
330
214
100
AcDbEntity
  8
Defpoints
 62
     0
100
AcDbPoint
 10
90.43644182861038
 20
159.8537009631039
 30
0.0
  0
POINT
  5
220
330
214
100
AcDbEntity
  8
Defpoints
 62
     0
100
AcDbPoint
 10
92.8860703679225
 20
153.3537009631039
 30
0.0
  0
POINT
  5
221
330
214
100
AcDbEntity
  8
Defpoints
 62
     0
100
AcDbPoint
 10
99.96260363748215
 20
153.3537009631039
 30
0.0
  0
ENDBLK
  5
223
330
214
100
AcDbEntity
  8
0
100
AcDbBlockEnd
  0
BLOCK
  5
253
330
224
100
AcDbEntity
  8
0
100
AcDbBlockBegin
  2
$TitleBlock elphel_parts
 70
     0
 10
0.0
 20
0.0
 30
0.0
  3
$TitleBlock elphel_parts
  1

  0
TEXT
  5
225
330
224
100
AcDbEntity
  8
Outline
 62
     2
100
AcDbText
 10
-168.3495635986328
 20
16.18584442138672
 30
0.0
 40
1.841060042381287
  1
Surface
  7
VCDSTYLE02
100
AcDbText
  0
LWPOLYLINE
  5
226
330
224
100
AcDbEntity
  8
Outline
 62
     2
100
AcDbPolyline
 90
        5
 70
     0
 43
0.0
 10
-0.4602650136366151
 20
0.4602650136366293
 10
-82.38743744095697
 20
0.4602650136366293
 10
-82.38743744095697
 20
15.18874545000888
 10
-0.4602650136366151
 20
15.18874545000888
 10
-0.4602650136366151
 20
0.0
  0
LINE
  5
227
330
224
100
AcDbEntity
  8
Outline
 62
     2
100
AcDbLine
 10
0.0000000000000568
 20
15.64901046364552
 30
0.0
 11
0.0000000000000568
 21
0.0
 31
0.0
  0
LINE
  5
228
330
224
100
AcDbEntity
  8
Outline
 62
     2
100
AcDbLine
 10
-97.57618289096607
 20
15.64901046364552
 30
0.0
 11
-97.57618289096607
 21
19.56126307955689
 31
0.0
  0
LINE
  5
229
330
224
100
AcDbEntity
  8
Outline
 62
     2
100
AcDbLine
 10
-170.298055045554
 20
15.64901046364552
 30
0.0
 11
-82.84770245459381
 21
15.64901046364552
 31
0.0
  0
LINE
  5
22A
330
224
100
AcDbEntity
  8
Outline
 62
     2
100
AcDbLine
 10
-170.298055045554
 20
0.0
 30
0.0
 11
-82.84770245459381
 21
0.0
 31
0.0
  0
LINE
  5
22B
330
224
100
AcDbEntity
  8
Outline
 62
     2
100
AcDbLine
 10
-82.84770245459381
 20
0.0
 30
0.0
 11
-82.84770245459381
 21
15.64901046364552
 31
0.0
  0
LINE
  5
22C
330
224
100
AcDbEntity
  8
Outline
 62
     2
100
AcDbLine
 10
-170.298055045554
 20
19.56126307955689
 30
0.0
 11
0.0000000000000568
 21
19.56126307955689
 31
0.0
  0
LINE
  5
22D
330
224
100
AcDbEntity
  8
Outline
 62
     2
100
AcDbLine
 10
0.0000000000000568
 20
0.0
 30
0.0
 11
-82.84770245459381
 21
0.0
 31
0.0
  0
LINE
  5
22E
330
224
100
AcDbEntity
  8
Outline
 62
     2
100
AcDbLine
 10
-82.84770245459381
 20
15.64901046364552
 30
0.0
 11
0.0000000000000568
 21
15.64901046364552
 31
0.0
  0
TEXT
  5
22F
330
224
100
AcDbEntity
  8
Outline
 62
     2
100
AcDbText
 10
-81.25203704833984
 20
44.91454315185547
 30
0.0
 40
0.9205300211906433
  1
Description
  7
VCDSTYLE02
100
AcDbText
  0
LINE
  5
230
330
224
100
AcDbEntity
  8
Outline
 62
     2
100
AcDbLine
 10
-170.298055045554
 20
27.38576831137964
 30
0.0
 11
0.0000000000000568
 21
27.38576831137964
 31
0.0
  0
LINE
  5
231
330
224
100
AcDbEntity
  8
Outline
 62
     2
100
AcDbLine
 10
0.0000000000000568
 20
46.94703139093654
 30
0.0
 11
-170.298055045554
 21
46.94703139093654
 31
0.0
  0
LINE
  5
232
330
224
100
AcDbEntity
  8
Outline
 62
     2
100
AcDbLine
 10
-170.298055045554
 20
27.38576831137964
 30
0.0
 11
-82.84770245459381
 21
27.38576831137964
 31
0.0
  0
LINE
  5
233
330
224
100
AcDbEntity
  8
Outline
 62
     2
100
AcDbLine
 10
-170.298055045554
 20
31.29802092729101
 30
0.0
 11
-170.298055045554
 21
46.94703139093654
 31
0.0
  0
LINE
  5
234
330
224
100
AcDbEntity
  8
Outline
 62
     2
100
AcDbLine
 10
-82.84770245459381
 20
46.94703139093654
 30
0.0
 11
-82.84770245459381
 21
31.29802092729101
 31
0.0
  0
LINE
  5
235
330
224
100
AcDbEntity
  8
Outline
 62
     2
100
AcDbLine
 10
0.0000000000000568
 20
31.29802092729101
 30
0.0
 11
0.0000000000000568
 21
46.94703139093654
 31
0.0
  0
LINE
  5
236
330
224
100
AcDbEntity
  8
Outline
 62
     2
100
AcDbLine
 10
-157.0483207857146
 20
46.94703139093654
 30
0.0
 11
-157.0483207857146
 21
31.29802092729101
 31
0.0
  0
TEXT
  5
237
330
224
100
AcDbEntity
  8
Outline
 62
     2
100
AcDbText
 10
-168.3495635986328
 20
28.04717826843262
 30
0.0
 40
1.841060042381287
  1
Material
  7
VCDSTYLE02
100
AcDbText
  0
LINE
  5
238
330
224
100
AcDbEntity
  8
Outline
 62
     2
100
AcDbLine
 10
-170.298055045554
 20
0.0
 30
0.0
 11
-170.298055045554
 21
31.29802092729101
 31
0.0
  0
LINE
  5
239
330
224
100
AcDbEntity
  8
Outline
 62
     2
100
AcDbLine
 10
-150.9056121242796
 20
15.64901046364552
 30
0.0
 11
-150.9056121242796
 21
31.29802092729101
 31
0.0
  0
LINE
  5
23A
330
224
100
AcDbEntity
  8
Outline
 62
     2
100
AcDbLine
 10
-82.84770245459381
 20
31.29802092729101
 30
0.0
 11
-82.84770245459381
 21
15.64901046364552
 31
0.0
  0
LINE
  5
23B
330
224
100
AcDbEntity
  8
Outline
100
AcDbLine
 10
-170.298055045554
 20
23.47351569546827
 30
0.0
 11
-82.84770245459381
 21
23.47351569546827
 31
0.0
  0
LINE
  5
23C
330
224
100
AcDbEntity
  8
Outline
 62
     2
100
AcDbLine
 10
-170.298055045554
 20
23.47351569546827
 30
0.0
 11
0.0000000000000568
 21
23.47351569546827
 31
0.0
  0
TEXT
  5
23D
330
224
100
AcDbEntity
  8
Outline
 62
     2
100
AcDbText
 10
-168.3495635986328
 20
24.13492584228516
 30
0.0
 40
1.841060042381287
  1
Finish
  7
VCDSTYLE02
100
AcDbText
  0
LINE
  5
23E
330
224
100
AcDbEntity
  8
Outline
 62
     2
100
AcDbLine
 10
0.0000000000000568
 20
15.64901046364552
 30
0.0
 11
0.0000000000000568
 21
31.29802092729101
 31
0.0
  0
TEXT
  5
23F
330
224
100
AcDbEntity
  8
Outline
 62
     2
100
AcDbText
 10
-81.25203704833984
 20
12.55433559417725
 30
0.0
 40
0.9205300211906433
  1
Notes
  7
VCDSTYLE02
100
AcDbText
  0
LINE
  5
240
330
224
100
AcDbEntity
  8
Outline
 62
     2
100
AcDbLine
 10
-170.298055045554
 20
31.29802092729101
 30
0.0
 11
-82.84770245459381
 21
31.29802092729101
 31
0.0
  0
TEXT
  5
241
330
224
100
AcDbEntity
  8
Outline
 62
     2
100
AcDbText
 10
-168.3495635986328
 20
20.20714569091797
 30
0.0
 40
1.841060042381287
  1
Weight(g)
  7
VCDSTYLE02
100
AcDbText
  0
TEXT
  5
242
330
224
100
AcDbEntity
  8
Outline
100
AcDbText
 10
-167.9451904296875
 20
7.327913284301758
 30
0.0
 40
1.200000047683716
  1
Permission is also granted to copy, distribute and/or modify this document under the terms of the
 50
360.0
  7
VCDSTYLE10
100
AcDbText
  0
TEXT
  5
243
330
224
100
AcDbEntity
  8
Outline
100
AcDbText
 10
-167.9451904296875
 20
5.407913684844971
 30
0.0
 40
1.200000047683716
  1
GNU Free Documentation License, Version 1.3 or any later version published by the Free Software
 50
360.0
  7
VCDSTYLE10
100
AcDbText
  0
TEXT
  5
244
330
224
100
AcDbEntity
  8
Outline
100
AcDbText
 10
-167.9451904296875
 20
3.487913608551025
 30
0.0
 40
1.200000047683716
  1
Foundation; with no Invariant Sections, no Front-Cover Texts, and no Back-Cover Texts.  A copy of
 50
360.0
  7
VCDSTYLE10
100
AcDbText
  0
TEXT
  5
245
330
224
100
AcDbEntity
  8
Outline
100
AcDbText
 10
-167.9451904296875
 20
1.56791353225708
 30
0.0
 40
1.200000047683716
  1
the license is included in the section entitled "GNU Free Documentation License".
 50
360.0
  7
VCDSTYLE10
100
AcDbText
  0
TEXT
  5
246
330
224
100
AcDbEntity
  8
Outline
 62
     2
100
AcDbText
 10
-156.5416564941406
 20
45.10939788818359
 30
0.0
 40
0.9205300211906433
  1
Part #
  7
VCDSTYLE02
100
AcDbText
  0
TEXT
  5
247
330
224
100
AcDbEntity
  8
Outline
 62
     2
100
AcDbText
 10
-169.0979461669922
 20
45.19255065917969
 30
0.0
 40
0.9205300211906433
  1
Revision
  7
VCDSTYLE02
100
AcDbText
  0
TEXT
  5
248
330
224
100
AcDbEntity
  8
Outline
100
AcDbText
 10
-168.0283508300781
 20
12.77079391479492
 30
0.0
 40
1.5
  1
Copyright (c)                 Elphel, Inc.
 50
360.0
  7
VCDSTYLE10
100
AcDbText
  0
TEXT
  5
249
330
224
100
AcDbEntity
  8
Outline
100
AcDbText
 10
-168.0283508300781
 20
10.37079429626465
 30
0.0
 40
1.5
  1
Licensed under CERN OHL v.1.1 or later - see http://ohwr.org/cernohl
 50
360.0
  7
VCDSTYLE10
100
AcDbText
  0
TEXT
  5
24A
330
224
100
AcDbEntity
  8
Outline
100
AcDbText
 10
-168.0283508300781
 20
7.970794200897217
 30
0.0
 40
1.5
  1
 
 50
360.0
  7
VCDSTYLE10
100
AcDbText
  0
LINE
  5
24B
330
224
100
AcDbEntity
  8
Outline
 62
     2
100
AcDbLine
 10
-59.83011277766059
 20
27.38576831137964
 30
0.0
 11
-59.83011277766059
 21
15.64901046364552
 31
0.0
  0
TEXT
  5
24C
330
224
100
AcDbEntity
  8
Outline
 62
     2
100
AcDbText
 10
-82.25203704833984
 20
24.13492584228516
 30
0.0
 40
1.841060042381287
  1
Serial No.
  7
VCDSTYLE02
100
AcDbText
  0
TEXT
  5
24D
330
224
100
AcDbEntity
  8
Outline
 62
     2
100
AcDbText
 10
-82.25203704833984
 20
16.18584442138672
 30
0.0
 40
1.841060042381287
  1
Date
  7
VCDSTYLE02
100
AcDbText
  0
TEXT
  5
24E
330
224
100
AcDbEntity
  8
Outline
 62
     2
100
AcDbText
 10
-82.25203704833984
 20
20.20714569091797
 30
0.0
 40
1.841060042381287
  1
Assembly No.
  7
VCDSTYLE02
100
AcDbText
  0
LINE
  5
24F
330
224
100
AcDbEntity
  8
Outline
 62
     2
100
AcDbLine
 10
-14.79493342379411
 20
19.56126307955689
 30
0.0
 11
-14.79493342379411
 21
15.64901046364552
 31
0.0
  0
LINE
  5
250
330
224
100
AcDbEntity
  8
Outline
 62
     2
100
AcDbLine
 10
-26.81252310072733
 20
19.56126307955689
 30
0.0
 11
-26.81252310072733
 21
15.64901046364552
 31
0.0
  0
TEXT
  5
251
330
224
100
AcDbEntity
  8
Outline
 62
     2
100
AcDbText
 10
-25.21685791015625
 20
16.18584442138672
 30
0.0
 40
1.841060042381287
  1
Scale
  7
VCDSTYLE02
100
AcDbText
  0
ENDBLK
  5
254
330
224
100
AcDbEntity
  8
0
100
AcDbBlockEnd
  0
BLOCK
  5
259
330
255
100
AcDbEntity
  8
0
100
AcDbBlockBegin
  2
Sheet Border
 70
     0
 10
0.0
 20
0.0
 30
0.0
  3
Sheet Border
  1

  0
LWPOLYLINE
  5
256
330
255
100
AcDbEntity
  8
Outline
 62
     2
100
AcDbPolyline
 90
        5
 70
     0
 43
0.0
 10
5.0
 20
5.0
 10
205.0
 20
5.0
 10
205.0
 20
292.0
 10
5.0
 20
292.0
 10
5.0
 20
5.0
  0
LWPOLYLINE
  5
257
330
255
100
AcDbEntity
  8
Outline
 62
     2
100
AcDbPolyline
 90
        5
 70
     0
 43
0.0
 10
0.0
 20
0.0
 10
210.0
 20
0.0
 10
210.0
 20
297.0
 10
0.0
 20
297.0
 10
0.0
 20
0.0
  0
ENDBLK
  5
25A
330
255
100
AcDbEntity
  8
0
100
AcDbBlockEnd
  0
ENDSEC
  0
SECTION
  2
ENTITIES
  0
INSERT
  5
9C
330
1F
100
AcDbEntity
  8
Outline
100
AcDbBlockReference
  2
$AttrValue elphel_parts
 10
50.43000000000006
 20
34.4112
 30
0.0
  0
INSERT
  5
A1
330
1F
100
AcDbEntity
  8
Outline
100
AcDbBlockReference
  2
$AttrValue elphel_parts(1)
 10
50.43000000000006
 20
38.1451
 30
0.0
  0
INSERT
  5
A6
330
1F
100
AcDbEntity
  8
Outline
100
AcDbBlockReference
  2
$AttrValue elphel_parts(2)
 10
50.43000000000006
 20
30.3694
 30
0.0
  0
INSERT
  5
AB
330
1F
100
AcDbEntity
  8
Outline
100
AcDbBlockReference
  2
$AttrValue elphel_parts(3)
 10
47.37900000000005
 20
22.801
 30
0.0
  0
INSERT
  5
B0
330
1F
100
AcDbEntity
  8
Outline
100
AcDbBlockReference
  2
$AttrValue elphel_parts(4)
 10
119.3813000000001
 20
49.8706
 30
0.0
  0
INSERT
  5
B5
330
1F
100
AcDbEntity
  8
Outline
100
AcDbBlockReference
  2
$AttrValue elphel_parts(5)
 10
44.76700000000005
 20
44.7335
 30
0.0
  0
LINE
  5
B8
330
1F
100
AcDbEntity
  8
0
 62
     2
100
AcDbLine
 10
93.08607036791784
 20
217.9537007373067
 30
0.0
 11
92.88607036791791
 21
218.15370073731
 31
0.0
  0
LINE
  5
B9
330
1F
100
AcDbEntity
  8
0
 62
     2
100
AcDbLine
 10
79.48607093451938
 20
231.0537009630929
 30
0.0
 11
79.28607093451677
 21
231.2537009630928
 31
0.0
  0
LINE
  5
BA
330
1F
100
AcDbEntity
  8
0
 62
     2
100
AcDbLine
 10
79.78607138609976
 20
192.9537009631088
 30
0.0
 11
79.98607138610123
 21
193.1537009631093
 31
0.0
  0
LINE
  5
BB
330
1F
100
AcDbEntity
  8
0
 62
     2
100
AcDbLine
 10
92.88607036791183
 20
206.0537009901963
 30
0.0
 11
93.08607036791227
 21
206.253700990194
 31
0.0
  0
LINE
  5
BC
330
1F
100
AcDbEntity
  8
0
 62
     2
100
AcDbLine
 10
74.98607138610612
 20
193.1537009631056
 30
0.0
 11
75.18607138611196
 21
192.953700963106
 31
0.0
  0
LINE
  5
BD
330
1F
100
AcDbEntity
  8
0
 62
     2
100
AcDbLine
 10
72.6860711332231
 20
192.9537009631007
 30
0.0
 11
72.88607113322416
 21
193.1537009631011
 31
0.0
  0
LINE
  5
BE
330
1F
100
AcDbEntity
  8
0
 62
     2
100
AcDbLine
 10
54.7860777637058
 20
206.2537009902189
 30
0.0
 11
54.98607776370574
 21
206.0537009902202
 31
0.0
  0
LINE
  5
BF
330
1F
100
AcDbEntity
  8
0
 62
     2
100
AcDbLine
 10
67.88607113319262
 20
193.1537009631
 30
0.0
 11
68.08607113318885
 21
192.9537009631
 31
0.0
  0
LINE
  5
C0
330
1F
100
AcDbEntity
  8
0
 62
     2
100
AcDbLine
 10
54.98607776369244
 20
218.1537007373709
 30
0.0
 11
54.78607776369233
 21
217.9537007373731
 31
0.0
  0
LINE
  5
C1
330
1F
100
AcDbEntity
  8
0
 62
     2
100
AcDbLine
 10
68.58607118741236
 20
231.2537009631127
 30
0.0
 11
68.38607118741345
 21
231.0537009631128
 31
0.0
  0
LINE
  5
C2
330
1F
100
AcDbEntity
  8
0
 62
     2
100
AcDbLine
 10
54.98607776370699
 20
213.1537007373392
 30
0.0
 11
54.78607776370671
 21
213.3537007373362
 31
0.0
  0
ARC
  5
C3
330
1F
100
AcDbEntity
  8
0
 62
     2
100
AcDbCircle
 10
55.28607776370626
 20
213.6537007373437
 30
0.0
 40
0.5
100
AcDbArc
 50
129.1085822812431
 51
179.9999999597273
  0
ARC
  5
C4
330
1F
100
AcDbEntity
  8
0
 62
     2
100
AcDbCircle
 10
55.28607776370626
 20
213.6537007373437
 30
0.0
 40
0.5
100
AcDbArc
 50
90.0000000008525
 51
90.26042427689109
  0
ARC
  5
C5
330
1F
100
AcDbEntity
  8
0
 62
     2
100
AcDbCircle
 10
55.28607776369211
 20
217.6537007373675
 30
0.0
 40
0.5
100
AcDbArc
 50
269.7395757232754
 51
269.9999999993588
  0
ARC
  5
C6
330
1F
100
AcDbEntity
  8
0
 62
     2
100
AcDbCircle
 10
55.28607776369211
 20
217.6537007373675
 30
0.0
 40
0.5
100
AcDbArc
 50
180.0
 51
269.7395756829524
  0
LINE
  5
C7
330
1F
100
AcDbEntity
  8
0
 62
     2
100
AcDbLine
 10
54.78607776370626
 20
213.6537007373429
 30
0.0
 11
54.78607776370671
 21
213.3537007373362
 31
0.0
  0
LINE
  5
C8
330
1F
100
AcDbEntity
  8
0
 62
     2
100
AcDbLine
 10
54.78607776369228
 20
217.9537007373731
 30
0.0
 11
54.78607776369211
 21
217.6537007373678
 31
0.0
  0
LINE
  5
C9
330
1F
100
AcDbEntity
  8
0
 62
     2
100
AcDbLine
 10
54.78607776371047
 20
210.8537009901659
 30
0.0
 11
54.98607776371017
 21
211.0537009901768
 31
0.0
  0
ARC
  5
CA
330
1F
100
AcDbEntity
  8
0
 62
     2
100
AcDbCircle
 10
55.28607776370592
 20
206.5537009902222
 30
0.0
 40
0.5
100
AcDbArc
 50
129.108582280942
 51
179.9999999596167
  0
ARC
  5
CB
330
1F
100
AcDbEntity
  8
0
 62
     2
100
AcDbCircle
 10
55.28607776370592
 20
206.5537009902222
 30
0.0
 40
0.5
100
AcDbArc
 50
90.00000000037454
 51
90.260424276416
  0
ARC
  5
CC
330
1F
100
AcDbEntity
  8
0
 62
     2
100
AcDbCircle
 10
55.28607776371092
 20
210.5537009901934
 30
0.0
 40
0.5
100
AcDbArc
 50
269.7395757271194
 51
270.0000000031519
  0
ARC
  5
CD
330
1F
100
AcDbEntity
  8
0
 62
     2
100
AcDbCircle
 10
55.28607776371092
 20
210.5537009901934
 30
0.0
 40
0.5
100
AcDbArc
 50
180.0
 51
269.7395756866753
  0
LINE
  5
CE
330
1F
100
AcDbEntity
  8
0
 62
     2
100
AcDbLine
 10
54.78607776370592
 20
206.5537009902224
 30
0.0
 11
54.7860777637058
 21
206.2537009902189
 31
0.0
  0
LINE
  5
CF
330
1F
100
AcDbEntity
  8
0
 62
     2
100
AcDbLine
 10
54.78607776371047
 20
210.8537009901659
 30
0.0
 11
54.78607776371092
 21
210.5537009901926
 31
0.0
  0
ARC
  5
D0
330
1F
100
AcDbEntity
  8
0
 62
     2
100
AcDbCircle
 10
79.48607138610345
 20
193.4537009631082
 30
0.0
 40
0.5
100
AcDbArc
 50
180.260424275638
 51
269.9999999597684
  0
ARC
  5
D1
330
1F
100
AcDbEntity
  8
0
 62
     2
100
AcDbCircle
 10
79.48607138610345
 20
193.4537009631082
 30
0.0
 40
0.5
100
AcDbArc
 50
180.0
 51
180.2604242760569
  0
ARC
  5
D2
330
1F
100
AcDbEntity
  8
0
 62
     2
100
AcDbCircle
 10
75.48607138609736
 20
193.4537009631066
 30
0.0
 40
0.5
100
AcDbArc
 50
359.7395757255474
 51
0.0000000000010687
  0
ARC
  5
D3
330
1F
100
AcDbEntity
  8
0
 62
     2
100
AcDbCircle
 10
75.48607138609736
 20
193.4537009631066
 30
0.0
 40
0.5
100
AcDbArc
 50
270.0000000404798
 51
359.739575725546
  0
LINE
  5
D4
330
1F
100
AcDbEntity
  8
0
 62
     2
100
AcDbLine
 10
79.48607138610453
 20
192.9537009631082
 30
0.0
 11
79.78607138609976
 21
192.9537009631088
 31
0.0
  0
LINE
  5
D5
330
1F
100
AcDbEntity
  8
0
 62
     2
100
AcDbLine
 10
75.18607138611196
 20
192.953700963106
 30
0.0
 11
75.48607138609839
 21
192.9537009631066
 31
0.0
  0
ARC
  5
D6
330
1F
100
AcDbEntity
  8
0
 62
     2
100
AcDbCircle
 10
68.38607113319824
 20
193.4537009631
 30
0.0
 40
0.5
100
AcDbArc
 50
359.7395757228966
 51
0.0000000000006616
  0
ARC
  5
D7
330
1F
100
AcDbEntity
  8
0
 62
     2
100
AcDbCircle
 10
68.38607113319824
 20
193.4537009631
 30
0.0
 40
0.5
100
AcDbArc
 50
270.0000000403675
 51
359.7395757228961
  0
ARC
  5
D8
330
1F
100
AcDbEntity
  8
0
 62
     2
100
AcDbCircle
 10
72.38607113322576
 20
193.4537009631
 30
0.0
 40
0.5
100
AcDbArc
 50
180.2604242757458
 51
269.9999999597626
  0
ARC
  5
D9
330
1F
100
AcDbEntity
  8
0
 62
     2
100
AcDbCircle
 10
72.38607113322576
 20
193.4537009631
 30
0.0
 40
0.5
100
AcDbArc
 50
180.0
 51
180.2604242760549
  0
LINE
  5
DA
330
1F
100
AcDbEntity
  8
0
 62
     2
100
AcDbLine
 10
72.38607113322684
 20
192.9537009631
 30
0.0
 11
72.6860711332231
 21
192.9537009631007
 31
0.0
  0
LINE
  5
DB
330
1F
100
AcDbEntity
  8
0
 62
     2
100
AcDbLine
 10
68.08607113318885
 20
192.9537009631
 30
0.0
 11
68.38607113319836
 21
192.9537009631
 31
0.0
  0
LINE
  5
DC
330
1F
100
AcDbEntity
  8
0
 62
     2
100
AcDbLine
 10
93.08607036790983
 20
213.3537007373415
 30
0.0
 11
92.8860703679099
 21
213.1537007373364
 31
0.0
  0
ARC
  5
DD
330
1F
100
AcDbEntity
  8
0
 62
     2
100
AcDbCircle
 10
92.58607036790971
 20
213.6537007373286
 30
0.0
 40
0.5
100
AcDbArc
 50
89.73957572542825
 51
90.00000000147293
  0
ARC
  5
DE
330
1F
100
AcDbEntity
  8
0
 62
     2
100
AcDbCircle
 10
92.58607036790971
 20
213.6537007373286
 30
0.0
 40
0.5
100
AcDbArc
 50
0.0
 51
89.73957568505142
  0
ARC
  5
DF
330
1F
100
AcDbEntity
  8
0
 62
     2
100
AcDbCircle
 10
92.58607036791767
 20
217.653700737315
 30
0.0
 40
0.5
100
AcDbArc
 50
309.1085822802543
 51
0.0000000000004071
  0
ARC
  5
E0
330
1F
100
AcDbEntity
  8
0
 62
     2
100
AcDbCircle
 10
92.58607036791767
 20
217.653700737315
 30
0.0
 40
0.5
100
AcDbArc
 50
269.9999999990441
 51
270.2604242751055
  0
LINE
  5
E1
330
1F
100
AcDbEntity
  8
0
 62
     2
100
AcDbLine
 10
93.08607036791767
 20
217.6537007373149
 30
0.0
 11
93.08607036791784
 21
217.9537007373067
 31
0.0
  0
LINE
  5
E2
330
1F
100
AcDbEntity
  8
0
 62
     2
100
AcDbLine
 10
93.08607036790983
 20
213.3537007373415
 30
0.0
 11
93.08607036790971
 21
213.6537007373288
 31
0.0
  0
LINE
  5
E3
330
1F
100
AcDbEntity
  8
0
 62
     2
100
AcDbLine
 10
92.88607036791058
 20
211.0537009901912
 30
0.0
 11
93.08607036791062
 21
210.8537009901862
 31
0.0
  0
ARC
  5
E4
330
1F
100
AcDbEntity
  8
0
 62
     2
100
AcDbCircle
 10
92.58607036791295
 20
206.5537009901997
 30
0.0
 40
0.5
100
AcDbArc
 50
89.73957572325426
 51
89.99999999934782
  0
ARC
  5
E5
330
1F
100
AcDbEntity
  8
0
 62
     2
100
AcDbCircle
 10
92.58607036791295
 20
206.5537009901997
 30
0.0
 40
0.5
100
AcDbArc
 50
0.0
 51
89.73957568302548
  0
ARC
  5
E6
330
1F
100
AcDbEntity
  8
0
 62
     2
100
AcDbCircle
 10
92.58607036791074
 20
210.5537009901986
 30
0.0
 40
0.5
100
AcDbArc
 50
309.1085822800288
 51
0.0000000000012213
  0
ARC
  5
E7
330
1F
100
AcDbEntity
  8
0
 62
     2
100
AcDbCircle
 10
92.58607036791074
 20
210.5537009901986
 30
0.0
 40
0.5
100
AcDbArc
 50
269.9999999985768
 51
270.2604242746377
  0
LINE
  5
E8
330
1F
100
AcDbEntity
  8
0
 62
     2
100
AcDbLine
 10
93.08607036791068
 20
210.5537009901988
 30
0.0
 11
93.08607036791062
 21
210.8537009901862
 31
0.0
  0
LINE
  5
E9
330
1F
100
AcDbEntity
  8
0
 62
     2
100
AcDbLine
 10
93.08607036791227
 20
206.253700990194
 30
0.0
 11
93.08607036791295
 21
206.5537009901986
 31
0.0
  0
LINE
  5
EA
330
1F
100
AcDbEntity
  8
0
 62
     2
100
AcDbLine
 10
68.58607118741588
 20
230.6037008926959
 30
0.0
 11
68.3860711874159
 21
230.6037008926959
 31
0.0
  0
LINE
  5
EB
330
1F
100
AcDbEntity
  8
0
 62
     2
100
AcDbLine
 10
69.7860711874186
 20
231.2537009630997
 30
0.0
 11
69.9860711874174
 21
231.0537009631003
 31
0.0
  0
LINE
  5
EC
330
1F
100
AcDbEntity
  8
0
 62
     2
100
AcDbLine
 10
69.98607118741472
 20
230.6037008926959
 30
0.0
 11
69.78607118741468
 21
230.6037008926959
 31
0.0
  0
LINE
  5
ED
330
1F
100
AcDbEntity
  8
0
 62
     2
100
AcDbLine
 10
77.88607093458063
 20
231.0537009631258
 30
0.0
 11
78.08607093459102
 21
231.2537009631265
 31
0.0
  0
LINE
  5
EE
330
1F
100
AcDbEntity
  8
0
 62
     2
100
AcDbLine
 10
78.08607093455731
 20
230.6037008926959
 30
0.0
 11
77.88607093455732
 21
230.6037008926959
 31
0.0
  0
LINE
  5
EF
330
1F
100
AcDbEntity
  8
0
 62
     2
100
AcDbLine
 10
79.48607093452517
 20
230.6037008926959
 30
0.0
 11
79.28607093452518
 21
230.6037008926959
 31
0.0
  0
LINE
  5
F0
330
1F
100
AcDbEntity
  8
0
 62
     2
100
AcDbLine
 10
69.78607118741468
 20
230.6037008926959
 30
0.0
 11
68.58607118741588
 21
230.6037008926959
 31
0.0
  0
LINE
  5
F1
330
1F
100
AcDbEntity
  8
0
 62
     2
100
AcDbLine
 10
79.28607093452518
 20
230.6037008926959
 30
0.0
 11
78.08607093455731
 21
230.6037008926959
 31
0.0
  0
CIRCLE
  5
F2
330
1F
100
AcDbEntity
  8
0
 62
     2
100
AcDbCircle
 10
55.93607735282939
 20
194.1037009631044
 30
0.0
 40
1.350000000000001
  0
CIRCLE
  5
F3
330
1F
100
AcDbEntity
  8
0
 62
     2
100
AcDbCircle
 10
55.93607776370692
 20
230.1037009631024
 30
0.0
 40
1.350000000000001
  0
CIRCLE
  5
F4
330
1F
100
AcDbEntity
  8
0
 62
     2
100
AcDbCircle
 10
91.9360707787892
 20
230.1037009631023
 30
0.0
 40
1.350000000000001
  0
CIRCLE
  5
F5
330
1F
100
AcDbEntity
  8
0
 62
     2
100
AcDbCircle
 10
91.93607036791212
 20
194.1037013739818
 30
0.0
 40
1.350000000000001
  0
ARC
  5
F6
330
1F
100
AcDbEntity
  8
0
 62
     2
100
AcDbCircle
 10
55.93607776370703
 20
194.1037009631043
 30
0.0
 40
2.250000000000037
100
AcDbArc
 50
179.9999895783645
 51
269.9999895783652
  0
LINE
  5
F7
330
1F
100
AcDbEntity
  8
0
 62
     2
100
AcDbLine
 10
53.68607776370692
 20
230.103700963116
 30
0.0
 11
53.68607776370703
 21
194.1037009631015
 31
0.0
  0
ARC
  5
F8
330
1F
100
AcDbEntity
  8
0
 62
     2
100
AcDbCircle
 10
55.93607776370692
 20
230.1037009631024
 30
0.0
 40
2.24999999999998
100
AcDbArc
 50
90.00001046290467
 51
180.0000000000029
  0
LINE
  5
F9
330
1F
100
AcDbEntity
  8
0
 62
     2
100
AcDbLine
 10
91.93607036791053
 20
232.3537009631029
 30
0.0
 11
55.93607776371772
 21
232.3537009631016
 31
0.0
  0
ARC
  5
FA
330
1F
100
AcDbEntity
  8
0
 62
     2
100
AcDbCircle
 10
91.9360703679119
 20
230.1037009631024
 30
0.0
 40
2.25
100
AcDbArc
 50
0.0
 51
89.99998953709537
  0
LINE
  5
FB
330
1F
100
AcDbEntity
  8
0
 62
     2
100
AcDbLine
 10
94.18607036791121
 20
194.1037009631025
 30
0.0
 11
94.18607036791121
 21
230.103700963116
 31
0.0
  0
ARC
  5
FC
330
1F
100
AcDbEntity
  8
0
 62
     2
100
AcDbCircle
 10
91.9360703679119
 20
194.1037009631045
 30
0.0
 40
2.250000000000037
100
AcDbArc
 50
270.0000104629046
 51
0.0000104629017845
  0
LINE
  5
FD
330
1F
100
AcDbEntity
  8
0
 62
     2
100
AcDbLine
 10
55.93607776371772
 20
191.853700963104
 30
0.0
 11
91.93607036791053
 21
191.8537009631046
 31
0.0
  0
LINE
  5
FE
330
1F
100
AcDbEntity
  8
0
 62
     2
100
AcDbLine
 10
92.88607036792172
 20
227.4563750805377
 30
0.0
 11
92.88607036791791
 21
218.15370073731
 31
0.0
  0
LINE
  5
FF
330
1F
100
AcDbEntity
  8
0
 62
     2
100
AcDbLine
 10
93.0860703679217
 20
227.4563750805377
 30
0.0
 11
93.08607036791784
 21
217.9537007373067
 31
0.0
  0
ARC
  5
100
330
1F
100
AcDbEntity
  8
0
 62
     2
100
AcDbCircle
 10
92.48607036792168
 20
227.4563750805377
 30
0.0
 40
0.3999999999999993
100
AcDbArc
 50
0.0
 51
116.5631127750421
  0
ARC
  5
101
330
1F
100
AcDbEntity
  8
0
 62
     2
100
AcDbCircle
 10
92.48607036792168
 20
227.4563750805377
 30
0.0
 40
0.6000000000000014
100
AcDbArc
 50
0.0
 51
116.5631127750415
  0
LINE
  5
102
330
1F
100
AcDbEntity
  8
0
 62
     2
100
AcDbLine
 10
91.43719117753028
 20
227.3791858719651
 30
0.0
 11
92.30719703374871
 21
227.8141520086952
 31
0.0
  0
LINE
  5
103
330
1F
100
AcDbEntity
  8
0
 62
     2
100
AcDbLine
 10
91.34775451044374
 20
227.5580743360438
 30
0.0
 11
92.21776036666216
 21
227.993040472774
 31
0.0
  0
ARC
  5
104
330
1F
100
AcDbEntity
  8
0
 62
     2
100
AcDbCircle
 10
91.12416284272746
 20
228.0052954962408
 30
0.0
 40
0.7
100
AcDbArc
 50
248.8477215555648
 51
296.5631127750424
  0
ARC
  5
105
330
1F
100
AcDbEntity
  8
0
 62
     2
100
AcDbCircle
 10
91.12416284272746
 20
228.0052954962408
 30
0.0
 40
0.4999999999999998
100
AcDbArc
 50
248.8477180093616
 51
296.5631127750423
  0
ARC
  5
106
330
1F
100
AcDbEntity
  8
0
 62
     2
100
AcDbCircle
 10
91.93607077878642
 20
230.1037009631047
 30
0.0
 40
2.950000000000014
100
AcDbArc
 50
201.152233406594
 51
248.8477151723997
  0
ARC
  5
107
330
1F
100
AcDbEntity
  8
0
 62
     2
100
AcDbCircle
 10
91.93607077878642
 20
230.1037009631047
 30
0.0
 40
2.750000000000011
100
AcDbArc
 50
201.1522379588745
 51
248.8477151723995
  0
ARC
  5
108
330
1F
100
AcDbEntity
  8
0
 62
     2
100
AcDbCircle
 10
89.8376646234646
 20
229.2917948063921
 30
0.0
 40
0.7000000000000026
100
AcDbArc
 50
153.4367290098813
 51
201.1522334065937
  0
ARC
  5
109
330
1F
100
AcDbEntity
  8
0
 62
     2
100
AcDbCircle
 10
89.8376646234646
 20
229.2917948063922
 30
0.0
 40
0.5000000000000004
100
AcDbArc
 50
153.436729011123
 51
201.1522334065933
  0
LINE
  5
10A
330
1F
100
AcDbEntity
  8
0
 62
     2
100
AcDbLine
 10
89.64652296068277
 20
230.4748266409769
 30
0.0
 11
89.2115558635632
 21
229.6048248700838
 31
0.0
  0
LINE
  5
10B
330
1F
100
AcDbEntity
  8
0
 62
     2
100
AcDbLine
 10
89.8254111777947
 20
230.3853894799166
 30
0.0
 11
89.39044408067508
 21
229.5153877090236
 31
0.0
  0
ARC
  5
10C
330
1F
100
AcDbEntity
  8
0
 62
     2
100
AcDbCircle
 10
89.28874652645891
 20
230.6537009630974
 30
0.0
 40
0.3999999999999957
100
AcDbArc
 50
333.4367290111211
 51
90.00000000002692
  0
ARC
  5
10D
330
1F
100
AcDbEntity
  8
0
 62
     2
100
AcDbCircle
 10
89.28874652645891
 20
230.6537009630974
 30
0.0
 40
0.5999999999999986
100
AcDbArc
 50
333.4367290111205
 51
90.00000000002606
  0
LINE
  5
10E
330
1F
100
AcDbEntity
  8
0
 62
     2
100
AcDbLine
 10
79.48607093451938
 20
231.0537009630929
 30
0.0
 11
89.28874652645868
 21
231.0537009630974
 31
0.0
  0
LINE
  5
10F
330
1F
100
AcDbEntity
  8
0
 62
     2
100
AcDbLine
 10
79.28607093451677
 20
231.2537009630928
 30
0.0
 11
89.28874652645862
 21
231.2537009630974
 31
0.0
  0
LINE
  5
110
330
1F
100
AcDbEntity
  8
0
 62
     2
100
AcDbLine
 10
89.28874489623365
 20
193.15370096313
 30
0.0
 11
79.98607138610123
 21
193.1537009631093
 31
0.0
  0
LINE
  5
111
330
1F
100
AcDbEntity
  8
0
 62
     2
100
AcDbLine
 10
89.2887448962341
 20
192.95370096313
 30
0.0
 11
79.78607138609976
 21
192.9537009631088
 31
0.0
  0
ARC
  5
112
330
1F
100
AcDbEntity
  8
0
 62
     2
100
AcDbCircle
 10
89.28874489623274
 20
193.55370096313
 30
0.0
 40
0.3999999999999974
100
AcDbArc
 50
270.0000000001302
 51
26.56311277591343
  0
ARC
  5
113
330
1F
100
AcDbEntity
  8
0
 62
     2
100
AcDbCircle
 10
89.28874489623274
 20
193.55370096313
 30
0.0
 40
0.6000000000000014
100
AcDbArc
 50
270.0000000001289
 51
26.56311277591144
  0
LINE
  5
114
330
1F
100
AcDbEntity
  8
0
 62
     2
100
AcDbLine
 10
89.21155527694413
 20
194.6025809749899
 30
0.0
 11
89.64652182438749
 21
193.7325742973084
 31
0.0
  0
LINE
  5
115
330
1F
100
AcDbEntity
  8
0
 62
     2
100
AcDbLine
 10
89.39044374102156
 20
194.6920176420791
 30
0.0
 11
89.82541028846492
 21
193.8220109643977
 31
0.0
  0
ARC
  5
116
330
1F
100
AcDbEntity
  8
0
 62
     2
100
AcDbCircle
 10
89.83766490121508
 20
194.9156093098021
 30
0.0
 40
0.6999999999999962
100
AcDbArc
 50
158.8477215555251
 51
206.5631127759078
  0
ARC
  5
117
330
1F
100
AcDbEntity
  8
0
 62
     2
100
AcDbCircle
 10
89.83766490121508
 20
194.9156093098021
 30
0.0
 40
0.4999999999999992
100
AcDbArc
 50
158.8477180093595
 51
206.5631127759076
  0
ARC
  5
118
330
1F
100
AcDbEntity
  8
0
 62
     2
100
AcDbCircle
 10
91.93607036807884
 20
194.1037013737431
 30
0.0
 40
2.949999999999848
100
AcDbArc
 50
111.1522334065802
 51
158.8477151723455
  0
ARC
  5
119
330
1F
100
AcDbEntity
  8
0
 62
     2
100
AcDbCircle
 10
91.93607036807884
 20
194.1037013737431
 30
0.0
 40
2.749999999999843
100
AcDbArc
 50
111.1522379588657
 51
158.8477151723456
  0
ARC
  5
11A
330
1F
100
AcDbEntity
  8
0
 62
     2
100
AcDbCircle
 10
91.12416421136692
 20
196.202107529065
 30
0.0
 40
0.700000000000003
100
AcDbArc
 50
63.43672901171339
 51
111.1522334065795
  0
ARC
  5
11B
330
1F
100
AcDbEntity
  8
0
 62
     2
100
AcDbCircle
 10
91.12416421136692
 20
196.202107529065
 30
0.0
 40
0.4999999999999992
100
AcDbArc
 50
63.43672901234864
 51
111.1522334065789
  0
LINE
  5
11C
330
1F
100
AcDbEntity
  8
0
 62
     2
100
AcDbLine
 10
92.30719604577814
 20
196.3932491919568
 30
0.0
 11
91.43719427505442
 21
196.8282162889684
 31
0.0
  0
LINE
  5
11D
330
1F
100
AcDbEntity
  8
0
 62
     2
100
AcDbLine
 10
92.21775888472177
 20
196.214360974843
 30
0.0
 11
91.347757113998
 21
196.6493280718546
 31
0.0
  0
ARC
  5
11E
330
1F
100
AcDbEntity
  8
0
 62
     2
100
AcDbCircle
 10
92.48607036789099
 20
196.7510256261845
 30
0.0
 40
0.4000000000000002
100
AcDbArc
 50
243.4367290123483
 51
359.9999999999996
  0
ARC
  5
11F
330
1F
100
AcDbEntity
  8
0
 62
     2
100
AcDbCircle
 10
92.48607036789099
 20
196.7510256261845
 30
0.0
 40
0.6000000000000006
100
AcDbArc
 50
243.4367290123477
 51
359.9999999999989
  0
LINE
  5
120
330
1F
100
AcDbEntity
  8
0
 62
     2
100
AcDbLine
 10
92.88607036791183
 20
206.0537009901963
 30
0.0
 11
92.88607036789097
 21
196.7510256261849
 31
0.0
  0
LINE
  5
121
330
1F
100
AcDbEntity
  8
0
 62
     2
100
AcDbLine
 10
93.08607036791227
 20
206.253700990194
 30
0.0
 11
93.08607036789101
 21
196.7510256261845
 31
0.0
  0
LINE
  5
122
330
1F
100
AcDbEntity
  8
0
 62
     2
100
AcDbLine
 10
74.98607138610612
 20
193.1537009631056
 30
0.0
 11
72.88607113322416
 21
193.1537009631011
 31
0.0
  0
LINE
  5
123
330
1F
100
AcDbEntity
  8
0
 62
     2
100
AcDbLine
 10
75.18607138611196
 20
192.953700963106
 30
0.0
 11
72.6860711332231
 21
192.9537009631007
 31
0.0
  0
LINE
  5
124
330
1F
100
AcDbEntity
  8
0
 62
     2
100
AcDbLine
 10
54.98607776370142
 20
196.751026845665
 30
0.0
 11
54.98607776370574
 21
206.0537009902202
 31
0.0
  0
LINE
  5
125
330
1F
100
AcDbEntity
  8
0
 62
     2
100
AcDbLine
 10
54.78607776370143
 20
196.7510268456651
 30
0.0
 11
54.7860777637058
 21
206.2537009902189
 31
0.0
  0
ARC
  5
126
330
1F
100
AcDbEntity
  8
0
 62
     2
100
AcDbCircle
 10
55.38607776370139
 20
196.7510268456648
 30
0.0
 40
0.4000000000000035
100
AcDbArc
 50
180.0
 51
296.5631127758185
  0
ARC
  5
127
330
1F
100
AcDbEntity
  8
0
 62
     2
100
AcDbCircle
 10
55.38607776370139
 20
196.7510268456648
 30
0.0
 40
0.6000000000000014
100
AcDbArc
 50
180.0
 51
296.5631127758188
  0
LINE
  5
128
330
1F
100
AcDbEntity
  8
0
 62
     2
100
AcDbLine
 10
56.43495695407466
 20
196.8282160542423
 30
0.0
 11
55.56495109787926
 21
196.3932499175097
 31
0.0
  0
LINE
  5
129
330
1F
100
AcDbEntity
  8
0
 62
     2
100
AcDbLine
 10
56.52439362116348
 20
196.6493275901647
 30
0.0
 11
55.65438776496802
 21
196.2143614534321
 31
0.0
  0
ARC
  5
12A
330
1F
100
AcDbEntity
  8
0
 62
     2
100
AcDbCircle
 10
56.74798528888545
 20
196.2021064299707
 30
0.0
 40
0.6999999999999978
100
AcDbArc
 50
68.84772155556837
 51
116.5631127757768
  0
ARC
  5
12B
330
1F
100
AcDbEntity
  8
0
 62
     2
100
AcDbCircle
 10
56.74798528888545
 20
196.2021064299707
 30
0.0
 40
0.5
100
AcDbArc
 50
68.84771800936464
 51
116.5631127757768
  0
ARC
  5
12C
330
1F
100
AcDbEntity
  8
0
 62
     2
100
AcDbCircle
 10
55.9360773528266
 20
194.1037009631067
 30
0.0
 40
2.949999999999999
100
AcDbArc
 50
21.15223340658883
 51
68.84771517239642
  0
ARC
  5
12D
330
1F
100
AcDbEntity
  8
0
 62
     2
100
AcDbCircle
 10
55.9360773528266
 20
194.1037009631067
 30
0.0
 40
2.75
100
AcDbArc
 50
21.15223795887396
 51
68.84771517239666
  0
ARC
  5
12E
330
1F
100
AcDbEntity
  8
0
 62
     2
100
AcDbCircle
 10
58.03448350814841
 20
194.9156071198191
 30
0.0
 40
0.7000000000000007
100
AcDbArc
 50
333.4367290107963
 51
21.15223340658985
  0
ARC
  5
12F
330
1F
100
AcDbEntity
  8
0
 62
     2
100
AcDbCircle
 10
58.03448350814841
 20
194.9156071198191
 30
0.0
 40
0.5000000000000006
100
AcDbArc
 50
333.4367290117351
 51
21.15223340658843
  0
LINE
  5
130
330
1F
100
AcDbEntity
  8
0
 62
     2
100
AcDbLine
 10
58.22562517093212
 20
193.7325752852151
 30
0.0
 11
58.66059226805078
 21
194.6025770561295
 31
0.0
  0
LINE
  5
131
330
1F
100
AcDbEntity
  8
0
 62
     2
100
AcDbLine
 10
58.04673695381922
 20
193.8220124462734
 30
0.0
 11
58.48170405093788
 21
194.6920142171878
 31
0.0
  0
ARC
  5
132
330
1F
100
AcDbEntity
  8
0
 62
     2
100
AcDbCircle
 10
58.58340160515786
 20
193.5537009630984
 30
0.0
 40
0.3999999999999985
100
AcDbArc
 50
153.436729011736
 51
270.0000000000113
  0
ARC
  5
133
330
1F
100
AcDbEntity
  8
0
 62
     2
100
AcDbCircle
 10
58.58340160515786
 20
193.5537009630984
 30
0.0
 40
0.6000000000000004
100
AcDbArc
 50
153.4367290117338
 51
270.0000000000093
  0
LINE
  5
134
330
1F
100
AcDbEntity
  8
0
 62
     2
100
AcDbLine
 10
67.88607113319262
 20
193.1537009631
 30
0.0
 11
58.58340160515792
 21
193.1537009630984
 31
0.0
  0
LINE
  5
135
330
1F
100
AcDbEntity
  8
0
 62
     2
100
AcDbLine
 10
68.08607113318885
 20
192.9537009631
 30
0.0
 11
58.58340160515797
 21
192.9537009630984
 31
0.0
  0
LINE
  5
136
330
1F
100
AcDbEntity
  8
0
 62
     2
100
AcDbLine
 10
58.58340344083513
 20
231.0537009631178
 30
0.0
 11
68.38607118741345
 21
231.0537009631128
 31
0.0
  0
LINE
  5
137
330
1F
100
AcDbEntity
  8
0
 62
     2
100
AcDbLine
 10
58.58340344083524
 20
231.2537009631178
 30
0.0
 11
68.58607118741236
 21
231.2537009631127
 31
0.0
  0
ARC
  5
138
330
1F
100
AcDbEntity
  8
0
 62
     2
100
AcDbCircle
 10
58.58340344083496
 20
230.6537009631178
 30
0.0
 40
0.4000000000000001
100
AcDbArc
 50
89.99999999997151
 51
206.5631127758074
  0
ARC
  5
139
330
1F
100
AcDbEntity
  8
0
 62
     2
100
AcDbCircle
 10
58.58340344083496
 20
230.6537009631178
 30
0.0
 40
0.6000000000000014
100
AcDbArc
 50
89.99999999997286
 51
206.5631127758094
  0
LINE
  5
13A
330
1F
100
AcDbEntity
  8
0
 62
     2
100
AcDbLine
 10
58.66059285483942
 20
229.6048213618569
 30
0.0
 11
58.22562651267987
 21
230.47482762894
 31
0.0
  0
LINE
  5
13B
330
1F
100
AcDbEntity
  8
0
 62
     2
100
AcDbLine
 10
58.48170439076188
 20
229.515384694768
 30
0.0
 11
58.04673804860232
 21
230.3853909618511
 31
0.0
  0
ARC
  5
13C
330
1F
100
AcDbEntity
  8
0
 62
     2
100
AcDbCircle
 10
58.03448323056796
 20
229.2917930270458
 30
0.0
 40
0.700000000000002
100
AcDbArc
 50
338.847721555565
 51
26.56311277580799
  0
ARC
  5
13D
330
1F
100
AcDbEntity
  8
0
 62
     2
100
AcDbCircle
 10
58.03448323056796
 20
229.2917930270458
 30
0.0
 40
0.4999999999999998
100
AcDbArc
 50
338.8477180093631
 51
26.56311277580799
  0
ARC
  5
13E
330
1F
100
AcDbEntity
  8
0
 62
     2
100
AcDbCircle
 10
55.93607776370402
 20
230.1037009631048
 30
0.0
 40
2.950000000000007
100
AcDbArc
 50
291.1522334065914
 51
338.8477151723981
  0
ARC
  5
13F
330
1F
100
AcDbEntity
  8
0
 62
     2
100
AcDbCircle
 10
55.93607776370402
 20
230.1037009631048
 30
0.0
 40
2.750000000000008
100
AcDbArc
 50
291.1522379588745
 51
338.8477151723984
  0
ARC
  5
140
330
1F
100
AcDbEntity
  8
0
 62
     2
100
AcDbCircle
 10
56.74798392041646
 20
228.0052948077829
 30
0.0
 40
0.7000000000000107
100
AcDbArc
 50
243.4367290090001
 51
291.1522334065922
  0
ARC
  5
141
330
1F
100
AcDbEntity
  8
0
 62
     2
100
AcDbCircle
 10
56.74798392041646
 20
228.0052948077829
 30
0.0
 40
0.5000000000000002
100
AcDbArc
 50
243.4367290105309
 51
291.1522334065908
  0
LINE
  5
142
330
1F
100
AcDbEntity
  8
0
 62
     2
100
AcDbLine
 10
55.56495208582226
 20
227.814153145017
 30
0.0
 11
56.43495385672304
 21
227.3791860478825
 31
0.0
  0
LINE
  5
143
330
1F
100
AcDbEntity
  8
0
 62
     2
100
AcDbLine
 10
55.65438924688431
 20
227.9930413621281
 30
0.0
 11
56.52439101778515
 21
227.5580742649935
 31
0.0
  0
ARC
  5
144
330
1F
100
AcDbEntity
  8
0
 62
     2
100
AcDbCircle
 10
55.3860777636981
 20
227.456376710795
 30
0.0
 40
0.4000000000000001
100
AcDbArc
 50
63.4367290105349
 51
179.9999999999656
  0
ARC
  5
145
330
1F
100
AcDbEntity
  8
0
 62
     2
100
AcDbCircle
 10
55.3860777636981
 20
227.456376710795
 30
0.0
 40
0.6
100
AcDbArc
 50
63.43672901053611
 51
179.999999999967
  0
LINE
  5
146
330
1F
100
AcDbEntity
  8
0
 62
     2
100
AcDbLine
 10
54.98607776369244
 20
218.1537007373709
 30
0.0
 11
54.98607776369806
 21
227.4563767107953
 31
0.0
  0
LINE
  5
147
330
1F
100
AcDbEntity
  8
0
 62
     2
100
AcDbLine
 10
54.78607776369228
 20
217.9537007373731
 30
0.0
 11
54.78607776369807
 21
227.4563767107954
 31
0.0
  0
LINE
  5
148
330
1F
100
AcDbEntity
  8
0
 62
     2
100
AcDbLine
 10
55.98607036764713
 20
218.1537007373597
 30
0.0
 11
54.98607776369244
 21
218.1537007373709
 31
0.0
  0
LINE
  5
149
330
1F
100
AcDbEntity
  8
0
 62
     2
100
AcDbLine
 10
55.98607036763593
 20
217.1537007373597
 30
0.0
 11
55.28607776368654
 21
217.1537007373675
 31
0.0
  0
ARC
  5
14A
330
1F
100
AcDbEntity
  8
0
 62
     2
100
AcDbCircle
 10
55.98607036762473
 20
216.1537007373597
 30
0.0
 40
2.0
100
AcDbArc
 50
29.99999999935882
 51
89.99999999935858
  0
ARC
  5
14B
330
1F
100
AcDbEntity
  8
0
 62
     2
100
AcDbCircle
 10
55.98607036762473
 20
216.1537007373597
 30
0.0
 40
2.0
100
AcDbArc
 50
0.0
 51
29.99999999935903
  0
LINE
  5
14C
330
1F
100
AcDbEntity
  8
0
 62
     2
100
AcDbLine
 10
57.98607036761052
 20
215.1537007373257
 30
0.0
 11
57.98607036762473
 21
216.1537007373313
 31
0.0
  0
LINE
  5
14D
330
1F
100
AcDbEntity
  8
0
 62
     2
100
AcDbLine
 10
56.98607036761052
 20
215.1537007373399
 30
0.0
 11
56.98607036762473
 21
216.1537007373455
 31
0.0
  0
ARC
  5
14E
330
1F
100
AcDbEntity
  8
0
 62
     2
100
AcDbCircle
 10
55.98607036761052
 20
215.1537007373541
 30
0.0
 40
2.0
100
AcDbArc
 50
299.9999999991859
 51
0.0000000000002036
  0
ARC
  5
14F
330
1F
100
AcDbEntity
  8
0
 62
     2
100
AcDbCircle
 10
55.98607036761052
 20
215.1537007373541
 30
0.0
 40
2.0
100
AcDbArc
 50
270.0000000008527
 51
299.9999999991857
  0
LINE
  5
150
330
1F
100
AcDbEntity
  8
0
 62
     2
100
AcDbLine
 10
54.98607776370699
 20
213.1537007373392
 30
0.0
 11
55.98607036764031
 21
213.1537007373541
 31
0.0
  0
LINE
  5
151
330
1F
100
AcDbEntity
  8
0
 62
     2
100
AcDbLine
 10
55.28607776369881
 20
214.1537007373437
 30
0.0
 11
55.98607036762542
 21
214.1537007373541
 31
0.0
  0
LINE
  5
152
330
1F
100
AcDbEntity
  8
0
 62
     2
100
AcDbLine
 10
55.98607036749632
 20
211.0537009902319
 30
0.0
 11
54.98607776371017
 21
211.0537009901768
 31
0.0
  0
LINE
  5
153
330
1F
100
AcDbEntity
  8
0
 62
     2
100
AcDbLine
 10
55.98607036755135
 20
210.0537009902319
 30
0.0
 11
55.28607776373838
 21
210.0537009901934
 31
0.0
  0
ARC
  5
154
330
1F
100
AcDbEntity
  8
0
 62
     2
100
AcDbCircle
 10
55.98607036760637
 20
209.0537009902319
 30
0.0
 40
2.000000000000004
100
AcDbArc
 50
30.00000000315151
 51
90.0000000031517
  0
ARC
  5
155
330
1F
100
AcDbEntity
  8
0
 62
     2
100
AcDbCircle
 10
55.98607036760637
 20
209.0537009902319
 30
0.0
 40
2.000000000000004
100
AcDbArc
 50
0.0
 51
30.00000000281728
  0
LINE
  5
156
330
1F
100
AcDbEntity
  8
0
 62
     2
100
AcDbLine
 10
57.98607036761223
 20
208.0537009902384
 30
0.0
 11
57.98607036760637
 21
209.0537009902436
 31
0.0
  0
LINE
  5
157
330
1F
100
AcDbEntity
  8
0
 62
     2
100
AcDbLine
 10
56.98607036761223
 20
208.0537009902326
 30
0.0
 11
56.98607036760637
 21
209.0537009902377
 31
0.0
  0
ARC
  5
158
330
1F
100
AcDbEntity
  8
0
 62
     2
100
AcDbCircle
 10
55.98607036761223
 20
208.0537009902267
 30
0.0
 40
2.000000000000001
100
AcDbArc
 50
300.0000000003345
 51
0.0000000000001018
  0
ARC
  5
159
330
1F
100
AcDbEntity
  8
0
 62
     2
100
AcDbCircle
 10
55.98607036761223
 20
208.0537009902267
 30
0.0
 40
2.000000000000001
100
AcDbArc
 50
270.0000000003743
 51
300.0000000003344
  0
LINE
  5
15A
330
1F
100
AcDbEntity
  8
0
 62
     2
100
AcDbLine
 10
54.98607776370568
 20
206.0537009902202
 30
0.0
 11
55.9860703676253
 21
206.0537009902267
 31
0.0
  0
LINE
  5
15B
330
1F
100
AcDbEntity
  8
0
 62
     2
100
AcDbLine
 10
55.28607776370268
 20
207.0537009902222
 30
0.0
 11
55.98607036761877
 21
207.0537009902267
 31
0.0
  0
LINE
  5
15C
330
1F
100
AcDbEntity
  8
0
 62
     2
100
AcDbLine
 10
74.9860713860769
 20
194.1537009608562
 30
0.0
 11
74.98607138610612
 21
193.1537009631056
 31
0.0
  0
LINE
  5
15D
330
1F
100
AcDbEntity
  8
0
 62
     2
100
AcDbLine
 10
75.9860713860769
 20
194.1537009608854
 30
0.0
 11
75.98607138609736
 21
193.4537009631212
 31
0.0
  0
ARC
  5
15E
330
1F
100
AcDbEntity
  8
0
 62
     2
100
AcDbCircle
 10
76.9860713860769
 20
194.1537009609146
 30
0.0
 40
2.0
100
AcDbArc
 50
120.000000001673
 51
180.000000001673
  0
ARC
  5
15F
330
1F
100
AcDbEntity
  8
0
 62
     2
100
AcDbCircle
 10
76.9860713860769
 20
194.1537009609146
 30
0.0
 40
2.0
100
AcDbArc
 50
89.99999999963116
 51
120.0000000016729
  0
LINE
  5
160
330
1F
100
AcDbEntity
  8
0
 62
     2
100
AcDbLine
 10
77.98607138612141
 20
196.1537009609081
 30
0.0
 11
76.9860713860898
 21
196.1537009609146
 31
0.0
  0
LINE
  5
161
330
1F
100
AcDbEntity
  8
0
 62
     2
100
AcDbLine
 10
77.98607138611499
 20
195.1537009609081
 30
0.0
 11
76.98607138608338
 21
195.1537009609146
 31
0.0
  0
ARC
  5
162
330
1F
100
AcDbEntity
  8
0
 62
     2
100
AcDbCircle
 10
77.9860713861085
 20
194.1537009609081
 30
0.0
 40
2.0
100
AcDbArc
 50
29.99999999963059
 51
89.99999999963069
  0
ARC
  5
163
330
1F
100
AcDbEntity
  8
0
 62
     2
100
AcDbCircle
 10
77.9860713861085
 20
194.1537009609081
 30
0.0
 40
2.0
100
AcDbArc
 50
0.0
 51
29.99999999963086
  0
LINE
  5
164
330
1F
100
AcDbEntity
  8
0
 62
     2
100
AcDbLine
 10
79.98607138610123
 20
193.1537009631093
 30
0.0
 11
79.9860713861085
 21
194.1537009608936
 31
0.0
  0
LINE
  5
165
330
1F
100
AcDbEntity
  8
0
 62
     2
100
AcDbLine
 10
78.98607138610345
 20
193.4537009631118
 30
0.0
 11
78.9860713861085
 21
194.1537009609009
 31
0.0
  0
LINE
  5
166
330
1F
100
AcDbEntity
  8
0
 62
     2
100
AcDbLine
 10
67.88607113321143
 20
194.1537009660584
 30
0.0
 11
67.88607113319262
 21
193.1537009630999
 31
0.0
  0
LINE
  5
167
330
1F
100
AcDbEntity
  8
0
 62
     2
100
AcDbLine
 10
68.88607113321143
 20
194.1537009660396
 30
0.0
 11
68.88607113319824
 21
193.4537009630906
 31
0.0
  0
ARC
  5
168
330
1F
100
AcDbEntity
  8
0
 62
     2
100
AcDbCircle
 10
69.88607113321143
 20
194.1537009660208
 30
0.0
 40
2.0
100
AcDbArc
 50
119.9999999989222
 51
179.9999999989221
  0
ARC
  5
169
330
1F
100
AcDbEntity
  8
0
 62
     2
100
AcDbCircle
 10
69.88607113321143
 20
194.1537009660208
 30
0.0
 40
2.0
100
AcDbArc
 50
89.99999999967227
 51
119.9999999989224
  0
LINE
  5
16A
330
1F
100
AcDbEntity
  8
0
 62
     2
100
AcDbLine
 10
70.88607113324099
 20
196.153700966015
 30
0.0
 11
69.88607113322286
 21
196.1537009660208
 31
0.0
  0
LINE
  5
16B
330
1F
100
AcDbEntity
  8
0
 62
     2
100
AcDbLine
 10
70.88607113323525
 20
195.153700966015
 30
0.0
 11
69.88607113321717
 21
195.1537009660208
 31
0.0
  0
ARC
  5
16C
330
1F
100
AcDbEntity
  8
0
 62
     2
100
AcDbCircle
 10
70.8860711332295
 20
194.153700966015
 30
0.0
 40
2.000000000000001
100
AcDbArc
 50
29.99999999967201
 51
89.99999999967193
  0
ARC
  5
16D
330
1F
100
AcDbEntity
  8
0
 62
     2
100
AcDbCircle
 10
70.8860711332295
 20
194.153700966015
 30
0.0
 40
2.000000000000001
100
AcDbArc
 50
0.0
 51
29.99999999967218
  0
LINE
  5
16E
330
1F
100
AcDbEntity
  8
0
 62
     2
100
AcDbLine
 10
72.88607113322416
 20
193.1537009631011
 30
0.0
 11
72.8860711332295
 21
194.1537009660043
 31
0.0
  0
LINE
  5
16F
330
1F
100
AcDbEntity
  8
0
 62
     2
100
AcDbLine
 10
71.88607113322576
 20
193.4537009631027
 30
0.0
 11
71.8860711332295
 21
194.1537009660097
 31
0.0
  0
LINE
  5
170
330
1F
100
AcDbEntity
  8
0
 62
     2
100
AcDbLine
 10
91.88607036766228
 20
213.1537007373107
 30
0.0
 11
92.8860703679099
 21
213.1537007373364
 31
0.0
  0
LINE
  5
171
330
1F
100
AcDbEntity
  8
0
 62
     2
100
AcDbLine
 10
91.88607036763659
 20
214.1537007373107
 30
0.0
 11
92.58607036789687
 21
214.1537007373286
 31
0.0
  0
ARC
  5
172
330
1F
100
AcDbEntity
  8
0
 62
     2
100
AcDbCircle
 10
91.8860703676109
 20
215.1537007373107
 30
0.0
 40
2.000000000000001
100
AcDbArc
 50
210.0000000014731
 51
270.0000000014728
  0
ARC
  5
173
330
1F
100
AcDbEntity
  8
0
 62
     2
100
AcDbCircle
 10
91.8860703676109
 20
215.1537007373107
 30
0.0
 40
2.000000000000001
100
AcDbArc
 50
180.0
 51
210.0000000015402
  0
LINE
  5
174
330
1F
100
AcDbEntity
  8
0
 62
     2
100
AcDbLine
 10
89.88607036761204
 20
216.1537007373291
 30
0.0
 11
89.8860703676109
 21
215.153700737313
 31
0.0
  0
LINE
  5
175
330
1F
100
AcDbEntity
  8
0
 62
     2
100
AcDbLine
 10
90.88607036761204
 20
216.1537007373279
 30
0.0
 11
90.8860703676109
 21
215.1537007373118
 31
0.0
  0
ARC
  5
176
330
1F
100
AcDbEntity
  8
0
 62
     2
100
AcDbCircle
 10
91.88607036761204
 20
216.1537007373267
 30
0.0
 40
2.000000000000002
100
AcDbArc
 50
119.9999999999326
 51
179.999999999933
  0
ARC
  5
177
330
1F
100
AcDbEntity
  8
0
 62
     2
100
AcDbCircle
 10
91.88607036761204
 20
216.1537007373267
 30
0.0
 40
2.000000000000002
100
AcDbArc
 50
89.99999999904492
 51
119.9999999999325
  0
LINE
  5
178
330
1F
100
AcDbEntity
  8
0
 62
     2
100
AcDbLine
 10
92.88607036791791
 20
218.15370073731
 30
0.0
 11
91.8860703676454
 21
218.1537007373267
 31
0.0
  0
LINE
  5
179
330
1F
100
AcDbEntity
  8
0
 62
     2
100
AcDbLine
 10
92.58607036790937
 20
217.153700737315
 30
0.0
 11
91.88607036762869
 21
217.1537007373267
 31
0.0
  0
LINE
  5
17A
330
1F
100
AcDbEntity
  8
0
 62
     2
100
AcDbLine
 10
91.8860703675872
 20
206.0537009902076
 30
0.0
 11
92.88607036791183
 21
206.0537009901963
 31
0.0
  0
LINE
  5
17B
330
1F
100
AcDbEntity
  8
0
 62
     2
100
AcDbLine
 10
91.88607036759856
 20
207.0537009902076
 30
0.0
 11
92.58607036791864
 21
207.0537009901997
 31
0.0
  0
ARC
  5
17C
330
1F
100
AcDbEntity
  8
0
 62
     2
100
AcDbCircle
 10
91.88607036760993
 20
208.0537009902076
 30
0.0
 40
2.000000000000002
100
AcDbArc
 50
209.9999999993484
 51
269.9999999993484
  0
ARC
  5
17D
330
1F
100
AcDbEntity
  8
0
 62
     2
100
AcDbCircle
 10
91.88607036760993
 20
208.0537009902076
 30
0.0
 40
2.000000000000002
100
AcDbArc
 50
180.0
 51
209.9999999997241
  0
LINE
  5
17E
330
1F
100
AcDbEntity
  8
0
 62
     2
100
AcDbLine
 10
89.88607036761647
 20
209.0537009902291
 30
0.0
 11
89.88607036760993
 21
208.0537009902208
 31
0.0
  0
LINE
  5
17F
330
1F
100
AcDbEntity
  8
0
 62
     2
100
AcDbLine
 10
90.88607036761647
 20
209.0537009902226
 30
0.0
 11
90.88607036760993
 21
208.0537009902142
 31
0.0
  0
ARC
  5
180
330
1F
100
AcDbEntity
  8
0
 62
     2
100
AcDbCircle
 10
91.88607036761647
 20
209.053700990216
 30
0.0
 40
2.0
100
AcDbArc
 50
119.9999999996244
 51
179.9999999996246
  0
ARC
  5
181
330
1F
100
AcDbEntity
  8
0
 62
     2
100
AcDbCircle
 10
91.88607036761647
 20
209.053700990216
 30
0.0
 40
2.0
100
AcDbArc
 50
89.99999999857756
 51
119.9999999996244
  0
LINE
  5
182
330
1F
100
AcDbEntity
  8
0
 62
     2
100
AcDbLine
 10
92.88607036791058
 20
211.0537009901912
 30
0.0
 11
91.88607036766615
 21
211.053700990216
 31
0.0
  0
LINE
  5
183
330
1F
100
AcDbEntity
  8
0
 62
     2
100
AcDbLine
 10
92.58607036789829
 20
210.0537009901986
 30
0.0
 11
91.88607036764131
 21
210.053700990216
 31
0.0
  0
LINE
  5
184
330
1F
100
AcDbEntity
  8
0
 62
     2
100
AcDbLine
 10
68.38607118741345
 20
231.0537009631128
 30
0.0
 11
68.3860711874159
 21
230.6037008926959
 31
0.0
  0
LINE
  5
185
330
1F
100
AcDbEntity
  8
0
 62
     2
100
AcDbLine
 10
68.58607118741236
 20
231.2537009631127
 30
0.0
 11
68.58607118741588
 21
230.6037008926959
 31
0.0
  0
LINE
  5
186
330
1F
100
AcDbEntity
  8
0
 62
     2
100
AcDbLine
 10
69.98607118741472
 20
230.6037008926959
 30
0.0
 11
69.9860711874174
 21
231.0537009631003
 31
0.0
  0
LINE
  5
187
330
1F
100
AcDbEntity
  8
0
 62
     2
100
AcDbLine
 10
69.78607118741468
 20
230.6037008926959
 30
0.0
 11
69.7860711874186
 21
231.2537009630997
 31
0.0
  0
LINE
  5
188
330
1F
100
AcDbEntity
  8
0
 62
     2
100
AcDbLine
 10
77.88607093458063
 20
231.0537009631258
 30
0.0
 11
77.88607093455732
 21
230.6037008926959
 31
0.0
  0
LINE
  5
189
330
1F
100
AcDbEntity
  8
0
 62
     2
100
AcDbLine
 10
78.08607093459102
 20
231.2537009631265
 30
0.0
 11
78.08607093455731
 21
230.6037008926959
 31
0.0
  0
LINE
  5
18A
330
1F
100
AcDbEntity
  8
0
 62
     2
100
AcDbLine
 10
79.48607093452517
 20
230.6037008926959
 30
0.0
 11
79.48607093451938
 21
231.0537009630929
 31
0.0
  0
LINE
  5
18B
330
1F
100
AcDbEntity
  8
0
 62
     2
100
AcDbLine
 10
79.28607093452518
 20
230.6037008926959
 30
0.0
 11
79.28607093451677
 21
231.2537009630928
 31
0.0
  0
LINE
  5
18C
330
1F
100
AcDbEntity
  8
0
 62
     2
100
AcDbLine
 10
69.9860711874174
 20
231.0537009631003
 30
0.0
 11
77.88607093458063
 21
231.0537009631258
 31
0.0
  0
LINE
  5
18D
330
1F
100
AcDbEntity
  8
0
 62
     2
100
AcDbLine
 10
69.7860711874186
 20
231.2537009630997
 30
0.0
 11
78.08607093459102
 21
231.2537009631265
 31
0.0
  0
LINE
  5
18E
330
1F
100
AcDbEntity
  8
0
 62
     2
100
AcDbLine
 10
54.98607776371017
 20
211.0537009901768
 30
0.0
 11
54.98607776370704
 21
213.1537007373392
 31
0.0
  0
LINE
  5
18F
330
1F
100
AcDbEntity
  8
0
 62
     2
100
AcDbLine
 10
54.78607776371047
 20
210.8537009901659
 30
0.0
 11
54.78607776370671
 21
213.3537007373362
 31
0.0
  0
LINE
  5
190
330
1F
100
AcDbEntity
  8
0
 62
     2
100
AcDbLine
 10
92.88607036790984
 20
213.1537007373364
 30
0.0
 11
92.88607036791058
 21
211.0537009901912
 31
0.0
  0
LINE
  5
191
330
1F
100
AcDbEntity
  8
0
 62
     2
100
AcDbLine
 10
93.08607036790977
 20
213.3537007373415
 30
0.0
 11
93.08607036791062
 21
210.8537009901862
 31
0.0
  0
LINE
  5
192
330
1F
100
AcDbEntity
  8
0
 62
     2
100
AcDbLine
 10
54.78607776370592
 20
206.5537009902224
 30
0.0
 11
54.7860777637062
 21
207.0537009902189
 31
0.0
  0
LINE
  5
193
330
1F
100
AcDbEntity
  8
0
 62
     2
100
AcDbLine
 10
54.78607776370626
 20
213.6537007373429
 30
0.0
 11
54.78607776370552
 21
214.1537007373362
 31
0.0
  0
LINE
  5
194
330
1F
100
AcDbEntity
  8
0
 62
     2
100
AcDbLine
 10
54.78607776369182
 20
217.153700737945
 30
0.0
 11
54.78607776369211
 21
217.6537007373678
 31
0.0
  0
LINE
  5
195
330
1F
100
AcDbEntity
  8
0
 62
     2
100
AcDbLine
 10
54.78607776371166
 20
210.0537009911372
 30
0.0
 11
54.78607776371092
 21
210.5537009901926
 31
0.0
  0
LINE
  5
196
330
1F
100
AcDbEntity
  8
0
 62
     2
100
AcDbLine
 10
68.88607113318886
 20
192.9537009631001
 30
0.0
 11
68.38607113319836
 21
192.9537009631
 31
0.0
  0
LINE
  5
197
330
1F
100
AcDbEntity
  8
0
 62
     2
100
AcDbLine
 10
72.38607113322684
 20
192.9537009631
 30
0.0
 11
71.88607113322308
 21
192.953700963099
 31
0.0
  0
LINE
  5
198
330
1F
100
AcDbEntity
  8
0
 62
     2
100
AcDbLine
 10
79.48607138610453
 20
192.9537009631082
 30
0.0
 11
78.98607138609981
 21
192.9537009631071
 31
0.0
  0
LINE
  5
199
330
1F
100
AcDbEntity
  8
0
 62
     2
100
AcDbLine
 10
75.98607138611192
 20
192.9537009631077
 30
0.0
 11
75.48607138609839
 21
192.9537009631066
 31
0.0
  0
LINE
  5
19A
330
1F
100
AcDbEntity
  8
0
 62
     2
100
AcDbLine
 10
93.08607036791409
 20
207.053700990194
 30
0.0
 11
93.08607036791295
 21
206.5537009901986
 31
0.0
  0
LINE
  5
19B
330
1F
100
AcDbEntity
  8
0
 62
     2
100
AcDbLine
 10
93.08607036791074
 20
210.5537009901988
 30
0.0
 11
93.0860703679109
 21
210.0537009901862
 31
0.0
  0
LINE
  5
19C
330
1F
100
AcDbEntity
  8
0
 62
     2
100
AcDbLine
 10
93.08607036790954
 20
214.1537007373415
 30
0.0
 11
93.08607036790971
 21
213.6537007373288
 31
0.0
  0
LINE
  5
19D
330
1F
100
AcDbEntity
  8
0
 62
     2
100
AcDbLine
 10
93.08607036791767
 20
217.6537007373149
 30
0.0
 11
93.0860703679175
 21
217.1537007373067
 31
0.0
  0
ARC
  5
19E
330
1F
100
AcDbEntity
  8
0
 62
     2
100
AcDbCircle
 10
66.93644182860828
 20
200.1037008926932
 30
0.0
 40
2.0
100
AcDbArc
 50
180.0
 51
270.0000000000041
  0
LINE
  5
19F
330
1F
100
AcDbEntity
  8
0
 62
     2
100
AcDbLine
 10
66.9364418286084
 20
198.1037008926922
 30
0.0
 11
81.43644182861027
 21
198.1037008926942
 31
0.0
  0
ARC
  5
1A0
330
1F
100
AcDbEntity
  8
0
 62
     2
100
AcDbCircle
 10
81.43644182861016
 20
200.1037008926942
 30
0.0
 40
2.0
100
AcDbArc
 50
270.0000000000041
 51
359.9999999999999
  0
LINE
  5
1A1
330
1F
100
AcDbEntity
  8
0
 62
     2
100
AcDbLine
 10
83.43644182861016
 20
200.1037008926943
 30
0.0
 11
83.43644182860987
 21
228.6037008926961
 31
0.0
  0
ARC
  5
1A2
330
1F
100
AcDbEntity
  8
0
 62
     2
100
AcDbCircle
 10
81.43644182860999
 20
228.603700892696
 30
0.0
 40
2.0
100
AcDbArc
 50
0.0
 51
89.99999999999756
  0
LINE
  5
1A3
330
1F
100
AcDbEntity
  8
0
 62
     2
100
AcDbLine
 10
68.3860711874159
 20
230.6037008926959
 30
0.0
 11
66.93644182860788
 21
230.6037008926959
 31
0.0
  0
LINE
  5
1A4
330
1F
100
AcDbEntity
  8
0
 62
     2
100
AcDbLine
 10
70.23607118741421
 20
230.6037008926959
 30
0.0
 11
69.98607118741467
 21
230.6037008926959
 31
0.0
  0
LINE
  5
1A5
330
1F
100
AcDbEntity
  8
0
 62
     2
100
AcDbLine
 10
77.88607093455732
 20
230.6037008926959
 30
0.0
 11
70.23607118741421
 21
230.6037008926959
 31
0.0
  0
LINE
  5
1A6
330
1F
100
AcDbEntity
  8
0
 62
     2
100
AcDbLine
 10
81.43644182860987
 20
230.6037008926959
 30
0.0
 11
79.48607093452517
 21
230.6037008926959
 31
0.0
  0
ARC
  5
1A7
330
1F
100
AcDbEntity
  8
0
 62
     2
100
AcDbCircle
 10
66.93644182860788
 20
228.6037008926959
 30
0.0
 40
2.0
100
AcDbArc
 50
90.00000000000162
 51
180.0000000000016
  0
LINE
  5
1A8
330
1F
100
AcDbEntity
  8
0
 62
     2
100
AcDbLine
 10
64.93644182860788
 20
228.6037008926959
 30
0.0
 11
64.93644182860828
 21
200.1037008926932
 31
0.0
  0
LINE
  5
1A9
330
1F
100
AcDbEntity
  8
0
 62
     2
100
AcDbLine
 10
93.08607036760992
 20
217.1537007373434
 30
0.0
 11
93.08607036760992
 21
214.1537007373434
 31
0.0
  0
LINE
  5
1AA
330
1F
100
AcDbEntity
  8
0
 62
     2
100
AcDbLine
 10
93.08607036762311
 20
210.0537009632872
 30
0.0
 11
93.08607036762311
 21
207.0537009632872
 31
0.0
  0
LINE
  5
1AB
330
1F
100
AcDbEntity
  8
0
 62
     2
100
AcDbLine
 10
78.98607138611584
 20
192.9537009609091
 30
0.0
 11
75.98607138611584
 21
192.9537009609091
 31
0.0
  0
LINE
  5
1AC
330
1F
100
AcDbEntity
  8
0
 62
     2
100
AcDbLine
 10
71.8860711332349
 20
192.953700966002
 30
0.0
 11
68.8860711332349
 21
192.953700966002
 31
0.0
  0
LINE
  5
1AD
330
1F
100
AcDbEntity
  8
0
 62
     2
100
AcDbLine
 10
54.78607776369165
 20
214.1537007373731
 30
0.0
 11
54.78607776369165
 21
217.1537007373731
 31
0.0
  0
LINE
  5
1AE
330
1F
100
AcDbEntity
  8
0
 62
     2
100
AcDbLine
 10
54.78607776371121
 20
207.0537009901659
 30
0.0
 11
54.78607776371121
 21
210.0537009901659
 31
0.0
  0
ARC
  5
1AF
330
1F
100
AcDbEntity
  8
0
 62
     2
100
AcDbCircle
 10
91.88607036761204
 20
216.1537007373267
 30
0.0
 40
1.0
100
AcDbArc
 50
89.99999999904573
 51
179.9999999999333
  0
ARC
  5
1B0
330
1F
100
AcDbEntity
  8
0
 62
     2
100
AcDbCircle
 10
91.88607036761647
 20
209.053700990216
 30
0.0
 40
1.0
100
AcDbArc
 50
89.99999999857756
 51
179.9999999996246
  0
ARC
  5
1B1
330
1F
100
AcDbEntity
  8
0
 62
     2
100
AcDbCircle
 10
91.88607036761084
 20
215.1537007373107
 30
0.0
 40
1.0
100
AcDbArc
 50
180.0
 51
270.00000000154
  0
ARC
  5
1B2
330
1F
100
AcDbEntity
  8
0
 62
     2
100
AcDbCircle
 10
91.88607036760993
 20
208.0537009902076
 30
0.0
 40
1.0
100
AcDbArc
 50
180.0
 51
269.9999999997243
  0
ARC
  5
1B3
330
1F
100
AcDbEntity
  8
0
 62
     2
100
AcDbCircle
 10
76.9860713860769
 20
194.1537009609146
 30
0.0
 40
1.0
100
AcDbArc
 50
89.99999999963116
 51
180.0000000016731
  0
ARC
  5
1B4
330
1F
100
AcDbEntity
  8
0
 62
     2
100
AcDbCircle
 10
69.88607113321143
 20
194.1537009660208
 30
0.0
 40
1.0
100
AcDbArc
 50
89.99999999967187
 51
179.999999998922
  0
ARC
  5
1B5
330
1F
100
AcDbEntity
  8
0
 62
     2
100
AcDbCircle
 10
70.8860711332295
 20
194.153700966015
 30
0.0
 40
1.0
100
AcDbArc
 50
0.0
 51
89.99999999967213
  0
ARC
  5
1B6
330
1F
100
AcDbEntity
  8
0
 62
     2
100
AcDbCircle
 10
77.9860713861085
 20
194.1537009609081
 30
0.0
 40
1.0
100
AcDbArc
 50
0.0
 51
89.99999999963097
  0
ARC
  5
1B7
330
1F
100
AcDbEntity
  8
0
 62
     2
100
AcDbCircle
 10
55.98607036762473
 20
216.1537007373597
 30
0.0
 40
1.0
100
AcDbArc
 50
0.0
 51
89.9999999993588
  0
ARC
  5
1B8
330
1F
100
AcDbEntity
  8
0
 62
     2
100
AcDbCircle
 10
55.98607036760637
 20
209.0537009902319
 30
0.0
 40
1.0
100
AcDbArc
 50
0.0
 51
90.00000000281737
  0
ARC
  5
1B9
330
1F
100
AcDbEntity
  8
0
 62
     2
100
AcDbCircle
 10
55.98607036761052
 20
215.1537007373541
 30
0.0
 40
1.0
100
AcDbArc
 50
270.0000000008529
 51
0.0
  0
ARC
  5
1BA
330
1F
100
AcDbEntity
  8
0
 62
     2
100
AcDbCircle
 10
55.98607036761223
 20
208.0537009902267
 30
0.0
 40
1.0
100
AcDbArc
 50
270.0000000003745
 51
0.0
  0
LINE
  5
1BB
330
1F
100
AcDbEntity
  8
0
 62
     2
100
AcDbLine
 10
91.88607036764131
 20
210.053700990216
 30
0.0
 11
91.88607036766615
 21
211.053700990216
 31
0.0
  0
LINE
  5
1BC
330
1F
100
AcDbEntity
  8
0
 62
     2
100
AcDbLine
 10
90.88607036761647
 20
209.0537009902226
 30
0.0
 11
89.88607036761647
 21
209.0537009902291
 31
0.0
  0
LINE
  5
1BD
330
1F
100
AcDbEntity
  8
0
 62
     2
100
AcDbLine
 10
90.88607036760993
 20
208.0537009902142
 30
0.0
 11
89.88607036760993
 21
208.0537009902208
 31
0.0
  0
LINE
  5
1BE
330
1F
100
AcDbEntity
  8
0
 62
     2
100
AcDbLine
 10
91.88607036759856
 20
207.0537009902076
 30
0.0
 11
91.8860703675872
 21
206.0537009902076
 31
0.0
  0
LINE
  5
1BF
330
1F
100
AcDbEntity
  8
0
 62
     2
100
AcDbLine
 10
91.88607036762869
 20
217.1537007373267
 30
0.0
 11
91.8860703676454
 21
218.1537007373267
 31
0.0
  0
LINE
  5
1C0
330
1F
100
AcDbEntity
  8
0
 62
     2
100
AcDbLine
 10
90.88607036761204
 20
216.1537007373279
 30
0.0
 11
89.88607036761204
 21
216.1537007373291
 31
0.0
  0
LINE
  5
1C1
330
1F
100
AcDbEntity
  8
0
 62
     2
100
AcDbLine
 10
90.8860703676109
 20
215.1537007373118
 30
0.0
 11
89.8860703676109
 21
215.153700737313
 31
0.0
  0
LINE
  5
1C2
330
1F
100
AcDbEntity
  8
0
 62
     2
100
AcDbLine
 10
91.88607036763659
 20
214.1537007373107
 30
0.0
 11
91.88607036766228
 21
213.1537007373107
 31
0.0
  0
LINE
  5
1C3
330
1F
100
AcDbEntity
  8
0
 62
     2
100
AcDbLine
 10
71.8860711332295
 20
194.1537009660097
 30
0.0
 11
72.8860711332295
 21
194.1537009660043
 31
0.0
  0
LINE
  5
1C4
330
1F
100
AcDbEntity
  8
0
 62
     2
100
AcDbLine
 10
70.88607113323525
 20
195.153700966015
 30
0.0
 11
70.88607113324099
 21
196.153700966015
 31
0.0
  0
LINE
  5
1C5
330
1F
100
AcDbEntity
  8
0
 62
     2
100
AcDbLine
 10
69.88607113321717
 20
195.1537009660208
 30
0.0
 11
69.88607113322286
 21
196.1537009660208
 31
0.0
  0
LINE
  5
1C6
330
1F
100
AcDbEntity
  8
0
 62
     2
100
AcDbLine
 10
68.88607113321143
 20
194.1537009660396
 30
0.0
 11
67.88607113321143
 21
194.1537009660584
 31
0.0
  0
LINE
  5
1C7
330
1F
100
AcDbEntity
  8
0
 62
     2
100
AcDbLine
 10
78.9860713861085
 20
194.1537009609009
 30
0.0
 11
79.9860713861085
 21
194.1537009608936
 31
0.0
  0
LINE
  5
1C8
330
1F
100
AcDbEntity
  8
0
 62
     2
100
AcDbLine
 10
77.98607138611499
 20
195.1537009609081
 30
0.0
 11
77.98607138612141
 21
196.1537009609081
 31
0.0
  0
LINE
  5
1C9
330
1F
100
AcDbEntity
  8
0
 62
     2
100
AcDbLine
 10
76.98607138608338
 20
195.1537009609146
 30
0.0
 11
76.9860713860898
 21
196.1537009609146
 31
0.0
  0
LINE
  5
1CA
330
1F
100
AcDbEntity
  8
0
 62
     2
100
AcDbLine
 10
75.9860713860769
 20
194.1537009608854
 30
0.0
 11
74.9860713860769
 21
194.1537009608562
 31
0.0
  0
LINE
  5
1CB
330
1F
100
AcDbEntity
  8
0
 62
     2
100
AcDbLine
 10
55.98607036761877
 20
207.0537009902267
 30
0.0
 11
55.9860703676253
 21
206.0537009902267
 31
0.0
  0
LINE
  5
1CC
330
1F
100
AcDbEntity
  8
0
 62
     2
100
AcDbLine
 10
56.98607036761223
 20
208.0537009902326
 30
0.0
 11
57.98607036761223
 21
208.0537009902384
 31
0.0
  0
LINE
  5
1CD
330
1F
100
AcDbEntity
  8
0
 62
     2
100
AcDbLine
 10
56.98607036760637
 20
209.0537009902377
 30
0.0
 11
57.98607036760637
 21
209.0537009902436
 31
0.0
  0
LINE
  5
1CE
330
1F
100
AcDbEntity
  8
0
 62
     2
100
AcDbLine
 10
55.98607036755135
 20
210.0537009902319
 30
0.0
 11
55.98607036749638
 21
211.0537009902319
 31
0.0
  0
LINE
  5
1CF
330
1F
100
AcDbEntity
  8
0
 62
     2
100
AcDbLine
 10
55.98607036762542
 20
214.1537007373541
 30
0.0
 11
55.98607036764031
 21
213.1537007373541
 31
0.0
  0
LINE
  5
1D0
330
1F
100
AcDbEntity
  8
0
 62
     2
100
AcDbLine
 10
56.98607036761052
 20
215.1537007373399
 30
0.0
 11
57.98607036761052
 21
215.1537007373257
 31
0.0
  0
LINE
  5
1D1
330
1F
100
AcDbEntity
  8
0
 62
     2
100
AcDbLine
 10
56.98607036762473
 20
216.1537007373455
 30
0.0
 11
57.98607036762473
 21
216.1537007373313
 31
0.0
  0
LINE
  5
1D2
330
1F
100
AcDbEntity
  8
0
 62
     2
100
AcDbLine
 10
55.98607036763593
 20
217.1537007373597
 30
0.0
 11
55.98607036764713
 21
218.1537007373597
 31
0.0
  0
LINE
  5
1D3
330
1F
100
AcDbEntity
  8
0
 62
     2
100
AcDbLine
 10
54.78607776369807
 20
227.4563767107954
 30
0.0
 11
54.98607776369806
 21
227.4563767107953
 31
0.0
  0
LINE
  5
1D4
330
1F
100
AcDbEntity
  8
0
 62
     2
100
AcDbLine
 10
55.65438924688431
 20
227.9930413621281
 30
0.0
 11
55.56495208582226
 21
227.814153145017
 31
0.0
  0
LINE
  5
1D5
330
1F
100
AcDbEntity
  8
0
 62
     2
100
AcDbLine
 10
56.52439101778515
 20
227.5580742649935
 30
0.0
 11
56.43495385672304
 21
227.3791860478825
 31
0.0
  0
LINE
  5
1D6
330
1F
100
AcDbEntity
  8
0
 62
     2
100
AcDbLine
 10
57.00057694694925
 20
227.3524573372384
 30
0.0
 11
56.928407510797
 21
227.5389823288226
 31
0.0
  0
LINE
  5
1D7
330
1F
100
AcDbEntity
  8
0
 62
     2
100
AcDbLine
 10
58.68732043421755
 20
229.0391993107126
 30
0.0
 11
58.50079550740304
 21
229.1113689142646
 31
0.0
  0
LINE
  5
1D8
330
1F
100
AcDbEntity
  8
0
 62
     2
100
AcDbLine
 10
58.66059285483942
 20
229.6048213618569
 30
0.0
 11
58.48170439076188
 21
229.515384694768
 31
0.0
  0
LINE
  5
1D9
330
1F
100
AcDbEntity
  8
0
 62
     2
100
AcDbLine
 10
58.04673804860232
 20
230.3853909618511
 30
0.0
 11
58.22562651267987
 21
230.47482762894
 31
0.0
  0
LINE
  5
1DA
330
1F
100
AcDbEntity
  8
0
 62
     2
100
AcDbLine
 10
58.58340344083524
 20
231.2537009631178
 30
0.0
 11
58.58340344083518
 21
231.0537009631178
 31
0.0
  0
LINE
  5
1DB
330
1F
100
AcDbEntity
  8
0
 62
     2
100
AcDbLine
 10
58.58340160515797
 20
192.9537009630984
 30
0.0
 11
58.58340160515792
 21
193.1537009630984
 31
0.0
  0
LINE
  5
1DC
330
1F
100
AcDbEntity
  8
0
 62
     2
100
AcDbLine
 10
58.04673695381922
 20
193.8220124462734
 30
0.0
 11
58.22562517093206
 21
193.7325752852151
 31
0.0
  0
LINE
  5
1DD
330
1F
100
AcDbEntity
  8
0
 62
     2
100
AcDbLine
 10
58.48170405093788
 20
194.6920142171878
 30
0.0
 11
58.66059226805078
 21
194.6025770561295
 31
0.0
  0
LINE
  5
1DE
330
1F
100
AcDbEntity
  8
0
 62
     2
100
AcDbLine
 10
58.68732097869298
 20
195.1682001463518
 30
0.0
 11
58.50079598710886
 21
195.0960307101996
 31
0.0
  0
LINE
  5
1DF
330
1F
100
AcDbEntity
  8
0
 62
     2
100
AcDbLine
 10
57.00057900521875
 20
196.8549436336203
 30
0.0
 11
56.92840940166673
 21
196.6684187068058
 31
0.0
  0
LINE
  5
1E0
330
1F
100
AcDbEntity
  8
0
 62
     2
100
AcDbLine
 10
56.43495695407466
 20
196.8282160542423
 30
0.0
 11
56.52439362116343
 21
196.6493275901647
 31
0.0
  0
LINE
  5
1E1
330
1F
100
AcDbEntity
  8
0
 62
     2
100
AcDbLine
 10
55.65438776496802
 20
196.2143614534321
 30
0.0
 11
55.56495109787926
 21
196.3932499175097
 31
0.0
  0
LINE
  5
1E2
330
1F
100
AcDbEntity
  8
0
 62
     2
100
AcDbLine
 10
54.78607776370143
 20
196.7510268456651
 30
0.0
 11
54.98607776370142
 21
196.751026845665
 31
0.0
  0
LINE
  5
1E3
330
1F
100
AcDbEntity
  8
0
 62
     2
100
AcDbLine
 10
93.08607036789101
 20
196.7510256261845
 30
0.0
 11
92.88607036789097
 21
196.7510256261849
 31
0.0
  0
LINE
  5
1E4
330
1F
100
AcDbEntity
  8
0
 62
     2
100
AcDbLine
 10
92.21775888472172
 20
196.2143609748429
 30
0.0
 11
92.30719604577814
 21
196.3932491919568
 31
0.0
  0
LINE
  5
1E5
330
1F
100
AcDbEntity
  8
0
 62
     2
100
AcDbLine
 10
91.347757113998
 20
196.6493280718546
 30
0.0
 11
91.43719427505442
 21
196.8282162889684
 31
0.0
  0
LINE
  5
1E6
330
1F
100
AcDbEntity
  8
0
 62
     2
100
AcDbLine
 10
90.8715711848343
 20
196.8549449996096
 30
0.0
 11
90.94374062098643
 21
196.6684200080254
 31
0.0
  0
LINE
  5
1E7
330
1F
100
AcDbEntity
  8
0
 62
     2
100
AcDbLine
 10
89.1848276975656
 20
195.1682030261356
 30
0.0
 11
89.37135262438005
 21
195.0960334225836
 31
0.0
  0
LINE
  5
1E8
330
1F
100
AcDbEntity
  8
0
 62
     2
100
AcDbLine
 10
89.21155527694413
 20
194.6025809749899
 30
0.0
 11
89.39044374102156
 21
194.6920176420791
 31
0.0
  0
LINE
  5
1E9
330
1F
100
AcDbEntity
  8
0
 62
     2
100
AcDbLine
 10
89.82541028846492
 20
193.8220109643977
 30
0.0
 11
89.64652182438749
 21
193.7325742973084
 31
0.0
  0
LINE
  5
1EA
330
1F
100
AcDbEntity
  8
0
 62
     2
100
AcDbLine
 10
89.2887448962341
 20
192.95370096313
 30
0.0
 11
89.28874489623365
 21
193.15370096313
 31
0.0
  0
LINE
  5
1EB
330
1F
100
AcDbEntity
  8
0
 62
     2
100
AcDbLine
 10
89.28874652645862
 20
231.2537009630974
 30
0.0
 11
89.28874652645868
 21
231.0537009630974
 31
0.0
  0
LINE
  5
1EC
330
1F
100
AcDbEntity
  8
0
 62
     2
100
AcDbLine
 10
89.82541117779465
 20
230.3853894799166
 30
0.0
 11
89.64652296068277
 21
230.4748266409769
 31
0.0
  0
LINE
  5
1ED
330
1F
100
AcDbEntity
  8
0
 62
     2
100
AcDbLine
 10
89.39044408067514
 20
229.5153877090236
 30
0.0
 11
89.2115558635632
 21
229.6048248700838
 31
0.0
  0
LINE
  5
1EE
330
1F
100
AcDbEntity
  8
0
 62
     2
100
AcDbLine
 10
89.18482715292009
 20
229.0392017798594
 30
0.0
 11
89.37135214450421
 21
229.1113712160116
 31
0.0
  0
LINE
  5
1EF
330
1F
100
AcDbEntity
  8
0
 62
     2
100
AcDbLine
 10
90.87156912639426
 20
227.3524582925912
 30
0.0
 11
90.94373872994629
 21
227.5389832194056
 31
0.0
  0
LINE
  5
1F0
330
1F
100
AcDbEntity
  8
0
 62
     2
100
AcDbLine
 10
91.43719117753022
 20
227.3791858719651
 30
0.0
 11
91.34775451044374
 21
227.5580743360438
 31
0.0
  0
LINE
  5
1F1
330
1F
100
AcDbEntity
  8
0
 62
     2
100
AcDbLine
 10
92.21776036666222
 20
227.9930404727739
 30
0.0
 11
92.30719703374871
 21
227.8141520086952
 31
0.0
  0
LINE
  5
1F2
330
1F
100
AcDbEntity
  8
0
 62
     2
100
AcDbLine
 10
93.0860703679217
 20
227.4563750805377
 30
0.0
 11
92.88607036792172
 21
227.4563750805377
 31
0.0
  0
ARC
  5
1F3
330
1F
100
AcDbEntity
  8
Outline
 62
     3
100
AcDbCircle
 10
92.58607036791773
 20
217.653700737315
 30
0.0
 40
0.5
100
AcDbArc
 50
269.9999999990425
 51
0.0
  0
ARC
  5
1F4
330
1F
100
AcDbEntity
  8
Outline
 62
     3
100
AcDbCircle
 10
92.58607036791074
 20
210.5537009901986
 30
0.0
 40
0.5
100
AcDbArc
 50
269.9999999985735
 51
0.0
  0
LINE
  5
1F5
330
1F
100
AcDbEntity
  8
Outline
 62
     3
100
AcDbLine
 10
72.88607113322418
 20
193.1537009631121
 30
0.0
 11
74.9860713861061
 21
193.1537009631121
 31
0.0
  0
ARC
  5
1F6
330
1F
100
AcDbEntity
  8
Outline
 62
     3
100
AcDbCircle
 10
55.28607776370626
 20
213.6537007373437
 30
0.0
 40
0.5
100
AcDbArc
 50
90.00000000085329
 51
179.9999999597253
  0
ARC
  5
1F7
330
1F
100
AcDbEntity
  8
Outline
 62
     3
100
AcDbCircle
 10
55.28607776370592
 20
206.5537009902222
 30
0.0
 40
0.5
100
AcDbArc
 50
90.00000000037129
 51
179.9999999596113
  0
DIMENSION
  5
200
330
1F
100
AcDbEntity
  8
Dimension
100
AcDbDimension
280
     0
  2
*D7
 10
176.5163143949268
 20
191.8537009631042
 30
0.0
 11
176.5163143949268
 21
212.8817300891813
 31
0.0
 70
   160
 71
     5
 42
40.49999999999801
 73
     0
 74
     0
 75
     0
  3
VCDDIMSTYLE01
100
AcDbAlignedDimension
 13
164.4360633829942
 23
232.3537009631022
 33
0.0
 14
164.4360633829941
 24
191.8537009631042
 34
0.0
 50
90.0
100
AcDbRotatedDimension
1001
ACAD
1000
DSTYLE
1002
{
1070
   271
1070
     4
1002
}
  0
DIMENSION
  5
20E
330
1F
100
AcDbEntity
  8
Dimension
100
AcDbDimension
280
     0
  2
*D8
 10
166.6860629721168
 20
242.3246042039694
 30
0.0
 11
146.6000526096068
 21
242.3246042039694
 31
0.0
 70
   160
 71
     5
 42
40.49999260420493
 73
     0
 74
     0
 75
     0
  3
VCDDIMSTYLE01
100
AcDbAlignedDimension
 13
126.1860703679119
 23
230.1037009631022
 33
0.0
 14
166.6860629721168
 24
230.1037009631023
 34
0.0
100
AcDbRotatedDimension
1001
ACAD
1000
DSTYLE
1002
{
1070
   271
1070
     4
1002
}
  0
DIMENSION
  5
21D
330
1F
100
AcDbEntity
  8
Dimension
100
AcDbDimension
280
     0
  2
*D9
 10
99.96260363748215
 20
153.3537009631039
 30
0.0
 11
99.96260363748215
 21
174.948939058342
 31
0.0
 70
   160
 71
     5
 42
6.5
 73
     0
 74
     0
 75
     0
  3
VCDDIMSTYLE01
100
AcDbAlignedDimension
 13
90.43644182861038
 23
159.8537009631039
 33
0.0
 14
92.8860703679225
 24
153.3537009631039
 34
0.0
 50
90.0
100
AcDbRotatedDimension
  0
INSERT
  5
252
330
1F
100
AcDbEntity
  8
Outline
100
AcDbBlockReference
  2
$TitleBlock elphel_parts
 10
200.0
 20
10.0
 30
0.0
  0
INSERT
  5
258
330
1F
100
AcDbEntity
  8
Outline
100
AcDbBlockReference
  2
Sheet Border
 10
0.0
 20
0.0
 30
0.0
  0
CIRCLE
  5
25B
330
1F
100
AcDbEntity
  8
0
 62
     2
100
AcDbCircle
 10
164.4360633829944
 20
194.1037009631043
 30
0.0
 40
1.350000000000001
  0
CIRCLE
  5
25C
330
1F
100
AcDbEntity
  8
0
 62
     2
100
AcDbCircle
 10
164.4360629721169
 20
230.1037009631023
 30
0.0
 40
1.350000000000001
  0
CIRCLE
  5
25D
330
1F
100
AcDbEntity
  8
0
 62
     2
100
AcDbCircle
 10
128.4360699570346
 20
230.1037009631022
 30
0.0
 40
1.350000000000001
  0
CIRCLE
  5
25E
330
1F
100
AcDbEntity
  8
0
 62
     2
100
AcDbCircle
 10
128.4360703679117
 20
194.1037013739817
 30
0.0
 40
1.350000000000001
  0
ARC
  5
25F
330
1F
100
AcDbEntity
  8
0
 62
     2
100
AcDbCircle
 10
164.4360629721168
 20
194.1037009631042
 30
0.0
 40
2.250000000000037
100
AcDbArc
 50
270.0000104629068
 51
0.0000104629075859
  0
LINE
  5
260
330
1F
100
AcDbEntity
  8
0
 62
     2
100
AcDbLine
 10
166.6860629721169
 20
230.1037009631159
 30
0.0
 11
166.6860629721168
 21
194.1037009631014
 31
0.0
  0
ARC
  5
261
330
1F
100
AcDbEntity
  8
0
 62
     2
100
AcDbCircle
 10
164.4360629721169
 20
230.1037009631023
 30
0.0
 40
2.24999999999998
100
AcDbArc
 50
0.0
 51
89.99998953709537
  0
LINE
  5
262
330
1F
100
AcDbEntity
  8
0
 62
     2
100
AcDbLine
 10
128.4360703679133
 20
232.3537009631029
 30
0.0
 11
164.4360629721061
 21
232.3537009631015
 31
0.0
  0
ARC
  5
263
330
1F
100
AcDbEntity
  8
0
 62
     2
100
AcDbCircle
 10
128.4360703679119
 20
230.1037009631023
 30
0.0
 40
2.25
100
AcDbArc
 50
90.00001046290467
 51
180.0000000000029
  0
LINE
  5
264
330
1F
100
AcDbEntity
  8
0
 62
     2
100
AcDbLine
 10
126.1860703679126
 20
194.1037009631024
 30
0.0
 11
126.1860703679126
 21
230.1037009631159
 31
0.0
  0
ARC
  5
265
330
1F
100
AcDbEntity
  8
0
 62
     2
100
AcDbCircle
 10
128.4360703679119
 20
194.1037009631044
 30
0.0
 40
2.250000000000037
100
AcDbArc
 50
179.9999895783645
 51
269.9999895783616
  0
LINE
  5
266
330
1F
100
AcDbEntity
  8
0
 62
     2
100
AcDbLine
 10
164.4360629721061
 20
191.8537009631039
 30
0.0
 11
128.4360703679133
 21
191.8537009631046
 31
0.0
  0
LINE
  5
267
330
1F
100
AcDbEntity
  8
0
 62
     2
100
AcDbLine
 10
155.4356989072159
 20
228.6037008926958
 30
0.0
 11
155.4356989072155
 21
200.1037008926931
 31
0.0
  0
ARC
  5
268
330
1F
100
AcDbEntity
  8
0
 62
     2
100
AcDbCircle
 10
153.4356989072159
 20
228.6037008926958
 30
0.0
 40
2.0
100
AcDbArc
 50
0.0
 51
89.99999999999837
  0
LINE
  5
269
330
1F
100
AcDbEntity
  8
0
 62
     2
100
AcDbLine
 10
138.9356989072139
 20
230.6037008926958
 30
0.0
 11
153.4356989072159
 21
230.6037008926958
 31
0.0
  0
ARC
  5
26A
330
1F
100
AcDbEntity
  8
0
 62
     2
100
AcDbCircle
 10
138.9356989072138
 20
228.6037008926959
 30
0.0
 40
2.0
100
AcDbArc
 50
90.00000000000162
 51
179.9999999999992
  0
LINE
  5
26B
330
1F
100
AcDbEntity
  8
0
 62
     2
100
AcDbLine
 10
136.9356989072136
 20
200.1037008926942
 30
0.0
 11
136.9356989072139
 21
228.603700892696
 31
0.0
  0
ARC
  5
26C
330
1F
100
AcDbEntity
  8
0
 62
     2
100
AcDbCircle
 10
138.9356989072136
 20
200.1037008926941
 30
0.0
 40
2.0
100
AcDbArc
 50
180.0
 51
269.9999999999957
  0
LINE
  5
26D
330
1F
100
AcDbEntity
  8
0
 62
     2
100
AcDbLine
 10
153.4356989072154
 20
198.1037008926921
 30
0.0
 11
138.9356989072135
 21
198.1037008926941
 31
0.0
  0
ARC
  5
26E
330
1F
100
AcDbEntity
  8
0
 62
     2
100
AcDbCircle
 10
153.4356989072155
 20
200.1037008926931
 30
0.0
 40
2.0
100
AcDbArc
 50
269.9999999999968
 51
0.0000000000008142
  0
LINE
  5
26F
330
1F
100
AcDbEntity
  8
0
 62
     2
100
AcDbLine
 10
151.8001650012818
 20
192.6037008926941
 30
0.0
 11
141.0712328131477
 21
192.6037008926943
 31
0.0
  0
ARC
  5
270
330
1F
100
AcDbEntity
  8
0
 62
     2
100
AcDbCircle
 10
151.8001650012818
 20
195.0037008926942
 30
0.0
 40
2.400000000000005
100
AcDbArc
 50
269.9999999998568
 51
314.9999999999706
  0
LINE
  5
271
330
1F
100
AcDbEntity
  8
0
 62
     2
100
AcDbLine
 10
159.7034658601908
 20
199.5128892019092
 30
0.0
 11
153.4972212761287
 21
193.3066446178456
 31
0.0
  0
ARC
  5
272
330
1F
100
AcDbEntity
  8
0
 62
     2
100
AcDbCircle
 10
157.9356989072246
 20
201.2806561548758
 30
0.0
 40
2.5
100
AcDbArc
 50
314.9999999999959
 51
359.9999999999999
  0
LINE
  5
273
330
1F
100
AcDbEntity
  8
0
 62
     2
100
AcDbLine
 10
160.434883363323
 20
219.8037008926952
 30
0.0
 11
160.4356989072246
 21
201.2806561548758
 31
0.0
  0
ARC
  5
274
330
1F
100
AcDbEntity
  8
0
 62
     2
100
AcDbCircle
 10
162.9348829535549
 20
219.8022695157676
 30
0.0
 40
2.499999999999995
100
AcDbArc
 50
119.9697195427715
 51
179.9671952554584
  0
ARC
  5
275
330
1F
100
AcDbEntity
  8
0
 62
     2
100
AcDbCircle
 10
160.4365964432119
 20
224.1333853155517
 30
0.0
 40
2.499999999999997
100
AcDbArc
 50
299.9849407926285
 51
359.9719808835403
  0
LINE
  5
276
330
1F
100
AcDbEntity
  8
0
 62
     2
100
AcDbLine
 10
162.9356989072162
 20
229.2037008926951
 30
0.0
 11
162.9365961442791
 21
224.132162751011
 31
0.0
  0
ARC
  5
277
330
1F
100
AcDbEntity
  8
0
 62
     2
100
AcDbCircle
 10
160.5356989072162
 20
229.2037008926951
 30
0.0
 40
2.400000000000006
100
AcDbArc
 50
0.0
 51
89.99999999994031
  0
LINE
  5
278
330
1F
100
AcDbEntity
  8
0
 62
     2
100
AcDbLine
 10
132.3356989072134
 20
231.6037008926952
 30
0.0
 11
160.5356989072162
 21
231.6037008926952
 31
0.0
  0
ARC
  5
279
330
1F
100
AcDbEntity
  8
0
 62
     2
100
AcDbCircle
 10
132.3356989072134
 20
229.2037008926951
 30
0.0
 40
2.400000000000006
100
AcDbArc
 50
90.0000000001669
 51
180.0
  0
LINE
  5
27A
330
1F
100
AcDbEntity
  8
0
 62
     2
100
AcDbLine
 10
129.9355445753878
 20
224.133785644612
 30
0.0
 11
129.9356989072134
 21
229.2037008926953
 31
0.0
  0
ARC
  5
27B
330
1F
100
AcDbEntity
  8
0
 62
     2
100
AcDbCircle
 10
132.4355445751588
 20
224.1337518043725
 30
0.0
 40
2.500000000000004
100
AcDbArc
 50
179.999224438862
 51
240.0002980006641
  0
ARC
  5
27C
330
1F
100
AcDbEntity
  8
0
 62
     2
100
AcDbCircle
 10
129.9356989126721
 20
219.8035356849876
 30
0.0
 40
2.500000000000001
100
AcDbArc
 50
0.0037862817688989
 51
60.00378628176822
  0
LINE
  5
27D
330
1F
100
AcDbEntity
  8
0
 62
     2
100
AcDbLine
 10
132.4356989072134
 20
201.2806561548646
 30
0.0
 11
132.4356989072134
 21
219.8037008926953
 31
0.0
  0
ARC
  5
27E
330
1F
100
AcDbEntity
  8
0
 62
     2
100
AcDbCircle
 10
134.9356989072134
 20
201.2806561548645
 30
0.0
 40
2.5
100
AcDbArc
 50
180.0
 51
224.9999999999953
  0
LINE
  5
27F
330
1F
100
AcDbEntity
  8
0
 62
     2
100
AcDbLine
 10
139.3741765383037
 20
193.3066446178429
 30
0.0
 11
133.1679319542469
 21
199.5128892018982
 31
0.0
  0
ARC
  5
280
330
1F
100
AcDbEntity
  8
0
 62
     2
100
AcDbCircle
 10
141.0712328131477
 20
195.0037008926943
 30
0.0
 40
2.400000000000006
100
AcDbArc
 50
225.0000000001243
 51
270.0000000000583
  0
LINE
  5
281
330
1F
100
AcDbEntity
  8
0
 62
     2
100
AcDbLine
 10
57.83252951126859
 20
155.8537009631039
 30
0.0
 11
57.83252951547196
 21
153.5537009631039
 31
0.0
  0
LINE
  5
282
330
1F
100
AcDbEntity
  8
0
 62
     2
100
AcDbLine
 10
90.0396208428042
 20
155.8537009631039
 30
0.0
 11
90.03962083873341
 21
153.5537009631039
 31
0.0
  0
LINE
  5
283
330
1F
100
AcDbEntity
  8
0
 62
     2
100
AcDbLine
 10
93.08607036792249
 20
153.5537009631039
 30
0.0
 11
92.8860703679225
 21
153.3537009631039
 31
0.0
  0
LINE
  5
284
330
1F
100
AcDbEntity
  8
0
 62
     2
100
AcDbLine
 10
90.0396208428042
 20
153.5537009631039
 30
0.0
 11
89.83962084280421
 21
153.3537009631039
 31
0.0
  0
LINE
  5
285
330
1F
100
AcDbEntity
  8
0
 62
     2
100
AcDbLine
 10
57.83252951126859
 20
153.5537009631039
 30
0.0
 11
58.03252951126861
 21
153.3537009631039
 31
0.0
  0
LINE
  5
286
330
1F
100
AcDbEntity
  8
0
 62
     2
100
AcDbLine
 10
54.78607776369707
 20
153.5537009631039
 30
0.0
 11
54.98607776369707
 21
153.3537009631039
 31
0.0
  0
LINE
  5
287
330
1F
100
AcDbEntity
  8
0
 62
     2
100
AcDbLine
 10
68.38607118741346
 20
153.3537009631039
 30
0.0
 11
68.58607118741237
 21
153.5537009631039
 31
0.0
  0
LINE
  5
288
330
1F
100
AcDbEntity
  8
0
 62
     2
100
AcDbLine
 10
69.78607118741861
 20
153.5537009631039
 30
0.0
 11
69.98607118741742
 21
153.3537009631039
 31
0.0
  0
LINE
  5
289
330
1F
100
AcDbEntity
  8
0
 62
     2
100
AcDbLine
 10
77.88607093458066
 20
153.3537009631039
 30
0.0
 11
78.08607093459104
 21
153.5537009631039
 31
0.0
  0
LINE
  5
28A
330
1F
100
AcDbEntity
  8
0
 62
     2
100
AcDbLine
 10
79.28607093451679
 20
153.5537009631039
 30
0.0
 11
79.48607093451938
 21
153.3537009631039
 31
0.0
  0
LINE
  5
28B
330
1F
100
AcDbEntity
  8
0
 62
     2
100
AcDbLine
 10
55.93607735282961
 20
155.8537009631039
 30
0.0
 11
53.68607776370693
 21
155.8537009631039
 31
0.0
  0
LINE
  5
28C
330
1F
100
AcDbEntity
  8
0
 62
     2
100
AcDbLine
 10
91.93607036791053
 20
155.8537009631039
 30
0.0
 11
55.93607776371772
 21
155.8537009631039
 31
0.0
  0
LINE
  5
28D
330
1F
100
AcDbEntity
  8
0
 62
     2
100
AcDbLine
 10
94.1860703679119
 20
155.8537009631039
 30
0.0
 11
91.9360707787892
 21
155.8537009631039
 31
0.0
  0
LINE
  5
28E
330
1F
100
AcDbEntity
  8
0
 62
     2
100
AcDbLine
 10
53.68607776370693
 20
157.8537009631039
 30
0.0
 11
55.93607735282961
 21
157.8537009631039
 31
0.0
  0
LINE
  5
28F
330
1F
100
AcDbEntity
  8
0
 62
     2
100
AcDbLine
 10
91.93607036791053
 20
157.8537009631039
 30
0.0
 11
55.93607776371772
 21
157.8537009631039
 31
0.0
  0
LINE
  5
290
330
1F
100
AcDbEntity
  8
0
 62
     2
100
AcDbLine
 10
91.9360707787892
 20
157.8537009631039
 30
0.0
 11
94.1860703679119
 21
157.8537009631039
 31
0.0
  0
LINE
  5
291
330
1F
100
AcDbEntity
  8
0
 62
     2
100
AcDbLine
 10
53.68607776370692
 20
157.8537009631039
 30
0.0
 11
53.68607776370692
 21
155.8537009631039
 31
0.0
  0
LINE
  5
292
330
1F
100
AcDbEntity
  8
0
 62
     2
100
AcDbLine
 10
55.93607735282961
 20
157.8537009631039
 30
0.0
 11
55.93607735282961
 21
155.8537009631039
 31
0.0
  0
LINE
  5
293
330
1F
100
AcDbEntity
  8
0
 62
     2
100
AcDbLine
 10
91.93607036791053
 20
157.8537009631039
 30
0.0
 11
91.93607036791053
 21
155.8537009631039
 31
0.0
  0
LINE
  5
294
330
1F
100
AcDbEntity
  8
0
 62
     2
100
AcDbLine
 10
94.1860703679119
 20
157.8537009631039
 30
0.0
 11
94.1860703679119
 21
155.8537009631039
 31
0.0
  0
LINE
  5
295
330
1F
100
AcDbEntity
  8
0
 62
     2
100
AcDbLine
 10
77.88607093458066
 20
153.3537009631039
 30
0.0
 11
69.98607118741742
 21
153.3537009631039
 31
0.0
  0
LINE
  5
296
330
1F
100
AcDbEntity
  8
0
 62
     2
100
AcDbLine
 10
78.08607093459104
 20
153.5537009631039
 30
0.0
 11
69.78607118741861
 21
153.5537009631039
 31
0.0
  0
LINE
  5
297
330
1F
100
AcDbEntity
  8
0
 62
     2
100
AcDbLine
 10
55.43862462547536
 20
153.3537009631039
 30
0.0
 11
54.98607776369707
 21
153.3537009631039
 31
0.0
  0
LINE
  5
298
330
1F
100
AcDbEntity
  8
0
 62
     2
100
AcDbLine
 10
55.54032253333285
 20
153.5537009631039
 30
0.0
 11
54.78607776369707
 21
153.5537009631039
 31
0.0
  0
LINE
  5
299
330
1F
100
AcDbEntity
  8
0
 62
     2
100
AcDbLine
 10
56.39204124296361
 20
153.3537009631039
 30
0.0
 11
55.43862462548009
 21
153.3537009631039
 31
0.0
  0
LINE
  5
29A
330
1F
100
AcDbEntity
  8
0
 62
     2
100
AcDbLine
 10
56.49373915080729
 20
153.5537009631039
 30
0.0
 11
55.54032253333297
 21
153.5537009631039
 31
0.0
  0
LINE
  5
29B
330
1F
100
AcDbEntity
  8
0
 62
     2
100
AcDbLine
 10
56.91466413706233
 20
153.3537009631039
 30
0.0
 11
57.00057711552492
 21
153.3537009631039
 31
0.0
  0
LINE
  5
29C
330
1F
100
AcDbEntity
  8
0
 62
     2
100
AcDbLine
 10
56.39204124296361
 20
153.3537009631039
 30
0.0
 11
56.91466413706233
 21
153.3537009631039
 31
0.0
  0
LINE
  5
29D
330
1F
100
AcDbEntity
  8
0
 62
     2
100
AcDbLine
 10
56.49373915080729
 20
153.5537009631039
 30
0.0
 11
56.92840763120822
 21
153.5537009631039
 31
0.0
  0
LINE
  5
29E
330
1F
100
AcDbEntity
  8
0
 62
     2
100
AcDbLine
 10
57.00057716554191
 20
153.3537009631039
 30
0.0
 11
58.03252951126861
 21
153.3537009631039
 31
0.0
  0
LINE
  5
29F
330
1F
100
AcDbEntity
  8
0
 62
     2
100
AcDbLine
 10
56.92840771456984
 20
153.5537009631039
 30
0.0
 11
57.83252951547196
 21
153.5537009631039
 31
0.0
  0
LINE
  5
2A0
330
1F
100
AcDbEntity
  8
0
 62
     2
100
AcDbLine
 10
58.33252951126798
 20
153.3537009631039
 30
0.0
 11
58.03252951379062
 21
153.3537009631039
 31
0.0
  0
LINE
  5
2A1
330
1F
100
AcDbEntity
  8
0
 62
     2
100
AcDbLine
 10
58.33252951127143
 20
153.5537009631039
 30
0.0
 11
57.83252951547196
 21
153.5537009631039
 31
0.0
  0
LINE
  5
2A2
330
1F
100
AcDbEntity
  8
0
 62
     2
100
AcDbLine
 10
68.38607118741346
 20
153.3537009631039
 30
0.0
 11
58.33252951127133
 21
153.3537009631039
 31
0.0
  0
LINE
  5
2A3
330
1F
100
AcDbEntity
  8
0
 62
     2
100
AcDbLine
 10
68.58607118741237
 20
153.5537009631039
 30
0.0
 11
58.33252951127143
 21
153.5537009631039
 31
0.0
  0
LINE
  5
2A4
330
1F
100
AcDbEntity
  8
0
 62
     2
100
AcDbLine
 10
89.53962084280589
 20
153.3537009631039
 30
0.0
 11
79.48607093451938
 21
153.3537009631039
 31
0.0
  0
LINE
  5
2A5
330
1F
100
AcDbEntity
  8
0
 62
     2
100
AcDbLine
 10
89.53962084280703
 20
153.5537009631039
 30
0.0
 11
79.28607093451679
 21
153.5537009631039
 31
0.0
  0
LINE
  5
2A6
330
1F
100
AcDbEntity
  8
0
 62
     2
100
AcDbLine
 10
89.83962084036173
 20
153.3537009631039
 30
0.0
 11
89.53962084280589
 21
153.3537009631039
 31
0.0
  0
LINE
  5
2A7
330
1F
100
AcDbEntity
  8
0
 62
     2
100
AcDbLine
 10
90.03962083873341
 20
153.5537009631039
 30
0.0
 11
89.53962084280703
 21
153.5537009631039
 31
0.0
  0
LINE
  5
2A8
330
1F
100
AcDbEntity
  8
0
 62
     2
100
AcDbLine
 10
89.83962084280421
 20
153.3537009631039
 30
0.0
 11
90.87156926262008
 21
153.3537009631039
 31
0.0
  0
LINE
  5
2A9
330
1F
100
AcDbEntity
  8
0
 62
     2
100
AcDbLine
 10
90.03962083873341
 20
153.5537009631039
 30
0.0
 11
90.94373885693645
 21
153.5537009631039
 31
0.0
  0
LINE
  5
2AA
330
1F
100
AcDbEntity
  8
0
 62
     2
100
AcDbLine
 10
91.46560525576616
 20
153.3537009631039
 30
0.0
 11
91.48010385582391
 21
153.3537009631039
 31
0.0
  0
LINE
  5
2AB
330
1F
100
AcDbEntity
  8
0
 62
     2
100
AcDbLine
 10
90.87156926262017
 20
153.3537009631039
 30
0.0
 11
91.46560525576616
 21
153.3537009631039
 31
0.0
  0
LINE
  5
2AC
330
1F
100
AcDbEntity
  8
0
 62
     2
100
AcDbLine
 10
90.94373885693652
 20
153.5537009631039
 30
0.0
 11
91.37840642351061
 21
153.5537009631039
 31
0.0
  0
LINE
  5
2AD
330
1F
100
AcDbEntity
  8
0
 62
     2
100
AcDbLine
 10
92.4335242194605
 20
153.3537009631039
 30
0.0
 11
91.4801038558316
 21
153.3537009631039
 31
0.0
  0
LINE
  5
2AE
330
1F
100
AcDbEntity
  8
0
 62
     2
100
AcDbLine
 10
92.33182678715252
 20
153.5537009631039
 30
0.0
 11
91.3784064235234
 21
153.5537009631039
 31
0.0
  0
LINE
  5
2AF
330
1F
100
AcDbEntity
  8
0
 62
     2
100
AcDbLine
 10
92.88607036792249
 20
153.3537009631039
 30
0.0
 11
92.43352421946051
 21
153.3537009631039
 31
0.0
  0
LINE
  5
2B0
330
1F
100
AcDbEntity
  8
0
 62
     2
100
AcDbLine
 10
93.08607036792249
 20
153.5537009631039
 30
0.0
 11
92.33182678715252
 21
153.5537009631039
 31
0.0
  0
LINE
  5
2B1
330
1F
100
AcDbEntity
  8
0
 62
     2
100
AcDbLine
 10
77.88607093458066
 20
153.3537009631039
 30
0.0
 11
79.48607093451932
 21
153.3537009631039
 31
0.0
  0
LINE
  5
2B2
330
1F
100
AcDbEntity
  8
0
 62
     2
100
AcDbLine
 10
68.38607118741346
 20
153.3537009631039
 30
0.0
 11
69.98607118741742
 21
153.3537009631039
 31
0.0
  0
LINE
  5
2B3
330
1F
100
AcDbEntity
  8
0
 62
     2
100
AcDbLine
 10
54.78607776369823
 20
155.8537009631039
 30
0.0
 11
54.78607776369823
 21
153.5537009631039
 31
0.0
  0
LINE
  5
2B4
330
1F
100
AcDbEntity
  8
0
 62
     2
100
AcDbLine
 10
55.54032253333285
 20
155.8537009631039
 30
0.0
 11
55.54032253333285
 21
153.5537009631039
 31
0.0
  0
LINE
  5
2B5
330
1F
100
AcDbEntity
  8
0
 62
     2
100
AcDbLine
 10
56.49373915080727
 20
155.8537009631039
 30
0.0
 11
56.49373915080727
 21
153.5537009631039
 31
0.0
  0
LINE
  5
2B6
330
1F
100
AcDbEntity
  8
0
 62
     2
100
AcDbLine
 10
56.92840751079692
 20
155.8537009631039
 30
0.0
 11
56.92840751079692
 21
153.5537009631039
 31
0.0
  0
LINE
  5
2B7
330
1F
100
AcDbEntity
  8
0
 62
     2
100
AcDbLine
 10
58.33252951127143
 20
155.8537009631039
 30
0.0
 11
58.33252951127143
 21
153.5537009631039
 31
0.0
  0
LINE
  5
2B8
330
1F
100
AcDbEntity
  8
0
 62
     2
100
AcDbLine
 10
68.5860711874163
 20
155.8537009631039
 30
0.0
 11
68.5860711874163
 21
153.5537009631039
 31
0.0
  0
LINE
  5
2B9
330
1F
100
AcDbEntity
  8
0
 62
     2
100
AcDbLine
 10
69.78607118741861
 20
155.8537009631039
 30
0.0
 11
69.78607118741861
 21
153.5537009631039
 31
0.0
  0
LINE
  5
2BA
330
1F
100
AcDbEntity
  8
0
 62
     2
100
AcDbLine
 10
78.08607093459104
 20
155.8537009631039
 30
0.0
 11
78.08607093459104
 21
153.5537009631039
 31
0.0
  0
LINE
  5
2BB
330
1F
100
AcDbEntity
  8
0
 62
     2
100
AcDbLine
 10
79.28607093451679
 20
155.8537009631039
 30
0.0
 11
79.28607093451679
 21
153.5537009631039
 31
0.0
  0
LINE
  5
2BC
330
1F
100
AcDbEntity
  8
0
 62
     2
100
AcDbLine
 10
89.53962084280703
 20
155.8537009631039
 30
0.0
 11
89.53962084280703
 21
153.5537009631039
 31
0.0
  0
LINE
  5
2BD
330
1F
100
AcDbEntity
  8
0
 62
     2
100
AcDbLine
 10
90.94373872994629
 20
155.8537009631039
 30
0.0
 11
90.94373872994629
 21
153.5537009631039
 31
0.0
  0
LINE
  5
2BE
330
1F
100
AcDbEntity
  8
0
 62
     2
100
AcDbLine
 10
91.37840642352339
 20
155.8537009631039
 30
0.0
 11
91.37840642352339
 21
153.5537009631039
 31
0.0
  0
LINE
  5
2BF
330
1F
100
AcDbEntity
  8
0
 62
     2
100
AcDbLine
 10
92.33182678715252
 20
155.8537009631039
 30
0.0
 11
92.33182678715251
 21
153.5537009631039
 31
0.0
  0
LINE
  5
2C0
330
1F
100
AcDbEntity
  8
0
 62
     2
100
AcDbLine
 10
93.08607036792249
 20
155.8537009631039
 30
0.0
 11
93.08607036792249
 21
153.5537009631039
 31
0.0
  0
LINE
  5
2C1
330
1F
100
AcDbEntity
  8
0
 62
     2
100
AcDbLine
 10
92.8860703679218
 20
153.3537009631039
 30
0.0
 11
93.08607036792179
 21
153.5537009631039
 31
0.0
  0
LINE
  5
2C2
330
1F
100
AcDbEntity
  8
0
 62
     2
100
AcDbLine
 10
92.33182678715252
 20
153.5537009631039
 30
0.0
 11
92.43352421946051
 21
153.3537009631039
 31
0.0
  0
LINE
  5
2C3
330
1F
100
AcDbEntity
  8
0
 62
     2
100
AcDbLine
 10
91.48010385583159
 20
153.3537009631039
 30
0.0
 11
91.3784064235234
 21
153.5537009631039
 31
0.0
  0
LINE
  5
2C4
330
1F
100
AcDbEntity
  8
0
 62
     2
100
AcDbLine
 10
90.87156926262017
 20
153.3537009631039
 30
0.0
 11
90.94373885693652
 21
153.5537009631039
 31
0.0
  0
LINE
  5
2C5
330
1F
100
AcDbEntity
  8
0
 62
     2
100
AcDbLine
 10
89.53962084280703
 20
153.5537009631039
 30
0.0
 11
89.53962084280589
 21
153.3537009631039
 31
0.0
  0
LINE
  5
2C6
330
1F
100
AcDbEntity
  8
0
 62
     2
100
AcDbLine
 10
58.33252951127133
 20
153.3537009631039
 30
0.0
 11
58.33252951127143
 21
153.5537009631039
 31
0.0
  0
LINE
  5
2C7
330
1F
100
AcDbEntity
  8
0
 62
     2
100
AcDbLine
 10
57.0005771655419
 20
153.3537009631039
 30
0.0
 11
56.92840771456983
 21
153.5537009631039
 31
0.0
  0
LINE
  5
2C8
330
1F
100
AcDbEntity
  8
0
 62
     2
100
AcDbLine
 10
56.39204124296361
 20
153.3537009631039
 30
0.0
 11
56.49373915080729
 21
153.5537009631039
 31
0.0
  0
LINE
  5
2C9
330
1F
100
AcDbEntity
  8
0
 62
     2
100
AcDbLine
 10
55.43862462548009
 20
153.3537009631039
 30
0.0
 11
55.54032253333297
 21
153.5537009631039
 31
0.0
  0
LINE
  5
2CA
330
1F
100
AcDbEntity
  8
0
 62
     2
100
AcDbLine
 10
54.78607776369707
 20
153.5537009631039
 30
0.0
 11
54.98607776369707
 21
153.3537009631039
 31
0.0
  0
LINE
  5
2CB
330
1F
100
AcDbEntity
  8
0
 62
     2
100
AcDbLine
 10
57.43644182860757
 20
159.8537009631039
 30
0.0
 11
59.83644182860507
 21
159.8537009631039
 31
0.0
  0
LINE
  5
2CC
330
1F
100
AcDbEntity
  8
0
 62
     2
100
AcDbLine
 10
88.03644182861038
 20
159.8537009631039
 30
0.0
 11
59.83644182860758
 21
159.8537009631039
 31
0.0
  0
LINE
  5
2CD
330
1F
100
AcDbEntity
  8
0
 62
     2
100
AcDbLine
 10
88.03644182861737
 20
159.8537009631039
 30
0.0
 11
90.43644182861038
 21
159.8537009631039
 31
0.0
  0
LINE
  5
2CE
330
1F
100
AcDbEntity
  8
0
 62
     2
100
AcDbLine
 10
57.4364418286076
 20
159.8537009631039
 30
0.0
 11
57.4364418286076
 21
157.8537009631039
 31
0.0
  0
LINE
  5
2CF
330
1F
100
AcDbEntity
  8
0
 62
     2
100
AcDbLine
 10
59.83644182860507
 20
159.8537009631039
 30
0.0
 11
59.83644182860507
 21
157.8537009631039
 31
0.0
  0
LINE
  5
2D0
330
1F
100
AcDbEntity
  8
0
 62
     2
100
AcDbLine
 10
88.03644182861038
 20
159.8537009631039
 30
0.0
 11
88.03644182861038
 21
157.8537009631039
 31
0.0
  0
LINE
  5
2D1
330
1F
100
AcDbEntity
  8
0
 62
     2
100
AcDbLine
 10
90.43644182861038
 20
159.8537009631039
 30
0.0
 11
90.43644182861038
 21
157.8537009631039
 31
0.0
  0
ENDSEC
  0
SECTION
  2
OBJECTS
  0
DICTIONARY
  5
C
330
0
100
AcDbDictionary
281
     1
  3
ACAD_DETAILVIEWSTYLE
350
2D9
  3
ACAD_GROUP
350
D
  3
ACAD_LAYOUT
350
1A
  3
ACAD_MATERIAL
350
43
  3
ACAD_MLEADERSTYLE
350
6B
  3
ACAD_MLINESTYLE
350
17
  3
ACAD_PLOTSETTINGS
350
19
  3
ACAD_PLOTSTYLENAME
350
E
  3
ACAD_SCALELIST
350
47
  3
ACAD_SECTIONVIEWSTYLE
350
2DA
  3
ACAD_TABLESTYLE
350
69
  3
ACAD_VISUALSTYLE
350
2A
  3
ACDB_RECOMPOSE_DATA
350
2D6
  3
AcDbVariableDictionary
350
2D2
  0
SUN
  5
6D
330
29
100
AcDbSun
 90
        1
290
     0
 63
     7
421
 16777215
 40
1.0
291
     1
 91
  2455826
 92
 54000000
292
     0
 70
     2
 71
   256
280
     1
  0
DICTIONARY
  5
2D9
102
{ACAD_REACTORS
330
C
102
}
330
C
100
AcDbDictionary
281
     1
  0
DICTIONARY
  5
D
102
{ACAD_REACTORS
330
C
102
}
330
C
100
AcDbDictionary
281
     1
  0
DICTIONARY
  5
1A
102
{ACAD_REACTORS
330
C
102
}
330
C
100
AcDbDictionary
281
     1
  3
Layout1
350
1E
  3
Layout2
350
26
  3
Model
350
22
  0
DICTIONARY
  5
43
102
{ACAD_REACTORS
330
C
102
}
330
C
100
AcDbDictionary
281
     1
  3
ByBlock
350
45
  3
ByLayer
350
44
  3
Global
350
46
  0
DICTIONARY
  5
6B
102
{ACAD_REACTORS
330
C
102
}
330
C
100
AcDbDictionary
281
     1
  3
Standard
350
6C
  0
DICTIONARY
  5
17
102
{ACAD_REACTORS
330
C
102
}
330
C
100
AcDbDictionary
281
     1
  3
Standard
350
18
  0
DICTIONARY
  5
19
102
{ACAD_REACTORS
330
C
102
}
330
C
100
AcDbDictionary
281
     1
  0
ACDBDICTIONARYWDFLT
  5
E
102
{ACAD_REACTORS
330
C
102
}
330
C
100
AcDbDictionary
281
     1
  3
Normal
350
F
100
AcDbDictionaryWithDefault
340
F
  0
DICTIONARY
  5
47
102
{ACAD_REACTORS
330
C
102
}
330
C
100
AcDbDictionary
281
     1
  3
A0
350
48
  3
A1
350
49
  3
A2
350
4A
  3
A3
350
4B
  3
A4
350
4C
  3
A5
350
4D
  3
A6
350
4E
  3
A7
350
4F
  3
A8
350
50
  3
A9
350
51
  3
B0
350
52
  3
B1
350
53
  3
B2
350
54
  3
B3
350
55
  3
B4
350
56
  3
B5
350
57
  3
B6
350
58
  3
B7
350
59
  3
B8
350
5A
  3
B9
350
5B
  3
C0
350
5C
  3
C1
350
5D
  3
C2
350
5E
  3
C3
350
5F
  3
C4
350
60
  3
C5
350
61
  3
C6
350
62
  3
C7
350
63
  3
C8
350
64
  3
C9
350
65
  3
D0
350
66
  3
D1
350
67
  3
D2
350
68
  0
DICTIONARY
  5
2DA
102
{ACAD_REACTORS
330
C
102
}
330
C
100
AcDbDictionary
281
     1
  0
DICTIONARY
  5
69
102
{ACAD_REACTORS
330
C
102
}
330
C
100
AcDbDictionary
281
     1
  3
Standard
350
6A
  0
DICTIONARY
  5
2A
102
{ACAD_REACTORS
330
C
102
}
330
C
100
AcDbDictionary
281
     1
  3
2dWireframe
350
2F
  3
Basic
350
32
  3
Brighten
350
36
  3
ColorChange
350
3A
  3
Conceptual
350
34
  3
Dim
350
35
  3
EdgeColorOff
350
3D
  3
Facepattern
350
39
  3
Flat
350
2B
  3
FlatWithEdges
350
2C
  3
Gouraud
350
2D
  3
GouraudWithEdges
350
2E
  3
Hidden
350
31
  3
JitterOff
350
3B
  3
Linepattern
350
38
  3
OverhangOff
350
3C
  3
Realistic
350
33
  3
Shaded
350
42
  3
Shaded with edges
350
41
  3
Shades of Gray
350
3E
  3
Sketchy
350
3F
  3
Thicken
350
37
  3
Wireframe
350
30
  3
X-Ray
350
40
  0
XRECORD
  5
2D6
102
{ACAD_REACTORS
330
C
102
}
330
C
100
AcDbXrecord
280
     1
 90
        1
330
6A
  0
DICTIONARY
  5
2D2
102
{ACAD_REACTORS
330
C
102
}
330
C
100
AcDbDictionary
281
     1
  3
CANNOSCALE
350
2D3
  3
CMLEADERSTYLE
350
2D8
  3
CTABLESTYLE
350
2D7
  0
LAYOUT
  5
1E
102
{ACAD_REACTORS
330
1A
102
}
330
1A
100
AcDbPlotSettings
  1

  2
none_device
  4

  6

 40
0.0
 41
0.0
 42
0.0
 43
0.0
 44
0.0
 45
0.0
 46
0.0
 47
0.0
 48
0.0
 49
0.0
140
0.0
141
0.0
142
1.0
143
1.0
 70
   688
 72
     1
 73
     0
 74
     5
  7

 75
    16
 76
     0
 77
     2
 78
   300
147
1.0
148
0.0
149
0.0
100
AcDbLayout
  1
Layout1
 70
     1
 71
     1
 10
0.0
 20
0.0
 11
420.0
 21
297.0
 12
0.0
 22
0.0
 32
0.0
 14
1.000000000000000E+20
 24
1.000000000000000E+20
 34
1.000000000000000E+20
 15
-1.000000000000000E+20
 25
-1.000000000000000E+20
 35
-1.000000000000000E+20
146
0.0
 13
0.0
 23
0.0
 33
0.0
 16
1.0
 26
0.0
 36
0.0
 17
0.0
 27
1.0
 37
0.0
 76
     0
330
1B
  0
LAYOUT
  5
26
102
{ACAD_REACTORS
330
1A
102
}
330
1A
100
AcDbPlotSettings
  1

  2
none_device
  4

  6

 40
0.0
 41
0.0
 42
0.0
 43
0.0
 44
0.0
 45
0.0
 46
0.0
 47
0.0
 48
0.0
 49
0.0
140
0.0
141
0.0
142
1.0
143
1.0
 70
   688
 72
     1
 73
     0
 74
     5
  7

 75
    16
 76
     0
 77
     2
 78
   300
147
1.0
148
0.0
149
0.0
100
AcDbLayout
  1
Layout2
 70
     1
 71
     2
 10
0.0
 20
0.0
 11
0.0
 21
0.0
 12
0.0
 22
0.0
 32
0.0
 14
0.0
 24
0.0
 34
0.0
 15
0.0
 25
0.0
 35
0.0
146
0.0
 13
0.0
 23
0.0
 33
0.0
 16
1.0
 26
0.0
 36
0.0
 17
0.0
 27
1.0
 37
0.0
 76
     0
330
23
  0
LAYOUT
  5
22
102
{ACAD_REACTORS
330
1A
102
}
330
1A
100
AcDbPlotSettings
  1

  2
none_device
  4
Letter_(8.50_x_11.00_Inches)
  6

 40
6.35
 41
6.35
 42
6.35000508
 43
6.35000508
 44
215.9
 45
279.4
 46
0.0
 47
0.0
 48
0.0
 49
0.0
140
0.0
141
0.0
142
1.0
143
1.0
 70
  1712
 72
     1
 73
     0
 74
     0
  7

 75
     0
 76
     0
 77
     2
 78
   300
147
1.0
148
0.0
149
0.0
100
AcDbLayout
  1
Model
 70
     1
 71
     0
 10
0.0
 20
0.0
 11
210.0
 21
297.0
 12
0.0
 22
0.0
 32
0.0
 14
0.0
 24
0.0
 34
0.0
 15
210.0
 25
297.0
 35
0.0
146
0.0
 13
0.0
 23
0.0
 33
0.0
 16
1.0
 26
0.0
 36
0.0
 17
0.0
 27
1.0
 37
0.0
 76
     0
330
1F
331
29
  0
MATERIAL
  5
45
102
{ACAD_REACTORS
330
43
102
}
330
43
100
AcDbMaterial
  1
ByBlock
 72
     1
 94
      127
  0
MATERIAL
  5
44
102
{ACAD_REACTORS
330
43
102
}
330
43
100
AcDbMaterial
  1
ByLayer
 72
     1
 94
      127
  0
MATERIAL
  5
46
102
{ACAD_REACTORS
330
43
102
}
330
43
100
AcDbMaterial
  1
Global
 72
     1
 94
      127
  0
MLEADERSTYLE
  5
6C
102
{ACAD_REACTORS
330
6B
102
}
330
6B
100
AcDbMLeaderStyle
179
     2
170
     2
171
     1
172
     0
 90
        2
 40
0.0
 41
0.0
173
     1
 91
-1056964608
340
14
 92
       -2
290
     1
 42
2.0
291
     1
 43
8.0
  3
Standard
341
0
 44
4.0
300

342
11
174
     1
178
     6
175
     1
176
     0
 93
-1056964608
 45
4.0
292
     0
297
     0
 46
4.0
343
0
 94
-1056964608
 47
1.0
 49
1.0
140
1.0
293
     1
141
0.0
294
     1
177
     0
142
1.0
295
     0
296
     0
143
3.75
271
     0
272
     9
273
     9
298
     0
  0
MLINESTYLE
  5
18
102
{ACAD_REACTORS
330
17
102
}
330
17
100
AcDbMlineStyle
  2
Standard
 70
     0
  3

 62
   256
 51
90.0
 52
90.0
 71
     2
 49
0.5
 62
   256
  6
BYLAYER
 49
-0.5
 62
   256
  6
BYLAYER
  0
ACDBPLACEHOLDER
  5
F
102
{ACAD_REACTORS
330
E
102
}
330
E
  0
SCALE
  5
48
102
{ACAD_REACTORS
330
47
102
}
330
47
100
AcDbScale
 70
     0
300
1:1
140
1.0
141
1.0
290
     1
  0
SCALE
  5
49
102
{ACAD_REACTORS
330
47
102
}
330
47
100
AcDbScale
 70
     0
300
1:2
140
1.0
141
2.0
290
     0
  0
SCALE
  5
4A
102
{ACAD_REACTORS
330
47
102
}
330
47
100
AcDbScale
 70
     0
300
1:4
140
1.0
141
4.0
290
     0
  0
SCALE
  5
4B
102
{ACAD_REACTORS
330
47
102
}
330
47
100
AcDbScale
 70
     0
300
1:5
140
1.0
141
5.0
290
     0
  0
SCALE
  5
4C
102
{ACAD_REACTORS
330
47
102
}
330
47
100
AcDbScale
 70
     0
300
1:8
140
1.0
141
8.0
290
     0
  0
SCALE
  5
4D
102
{ACAD_REACTORS
330
47
102
}
330
47
100
AcDbScale
 70
     0
300
1:10
140
1.0
141
10.0
290
     0
  0
SCALE
  5
4E
102
{ACAD_REACTORS
330
47
102
}
330
47
100
AcDbScale
 70
     0
300
1:16
140
1.0
141
16.0
290
     0
  0
SCALE
  5
4F
102
{ACAD_REACTORS
330
47
102
}
330
47
100
AcDbScale
 70
     0
300
1:20
140
1.0
141
20.0
290
     0
  0
SCALE
  5
50
102
{ACAD_REACTORS
330
47
102
}
330
47
100
AcDbScale
 70
     0
300
1:30
140
1.0
141
30.0
290
     0
  0
SCALE
  5
51
102
{ACAD_REACTORS
330
47
102
}
330
47
100
AcDbScale
 70
     0
300
1:40
140
1.0
141
40.0
290
     0
  0
SCALE
  5
52
102
{ACAD_REACTORS
330
47
102
}
330
47
100
AcDbScale
 70
     0
300
1:50
140
1.0
141
50.0
290
     0
  0
SCALE
  5
53
102
{ACAD_REACTORS
330
47
102
}
330
47
100
AcDbScale
 70
     0
300
1:100
140
1.0
141
100.0
290
     0
  0
SCALE
  5
54
102
{ACAD_REACTORS
330
47
102
}
330
47
100
AcDbScale
 70
     0
300
2:1
140
2.0
141
1.0
290
     0
  0
SCALE
  5
55
102
{ACAD_REACTORS
330
47
102
}
330
47
100
AcDbScale
 70
     0
300
4:1
140
4.0
141
1.0
290
     0
  0
SCALE
  5
56
102
{ACAD_REACTORS
330
47
102
}
330
47
100
AcDbScale
 70
     0
300
8:1
140
8.0
141
1.0
290
     0
  0
SCALE
  5
57
102
{ACAD_REACTORS
330
47
102
}
330
47
100
AcDbScale
 70
     0
300
10:1
140
10.0
141
1.0
290
     0
  0
SCALE
  5
58
102
{ACAD_REACTORS
330
47
102
}
330
47
100
AcDbScale
 70
     0
300
100:1
140
100.0
141
1.0
290
     0
  0
SCALE
  5
59
102
{ACAD_REACTORS
330
47
102
}
330
47
100
AcDbScale
 70
     0
300
1/128" = 1'-0"
140
0.0078125
141
12.0
290
     0
  0
SCALE
  5
5A
102
{ACAD_REACTORS
330
47
102
}
330
47
100
AcDbScale
 70
     0
300
1/64" = 1'-0"
140
0.015625
141
12.0
290
     0
  0
SCALE
  5
5B
102
{ACAD_REACTORS
330
47
102
}
330
47
100
AcDbScale
 70
     0
300
1/32" = 1'-0"
140
0.03125
141
12.0
290
     0
  0
SCALE
  5
5C
102
{ACAD_REACTORS
330
47
102
}
330
47
100
AcDbScale
 70
     0
300
1/16" = 1'-0"
140
0.0625
141
12.0
290
     0
  0
SCALE
  5
5D
102
{ACAD_REACTORS
330
47
102
}
330
47
100
AcDbScale
 70
     0
300
3/32" = 1'-0"
140
0.09375
141
12.0
290
     0
  0
SCALE
  5
5E
102
{ACAD_REACTORS
330
47
102
}
330
47
100
AcDbScale
 70
     0
300
1/8" = 1'-0"
140
0.125
141
12.0
290
     0
  0
SCALE
  5
5F
102
{ACAD_REACTORS
330
47
102
}
330
47
100
AcDbScale
 70
     0
300
3/16" = 1'-0"
140
0.1875
141
12.0
290
     0
  0
SCALE
  5
60
102
{ACAD_REACTORS
330
47
102
}
330
47
100
AcDbScale
 70
     0
300
1/4" = 1'-0"
140
0.25
141
12.0
290
     0
  0
SCALE
  5
61
102
{ACAD_REACTORS
330
47
102
}
330
47
100
AcDbScale
 70
     0
300
3/8" = 1'-0"
140
0.375
141
12.0
290
     0
  0
SCALE
  5
62
102
{ACAD_REACTORS
330
47
102
}
330
47
100
AcDbScale
 70
     0
300
1/2" = 1'-0"
140
0.5
141
12.0
290
     0
  0
SCALE
  5
63
102
{ACAD_REACTORS
330
47
102
}
330
47
100
AcDbScale
 70
     0
300
3/4" = 1'-0"
140
0.75
141
12.0
290
     0
  0
SCALE
  5
64
102
{ACAD_REACTORS
330
47
102
}
330
47
100
AcDbScale
 70
     0
300
1" = 1'-0"
140
1.0
141
12.0
290
     0
  0
SCALE
  5
65
102
{ACAD_REACTORS
330
47
102
}
330
47
100
AcDbScale
 70
     0
300
1-1/2" = 1'-0"
140
1.5
141
12.0
290
     0
  0
SCALE
  5
66
102
{ACAD_REACTORS
330
47
102
}
330
47
100
AcDbScale
 70
     0
300
3" = 1'-0"
140
3.0
141
12.0
290
     0
  0
SCALE
  5
67
102
{ACAD_REACTORS
330
47
102
}
330
47
100
AcDbScale
 70
     0
300
6" = 1'-0"
140
6.0
141
12.0
290
     0
  0
SCALE
  5
68
102
{ACAD_REACTORS
330
47
102
}
330
47
100
AcDbScale
 70
     0
300
1'-0" = 1'-0"
140
12.0
141
12.0
290
     0
  0
TABLESTYLE
  5
6A
102
{ACAD_REACTORS
330
69
102
}
102
{ACAD_XDICTIONARY
360
2D4
102
}
330
69
100
AcDbTableStyle
  3
Standard
 70
     0
 71
     0
 40
0.06
 41
0.06
280
     0
281
     0
  7
Standard
140
4.5
170
     2
 62
     0
 63
   257
283
     0
 90
        4
 91
        0
  1

274
    -2
284
     1
 64
     0
275
    -2
285
     1
 65
     0
276
    -2
286
     1
 66
     0
277
    -2
287
     1
 67
     0
278
    -2
288
     1
 68
     0
279
    -2
289
     1
 69
     0
  7
Standard
140
6.0
170
     5
 62
     0
 63
   257
283
     0
 90
        4
 91
        0
  1

274
    -2
284
     1
 64
     0
275
    -2
285
     1
 65
     0
276
    -2
286
     1
 66
     0
277
    -2
287
     1
 67
     0
278
    -2
288
     1
 68
     0
279
    -2
289
     1
 69
     0
  7
Standard
140
4.5
170
     5
 62
     0
 63
   257
283
     0
 90
        4
 91
        0
  1

274
    -2
284
     1
 64
     0
275
    -2
285
     1
 65
     0
276
    -2
286
     1
 66
     0
277
    -2
287
     1
 67
     0
278
    -2
288
     1
 68
     0
279
    -2
289
     1
 69
     0
  0
VISUALSTYLE
  5
2F
102
{ACAD_REACTORS
330
2A
102
}
330
2A
100
AcDbVisualStyle
  2
2dWireframe
 70
     4
177
     3
291
     0
 70
    58
 90
        0
176
     1
 90
        2
176
     1
 90
        0
176
     1
 90
        0
176
     1
 40
0.6
176
     1
 40
30.0
176
     1
 62
     7
420
 16777215
176
     1
 90
        1
176
     1
 90
        4
176
     1
 62
     7
176
     1
 62
   257
176
     1
 90
        1
176
     1
 90
        1
176
     1
 40
1.0
176
     1
 90
        0
176
     1
 62
   257
176
     1
 40
1.0
176
     1
 90
        1
176
     1
 90
        6
176
     1
 90
        2
176
     1
 62
     7
176
     1
 90
        5
176
     1
 90
        0
176
     1
 90
        0
176
     1
290
     0
176
     1
 90
        1
176
     1
 40
0.0
176
     1
 90
        0
176
     1
290
     1
176
     1
290
     1
176
     1
290
     0
176
     1
290
     0
176
     1
290
     0
176
     1
290
     0
176
     1
290
     0
176
     1
290
     0
176
     1
290
     0
176
     1
 90
       50
176
     1
 40
0.0
176
     1
 40
1.0
176
     1
 90
        0
176
     1
 62
   178
420
        0
176
     1
 90
       50
176
     1
 90
        3
176
     1
 62
     5
420
      255
176
     1
290
     0
176
     1
 90
       50
176
     1
 90
       50
176
     1
 90
       50
176
     1
290
     0
176
     1
 90
       50
176
     1
 62
   256
176
     0
 40
1.0
176
     0
 90
        2
176
     1
  1
strokes_ogs.tif
176
     1
290
     0
176
     1
 40
1.0
176
     1
 40
1.0
176
     1
  0
VISUALSTYLE
  5
32
102
{ACAD_REACTORS
330
2A
102
}
330
2A
100
AcDbVisualStyle
  2
Basic
 70
     7
177
     3
291
     1
 70
    58
 90
        1
176
     1
 90
        0
176
     1
 90
        1
176
     1
 90
        0
176
     1
 40
0.6
176
     1
 40
30.0
176
     1
 62
     7
420
 16777215
176
     1
 90
        0
176
     1
 90
        4
176
     1
 62
     7
176
     1
 62
   257
176
     1
 90
        1
176
     1
 90
        1
176
     1
 40
1.0
176
     1
 90
        8
176
     1
 62
     7
176
     1
 40
1.0
176
     1
 90
        1
176
     1
 90
        6
176
     1
 90
        2
176
     1
 62
     7
176
     1
 90
        5
176
     1
 90
        0
176
     1
 90
        0
176
     1
290
     0
176
     1
 90
        1
176
     1
 40
0.0
176
     1
 90
        0
176
     1
290
     0
176
     1
290
     1
176
     1
290
     1
176
     1
290
     0
176
     1
290
     0
176
     1
290
     0
176
     1
290
     0
176
     1
290
     0
176
     1
290
     0
176
     1
 90
       50
176
     1
 40
0.0
176
     1
 40
1.0
176
     1
 90
        0
176
     1
 62
   178
420
        0
176
     1
 90
       50
176
     1
 90
        3
176
     1
 62
     5
420
      255
176
     1
290
     0
176
     1
 90
       50
176
     1
 90
       50
176
     1
 90
       50
176
     1
290
     0
176
     1
 90
       50
176
     1
 62
   256
176
     0
 40
1.0
176
     0
 90
        2
176
     1
  1
strokes_ogs.tif
176
     1
290
     0
176
     1
 40
1.0
176
     1
 40
1.0
176
     1
  0
VISUALSTYLE
  5
36
102
{ACAD_REACTORS
330
2A
102
}
330
2A
100
AcDbVisualStyle
  2
Brighten
 70
    12
177
     3
291
     1
 70
    58
 90
        2
176
     1
 90
        2
176
     1
 90
        0
176
     1
 90
        0
176
     1
 40
0.6
176
     1
 40
30.0
176
     1
 62
     7
420
 16777215
176
     1
 90
        1
176
     1
 90
        4
176
     1
 62
     7
176
     1
 62
   257
176
     1
 90
        1
176
     1
 90
        1
176
     1
 40
1.0
176
     1
 90
        8
176
     1
 62
     7
176
     1
 40
1.0
176
     1
 90
        1
176
     1
 90
        6
176
     1
 90
        2
176
     1
 62
     7
176
     1
 90
        5
176
     1
 90
        0
176
     1
 90
        0
176
     1
290
     0
176
     1
 90
        1
176
     1
 40
50.0
176
     1
 90
        0
176
     1
290
     0
176
     1
290
     1
176
     1
290
     1
176
     1
290
     0
176
     1
290
     0
176
     1
290
     0
176
     1
290
     0
176
     1
290
     0
176
     1
290
     0
176
     1
 90
       50
176
     1
 40
0.0
176
     1
 40
1.0
176
     1
 90
        0
176
     1
 62
   178
420
        0
176
     1
 90
       50
176
     1
 90
        3
176
     1
 62
     5
420
      255
176
     1
290
     0
176
     1
 90
       50
176
     1
 90
       50
176
     1
 90
       50
176
     1
290
     0
176
     1
 90
       50
176
     1
 62
   256
176
     0
 40
1.0
176
     0
 90
        2
176
     1
  1
strokes_ogs.tif
176
     1
290
     0
176
     1
 40
1.0
176
     1
 40
1.0
176
     1
  0
VISUALSTYLE
  5
3A
102
{ACAD_REACTORS
330
2A
102
}
330
2A
100
AcDbVisualStyle
  2
ColorChange
 70
    16
177
     3
291
     1
 70
    58
 90
        2
176
     1
 90
        2
176
     1
 90
        3
176
     1
 90
        0
176
     1
 40
0.6
176
     1
 40
30.0
176
     1
 62
     8
420
  8421504
176
     1
 90
        1
176
     1
 90
        4
176
     1
 62
     7
176
     1
 62
   257
176
     1
 90
        1
176
     1
 90
        1
176
     1
 40
1.0
176
     1
 90
        8
176
     1
 62
     8
420
  8421504
176
     1
 40
1.0
176
     1
 90
        1
176
     1
 90
        6
176
     1
 90
        2
176
     1
 62
     7
176
     1
 90
        5
176
     1
 90
        0
176
     1
 90
        0
176
     1
290
     0
176
     1
 90
        1
176
     1
 40
0.0
176
     1
 90
        0
176
     1
290
     0
176
     1
290
     1
176
     1
290
     1
176
     1
290
     0
176
     1
290
     0
176
     1
290
     0
176
     1
290
     0
176
     1
290
     0
176
     1
290
     0
176
     1
 90
       50
176
     1
 40
0.0
176
     1
 40
1.0
176
     1
 90
        0
176
     1
 62
   178
420
        0
176
     1
 90
       50
176
     1
 90
        3
176
     1
 62
     5
420
      255
176
     1
290
     0
176
     1
 90
       50
176
     1
 90
       50
176
     1
 90
       50
176
     1
290
     0
176
     1
 90
       50
176
     1
 62
   256
176
     0
 40
1.0
176
     0
 90
        2
176
     1
  1
strokes_ogs.tif
176
     1
290
     0
176
     1
 40
1.0
176
     1
 40
1.0
176
     1
  0
VISUALSTYLE
  5
34
102
{ACAD_REACTORS
330
2A
102
}
330
2A
100
AcDbVisualStyle
  2
Conceptual
 70
     9
177
     3
291
     0
 70
    58
 90
        3
176
     1
 90
        2
176
     1
 90
        0
176
     1
 90
        0
176
     1
 40
0.6
176
     1
 40
30.0
176
     1
 62
     7
420
 16777215
176
     1
 90
        2
176
     1
 90
        2
176
     1
 62
     7
176
     1
 62
   257
176
     1
 90
        1
176
     1
 90
        1
176
     1
 40
179.0
176
     1
 90
        8
176
     1
 62
     7
176
     1
 40
1.0
176
     1
 90
        1
176
     1
 90
        6
176
     1
 90
        2
176
     1
 62
     7
176
     1
 90
        3
176
     1
 90
        0
176
     1
 90
        0
176
     1
290
     0
176
     1
 90
        1
176
     1
 40
0.0
176
     1
 90
        0
176
     1
290
     0
176
     1
290
     1
176
     1
290
     1
176
     1
290
     0
176
     1
290
     0
176
     1
290
     0
176
     1
290
     0
176
     1
290
     0
176
     1
290
     0
176
     1
 90
       50
176
     1
 40
0.0
176
     1
 40
1.0
176
     1
 90
        0
176
     1
 62
   178
420
        0
176
     1
 90
       50
176
     1
 90
        3
176
     1
 62
     5
420
      255
176
     1
290
     0
176
     1
 90
       50
176
     1
 90
       50
176
     1
 90
       50
176
     1
290
     0
176
     1
 90
       50
176
     1
 62
   256
176
     0
 40
1.0
176
     0
 90
        2
176
     1
  1
strokes_ogs.tif
176
     1
290
     0
176
     1
 40
1.0
176
     1
 40
1.0
176
     1
  0
VISUALSTYLE
  5
35
102
{ACAD_REACTORS
330
2A
102
}
330
2A
100
AcDbVisualStyle
  2
Dim
 70
    11
177
     3
291
     1
 70
    58
 90
        2
176
     1
 90
        2
176
     1
 90
        0
176
     1
 90
        0
176
     1
 40
0.6
176
     1
 40
30.0
176
     1
 62
     7
420
 16777215
176
     1
 90
        1
176
     1
 90
        4
176
     1
 62
     7
176
     1
 62
   257
176
     1
 90
        1
176
     1
 90
        1
176
     1
 40
1.0
176
     1
 90
        8
176
     1
 62
     7
176
     1
 40
1.0
176
     1
 90
        1
176
     1
 90
        6
176
     1
 90
        2
176
     1
 62
     7
176
     1
 90
        5
176
     1
 90
        0
176
     1
 90
        0
176
     1
290
     0
176
     1
 90
        1
176
     1
 40
-50.0
176
     1
 90
        0
176
     1
290
     0
176
     1
290
     1
176
     1
290
     1
176
     1
290
     0
176
     1
290
     0
176
     1
290
     0
176
     1
290
     0
176
     1
290
     0
176
     1
290
     0
176
     1
 90
       50
176
     1
 40
0.0
176
     1
 40
1.0
176
     1
 90
        0
176
     1
 62
   178
420
        0
176
     1
 90
       50
176
     1
 90
        3
176
     1
 62
     5
420
      255
176
     1
290
     0
176
     1
 90
       50
176
     1
 90
       50
176
     1
 90
       50
176
     1
290
     0
176
     1
 90
       50
176
     1
 62
   256
176
     0
 40
1.0
176
     0
 90
        2
176
     1
  1
strokes_ogs.tif
176
     1
290
     0
176
     1
 40
1.0
176
     1
 40
1.0
176
     1
  0
VISUALSTYLE
  5
3D
102
{ACAD_REACTORS
330
2A
102
}
330
2A
100
AcDbVisualStyle
  2
EdgeColorOff
 70
    22
177
     3
291
     1
 70
    58
 90
        2
176
     0
 90
        2
176
     0
 90
        0
176
     0
 90
        0
176
     0
 40
0.6
176
     0
 40
30.0
176
     0
 62
     7
420
 16777215
176
     0
 90
        1
176
     0
 90
        4
176
     0
 62
     7
176
     0
 62
   257
176
     0
 90
        1
176
     0
 90
        1
176
     0
 40
1.0
176
     0
 90
        8
176
     2
 62
     7
176
     0
 40
1.0
176
     0
 90
        1
176
     0
 90
        6
176
     0
 90
        2
176
     0
 62
     7
176
     0
 90
        5
176
     0
 90
        0
176
     0
 90
        0
176
     0
290
     0
176
     0
 90
        1
176
     0
 40
0.0
176
     0
 90
        0
176
     0
290
     0
176
     0
290
     1
176
     0
290
     1
176
     0
290
     0
176
     0
290
     0
176
     0
290
     0
176
     0
290
     0
176
     0
290
     0
176
     0
290
     0
176
     0
 90
       50
176
     0
 40
0.0
176
     0
 40
1.0
176
     0
 90
        0
176
     0
 62
   178
420
        0
176
     0
 90
       50
176
     0
 90
        3
176
     0
 62
     5
420
      255
176
     0
290
     0
176
     0
 90
       50
176
     0
 90
       50
176
     0
 90
       50
176
     0
290
     0
176
     0
 90
       50
176
     0
 62
   256
176
     0
 40
1.0
176
     0
 90
        2
176
     0
  1
strokes_ogs.tif
176
     0
290
     0
176
     0
 40
1.0
176
     0
 40
1.0
176
     0
  0
VISUALSTYLE
  5
39
102
{ACAD_REACTORS
330
2A
102
}
330
2A
100
AcDbVisualStyle
  2
Facepattern
 70
    15
177
     3
291
     1
 70
    58
 90
        2
176
     1
 90
        2
176
     1
 90
        0
176
     1
 90
        0
176
     1
 40
0.6
176
     1
 40
30.0
176
     1
 62
     7
420
 16777215
176
     1
 90
        1
176
     1
 90
        4
176
     1
 62
     7
176
     1
 62
   257
176
     1
 90
        1
176
     1
 90
        1
176
     1
 40
1.0
176
     1
 90
        8
176
     1
 62
     7
176
     1
 40
1.0
176
     1
 90
        1
176
     1
 90
        6
176
     1
 90
        2
176
     1
 62
     7
176
     1
 90
        5
176
     1
 90
        0
176
     1
 90
        0
176
     1
290
     0
176
     1
 90
        1
176
     1
 40
0.0
176
     1
 90
        0
176
     1
290
     0
176
     1
290
     1
176
     1
290
     1
176
     1
290
     0
176
     1
290
     0
176
     1
290
     0
176
     1
290
     0
176
     1
290
     0
176
     1
290
     0
176
     1
 90
       50
176
     1
 40
0.0
176
     1
 40
1.0
176
     1
 90
        0
176
     1
 62
   178
420
        0
176
     1
 90
       50
176
     1
 90
        3
176
     1
 62
     5
420
      255
176
     1
290
     0
176
     1
 90
       50
176
     1
 90
       50
176
     1
 90
       50
176
     1
290
     0
176
     1
 90
       50
176
     1
 62
   256
176
     0
 40
1.0
176
     0
 90
        2
176
     1
  1
strokes_ogs.tif
176
     1
290
     0
176
     1
 40
1.0
176
     1
 40
1.0
176
     1
  0
VISUALSTYLE
  5
2B
102
{ACAD_REACTORS
330
2A
102
}
330
2A
100
AcDbVisualStyle
  2
Flat
 70
     0
177
     3
291
     1
 70
    58
 90
        2
176
     1
 90
        1
176
     1
 90
        1
176
     1
 90
        2
176
     1
 40
0.6
176
     1
 40
30.0
176
     1
 62
     7
420
 16777215
176
     1
 90
        0
176
     1
 90
        0
176
     1
 62
     7
176
     1
 62
   257
176
     1
 90
        1
176
     1
 90
        1
176
     1
 40
1.0
176
     1
 90
        8
176
     1
 62
     7
176
     1
 40
1.0
176
     1
 90
        1
176
     1
 90
        6
176
     1
 90
        2
176
     1
 62
     7
176
     1
 90
        5
176
     1
 90
        0
176
     1
 90
        0
176
     1
290
     0
176
     1
 90
       13
176
     1
 40
0.0
176
     1
 90
        0
176
     1
290
     0
176
     1
290
     1
176
     1
290
     1
176
     1
290
     0
176
     1
290
     0
176
     1
290
     0
176
     1
290
     0
176
     1
290
     0
176
     1
290
     0
176
     1
 90
       50
176
     1
 40
0.0
176
     1
 40
1.0
176
     1
 90
        0
176
     1
 62
   178
420
        0
176
     1
 90
       50
176
     1
 90
        3
176
     1
 62
     5
420
      255
176
     1
290
     0
176
     1
 90
       50
176
     1
 90
       50
176
     1
 90
       50
176
     1
290
     0
176
     1
 90
       50
176
     1
 62
   256
176
     0
 40
1.0
176
     0
 90
        2
176
     1
  1
strokes_ogs.tif
176
     1
290
     0
176
     1
 40
1.0
176
     1
 40
1.0
176
     1
  0
VISUALSTYLE
  5
2C
102
{ACAD_REACTORS
330
2A
102
}
330
2A
100
AcDbVisualStyle
  2
FlatWithEdges
 70
     1
177
     3
291
     1
 70
    58
 90
        2
176
     1
 90
        1
176
     1
 90
        1
176
     1
 90
        2
176
     1
 40
0.6
176
     1
 40
30.0
176
     1
 62
     7
420
 16777215
176
     1
 90
        1
176
     1
 90
        0
176
     1
 62
     7
176
     1
 62
   257
176
     1
 90
        1
176
     1
 90
        1
176
     1
 40
1.0
176
     1
 90
        0
176
     1
 62
   257
176
     1
 40
1.0
176
     1
 90
        1
176
     1
 90
        6
176
     1
 90
        2
176
     1
 62
     7
176
     1
 90
        5
176
     1
 90
        0
176
     1
 90
        0
176
     1
290
     0
176
     1
 90
       13
176
     1
 40
0.0
176
     1
 90
        0
176
     1
290
     0
176
     1
290
     1
176
     1
290
     1
176
     1
290
     0
176
     1
290
     0
176
     1
290
     0
176
     1
290
     0
176
     1
290
     0
176
     1
290
     0
176
     1
 90
       50
176
     1
 40
0.0
176
     1
 40
1.0
176
     1
 90
        0
176
     1
 62
   178
420
        0
176
     1
 90
       50
176
     1
 90
        3
176
     1
 62
     5
420
      255
176
     1
290
     0
176
     1
 90
       50
176
     1
 90
       50
176
     1
 90
       50
176
     1
290
     0
176
     1
 90
       50
176
     1
 62
   256
176
     0
 40
1.0
176
     0
 90
        2
176
     1
  1
strokes_ogs.tif
176
     1
290
     0
176
     1
 40
1.0
176
     1
 40
1.0
176
     1
  0
VISUALSTYLE
  5
2D
102
{ACAD_REACTORS
330
2A
102
}
330
2A
100
AcDbVisualStyle
  2
Gouraud
 70
     2
177
     3
291
     1
 70
    58
 90
        2
176
     1
 90
        2
176
     1
 90
        1
176
     1
 90
        2
176
     1
 40
0.6
176
     1
 40
30.0
176
     1
 62
     7
420
 16777215
176
     1
 90
        0
176
     1
 90
        0
176
     1
 62
     7
176
     1
 62
   257
176
     1
 90
        1
176
     1
 90
        1
176
     1
 40
1.0
176
     1
 90
        0
176
     1
 62
     7
176
     1
 40
1.0
176
     1
 90
        1
176
     1
 90
        6
176
     1
 90
        2
176
     1
 62
     7
176
     1
 90
        5
176
     1
 90
        0
176
     1
 90
        0
176
     1
290
     0
176
     1
 90
       13
176
     1
 40
0.0
176
     1
 90
        0
176
     1
290
     0
176
     1
290
     1
176
     1
290
     1
176
     1
290
     0
176
     1
290
     0
176
     1
290
     0
176
     1
290
     0
176
     1
290
     0
176
     1
290
     0
176
     1
 90
       50
176
     1
 40
0.0
176
     1
 40
1.0
176
     1
 90
        0
176
     1
 62
   178
420
        0
176
     1
 90
       50
176
     1
 90
        3
176
     1
 62
     5
420
      255
176
     1
290
     0
176
     1
 90
       50
176
     1
 90
       50
176
     1
 90
       50
176
     1
290
     0
176
     1
 90
       50
176
     1
 62
   256
176
     0
 40
1.0
176
     0
 90
        2
176
     1
  1
strokes_ogs.tif
176
     1
290
     0
176
     1
 40
1.0
176
     1
 40
1.0
176
     1
  0
VISUALSTYLE
  5
2E
102
{ACAD_REACTORS
330
2A
102
}
330
2A
100
AcDbVisualStyle
  2
GouraudWithEdges
 70
     3
177
     3
291
     1
 70
    58
 90
        2
176
     1
 90
        2
176
     1
 90
        1
176
     1
 90
        2
176
     1
 40
0.6
176
     1
 40
30.0
176
     1
 62
     7
420
 16777215
176
     1
 90
        1
176
     1
 90
        0
176
     1
 62
     7
176
     1
 62
   257
176
     1
 90
        1
176
     1
 90
        1
176
     1
 40
1.0
176
     1
 90
        0
176
     1
 62
   257
176
     1
 40
1.0
176
     1
 90
        1
176
     1
 90
        6
176
     1
 90
        2
176
     1
 62
     7
176
     1
 90
        5
176
     1
 90
        0
176
     1
 90
        0
176
     1
290
     0
176
     1
 90
       13
176
     1
 40
0.0
176
     1
 90
        0
176
     1
290
     0
176
     1
290
     1
176
     1
290
     1
176
     1
290
     0
176
     1
290
     0
176
     1
290
     0
176
     1
290
     0
176
     1
290
     0
176
     1
290
     0
176
     1
 90
       50
176
     1
 40
0.0
176
     1
 40
1.0
176
     1
 90
        0
176
     1
 62
   178
420
        0
176
     1
 90
       50
176
     1
 90
        3
176
     1
 62
     5
420
      255
176
     1
290
     0
176
     1
 90
       50
176
     1
 90
       50
176
     1
 90
       50
176
     1
290
     0
176
     1
 90
       50
176
     1
 62
   256
176
     0
 40
1.0
176
     0
 90
        2
176
     1
  1
strokes_ogs.tif
176
     1
290
     0
176
     1
 40
1.0
176
     1
 40
1.0
176
     1
  0
VISUALSTYLE
  5
31
102
{ACAD_REACTORS
330
2A
102
}
330
2A
100
AcDbVisualStyle
  2
Hidden
 70
     6
177
     3
291
     0
 70
    58
 90
        1
176
     1
 90
        2
176
     1
 90
        2
176
     1
 90
        0
176
     1
 40
0.6
176
     1
 40
30.0
176
     1
 62
     7
420
 16777215
176
     1
 90
        2
176
     1
 90
        2
176
     1
 62
     7
176
     1
 62
   257
176
     1
 90
        2
176
     1
 90
        1
176
     1
 40
40.0
176
     1
 90
        0
176
     1
 62
   257
176
     1
 40
1.0
176
     1
 90
        1
176
     1
 90
        6
176
     1
 90
        2
176
     1
 62
     7
176
     1
 90
        3
176
     1
 90
        0
176
     1
 90
        0
176
     1
290
     0
176
     1
 90
        1
176
     1
 40
0.0
176
     1
 90
        0
176
     1
290
     0
176
     1
290
     1
176
     1
290
     1
176
     1
290
     0
176
     1
290
     0
176
     1
290
     0
176
     1
290
     0
176
     1
290
     0
176
     1
290
     0
176
     1
 90
       50
176
     1
 40
0.0
176
     1
 40
1.0
176
     1
 90
        0
176
     1
 62
   178
420
        0
176
     1
 90
       50
176
     1
 90
        3
176
     1
 62
     5
420
      255
176
     1
290
     0
176
     1
 90
       50
176
     1
 90
       50
176
     1
 90
       50
176
     1
290
     0
176
     1
 90
       50
176
     1
 62
   256
176
     0
 40
1.0
176
     0
 90
        2
176
     1
  1
strokes_ogs.tif
176
     1
290
     0
176
     1
 40
1.0
176
     1
 40
1.0
176
     1
  0
VISUALSTYLE
  5
3B
102
{ACAD_REACTORS
330
2A
102
}
330
2A
100
AcDbVisualStyle
  2
JitterOff
 70
    20
177
     3
291
     1
 70
    58
 90
        2
176
     0
 90
        2
176
     0
 90
        0
176
     0
 90
        0
176
     0
 40
0.6
176
     0
 40
30.0
176
     0
 62
     7
420
 16777215
176
     0
 90
        1
176
     0
 90
        4
176
     0
 62
     7
176
     0
 62
   257
176
     0
 90
        1
176
     0
 90
        1
176
     0
 40
1.0
176
     0
 90
       10
176
     2
 62
     7
176
     0
 40
1.0
176
     0
 90
        1
176
     0
 90
        6
176
     0
 90
        2
176
     0
 62
     7
176
     0
 90
        5
176
     0
 90
        0
176
     0
 90
        0
176
     0
290
     0
176
     0
 90
        1
176
     0
 40
0.0
176
     0
 90
        0
176
     0
290
     0
176
     0
290
     1
176
     0
290
     1
176
     0
290
     0
176
     0
290
     0
176
     0
290
     0
176
     0
290
     0
176
     0
290
     0
176
     0
290
     0
176
     0
 90
       50
176
     0
 40
0.0
176
     0
 40
1.0
176
     0
 90
        0
176
     0
 62
   178
420
        0
176
     0
 90
       50
176
     0
 90
        3
176
     0
 62
     5
420
      255
176
     0
290
     0
176
     0
 90
       50
176
     0
 90
       50
176
     0
 90
       50
176
     0
290
     0
176
     0
 90
       50
176
     0
 62
   256
176
     0
 40
1.0
176
     0
 90
        2
176
     0
  1
strokes_ogs.tif
176
     0
290
     0
176
     0
 40
1.0
176
     0
 40
1.0
176
     0
  0
VISUALSTYLE
  5
38
102
{ACAD_REACTORS
330
2A
102
}
330
2A
100
AcDbVisualStyle
  2
Linepattern
 70
    14
177
     3
291
     1
 70
    58
 90
        2
176
     1
 90
        2
176
     1
 90
        0
176
     1
 90
        0
176
     1
 40
0.6
176
     1
 40
30.0
176
     1
 62
     7
420
 16777215
176
     1
 90
        1
176
     1
 90
        4
176
     1
 62
     7
176
     1
 62
   257
176
     1
 90
        7
176
     1
 90
        7
176
     1
 40
1.0
176
     1
 90
        8
176
     1
 62
     7
176
     1
 40
1.0
176
     1
 90
        1
176
     1
 90
        6
176
     1
 90
        2
176
     1
 62
     7
176
     1
 90
        5
176
     1
 90
        0
176
     1
 90
        0
176
     1
290
     0
176
     1
 90
        1
176
     1
 40
0.0
176
     1
 90
        0
176
     1
290
     0
176
     1
290
     1
176
     1
290
     1
176
     1
290
     0
176
     1
290
     0
176
     1
290
     0
176
     1
290
     0
176
     1
290
     0
176
     1
290
     0
176
     1
 90
       50
176
     1
 40
0.0
176
     1
 40
1.0
176
     1
 90
        0
176
     1
 62
   178
420
        0
176
     1
 90
       50
176
     1
 90
        3
176
     1
 62
     5
420
      255
176
     1
290
     0
176
     1
 90
       50
176
     1
 90
       50
176
     1
 90
       50
176
     1
290
     0
176
     1
 90
       50
176
     1
 62
   256
176
     0
 40
1.0
176
     0
 90
        2
176
     1
  1
strokes_ogs.tif
176
     1
290
     0
176
     1
 40
1.0
176
     1
 40
1.0
176
     1
  0
VISUALSTYLE
  5
3C
102
{ACAD_REACTORS
330
2A
102
}
330
2A
100
AcDbVisualStyle
  2
OverhangOff
 70
    21
177
     3
291
     1
 70
    58
 90
        2
176
     0
 90
        2
176
     0
 90
        0
176
     0
 90
        0
176
     0
 40
0.6
176
     0
 40
30.0
176
     0
 62
     7
420
 16777215
176
     0
 90
        1
176
     0
 90
        4
176
     0
 62
     7
176
     0
 62
   257
176
     0
 90
        1
176
     0
 90
        1
176
     0
 40
1.0
176
     0
 90
        9
176
     2
 62
     7
176
     0
 40
1.0
176
     0
 90
        1
176
     0
 90
        6
176
     0
 90
        2
176
     0
 62
     7
176
     0
 90
        5
176
     0
 90
        0
176
     0
 90
        0
176
     0
290
     0
176
     0
 90
        1
176
     0
 40
0.0
176
     0
 90
        0
176
     0
290
     0
176
     0
290
     1
176
     0
290
     1
176
     0
290
     0
176
     0
290
     0
176
     0
290
     0
176
     0
290
     0
176
     0
290
     0
176
     0
290
     0
176
     0
 90
       50
176
     0
 40
0.0
176
     0
 40
1.0
176
     0
 90
        0
176
     0
 62
   178
420
        0
176
     0
 90
       50
176
     0
 90
        3
176
     0
 62
     5
420
      255
176
     0
290
     0
176
     0
 90
       50
176
     0
 90
       50
176
     0
 90
       50
176
     0
290
     0
176
     0
 90
       50
176
     0
 62
   256
176
     0
 40
1.0
176
     0
 90
        2
176
     0
  1
strokes_ogs.tif
176
     0
290
     0
176
     0
 40
1.0
176
     0
 40
1.0
176
     0
  0
VISUALSTYLE
  5
33
102
{ACAD_REACTORS
330
2A
102
}
330
2A
100
AcDbVisualStyle
  2
Realistic
 70
     8
177
     3
291
     0
 70
    58
 90
        2
176
     1
 90
        3
176
     1
 90
        0
176
     1
 90
        2
176
     1
 40
0.6
176
     1
 40
30.0
176
     1
 62
     7
420
 16777215
176
     1
 90
        0
176
     1
 90
        0
176
     1
 62
     7
176
     1
 62
   257
176
     1
 90
        1
176
     1
 90
        1
176
     1
 40
1.0
176
     1
 90
        8
176
     1
 62
   257
176
     1
 40
1.0
176
     1
 90
        1
176
     1
 90
        6
176
     1
 90
        2
176
     1
 62
     7
176
     1
 90
        3
176
     1
 90
        0
176
     1
 90
        0
176
     1
290
     0
176
     1
 90
       13
176
     1
 40
0.0
176
     1
 90
        0
176
     1
290
     0
176
     1
290
     1
176
     1
290
     1
176
     1
290
     0
176
     1
290
     0
176
     1
290
     0
176
     1
290
     0
176
     1
290
     0
176
     1
290
     0
176
     1
 90
       50
176
     1
 40
0.0
176
     1
 40
1.0
176
     1
 90
        0
176
     1
 62
   178
420
        0
176
     1
 90
       50
176
     1
 90
        3
176
     1
 62
     5
420
      255
176
     1
290
     0
176
     1
 90
       50
176
     1
 90
       50
176
     1
 90
       50
176
     1
290
     0
176
     1
 90
       50
176
     1
 62
   256
176
     0
 40
1.0
176
     0
 90
        2
176
     1
  1
strokes_ogs.tif
176
     1
290
     0
176
     1
 40
1.0
176
     1
 40
1.0
176
     1
  0
VISUALSTYLE
  5
42
102
{ACAD_REACTORS
330
2A
102
}
330
2A
100
AcDbVisualStyle
  2
Shaded
 70
    27
177
     3
291
     0
 70
    58
 90
        2
176
     1
 90
        2
176
     1
 90
        1
176
     1
 90
        2
176
     1
 40
0.6
176
     1
 40
30.0
176
     1
 62
     7
420
 16777215
176
     1
 90
        0
176
     1
 90
        4
176
     1
 62
     7
176
     1
 62
   257
176
     1
 90
        1
176
     1
 90
        1
176
     1
 40
1.0
176
     1
 90
        8
176
     1
 62
   257
176
     1
 40
1.0
176
     1
 90
        1
176
     1
 90
        6
176
     1
 90
        2
176
     1
 62
     8
420
  7895160
176
     1
 90
        3
176
     1
 90
        0
176
     1
 90
        0
176
     1
290
     0
176
     1
 90
        5
176
     1
 40
0.0
176
     1
 90
        0
176
     1
290
     0
176
     1
290
     1
176
     1
290
     1
176
     1
290
     0
176
     1
290
     0
176
     1
290
     0
176
     1
290
     0
176
     1
290
     0
176
     1
290
     0
176
     1
 90
       50
176
     1
 40
0.0
176
     1
 40
1.0
176
     1
 90
        0
176
     1
 62
   178
420
        0
176
     1
 90
       50
176
     1
 90
        3
176
     1
 62
     5
420
      255
176
     1
290
     0
176
     1
 90
       50
176
     1
 90
       50
176
     1
 90
       50
176
     1
290
     0
176
     1
 90
       50
176
     1
 62
   256
176
     0
 40
1.0
176
     0
 90
        2
176
     1
  1
strokes_ogs.tif
176
     1
290
     0
176
     1
 40
1.0
176
     1
 40
1.0
176
     1
  0
VISUALSTYLE
  5
41
102
{ACAD_REACTORS
330
2A
102
}
330
2A
100
AcDbVisualStyle
  2
Shaded with edges
 70
    26
177
     3
291
     0
 70
    58
 90
        2
176
     1
 90
        2
176
     1
 90
        1
176
     1
 90
        2
176
     1
 40
0.6
176
     1
 40
30.0
176
     1
 62
     7
420
 16777215
176
     1
 90
        1
176
     1
 90
       10
176
     1
 62
     7
176
     1
 62
   257
176
     1
 90
        2
176
     1
 90
        1
176
     1
 40
1.0
176
     1
 90
        8
176
     1
 62
   257
176
     1
 40
1.0
176
     1
 90
        1
176
     1
 90
        6
176
     1
 90
        2
176
     1
 62
     7
176
     1
 90
        3
176
     1
 90
        0
176
     1
 90
        0
176
     1
290
     0
176
     1
 90
        5
176
     1
 40
0.0
176
     1
 90
        0
176
     1
290
     0
176
     1
290
     1
176
     1
290
     1
176
     1
290
     0
176
     1
290
     0
176
     1
290
     0
176
     1
290
     0
176
     1
290
     0
176
     1
290
     0
176
     1
 90
       50
176
     1
 40
0.0
176
     1
 40
1.0
176
     1
 90
        0
176
     1
 62
   178
420
        0
176
     1
 90
       50
176
     1
 90
        3
176
     1
 62
     5
420
      255
176
     1
290
     0
176
     1
 90
       50
176
     1
 90
       50
176
     1
 90
       50
176
     1
290
     0
176
     1
 90
       50
176
     1
 62
   256
176
     0
 40
1.0
176
     0
 90
        2
176
     1
  1
strokes_ogs.tif
176
     1
290
     0
176
     1
 40
1.0
176
     1
 40
1.0
176
     1
  0
VISUALSTYLE
  5
3E
102
{ACAD_REACTORS
330
2A
102
}
330
2A
100
AcDbVisualStyle
  2
Shades of Gray
 70
    23
177
     3
291
     0
 70
    58
 90
        2
176
     1
 90
        2
176
     1
 90
        3
176
     1
 90
        0
176
     1
 40
0.6
176
     1
 40
30.0
176
     1
 62
     7
420
 16777215
176
     1
 90
        2
176
     1
 90
        2
176
     1
 62
     7
176
     1
 62
     7
176
     1
 90
        1
176
     1
 90
        1
176
     1
 40
40.0
176
     1
 90
        8
176
     1
 62
     7
176
     1
 40
1.0
176
     1
 90
        1
176
     1
 90
        6
176
     1
 90
        2
176
     1
 62
     7
176
     1
 90
        3
176
     1
 90
        0
176
     1
 90
        0
176
     1
290
     0
176
     1
 90
        1
176
     1
 40
0.0
176
     1
 90
        0
176
     1
290
     0
176
     1
290
     1
176
     1
290
     1
176
     1
290
     0
176
     1
290
     0
176
     1
290
     0
176
     1
290
     0
176
     1
290
     0
176
     1
290
     0
176
     1
 90
       50
176
     1
 40
0.0
176
     1
 40
1.0
176
     1
 90
        0
176
     1
 62
   178
420
        0
176
     1
 90
       50
176
     1
 90
        3
176
     1
 62
     5
420
      255
176
     1
290
     0
176
     1
 90
       50
176
     1
 90
       50
176
     1
 90
       50
176
     1
290
     0
176
     1
 90
       50
176
     1
 62
   256
176
     0
 40
1.0
176
     0
 90
        2
176
     1
  1
strokes_ogs.tif
176
     1
290
     0
176
     1
 40
1.0
176
     1
 40
1.0
176
     1
  0
VISUALSTYLE
  5
3F
102
{ACAD_REACTORS
330
2A
102
}
330
2A
100
AcDbVisualStyle
  2
Sketchy
 70
    24
177
     3
291
     0
 70
    58
 90
        1
176
     1
 90
        2
176
     1
 90
        2
176
     1
 90
        0
176
     1
 40
0.6
176
     1
 40
30.0
176
     1
 62
     7
420
 16777215
176
     1
 90
        2
176
     1
 90
        2
176
     1
 62
     7
176
     1
 62
     7
176
     1
 90
        1
176
     1
 90
        1
176
     1
 40
40.0
176
     1
 90
       11
176
     1
 62
     7
176
     1
 40
1.0
176
     1
 90
        1
176
     1
 90
        6
176
     1
 90
        2
176
     1
 62
     7
176
     1
 90
        6
176
     1
 90
        0
176
     1
 90
        0
176
     1
290
     0
176
     1
 90
        1
176
     1
 40
0.0
176
     1
 90
        0
176
     1
290
     0
176
     1
290
     1
176
     1
290
     1
176
     1
290
     0
176
     1
290
     0
176
     1
290
     0
176
     1
290
     0
176
     1
290
     0
176
     1
290
     0
176
     1
 90
       50
176
     1
 40
0.0
176
     1
 40
1.0
176
     1
 90
        0
176
     1
 62
   178
420
        0
176
     1
 90
       50
176
     1
 90
        3
176
     1
 62
     5
420
      255
176
     1
290
     0
176
     1
 90
       50
176
     1
 90
       50
176
     1
 90
       50
176
     1
290
     0
176
     1
 90
       50
176
     1
 62
   256
176
     0
 40
1.0
176
     0
 90
        2
176
     1
  1
strokes_ogs.tif
176
     1
290
     0
176
     1
 40
1.0
176
     1
 40
1.0
176
     1
  0
VISUALSTYLE
  5
37
102
{ACAD_REACTORS
330
2A
102
}
330
2A
100
AcDbVisualStyle
  2
Thicken
 70
    13
177
     3
291
     1
 70
    58
 90
        2
176
     1
 90
        2
176
     1
 90
        0
176
     1
 90
        0
176
     1
 40
0.6
176
     1
 40
30.0
176
     1
 62
     7
420
 16777215
176
     1
 90
        1
176
     1
 90
        4
176
     1
 62
     7
176
     1
 62
   257
176
     1
 90
        1
176
     1
 90
        1
176
     1
 40
1.0
176
     1
 90
       12
176
     1
 62
     7
176
     1
 40
1.0
176
     1
 90
        1
176
     1
 90
        6
176
     1
 90
        2
176
     1
 62
     7
176
     1
 90
        5
176
     1
 90
        0
176
     1
 90
        0
176
     1
290
     0
176
     1
 90
        1
176
     1
 40
0.0
176
     1
 90
        0
176
     1
290
     0
176
     1
290
     1
176
     1
290
     1
176
     1
290
     0
176
     1
290
     0
176
     1
290
     0
176
     1
290
     0
176
     1
290
     0
176
     1
290
     0
176
     1
 90
       50
176
     1
 40
0.0
176
     1
 40
1.0
176
     1
 90
        0
176
     1
 62
   178
420
        0
176
     1
 90
       50
176
     1
 90
        3
176
     1
 62
     5
420
      255
176
     1
290
     0
176
     1
 90
       50
176
     1
 90
       50
176
     1
 90
       50
176
     1
290
     0
176
     1
 90
       50
176
     1
 62
   256
176
     0
 40
1.0
176
     0
 90
        2
176
     1
  1
strokes_ogs.tif
176
     1
290
     0
176
     1
 40
1.0
176
     1
 40
1.0
176
     1
  0
VISUALSTYLE
  5
30
102
{ACAD_REACTORS
330
2A
102
}
330
2A
100
AcDbVisualStyle
  2
Wireframe
 70
     5
177
     3
291
     0
 70
    58
 90
        0
176
     1
 90
        2
176
     1
 90
        0
176
     1
 90
        0
176
     1
 40
0.6
176
     1
 40
30.0
176
     1
 62
     7
420
 16777215
176
     1
 90
        1
176
     1
 90
        4
176
     1
 62
     7
176
     1
 62
   257
176
     1
 90
        1
176
     1
 90
        1
176
     1
 40
1.0
176
     1
 90
        0
176
     1
 62
   257
176
     1
 40
1.0
176
     1
 90
        1
176
     1
 90
        6
176
     1
 90
        2
176
     1
 62
     7
176
     1
 90
        3
176
     1
 90
        0
176
     1
 90
        0
176
     1
290
     0
176
     1
 90
        1
176
     1
 40
0.0
176
     1
 90
        0
176
     1
290
     0
176
     1
290
     1
176
     1
290
     1
176
     1
290
     0
176
     1
290
     0
176
     1
290
     0
176
     1
290
     0
176
     1
290
     0
176
     1
290
     0
176
     1
 90
       50
176
     1
 40
0.0
176
     1
 40
1.0
176
     1
 90
        0
176
     1
 62
   178
420
        0
176
     1
 90
       50
176
     1
 90
        3
176
     1
 62
     5
420
      255
176
     1
290
     0
176
     1
 90
       50
176
     1
 90
       50
176
     1
 90
       50
176
     1
290
     0
176
     1
 90
       50
176
     1
 62
   256
176
     0
 40
1.0
176
     0
 90
        2
176
     1
  1
strokes_ogs.tif
176
     1
290
     0
176
     1
 40
1.0
176
     1
 40
1.0
176
     1
  0
VISUALSTYLE
  5
40
102
{ACAD_REACTORS
330
2A
102
}
330
2A
100
AcDbVisualStyle
  2
X-Ray
 70
    25
177
     3
291
     0
 70
    58
 90
        2
176
     1
 90
        2
176
     1
 90
        1
176
     1
 90
        1
176
     1
 40
0.5
176
     1
 40
30.0
176
     1
 62
     7
420
 16777215
176
     1
 90
        1
176
     1
 90
        0
176
     1
 62
     7
176
     1
 62
   257
176
     1
 90
        1
176
     1
 90
        1
176
     1
 40
1.0
176
     1
 90
        8
176
     1
 62
     7
176
     1
 40
1.0
176
     1
 90
        1
176
     1
 90
        6
176
     1
 90
        2
176
     1
 62
     7
176
     1
 90
        3
176
     1
 90
        0
176
     1
 90
        0
176
     1
290
     0
176
     1
 90
       13
176
     1
 40
0.0
176
     1
 90
        0
176
     1
290
     0
176
     1
290
     1
176
     1
290
     1
176
     1
290
     0
176
     1
290
     0
176
     1
290
     0
176
     1
290
     0
176
     1
290
     0
176
     1
290
     0
176
     1
 90
       50
176
     1
 40
0.0
176
     1
 40
1.0
176
     1
 90
        0
176
     1
 62
   178
420
        0
176
     1
 90
       50
176
     1
 90
        3
176
     1
 62
     5
420
      255
176
     1
290
     0
176
     1
 90
       50
176
     1
 90
       50
176
     1
 90
       50
176
     1
290
     0
176
     1
 90
       50
176
     1
 62
   256
176
     0
 40
1.0
176
     0
 90
        2
176
     1
  1
strokes_ogs.tif
176
     1
290
     0
176
     1
 40
1.0
176
     1
 40
1.0
176
     1
  0
DICTIONARYVAR
  5
2D3
102
{ACAD_REACTORS
330
2D2
102
}
330
2D2
100
DictionaryVariables
280
     0
  1
1:1
  0
DICTIONARYVAR
  5
2D8
102
{ACAD_REACTORS
330
2D2
102
}
330
2D2
100
DictionaryVariables
280
     0
  1
Standard
  0
DICTIONARYVAR
  5
2D7
102
{ACAD_REACTORS
330
2D2
102
}
330
2D2
100
DictionaryVariables
280
     0
  1
Standard
  0
DICTIONARY
  5
2D4
330
6A
100
AcDbDictionary
280
     1
281
     1
  3
ACAD_ROUNDTRIP_2008_TABLESTYLE_CELLSTYLEMAP
360
2D5
  0
CELLSTYLEMAP
  5
2D5
102
{ACAD_REACTORS
330
2D4
102
}
330
2D4
100
AcDbCellStyleMap
 90
        3
300
CELLSTYLE
  1
TABLEFORMAT_BEGIN
 90
        5
170
     1
 91
        0
 92
    32768
 62
   257
 93
        1
300
CONTENTFORMAT
  1
CONTENTFORMAT_BEGIN
 90
        0
 91
        0
 92
        4
 93
        0
300

 40
0.0
140
1.0
 94
        5
 62
     0
340
11
144
6.0
309
CONTENTFORMAT_END
171
     1
301
MARGIN
  1
CELLMARGIN_BEGIN
 40
1.5
 40
1.5
 40
1.5
 40
1.5
 40
1.5
 40
1.5
309
CELLMARGIN_END
 94
        6
 95
        1
302
GRIDFORMAT
  1
GRIDFORMAT_BEGIN
 90
        0
 91
        1
 62
     0
 92
       -2
340
14
 93
        0
 40
0.045
309
GRIDFORMAT_END
 95
        2
302
GRIDFORMAT
  1
GRIDFORMAT_BEGIN
 90
        0
 91
        1
 62
     0
 92
       -2
340
14
 93
        0
 40
0.045
309
GRIDFORMAT_END
 95
        4
302
GRIDFORMAT
  1
GRIDFORMAT_BEGIN
 90
        0
 91
        1
 62
     0
 92
       -2
340
14
 93
        0
 40
0.045
309
GRIDFORMAT_END
 95
        8
302
GRIDFORMAT
  1
GRIDFORMAT_BEGIN
 90
        0
 91
        1
 62
     0
 92
       -2
340
14
 93
        0
 40
0.045
309
GRIDFORMAT_END
 95
       16
302
GRIDFORMAT
  1
GRIDFORMAT_BEGIN
 90
        0
 91
        1
 62
     0
 92
       -2
340
14
 93
        0
 40
0.045
309
GRIDFORMAT_END
 95
       32
302
GRIDFORMAT
  1
GRIDFORMAT_BEGIN
 90
        0
 91
        1
 62
     0
 92
       -2
340
14
 93
        0
 40
0.045
309
GRIDFORMAT_END
309
TABLEFORMAT_END
  1
CELLSTYLE_BEGIN
 90
        1
 91
        1
300
_TITLE
309
CELLSTYLE_END
300
CELLSTYLE
  1
TABLEFORMAT_BEGIN
 90
        5
170
     1
 91
        0
 92
        0
 62
   257
 93
        1
300
CONTENTFORMAT
  1
CONTENTFORMAT_BEGIN
 90
        0
 91
        0
 92
        4
 93
        0
300

 40
0.0
140
1.0
 94
        5
 62
     0
340
11
144
4.5
309
CONTENTFORMAT_END
171
     1
301
MARGIN
  1
CELLMARGIN_BEGIN
 40
1.5
 40
1.5
 40
1.5
 40
1.5
 40
1.5
 40
1.5
309
CELLMARGIN_END
 94
        6
 95
        1
302
GRIDFORMAT
  1
GRIDFORMAT_BEGIN
 90
        0
 91
        1
 62
     0
 92
       -2
340
14
 93
        0
 40
0.045
309
GRIDFORMAT_END
 95
        2
302
GRIDFORMAT
  1
GRIDFORMAT_BEGIN
 90
        0
 91
        1
 62
     0
 92
       -2
340
14
 93
        0
 40
0.045
309
GRIDFORMAT_END
 95
        4
302
GRIDFORMAT
  1
GRIDFORMAT_BEGIN
 90
        0
 91
        1
 62
     0
 92
       -2
340
14
 93
        0
 40
0.045
309
GRIDFORMAT_END
 95
        8
302
GRIDFORMAT
  1
GRIDFORMAT_BEGIN
 90
        0
 91
        1
 62
     0
 92
       -2
340
14
 93
        0
 40
0.045
309
GRIDFORMAT_END
 95
       16
302
GRIDFORMAT
  1
GRIDFORMAT_BEGIN
 90
        0
 91
        1
 62
     0
 92
       -2
340
14
 93
        0
 40
0.045
309
GRIDFORMAT_END
 95
       32
302
GRIDFORMAT
  1
GRIDFORMAT_BEGIN
 90
        0
 91
        1
 62
     0
 92
       -2
340
14
 93
        0
 40
0.045
309
GRIDFORMAT_END
309
TABLEFORMAT_END
  1
CELLSTYLE_BEGIN
 90
        2
 91
        1
300
_HEADER
309
CELLSTYLE_END
300
CELLSTYLE
  1
TABLEFORMAT_BEGIN
 90
        5
170
     1
 91
        0
 92
        0
 62
   257
 93
        1
300
CONTENTFORMAT
  1
CONTENTFORMAT_BEGIN
 90
        0
 91
        0
 92
        4
 93
        0
300

 40
0.0
140
1.0
 94
        2
 62
     0
340
11
144
4.5
309
CONTENTFORMAT_END
171
     1
301
MARGIN
  1
CELLMARGIN_BEGIN
 40
1.5
 40
1.5
 40
1.5
 40
1.5
 40
1.5
 40
1.5
309
CELLMARGIN_END
 94
        6
 95
        1
302
GRIDFORMAT
  1
GRIDFORMAT_BEGIN
 90
        0
 91
        1
 62
     0
 92
       -2
340
14
 93
        0
 40
0.045
309
GRIDFORMAT_END
 95
        2
302
GRIDFORMAT
  1
GRIDFORMAT_BEGIN
 90
        0
 91
        1
 62
     0
 92
       -2
340
14
 93
        0
 40
0.045
309
GRIDFORMAT_END
 95
        4
302
GRIDFORMAT
  1
GRIDFORMAT_BEGIN
 90
        0
 91
        1
 62
     0
 92
       -2
340
14
 93
        0
 40
0.045
309
GRIDFORMAT_END
 95
        8
302
GRIDFORMAT
  1
GRIDFORMAT_BEGIN
 90
        0
 91
        1
 62
     0
 92
       -2
340
14
 93
        0
 40
0.045
309
GRIDFORMAT_END
 95
       16
302
GRIDFORMAT
  1
GRIDFORMAT_BEGIN
 90
        0
 91
        1
 62
     0
 92
       -2
340
14
 93
        0
 40
0.045
309
GRIDFORMAT_END
 95
       32
302
GRIDFORMAT
  1
GRIDFORMAT_BEGIN
 90
        0
 91
        1
 62
     0
 92
       -2
340
14
 93
        0
 40
0.045
309
GRIDFORMAT_END
309
TABLEFORMAT_END
  1
CELLSTYLE_BEGIN
 90
        3
 91
        2
300
_DATA
309
CELLSTYLE_END
  0
ENDSEC
  0
EOF
