  0
SECTION
  2
HEADER
  9
$ACADVER
  1
AC1027
  9
$ACADMAINTVER
 70
     8
  9
$DWGCODEPAGE
  3
ANSI_1252
  9
$REQUIREDVERSIONS
160
                 0
  9
$INSBASE
 10
0.0
 20
0.0
 30
0.0
  9
$EXTMIN
 10
0.0
 20
0.0
 30
0.0
  9
$EXTMAX
 10
210.0
 20
297.0
 30
0.0
  9
$LIMMIN
 10
0.0
 20
0.0
  9
$LIMMAX
 10
210.0
 20
297.0
  9
$ORTHOMODE
 70
     0
  9
$REGENMODE
 70
     1
  9
$FILLMODE
 70
     1
  9
$QTEXTMODE
 70
     0
  9
$MIRRTEXT
 70
     1
  9
$LTSCALE
 40
1.0
  9
$ATTMODE
 70
     1
  9
$TEXTSIZE
 40
2.5
  9
$TRACEWID
 40
1.0
  9
$TEXTSTYLE
  7
Standard
  9
$CLAYER
  8
Outline
  9
$CELTYPE
  6
ByLayer
  9
$CECOLOR
 62
   256
  9
$CELTSCALE
 40
1.0
  9
$DISPSILH
 70
     0
  9
$DIMSCALE
 40
1.0
  9
$DIMASZ
 40
2.5
  9
$DIMEXO
 40
0.625
  9
$DIMDLI
 40
3.75
  9
$DIMRND
 40
0.0
  9
$DIMDLE
 40
0.0
  9
$DIMEXE
 40
1.25
  9
$DIMTP
 40
0.0
  9
$DIMTM
 40
0.0
  9
$DIMTXT
 40
2.5
  9
$DIMCEN
 40
2.5
  9
$DIMTSZ
 40
0.0
  9
$DIMTOL
 70
     0
  9
$DIMLIM
 70
     0
  9
$DIMTIH
 70
     0
  9
$DIMTOH
 70
     0
  9
$DIMSE1
 70
     0
  9
$DIMSE2
 70
     0
  9
$DIMTAD
 70
     1
  9
$DIMZIN
 70
     8
  9
$DIMBLK
  1

  9
$DIMASO
 70
     1
  9
$DIMSHO
 70
     1
  9
$DIMPOST
  1

  9
$DIMAPOST
  1

  9
$DIMALT
 70
     0
  9
$DIMALTD
 70
     3
  9
$DIMALTF
 40
0.03937007874016
  9
$DIMLFAC
 40
1.0
  9
$DIMTOFL
 70
     1
  9
$DIMTVP
 40
0.0
  9
$DIMTIX
 70
     0
  9
$DIMSOXD
 70
     0
  9
$DIMSAH
 70
     0
  9
$DIMBLK1
  1

  9
$DIMBLK2
  1

  9
$DIMSTYLE
  2
ISO-25
  9
$DIMCLRD
 70
     0
  9
$DIMCLRE
 70
     0
  9
$DIMCLRT
 70
     0
  9
$DIMTFAC
 40
1.0
  9
$DIMGAP
 40
0.625
  9
$DIMJUST
 70
     0
  9
$DIMSD1
 70
     0
  9
$DIMSD2
 70
     0
  9
$DIMTOLJ
 70
     0
  9
$DIMTZIN
 70
     8
  9
$DIMALTZ
 70
     0
  9
$DIMALTTZ
 70
     0
  9
$DIMUPT
 70
     0
  9
$DIMDEC
 70
     2
  9
$DIMTDEC
 70
     2
  9
$DIMALTU
 70
     2
  9
$DIMALTTD
 70
     3
  9
$DIMTXSTY
  7
Standard
  9
$DIMAUNIT
 70
     0
  9
$DIMADEC
 70
     0
  9
$DIMALTRND
 40
0.0
  9
$DIMAZIN
 70
     0
  9
$DIMDSEP
 70
    44
  9
$DIMATFIT
 70
     3
  9
$DIMFRAC
 70
     0
  9
$DIMLDRBLK
  1

  9
$DIMLUNIT
 70
     2
  9
$DIMLWD
 70
    -2
  9
$DIMLWE
 70
    -2
  9
$DIMTMOVE
 70
     0
  9
$DIMFXL
 40
1.0
  9
$DIMFXLON
 70
     0
  9
$DIMJOGANG
 40
0.7853981633974483
  9
$DIMTFILL
 70
     0
  9
$DIMTFILLCLR
 70
     0
  9
$DIMARCSYM
 70
     0
  9
$DIMLTYPE
  6

  9
$DIMLTEX1
  6

  9
$DIMLTEX2
  6

  9
$DIMTXTDIRECTION
 70
     0
  9
$LUNITS
 70
     2
  9
$LUPREC
 70
     4
  9
$SKETCHINC
 40
1.0
  9
$FILLETRAD
 40
10.0
  9
$AUNITS
 70
     0
  9
$AUPREC
 70
     0
  9
$MENU
  1
.
  9
$ELEVATION
 40
0.0
  9
$PELEVATION
 40
0.0
  9
$THICKNESS
 40
0.0
  9
$LIMCHECK
 70
     0
  9
$CHAMFERA
 40
0.0
  9
$CHAMFERB
 40
0.0
  9
$CHAMFERC
 40
0.0
  9
$CHAMFERD
 40
0.0
  9
$SKPOLY
 70
     0
  9
$TDCREATE
 40
2457509.674826389
  9
$TDUCREATE
 40
2457509.966493056
  9
$TDUPDATE
 40
2457509.674826389
  9
$TDUUPDATE
 40
2457509.966493056
  9
$TDINDWG
 40
0.0000000116
  9
$TDUSRTIMER
 40
0.0000000116
  9
$USRTIMER
 70
     1
  9
$ANGBASE
 50
0.0
  9
$ANGDIR
 70
     0
  9
$PDMODE
 70
     0
  9
$PDSIZE
 40
0.0
  9
$PLINEWID
 40
0.0
  9
$SPLFRAME
 70
     0
  9
$SPLINETYPE
 70
     6
  9
$SPLINESEGS
 70
     8
  9
$HANDSEED
  5
568
  9
$SURFTAB1
 70
     6
  9
$SURFTAB2
 70
     6
  9
$SURFTYPE
 70
     6
  9
$SURFU
 70
     6
  9
$SURFV
 70
     6
  9
$UCSBASE
  2

  9
$UCSNAME
  2

  9
$UCSORG
 10
0.0
 20
0.0
 30
0.0
  9
$UCSXDIR
 10
1.0
 20
0.0
 30
0.0
  9
$UCSYDIR
 10
0.0
 20
1.0
 30
0.0
  9
$UCSORTHOREF
  2

  9
$UCSORTHOVIEW
 70
     0
  9
$UCSORGTOP
 10
0.0
 20
0.0
 30
0.0
  9
$UCSORGBOTTOM
 10
0.0
 20
0.0
 30
0.0
  9
$UCSORGLEFT
 10
0.0
 20
0.0
 30
0.0
  9
$UCSORGRIGHT
 10
0.0
 20
0.0
 30
0.0
  9
$UCSORGFRONT
 10
0.0
 20
0.0
 30
0.0
  9
$UCSORGBACK
 10
0.0
 20
0.0
 30
0.0
  9
$PUCSBASE
  2

  9
$PUCSNAME
  2

  9
$PUCSORG
 10
0.0
 20
0.0
 30
0.0
  9
$PUCSXDIR
 10
1.0
 20
0.0
 30
0.0
  9
$PUCSYDIR
 10
0.0
 20
1.0
 30
0.0
  9
$PUCSORTHOREF
  2

  9
$PUCSORTHOVIEW
 70
     0
  9
$PUCSORGTOP
 10
0.0
 20
0.0
 30
0.0
  9
$PUCSORGBOTTOM
 10
0.0
 20
0.0
 30
0.0
  9
$PUCSORGLEFT
 10
0.0
 20
0.0
 30
0.0
  9
$PUCSORGRIGHT
 10
0.0
 20
0.0
 30
0.0
  9
$PUCSORGFRONT
 10
0.0
 20
0.0
 30
0.0
  9
$PUCSORGBACK
 10
0.0
 20
0.0
 30
0.0
  9
$USERI1
 70
     0
  9
$USERI2
 70
     0
  9
$USERI3
 70
     0
  9
$USERI4
 70
     0
  9
$USERI5
 70
     0
  9
$USERR1
 40
0.0
  9
$USERR2
 40
0.0
  9
$USERR3
 40
0.0
  9
$USERR4
 40
0.0
  9
$USERR5
 40
0.0
  9
$WORLDVIEW
 70
     1
  9
$SHADEDGE
 70
     3
  9
$SHADEDIF
 70
    70
  9
$TILEMODE
 70
     1
  9
$MAXACTVP
 70
    64
  9
$PINSBASE
 10
0.0
 20
0.0
 30
0.0
  9
$PLIMCHECK
 70
     0
  9
$PEXTMIN
 10
1.000000000000000E+20
 20
1.000000000000000E+20
 30
1.000000000000000E+20
  9
$PEXTMAX
 10
-1.000000000000000E+20
 20
-1.000000000000000E+20
 30
-1.000000000000000E+20
  9
$PLIMMIN
 10
0.0
 20
0.0
  9
$PLIMMAX
 10
420.0
 20
297.0
  9
$UNITMODE
 70
     0
  9
$VISRETAIN
 70
     1
  9
$PLINEGEN
 70
     0
  9
$PSLTSCALE
 70
     1
  9
$TREEDEPTH
 70
  3020
  9
$CMLSTYLE
  2
Standard
  9
$CMLJUST
 70
     0
  9
$CMLSCALE
 40
20.0
  9
$PROXYGRAPHICS
 70
     1
  9
$MEASUREMENT
 70
     1
  9
$CELWEIGHT
370
    -1
  9
$ENDCAPS
280
     0
  9
$JOINSTYLE
280
     0
  9
$LWDISPLAY
290
     0
  9
$INSUNITS
 70
     4
  9
$HYPERLINKBASE
  1

  9
$STYLESHEET
  1

  9
$XEDIT
290
     1
  9
$CEPSNTYPE
380
     0
  9
$PSTYLEMODE
290
     1
  9
$FINGERPRINTGUID
  2
{512b7fa6-ed68-438d-9572-594a17b9b8b5}
  9
$VERSIONGUID
  2
{FAEB1C32-E019-11D5-929B-00C0DF256EC4}
  9
$EXTNAMES
290
     1
  9
$PSVPSCALE
 40
0.0
  9
$OLESTARTUP
290
     0
  9
$SORTENTS
280
   127
  9
$INDEXCTL
280
     0
  9
$HIDETEXT
280
     1
  9
$XCLIPFRAME
280
     2
  9
$HALOGAP
280
     0
  9
$OBSCOLOR
 70
   257
  9
$OBSLTYPE
280
     0
  9
$INTERSECTIONDISPLAY
280
     0
  9
$INTERSECTIONCOLOR
 70
   257
  9
$DIMASSOC
280
     2
  9
$PROJECTNAME
  1

  9
$CAMERADISPLAY
290
     0
  9
$LENSLENGTH
 40
50.0
  9
$CAMERAHEIGHT
 40
0.0
  9
$STEPSPERSEC
 40
2.0
  9
$STEPSIZE
 40
6.0
  9
$3DDWFPREC
 40
2.0
  9
$PSOLWIDTH
 40
5.0
  9
$PSOLHEIGHT
 40
80.0
  9
$LOFTANG1
 40
1.570796326794897
  9
$LOFTANG2
 40
1.570796326794897
  9
$LOFTMAG1
 40
0.0
  9
$LOFTMAG2
 40
0.0
  9
$LOFTPARAM
 70
     7
  9
$LOFTNORMALS
280
     1
  9
$LATITUDE
 40
37.795
  9
$LONGITUDE
 40
-122.394
  9
$NORTHDIRECTION
 40
0.0
  9
$TIMEZONE
 70
 -8000
  9
$LIGHTGLYPHDISPLAY
280
     1
  9
$TILEMODELIGHTSYNCH
280
     1
  9
$CMATERIAL
347
44
  9
$SOLIDHIST
280
     0
  9
$SHOWHIST
280
     1
  9
$DWFFRAME
280
     2
  9
$DGNFRAME
280
     2
  9
$REALWORLDSCALE
290
     1
  9
$INTERFERECOLOR
 62
   256
  9
$CSHADOW
280
     0
  9
$SHADOWPLANELOCATION
 40
0.0
  0
ENDSEC
  0
SECTION
  2
CLASSES
  0
CLASS
  1
ACDBDICTIONARYWDFLT
  2
AcDbDictionaryWithDefault
  3
ObjectDBX Classes
 90
        0
 91
        4
280
     0
281
     0
  0
CLASS
  1
VISUALSTYLE
  2
AcDbVisualStyle
  3
ObjectDBX Classes
 90
     4095
 91
        4
280
     0
281
     0
  0
CLASS
  1
MATERIAL
  2
AcDbMaterial
  3
ObjectDBX Classes
 90
     1153
 91
        4
280
     0
281
     0
  0
CLASS
  1
SCALE
  2
AcDbScale
  3
ObjectDBX Classes
 90
     1153
 91
        4
280
     0
281
     0
  0
CLASS
  1
TABLESTYLE
  2
AcDbTableStyle
  3
ObjectDBX Classes
 90
     4095
 91
        4
280
     0
281
     0
  0
CLASS
  1
MLEADERSTYLE
  2
AcDbMLeaderStyle
  3
ACDB_MLEADERSTYLE_CLASS
 90
     4095
 91
        4
280
     0
281
     0
  0
CLASS
  1
SUN
  2
AcDbSun
  3
SCENEOE
 90
     1153
 91
        4
280
     0
281
     0
  0
CLASS
  1
DICTIONARYVAR
  2
AcDbDictionaryVar
  3
ObjectDBX Classes
 90
        0
 91
        4
280
     0
281
     0
  0
CLASS
  1
CELLSTYLEMAP
  2
AcDbCellStyleMap
  3
ObjectDBX Classes
 90
     1152
 91
        4
280
     0
281
     0
  0
ENDSEC
  0
SECTION
  2
TABLES
  0
TABLE
  2
VPORT
  5
8
330
0
100
AcDbSymbolTable
 70
     1
  0
VPORT
  5
29
330
8
100
AcDbSymbolTableRecord
100
AcDbViewportTableRecord
  2
*Active
 70
     0
 10
0.0
 20
0.0
 11
1.0
 21
1.0
 12
120.7253968756147
 22
146.8816468881355
 13
0.0
 23
0.0
 14
10.0
 24
10.0
 15
10.0
 25
10.0
 16
0.0
 26
0.0
 36
1.0
 17
0.0
 27
0.0
 37
0.0
 40
341.3728649995575
 41
1.863590772316951
 42
50.0
 43
0.0
 44
0.0
 50
0.0
 51
0.0
 71
     0
 72
   100
 73
     1
 74
     3
 75
     0
 76
     0
 77
     0
 78
     0
281
     0
 65
     1
110
0.0
120
0.0
130
0.0
111
1.0
121
0.0
131
0.0
112
0.0
122
1.0
132
0.0
 79
     0
146
0.0
348
2F
 60
     3
 61
     5
292
     1
282
     1
141
0.0
142
0.0
 63
   250
361
6D
  0
ENDTAB
  0
TABLE
  2
LTYPE
  5
5
330
0
100
AcDbSymbolTable
 70
     7
  0
LTYPE
  5
14
330
5
100
AcDbSymbolTableRecord
100
AcDbLinetypeTableRecord
  2
ByBlock
 70
     0
  3

 72
    65
 73
     0
 40
0.0
  0
LTYPE
  5
15
330
5
100
AcDbSymbolTableRecord
100
AcDbLinetypeTableRecord
  2
ByLayer
 70
     0
  3

 72
    65
 73
     0
 40
0.0
  0
LTYPE
  5
16
330
5
100
AcDbSymbolTableRecord
100
AcDbLinetypeTableRecord
  2
Continuous
 70
     0
  3
Solid line
 72
    65
 73
     0
 40
0.0
  0
LTYPE
  5
6E
330
5
100
AcDbSymbolTableRecord
100
AcDbLinetypeTableRecord
  2
DOT
 70
     0
  3
Dot . . . . . . . . . . . . . . . . . . . . . . . .
 72
    65
 73
     2
 40
2.032
 49
1.016
 74
     0
 49
-1.016
 74
     0
  0
LTYPE
  5
6F
330
5
100
AcDbSymbolTableRecord
100
AcDbLinetypeTableRecord
  2
CENTER
 70
     0
  3
Center ____ _ ____ _ ____ _ ____ _ ____ _ ____
 72
    65
 73
     4
 40
13.208
 49
8.128
 74
     0
 49
-1.524
 74
     0
 49
2.032
 74
     0
 49
-1.524
 74
     0
  0
LTYPE
  5
70
330
5
100
AcDbSymbolTableRecord
100
AcDbLinetypeTableRecord
  2
HIDDEN2
 70
     0
  3
Hidden (.5x) _ _ _ _ _ _ _ _ _ _ _ _ _ _ _ _ _
 72
    65
 73
     2
 40
4.762499999999999
 49
3.175
 74
     0
 49
-1.5875
 74
     0
  0
LTYPE
  5
71
330
5
100
AcDbSymbolTableRecord
100
AcDbLinetypeTableRecord
  2
DASHED
 70
     0
  3
Dashed __ __ __ __ __ __ __ __ __ __ __ __ __ _
 72
    65
 73
     2
 40
9.652
 49
8.128
 74
     0
 49
-1.524
 74
     0
  0
LTYPE
  5
72
330
5
100
AcDbSymbolTableRecord
100
AcDbLinetypeTableRecord
  2
PHANTOM2
 70
     0
  3
Phantom (.5x) ___ _ _ ___ _ _ ___ _ _ ___ _ _
 72
    65
 73
     6
 40
14.732
 49
8.128
 74
     0
 49
-1.524
 74
     0
 49
1.016
 74
     0
 49
-1.524
 74
     0
 49
1.016
 74
     0
 49
-1.524
 74
     0
  0
LTYPE
  5
73
330
5
100
AcDbSymbolTableRecord
100
AcDbLinetypeTableRecord
  2
DASHDOT
 70
     0
  3
Dash dot __ . __ . __ . __ . __ . __ . __ . __
 72
    65
 73
     4
 40
11.176
 49
8.128
 74
     0
 49
-1.524
 74
     0
 49
0.0
 74
     0
 49
-1.524
 74
     0
  0
ENDTAB
  0
TABLE
  2
LAYER
  5
2
330
0
100
AcDbSymbolTable
 70
     8
  0
LAYER
  5
10
330
2
100
AcDbSymbolTableRecord
100
AcDbLayerTableRecord
  2
0
 70
     0
 62
     7
  6
Continuous
370
    -3
390
F
347
46
348
0
  0
LAYER
  5
74
330
2
100
AcDbSymbolTableRecord
100
AcDbLayerTableRecord
  2
Outline
 70
     0
 62
     7
  6
Continuous
370
    -3
390
F
347
46
348
0
  0
LAYER
  5
75
330
2
100
AcDbSymbolTableRecord
100
AcDbLayerTableRecord
  2
Axis
 70
     0
 62
     5
  6
DASHDOT
370
    -3
390
F
347
46
348
0
  0
LAYER
  5
76
330
2
100
AcDbSymbolTableRecord
100
AcDbLayerTableRecord
  2
Dimension
 70
     0
 62
     7
  6
Continuous
370
    -3
390
F
347
46
348
0
  0
LAYER
  5
77
330
2
100
AcDbSymbolTableRecord
100
AcDbLayerTableRecord
  2
Hatch
 70
     0
 62
     5
  6
Continuous
370
    -3
390
F
347
46
348
0
  0
LAYER
  5
78
330
2
100
AcDbSymbolTableRecord
100
AcDbLayerTableRecord
  2
Auxiliary
 70
     0
 62
     1
  6
DOT
370
    -3
390
F
347
46
348
0
  0
LAYER
  5
79
330
2
100
AcDbSymbolTableRecord
100
AcDbLayerTableRecord
  2
Invisible
 70
     0
 62
     6
  6
DOT
370
    -3
390
F
347
46
348
0
  0
LAYER
  5
4EB
330
2
100
AcDbSymbolTableRecord
100
AcDbLayerTableRecord
  2
Defpoints
 70
     0
 62
     7
  6
Continuous
290
     0
370
    -3
390
F
347
46
348
0
  0
ENDTAB
  0
TABLE
  2
STYLE
  5
3
330
0
100
AcDbSymbolTable
 70
    33
  0
STYLE
  5
11
330
3
100
AcDbSymbolTableRecord
100
AcDbTextStyleTableRecord
  2
Standard
 70
     0
 40
0.0
 41
1.0
 50
0.0
 71
     0
 42
2.5
  3
txt
  4

  0
STYLE
  5
7A
330
3
100
AcDbSymbolTableRecord
100
AcDbTextStyleTableRecord
  2
VCDSTYLE01
 70
     0
 40
0.0
 41
1.0
 50
0.0
 71
     0
 42
2.5
  3
txt
  4

  0
STYLE
  5
7B
330
3
100
AcDbSymbolTableRecord
100
AcDbTextStyleTableRecord
  2
VCDSTYLE02
 70
     0
 40
0.0
 41
1.0
 50
0.0
 71
     0
 42
2.5
  3
txt
  4

  0
STYLE
  5
7C
330
3
100
AcDbSymbolTableRecord
100
AcDbTextStyleTableRecord
  2
VCDSTYLE03
 70
     0
 40
0.0
 41
1.0
 50
0.0
 71
     0
 42
2.5
  3
txt
  4

  0
STYLE
  5
7D
330
3
100
AcDbSymbolTableRecord
100
AcDbTextStyleTableRecord
  2
VCDSTYLE04
 70
     0
 40
0.0
 41
1.0
 50
0.0
 71
     0
 42
2.5
  3
txt
  4

  0
STYLE
  5
7E
330
3
100
AcDbSymbolTableRecord
100
AcDbTextStyleTableRecord
  2
VCDSTYLE05
 70
     0
 40
0.0
 41
1.0
 50
0.0
 71
     0
 42
2.5
  3
txt
  4

  0
STYLE
  5
7F
330
3
100
AcDbSymbolTableRecord
100
AcDbTextStyleTableRecord
  2
VCDSTYLE06
 70
     0
 40
0.0
 41
1.0
 50
0.0
 71
     0
 42
2.5
  3
txt
  4

  0
STYLE
  5
80
330
3
100
AcDbSymbolTableRecord
100
AcDbTextStyleTableRecord
  2
VCDSTYLE07
 70
     0
 40
0.0
 41
1.0
 50
0.0
 71
     0
 42
2.5
  3
txt
  4

  0
STYLE
  5
81
330
3
100
AcDbSymbolTableRecord
100
AcDbTextStyleTableRecord
  2
VCDSTYLE08
 70
     0
 40
0.0
 41
1.0
 50
0.0
 71
     0
 42
2.5
  3
txt
  4

  0
STYLE
  5
82
330
3
100
AcDbSymbolTableRecord
100
AcDbTextStyleTableRecord
  2
VCDSTYLE09
 70
     0
 40
0.0
 41
1.0
 50
0.0
 71
     0
 42
2.5
  3
txt
  4

  0
STYLE
  5
83
330
3
100
AcDbSymbolTableRecord
100
AcDbTextStyleTableRecord
  2
VCDSTYLE10
 70
     0
 40
0.0
 41
1.0
 50
0.0
 71
     0
 42
2.5
  3
Sans Serif.ttf
  4

1001
ACAD
1000
Sans Serif
1071
        0
  0
STYLE
  5
84
330
3
100
AcDbSymbolTableRecord
100
AcDbTextStyleTableRecord
  2
VCDSTYLE11
 70
     0
 40
0.0
 41
1.0
 50
0.0
 71
     0
 42
2.5
  3
Sans Serif.ttf
  4

1001
ACAD
1000
Sans Serif
1071
 16777216
  0
STYLE
  5
85
330
3
100
AcDbSymbolTableRecord
100
AcDbTextStyleTableRecord
  2
VCDSTYLE12
 70
     0
 40
0.0
 41
1.0
 50
0.0
 71
     0
 42
2.5
  3
DejaVu Sans.ttf
  4

1001
ACAD
1000
DejaVu Sans
1071
        0
  0
STYLE
  5
86
330
3
100
AcDbSymbolTableRecord
100
AcDbTextStyleTableRecord
  2
VCDSTYLE13
 70
     0
 40
0.0
 41
1.0
 50
0.0
 71
     0
 42
2.5
  3
DejaVu Sans.ttf
  4

1001
ACAD
1000
DejaVu Sans
1071
 16777216
  0
STYLE
  5
87
330
3
100
AcDbSymbolTableRecord
100
AcDbTextStyleTableRecord
  2
VCDSTYLE14
 70
     0
 40
0.0
 41
1.0
 50
0.0
 71
     0
 42
2.5
  3
DejaVu Sans Mono.ttf
  4

1001
ACAD
1000
DejaVu Sans Mono
1071
        0
  0
STYLE
  5
88
330
3
100
AcDbSymbolTableRecord
100
AcDbTextStyleTableRecord
  2
VCDSTYLE15
 70
     0
 40
0.0
 41
1.0
 50
0.0
 71
     0
 42
2.5
  3
DejaVu Sans Mono.ttf
  4

1001
ACAD
1000
DejaVu Sans Mono
1071
 16777216
  0
STYLE
  5
89
330
3
100
AcDbSymbolTableRecord
100
AcDbTextStyleTableRecord
  2
VCDSTYLE16
 70
     0
 40
0.0
 41
1.0
 50
0.0
 71
     0
 42
2.5
  3
UnDotum.ttf
  4

1001
ACAD
1000
UnDotum
1071
        0
  0
STYLE
  5
8A
330
3
100
AcDbSymbolTableRecord
100
AcDbTextStyleTableRecord
  2
VCDSTYLE17
 70
     0
 40
0.0
 41
1.0
 50
0.0
 71
     0
 42
2.5
  3
UnDotum.ttf
  4

1001
ACAD
1000
UnDotum
1071
 16777216
  0
STYLE
  5
8B
330
3
100
AcDbSymbolTableRecord
100
AcDbTextStyleTableRecord
  2
VCDSTYLE18
 70
     0
 40
0.0
 41
1.0
 50
0.0
 71
     0
 42
2.5
  3
Sans Serif.ttf
  4

1001
ACAD
1000
Sans Serif
1071
        0
  0
STYLE
  5
8C
330
3
100
AcDbSymbolTableRecord
100
AcDbTextStyleTableRecord
  2
VCDSTYLE19
 70
     0
 40
0.0
 41
1.0
 50
0.0
 71
     0
 42
2.5
  3
Sans Serif.ttf
  4

1001
ACAD
1000
Sans Serif
1071
 16777216
  0
STYLE
  5
8D
330
3
100
AcDbSymbolTableRecord
100
AcDbTextStyleTableRecord
  2
VCDSTYLE20
 70
     0
 40
0.0
 41
1.0
 50
0.0
 71
     0
 42
2.5
  3
Sans Serif.ttf
  4

1001
ACAD
1000
Sans Serif
1071
        0
  0
STYLE
  5
8E
330
3
100
AcDbSymbolTableRecord
100
AcDbTextStyleTableRecord
  2
VCDSTYLE21
 70
     0
 40
0.0
 41
1.0
 50
0.0
 71
     0
 42
2.5
  3
Sans Serif.ttf
  4

1001
ACAD
1000
Sans Serif
1071
 16777216
  0
STYLE
  5
8F
330
3
100
AcDbSymbolTableRecord
100
AcDbTextStyleTableRecord
  2
VCDSTYLE22
 70
     0
 40
0.0
 41
1.0
 50
0.0
 71
     0
 42
2.5
  3
Monospace.ttf
  4

1001
ACAD
1000
Monospace
1071
        0
  0
STYLE
  5
90
330
3
100
AcDbSymbolTableRecord
100
AcDbTextStyleTableRecord
  2
VCDSTYLE23
 70
     0
 40
0.0
 41
1.0
 50
0.0
 71
     0
 42
2.5
  3
Monospace.ttf
  4

1001
ACAD
1000
Monospace
1071
 16777216
  0
STYLE
  5
91
330
3
100
AcDbSymbolTableRecord
100
AcDbTextStyleTableRecord
  2
VCDSTYLE24
 70
     0
 40
0.0
 41
1.0
 50
0.0
 71
     0
 42
2.5
  3
URW Gothic L.ttf
  4

1001
ACAD
1000
URW Gothic L
1071
        0
  0
STYLE
  5
92
330
3
100
AcDbSymbolTableRecord
100
AcDbTextStyleTableRecord
  2
VCDSTYLE25
 70
     0
 40
0.0
 41
1.0
 50
0.0
 71
     0
 42
2.5
  3
URW Gothic L.ttf
  4

1001
ACAD
1000
URW Gothic L
1071
 16777216
  0
STYLE
  5
93
330
3
100
AcDbSymbolTableRecord
100
AcDbTextStyleTableRecord
  2
VCDSTYLE26
 70
     0
 40
0.0
 41
1.0
 50
0.0
 71
     0
 42
2.5
  3
Waree.ttf
  4

1001
ACAD
1000
Waree
1071
        0
  0
STYLE
  5
94
330
3
100
AcDbSymbolTableRecord
100
AcDbTextStyleTableRecord
  2
VCDSTYLE27
 70
     0
 40
0.0
 41
1.0
 50
0.0
 71
     0
 42
2.5
  3
Waree.ttf
  4

1001
ACAD
1000
Waree
1071
 16777216
  0
STYLE
  5
95
330
3
100
AcDbSymbolTableRecord
100
AcDbTextStyleTableRecord
  2
VCDSTYLE28
 70
     0
 40
0.0
 41
1.0
 50
0.0
 71
     0
 42
2.5
  3
Nimbus Mono L.ttf
  4

1001
ACAD
1000
Nimbus Mono L
1071
        0
  0
STYLE
  5
96
330
3
100
AcDbSymbolTableRecord
100
AcDbTextStyleTableRecord
  2
VCDSTYLE29
 70
     0
 40
0.0
 41
1.0
 50
0.0
 71
     0
 42
2.5
  3
Nimbus Sans L.ttf
  4

1001
ACAD
1000
Nimbus Sans L
1071
        0
  0
STYLE
  5
97
330
3
100
AcDbSymbolTableRecord
100
AcDbTextStyleTableRecord
  2
VCDSTYLE30
 70
     0
 40
0.0
 41
1.0
 50
0.0
 71
     0
 42
2.5
  3
Nimbus Sans L.ttf
  4

1001
ACAD
1000
Nimbus Sans L
1071
 16777216
  0
STYLE
  5
98
330
3
100
AcDbSymbolTableRecord
100
AcDbTextStyleTableRecord
  2
VCDSTYLE31
 70
     0
 40
0.0
 41
1.0
 50
0.0
 71
     0
 42
2.5
  3
Serif.ttf
  4

1001
ACAD
1000
Serif
1071
        0
  0
STYLE
  5
99
330
3
100
AcDbSymbolTableRecord
100
AcDbTextStyleTableRecord
  2
VCDSTYLE32
 70
     0
 40
0.0
 41
1.0
 50
0.0
 71
     0
 42
2.5
  3
Serif.ttf
  4

1001
ACAD
1000
Serif
1071
 16777216
  0
ENDTAB
  0
TABLE
  2
VIEW
  5
6
330
0
100
AcDbSymbolTable
 70
     0
  0
ENDTAB
  0
TABLE
  2
UCS
  5
7
330
0
100
AcDbSymbolTable
 70
     0
  0
ENDTAB
  0
TABLE
  2
APPID
  5
9
330
0
100
AcDbSymbolTable
 70
     1
  0
APPID
  5
12
330
9
100
AcDbSymbolTableRecord
100
AcDbRegAppTableRecord
  2
ACAD
 70
     0
  0
ENDTAB
  0
TABLE
  2
DIMSTYLE
  5
A
330
0
100
AcDbSymbolTable
 70
     2
100
AcDbDimStyleTable
  0
DIMSTYLE
105
27
330
A
100
AcDbSymbolTableRecord
100
AcDbDimStyleTableRecord
  2
ISO-25
 70
     0
 41
2.5
 42
0.625
 43
3.75
 44
1.25
 73
     0
 74
     0
 77
     1
 78
     8
140
2.5
141
2.5
143
0.03937007874016
147
0.625
171
     3
172
     1
178
     0
271
     2
272
     2
274
     3
278
    44
283
     0
284
     8
340
11
  0
DIMSTYLE
105
4E9
102
{ACAD_REACTORS
330
4EA
330
4F8
330
507
330
515
330
522
102
}
330
A
100
AcDbSymbolTableRecord
100
AcDbDimStyleTableRecord
  2
VCDDIMSTYLE01
 70
     0
 41
5.0
 42
0.0
 43
8.0
 44
1.0
 73
     0
 74
     0
 77
     1
 78
     8
 79
     2
140
4.0
147
1.0
172
     1
173
     1
178
     0
179
     3
271
     5
275
     1
288
     1
289
     0
340
7B
  0
ENDTAB
  0
TABLE
  2
BLOCK_RECORD
  5
1
330
0
100
AcDbSymbolTable
 70
    15
  0
BLOCK_RECORD
  5
1F
330
1
100
AcDbSymbolTableRecord
100
AcDbBlockTableRecord
  2
*Model_Space
340
22
 70
     0
280
     1
281
     0
  0
BLOCK_RECORD
  5
1B
330
1
100
AcDbSymbolTableRecord
100
AcDbBlockTableRecord
  2
*Paper_Space
340
1E
 70
     0
280
     1
281
     0
  0
BLOCK_RECORD
  5
23
330
1
100
AcDbSymbolTableRecord
100
AcDbBlockTableRecord
  2
*Paper_Space0
340
26
 70
     0
280
     1
281
     0
  0
BLOCK_RECORD
  5
9A
330
1
100
AcDbSymbolTableRecord
100
AcDbBlockTableRecord
  2
$AttrValue elphel_parts
340
0
102
{BLKREFS
331
9C
102
}
 70
     0
280
     1
281
     0
  0
BLOCK_RECORD
  5
9F
330
1
100
AcDbSymbolTableRecord
100
AcDbBlockTableRecord
  2
$AttrValue elphel_parts(1)
340
0
102
{BLKREFS
331
A1
102
}
 70
     0
280
     1
281
     0
  0
BLOCK_RECORD
  5
A4
330
1
100
AcDbSymbolTableRecord
100
AcDbBlockTableRecord
  2
$AttrValue elphel_parts(2)
340
0
102
{BLKREFS
331
A6
102
}
 70
     0
280
     1
281
     0
  0
BLOCK_RECORD
  5
A9
330
1
100
AcDbSymbolTableRecord
100
AcDbBlockTableRecord
  2
$AttrValue elphel_parts(3)
340
0
102
{BLKREFS
331
AB
102
}
 70
     0
280
     1
281
     0
  0
BLOCK_RECORD
  5
AE
330
1
100
AcDbSymbolTableRecord
100
AcDbBlockTableRecord
  2
$AttrValue elphel_parts(4)
340
0
102
{BLKREFS
331
B0
102
}
 70
     0
280
     1
281
     0
  0
BLOCK_RECORD
  5
B3
330
1
100
AcDbSymbolTableRecord
100
AcDbBlockTableRecord
  2
$AttrValue elphel_parts(5)
340
0
102
{BLKREFS
331
B5
102
}
 70
     0
280
     1
281
     0
  0
BLOCK_RECORD
  5
B8
330
1
100
AcDbSymbolTableRecord
100
AcDbBlockTableRecord
  2
$AttrValue elphel_parts(6)
340
0
102
{BLKREFS
331
BA
102
}
 70
     0
280
     1
281
     0
  0
BLOCK_RECORD
  5
4E2
330
1
100
AcDbSymbolTableRecord
100
AcDbBlockTableRecord
  2
*D8
340
0
 70
     0
280
     1
281
     0
  0
BLOCK_RECORD
  5
4F1
330
1
100
AcDbSymbolTableRecord
100
AcDbBlockTableRecord
  2
*D9
340
0
 70
     0
280
     1
281
     0
  0
BLOCK_RECORD
  5
4FE
330
1
100
AcDbSymbolTableRecord
100
AcDbBlockTableRecord
  2
*D10
340
0
 70
     0
280
     1
281
     0
  0
BLOCK_RECORD
  5
50E
330
1
100
AcDbSymbolTableRecord
100
AcDbBlockTableRecord
  2
*D11
340
0
 70
     0
280
     1
281
     0
  0
BLOCK_RECORD
  5
51B
330
1
100
AcDbSymbolTableRecord
100
AcDbBlockTableRecord
  2
*D12
340
0
 70
     0
280
     1
281
     0
  0
BLOCK_RECORD
  5
528
330
1
100
AcDbSymbolTableRecord
100
AcDbBlockTableRecord
  2
$TitleBlock elphel_parts
340
0
102
{BLKREFS
331
556
102
}
 70
     0
280
     1
281
     0
  0
BLOCK_RECORD
  5
559
330
1
100
AcDbSymbolTableRecord
100
AcDbBlockTableRecord
  2
Sheet Border
340
0
102
{BLKREFS
331
55C
102
}
 70
     0
280
     1
281
     0
  0
ENDTAB
  0
ENDSEC
  0
SECTION
  2
BLOCKS
  0
BLOCK
  5
20
330
1F
100
AcDbEntity
  8
0
100
AcDbBlockBegin
  2
*Model_Space
 70
     0
 10
0.0
 20
0.0
 30
0.0
  3
*Model_Space
  1

  0
ENDBLK
  5
21
330
1F
100
AcDbEntity
  8
0
100
AcDbBlockEnd
  0
BLOCK
  5
1C
330
1B
100
AcDbEntity
 67
     1
  8
0
100
AcDbBlockBegin
  2
*Paper_Space
 70
     0
 10
0.0
 20
0.0
 30
0.0
  3
*Paper_Space
  1

  0
ENDBLK
  5
1D
330
1B
100
AcDbEntity
 67
     1
  8
0
100
AcDbBlockEnd
  0
BLOCK
  5
24
330
23
100
AcDbEntity
  8
0
100
AcDbBlockBegin
  2
*Paper_Space0
 70
     0
 10
0.0
 20
0.0
 30
0.0
  3
*Paper_Space0
  1

  0
ENDBLK
  5
25
330
23
100
AcDbEntity
  8
0
100
AcDbBlockEnd
  0
BLOCK
  5
9D
330
9A
100
AcDbEntity
  8
0
100
AcDbBlockBegin
  2
$AttrValue elphel_parts
 70
     0
 10
0.0
 20
0.0
 30
0.0
  3
$AttrValue elphel_parts
  1

  0
TEXT
  5
9B
330
9A
100
AcDbEntity
  8
0
 62
     2
100
AcDbText
 10
0.0
 20
0.0
 30
0.0
 40
3.0
  1
1:1
  7
VCDSTYLE22
100
AcDbText
  0
ENDBLK
  5
9E
330
9A
100
AcDbEntity
  8
0
100
AcDbBlockEnd
  0
BLOCK
  5
A2
330
9F
100
AcDbEntity
  8
0
100
AcDbBlockBegin
  2
$AttrValue elphel_parts(1)
 70
     0
 10
0.0
 20
0.0
 30
0.0
  3
$AttrValue elphel_parts(1)
  1

  0
TEXT
  5
A0
330
9F
100
AcDbEntity
  8
0
 62
     2
100
AcDbText
 10
0.0
 20
0.0
 30
0.0
 40
2.0
  1
Anodize/chromate conversion
  7
VCDSTYLE04
100
AcDbText
  0
ENDBLK
  5
A3
330
9F
100
AcDbEntity
  8
0
100
AcDbBlockEnd
  0
BLOCK
  5
A7
330
A4
100
AcDbEntity
  8
0
100
AcDbBlockBegin
  2
$AttrValue elphel_parts(2)
 70
     0
 10
0.0
 20
0.0
 30
0.0
  3
$AttrValue elphel_parts(2)
  1

  0
TEXT
  5
A5
330
A4
100
AcDbEntity
  8
0
 62
     2
100
AcDbText
 10
0.0
 20
0.0
 30
0.0
 40
2.0
  1
Aluminum 6061-T6
  7
VCDSTYLE04
100
AcDbText
  0
ENDBLK
  5
A8
330
A4
100
AcDbEntity
  8
0
100
AcDbBlockEnd
  0
BLOCK
  5
AC
330
A9
100
AcDbEntity
  8
0
100
AcDbBlockBegin
  2
$AttrValue elphel_parts(3)
 70
     0
 10
0.0
 20
0.0
 30
0.0
  3
$AttrValue elphel_parts(3)
  1

  0
TEXT
  5
AA
330
A9
100
AcDbEntity
  8
0
 62
     2
100
AcDbText
 10
0.0
 20
0.0
 30
0.0
 40
2.0
  1
50.04
  7
VCDSTYLE04
100
AcDbText
  0
ENDBLK
  5
AD
330
A9
100
AcDbEntity
  8
0
100
AcDbBlockEnd
  0
BLOCK
  5
B1
330
AE
100
AcDbEntity
  8
0
100
AcDbBlockBegin
  2
$AttrValue elphel_parts(4)
 70
     0
 10
0.0
 20
0.0
 30
0.0
  3
$AttrValue elphel_parts(4)
  1

  0
TEXT
  5
AF
330
AE
100
AcDbEntity
  8
0
100
AcDbText
 10
0.0
 20
0.0
 30
0.0
 40
1.5
  1
2015
  7
VCDSTYLE10
100
AcDbText
  0
ENDBLK
  5
B2
330
AE
100
AcDbEntity
  8
0
100
AcDbBlockEnd
  0
BLOCK
  5
B6
330
B3
100
AcDbEntity
  8
0
100
AcDbBlockBegin
  2
$AttrValue elphel_parts(5)
 70
     0
 10
0.0
 20
0.0
 30
0.0
  3
$AttrValue elphel_parts(5)
  1

  0
TEXT
  5
B4
330
B3
100
AcDbEntity
  8
0
 62
     2
100
AcDbText
 10
0.0
 20
0.0
 30
0.0
 40
3.0
  1
Adapter
  7
VCDSTYLE04
100
AcDbText
  0
ENDBLK
  5
B7
330
B3
100
AcDbEntity
  8
0
100
AcDbBlockEnd
  0
BLOCK
  5
BB
330
B8
100
AcDbEntity
  8
0
100
AcDbBlockBegin
  2
$AttrValue elphel_parts(6)
 70
     0
 10
0.0
 20
0.0
 30
0.0
  3
$AttrValue elphel_parts(6)
  1

  0
TEXT
  5
B9
330
B8
100
AcDbEntity
  8
0
 62
     2
100
AcDbText
 10
0.0
 20
0.0
 30
0.0
 40
6.0
  1
0393-12-50
  7
VCDSTYLE22
100
AcDbText
  0
ENDBLK
  5
BC
330
B8
100
AcDbEntity
  8
0
100
AcDbBlockEnd
  0
BLOCK
  5
4EF
330
4E2
100
AcDbEntity
  8
0
100
AcDbBlockBegin
  2
*D8
 70
     1
 10
0.0
 20
0.0
 30
0.0
  3
*D8
  1

  0
LINE
  5
4E3
330
4E2
100
AcDbEntity
  8
Dimension
 62
     0
370
    -2
100
AcDbLine
 10
45.24944796267084
 20
231.593792033899
 30
0.0
 11
45.24944796267084
 21
203.0168556238618
 31
0.0
  0
LINE
  5
4E4
330
4E2
100
AcDbEntity
  8
Dimension
 62
     0
370
    -2
100
AcDbLine
 10
83.54944796263761
 20
231.5937940137136
 30
0.0
 11
83.54944796263761
 21
203.0168556238618
 31
0.0
  0
LINE
  5
4E5
330
4E2
100
AcDbEntity
  8
Dimension
 62
     0
370
    -2
100
AcDbLine
 10
50.24944796267084
 20
204.0168556238618
 30
0.0
 11
78.54944796263761
 21
204.0168556238618
 31
0.0
  0
SOLID
  5
4E6
330
4E2
100
AcDbEntity
  8
Dimension
 62
     0
100
AcDbTrace
 10
50.24944796267084
 20
204.8501889571952
 30
0.0
 11
50.24944796267084
 21
203.1835222905285
 31
0.0
 12
45.24944796267084
 22
204.0168556238618
 32
0.0
 13
45.24944796267084
 23
204.0168556238618
 33
0.0
  0
SOLID
  5
4E7
330
4E2
100
AcDbEntity
  8
Dimension
 62
     0
100
AcDbTrace
 10
78.54944796263761
 20
203.1835222905285
 30
0.0
 11
78.54944796263761
 21
204.8501889571952
 31
0.0
 12
83.54944796263761
 22
204.0168556238618
 32
0.0
 13
83.54944796263761
 23
204.0168556238618
 33
0.0
  0
MTEXT
  5
4E8
330
4E2
100
AcDbEntity
  8
Dimension
 62
     0
100
AcDbMText
 10
64.67678303719887
 20
207.0168556238618
 30
0.0
 40
4.0
 41
0.0
 46
0.0
 71
     5
 72
     1
  1
\A1;38.3
  7
VCDSTYLE02
 73
     1
 44
1.0
  0
POINT
  5
4EC
330
4E2
100
AcDbEntity
  8
Defpoints
 62
     0
100
AcDbPoint
 10
45.24944796267084
 20
231.593792033899
 30
0.0
  0
POINT
  5
4ED
330
4E2
100
AcDbEntity
  8
Defpoints
 62
     0
100
AcDbPoint
 10
83.54944796263761
 20
231.5937940137136
 30
0.0
  0
POINT
  5
4EE
330
4E2
100
AcDbEntity
  8
Defpoints
 62
     0
100
AcDbPoint
 10
83.54944796263761
 20
204.0168556238618
 30
0.0
  0
ENDBLK
  5
4F0
330
4E2
100
AcDbEntity
  8
0
100
AcDbBlockEnd
  0
BLOCK
  5
4FC
330
4F1
100
AcDbEntity
  8
0
100
AcDbBlockBegin
  2
*D9
 70
     1
 10
0.0
 20
0.0
 30
0.0
  3
*D9
  1

  0
LINE
  5
4F2
330
4F1
100
AcDbEntity
  8
Dimension
 62
     0
370
    -2
100
AcDbLine
 10
80.00299597241616
 20
266.3473351129981
 30
0.0
 11
109.1647989800577
 21
266.3473351129981
 31
0.0
  0
LINE
  5
4F3
330
4F1
100
AcDbEntity
  8
Dimension
 62
     0
370
    -2
100
AcDbLine
 10
80.00299761595596
 20
228.0473425088084
 30
0.0
 11
109.1647989800577
 21
228.0473425088084
 31
0.0
  0
LINE
  5
4F4
330
4F1
100
AcDbEntity
  8
Dimension
 62
     0
370
    -2
100
AcDbLine
 10
108.1647989800577
 20
261.3473351129981
 30
0.0
 11
108.1647989800577
 21
233.0473425088084
 31
0.0
  0
SOLID
  5
4F5
330
4F1
100
AcDbEntity
  8
Dimension
 62
     0
100
AcDbTrace
 10
108.9981323133911
 20
261.3473351129981
 30
0.0
 11
107.3314656467244
 21
261.3473351129981
 31
0.0
 12
108.1647989800577
 22
266.3473351129981
 32
0.0
 13
108.1647989800577
 23
266.3473351129981
 33
0.0
  0
SOLID
  5
4F6
330
4F1
100
AcDbEntity
  8
Dimension
 62
     0
100
AcDbTrace
 10
107.3314656467244
 20
233.0473425088084
 30
0.0
 11
108.9981323133911
 21
233.0473425088084
 31
0.0
 12
108.1647989800577
 22
228.0473425088084
 32
0.0
 13
108.1647989800577
 23
228.0473425088084
 33
0.0
  0
MTEXT
  5
4F7
330
4F1
100
AcDbEntity
  8
Dimension
 62
     0
100
AcDbMText
 10
105.1647989800577
 20
248.2113051218345
 30
0.0
 40
4.0
 41
0.0
 46
0.0
 71
     5
 72
     1
  1
\A1;38.3
  7
VCDSTYLE02
 11
0.0
 21
1.0
 31
0.0
 73
     1
 44
1.0
  0
POINT
  5
4F9
330
4F1
100
AcDbEntity
  8
Defpoints
 62
     0
100
AcDbPoint
 10
80.00299597241616
 20
266.3473351129981
 30
0.0
  0
POINT
  5
4FA
330
4F1
100
AcDbEntity
  8
Defpoints
 62
     0
100
AcDbPoint
 10
80.00299761595596
 20
228.0473425088084
 30
0.0
  0
POINT
  5
4FB
330
4F1
100
AcDbEntity
  8
Defpoints
 62
     0
100
AcDbPoint
 10
108.1647989800577
 20
228.0473425088084
 30
0.0
  0
ENDBLK
  5
4FD
330
4F1
100
AcDbEntity
  8
0
100
AcDbBlockEnd
  0
BLOCK
  5
50C
330
4FE
100
AcDbEntity
  8
0
100
AcDbBlockBegin
  2
*D10
 70
     1
 10
0.0
 20
0.0
 30
0.0
  3
*D10
  1

  0
LINE
  5
4FF
330
4FE
100
AcDbEntity
  8
Dimension
 62
     0
370
    -2
100
AcDbLine
 10
93.04947954295332
 20
181.9473420260776
 30
0.0
 11
109.3716968513487
 21
181.9473420260776
 31
0.0
  0
LINE
  5
500
330
4FE
100
AcDbEntity
  8
Dimension
 62
     0
370
    -2
100
AcDbLine
 10
83.34944796267206
 20
171.5973419026778
 30
0.0
 11
109.3716968513487
 21
171.5973419026778
 31
0.0
  0
LINE
  5
501
330
4FE
100
AcDbEntity
  8
Dimension
 62
     0
370
    -2
100
AcDbLine
 10
108.3716968513487
 20
181.9473420260776
 30
0.0
 11
108.3716968513487
 21
209.3759134546491
 31
0.0
  0
LINE
  5
502
330
4FE
100
AcDbEntity
  8
Dimension
 62
     0
370
    -2
100
AcDbLine
 10
108.3716968513487
 20
181.9473420260776
 30
0.0
 11
108.3716968513487
 21
171.5973419026778
 31
0.0
  0
LINE
  5
503
330
4FE
100
AcDbEntity
  8
Dimension
 62
     0
370
    -2
100
AcDbLine
 10
108.3716968513487
 20
186.9473420260776
 30
0.0
 11
108.3716968513487
 21
191.9473420260776
 31
0.0
  0
LINE
  5
504
330
4FE
100
AcDbEntity
  8
Dimension
 62
     0
370
    -2
100
AcDbLine
 10
108.3716968513487
 20
166.5973419026778
 30
0.0
 11
108.3716968513487
 21
161.5973419026778
 31
0.0
  0
SOLID
  5
505
330
4FE
100
AcDbEntity
  8
Dimension
 62
     0
100
AcDbTrace
 10
107.5383635180154
 20
186.9473420260776
 30
0.0
 11
109.205030184682
 21
186.9473420260776
 31
0.0
 12
108.3716968513487
 22
181.9473420260776
 32
0.0
 13
108.3716968513487
 23
181.9473420260776
 33
0.0
  0
SOLID
  5
506
330
4FE
100
AcDbEntity
  8
Dimension
 62
     0
100
AcDbTrace
 10
109.205030184682
 20
166.5973419026778
 30
0.0
 11
107.5383635180154
 21
166.5973419026778
 31
0.0
 12
108.3716968513487
 22
171.5973419026778
 32
0.0
 13
108.3716968513487
 23
171.5973419026778
 33
0.0
  0
MTEXT
  5
508
330
4FE
100
AcDbEntity
  8
Dimension
 62
     0
100
AcDbMText
 10
105.3716968513487
 20
200.6616277403634
 30
0.0
 40
4.0
 41
0.0
 46
0.0
 71
     5
 72
     1
  1
\A1;10.35
  7
VCDSTYLE02
 11
0.0
 21
1.0
 31
0.0
 73
     1
 44
1.0
  0
POINT
  5
509
330
4FE
100
AcDbEntity
  8
Defpoints
 62
     0
100
AcDbPoint
 10
93.04947954295332
 20
181.9473420260776
 30
0.0
  0
POINT
  5
50A
330
4FE
100
AcDbEntity
  8
Defpoints
 62
     0
100
AcDbPoint
 10
83.34944796267206
 20
171.5973419026778
 30
0.0
  0
POINT
  5
50B
330
4FE
100
AcDbEntity
  8
Defpoints
 62
     0
100
AcDbPoint
 10
108.3716968513487
 20
171.5973419026778
 30
0.0
  0
ENDBLK
  5
50D
330
4FE
100
AcDbEntity
  8
0
100
AcDbBlockEnd
  0
BLOCK
  5
519
330
50E
100
AcDbEntity
  8
0
100
AcDbBlockBegin
  2
*D11
 70
     1
 10
0.0
 20
0.0
 30
0.0
  3
*D11
  1

  0
LINE
  5
50F
330
50E
100
AcDbEntity
  8
Dimension
 62
     0
370
    -2
100
AcDbLine
 10
88.57181991280879
 20
139.5973419026773
 30
0.0
 11
109.627122558834
 21
139.5973419026773
 31
0.0
  0
LINE
  5
510
330
50E
100
AcDbEntity
  8
Dimension
 62
     0
370
    -2
100
AcDbLine
 10
88.57181991280892
 20
73.09734190267694
 30
0.0
 11
109.627122558834
 21
73.09734190267694
 31
0.0
  0
LINE
  5
511
330
50E
100
AcDbEntity
  8
Dimension
 62
     0
370
    -2
100
AcDbLine
 10
108.627122558834
 20
134.5973419026773
 30
0.0
 11
108.627122558834
 21
78.09734190267694
 31
0.0
  0
SOLID
  5
512
330
50E
100
AcDbEntity
  8
Dimension
 62
     0
100
AcDbTrace
 10
109.4604558921674
 20
134.5973419026773
 30
0.0
 11
107.7937892255007
 21
134.5973419026773
 31
0.0
 12
108.627122558834
 22
139.5973419026773
 32
0.0
 13
108.627122558834
 23
139.5973419026773
 33
0.0
  0
SOLID
  5
513
330
50E
100
AcDbEntity
  8
Dimension
 62
     0
100
AcDbTrace
 10
107.7937892255007
 20
78.09734190267694
 30
0.0
 11
109.4604558921674
 21
78.09734190267694
 31
0.0
 12
108.627122558834
 22
73.09734190267694
 32
0.0
 13
108.627122558834
 23
73.09734190267694
 33
0.0
  0
MTEXT
  5
514
330
50E
100
AcDbEntity
  8
Dimension
 62
     0
100
AcDbMText
 10
105.627122558834
 20
107.3726010862798
 30
0.0
 40
4.0
 41
0.0
 46
0.0
 71
     5
 72
     1
  1
\A1;66.5
  7
VCDSTYLE02
 11
0.0
 21
1.0
 31
0.0
 73
     1
 44
1.0
  0
POINT
  5
516
330
50E
100
AcDbEntity
  8
Defpoints
 62
     0
100
AcDbPoint
 10
88.57181991280879
 20
139.5973419026773
 30
0.0
  0
POINT
  5
517
330
50E
100
AcDbEntity
  8
Defpoints
 62
     0
100
AcDbPoint
 10
88.57181991280892
 20
73.09734190267694
 30
0.0
  0
POINT
  5
518
330
50E
100
AcDbEntity
  8
Defpoints
 62
     0
100
AcDbPoint
 10
108.627122558834
 20
73.09734190267694
 30
0.0
  0
ENDBLK
  5
51A
330
50E
100
AcDbEntity
  8
0
100
AcDbBlockEnd
  0
BLOCK
  5
526
330
51B
100
AcDbEntity
  8
0
100
AcDbBlockBegin
  2
*D12
 70
     1
 10
0.0
 20
0.0
 30
0.0
  3
*D12
  1

  0
LINE
  5
51C
330
51B
100
AcDbEntity
  8
Dimension
 62
     0
370
    -2
100
AcDbLine
 10
31.14944834503513
 20
130.5197134704505
 30
0.0
 11
31.14944834503513
 21
151.0139219778694
 31
0.0
  0
LINE
  5
51D
330
51B
100
AcDbEntity
  8
Dimension
 62
     0
370
    -2
100
AcDbLine
 10
97.64944834503521
 20
130.519713470451
 30
0.0
 11
97.64944834503521
 21
151.0139219778694
 31
0.0
  0
LINE
  5
51E
330
51B
100
AcDbEntity
  8
Dimension
 62
     0
370
    -2
100
AcDbLine
 10
36.14944834503513
 20
150.0139219778694
 30
0.0
 11
92.64944834503521
 21
150.0139219778694
 31
0.0
  0
SOLID
  5
51F
330
51B
100
AcDbEntity
  8
Dimension
 62
     0
100
AcDbTrace
 10
36.14944834503513
 20
150.8472553112028
 30
0.0
 11
36.14944834503513
 21
149.1805886445361
 31
0.0
 12
31.14944834503513
 22
150.0139219778694
 32
0.0
 13
31.14944834503513
 23
150.0139219778694
 33
0.0
  0
SOLID
  5
520
330
51B
100
AcDbEntity
  8
Dimension
 62
     0
100
AcDbTrace
 10
92.64944834503521
 20
149.1805886445361
 30
0.0
 11
92.64944834503521
 21
150.8472553112028
 31
0.0
 12
97.64944834503521
 22
150.0139219778694
 32
0.0
 13
97.64944834503521
 23
150.0139219778694
 33
0.0
  0
MTEXT
  5
521
330
51B
100
AcDbEntity
  8
Dimension
 62
     0
100
AcDbMText
 10
63.81218608973491
 20
153.0139219778694
 30
0.0
 40
4.0
 41
0.0
 46
0.0
 71
     5
 72
     1
  1
\A1;66.5
  7
VCDSTYLE02
 73
     1
 44
1.0
  0
POINT
  5
523
330
51B
100
AcDbEntity
  8
Defpoints
 62
     0
100
AcDbPoint
 10
31.14944834503513
 20
130.5197134704505
 30
0.0
  0
POINT
  5
524
330
51B
100
AcDbEntity
  8
Defpoints
 62
     0
100
AcDbPoint
 10
97.64944834503521
 20
130.519713470451
 30
0.0
  0
POINT
  5
525
330
51B
100
AcDbEntity
  8
Defpoints
 62
     0
100
AcDbPoint
 10
97.64944834503521
 20
150.0139219778694
 30
0.0
  0
ENDBLK
  5
527
330
51B
100
AcDbEntity
  8
0
100
AcDbBlockEnd
  0
BLOCK
  5
557
330
528
100
AcDbEntity
  8
0
100
AcDbBlockBegin
  2
$TitleBlock elphel_parts
 70
     0
 10
0.0
 20
0.0
 30
0.0
  3
$TitleBlock elphel_parts
  1

  0
TEXT
  5
529
330
528
100
AcDbEntity
  8
Outline
 62
     2
100
AcDbText
 10
-168.3495635986328
 20
16.18584442138672
 30
0.0
 40
1.841060042381287
  1
Surface
  7
VCDSTYLE02
100
AcDbText
  0
LWPOLYLINE
  5
52A
330
528
100
AcDbEntity
  8
Outline
 62
     2
100
AcDbPolyline
 90
        5
 70
     0
 43
0.0
 10
-0.4602650136366151
 20
0.4602650136366293
 10
-82.38743744095697
 20
0.4602650136366293
 10
-82.38743744095697
 20
15.18874545000888
 10
-0.4602650136366151
 20
15.18874545000888
 10
-0.4602650136366151
 20
0.0
  0
LINE
  5
52B
330
528
100
AcDbEntity
  8
Outline
 62
     2
100
AcDbLine
 10
0.0000000000000568
 20
15.64901046364552
 30
0.0
 11
0.0000000000000568
 21
0.0
 31
0.0
  0
LINE
  5
52C
330
528
100
AcDbEntity
  8
Outline
 62
     2
100
AcDbLine
 10
-97.57618289096607
 20
15.64901046364552
 30
0.0
 11
-97.57618289096607
 21
19.56126307955689
 31
0.0
  0
LINE
  5
52D
330
528
100
AcDbEntity
  8
Outline
 62
     2
100
AcDbLine
 10
-170.298055045554
 20
15.64901046364552
 30
0.0
 11
-82.84770245459381
 21
15.64901046364552
 31
0.0
  0
LINE
  5
52E
330
528
100
AcDbEntity
  8
Outline
 62
     2
100
AcDbLine
 10
-170.298055045554
 20
0.0
 30
0.0
 11
-82.84770245459381
 21
0.0
 31
0.0
  0
LINE
  5
52F
330
528
100
AcDbEntity
  8
Outline
 62
     2
100
AcDbLine
 10
-82.84770245459381
 20
0.0
 30
0.0
 11
-82.84770245459381
 21
15.64901046364552
 31
0.0
  0
LINE
  5
530
330
528
100
AcDbEntity
  8
Outline
 62
     2
100
AcDbLine
 10
-170.298055045554
 20
19.56126307955689
 30
0.0
 11
0.0000000000000568
 21
19.56126307955689
 31
0.0
  0
LINE
  5
531
330
528
100
AcDbEntity
  8
Outline
 62
     2
100
AcDbLine
 10
0.0000000000000568
 20
0.0
 30
0.0
 11
-82.84770245459381
 21
0.0
 31
0.0
  0
LINE
  5
532
330
528
100
AcDbEntity
  8
Outline
 62
     2
100
AcDbLine
 10
-82.84770245459381
 20
15.64901046364552
 30
0.0
 11
0.0000000000000568
 21
15.64901046364552
 31
0.0
  0
TEXT
  5
533
330
528
100
AcDbEntity
  8
Outline
 62
     2
100
AcDbText
 10
-81.25203704833984
 20
44.91454315185547
 30
0.0
 40
0.9205300211906433
  1
Description
  7
VCDSTYLE02
100
AcDbText
  0
LINE
  5
534
330
528
100
AcDbEntity
  8
Outline
 62
     2
100
AcDbLine
 10
-170.298055045554
 20
27.38576831137964
 30
0.0
 11
0.0000000000000568
 21
27.38576831137964
 31
0.0
  0
LINE
  5
535
330
528
100
AcDbEntity
  8
Outline
 62
     2
100
AcDbLine
 10
0.0000000000000568
 20
46.94703139093654
 30
0.0
 11
-170.298055045554
 21
46.94703139093654
 31
0.0
  0
LINE
  5
536
330
528
100
AcDbEntity
  8
Outline
 62
     2
100
AcDbLine
 10
-170.298055045554
 20
27.38576831137964
 30
0.0
 11
-82.84770245459381
 21
27.38576831137964
 31
0.0
  0
LINE
  5
537
330
528
100
AcDbEntity
  8
Outline
 62
     2
100
AcDbLine
 10
-170.298055045554
 20
31.29802092729101
 30
0.0
 11
-170.298055045554
 21
46.94703139093654
 31
0.0
  0
LINE
  5
538
330
528
100
AcDbEntity
  8
Outline
 62
     2
100
AcDbLine
 10
-82.84770245459381
 20
46.94703139093654
 30
0.0
 11
-82.84770245459381
 21
31.29802092729101
 31
0.0
  0
LINE
  5
539
330
528
100
AcDbEntity
  8
Outline
 62
     2
100
AcDbLine
 10
0.0000000000000568
 20
31.29802092729101
 30
0.0
 11
0.0000000000000568
 21
46.94703139093654
 31
0.0
  0
LINE
  5
53A
330
528
100
AcDbEntity
  8
Outline
 62
     2
100
AcDbLine
 10
-157.0483207857146
 20
46.94703139093654
 30
0.0
 11
-157.0483207857146
 21
31.29802092729101
 31
0.0
  0
TEXT
  5
53B
330
528
100
AcDbEntity
  8
Outline
 62
     2
100
AcDbText
 10
-168.3495635986328
 20
28.04717826843262
 30
0.0
 40
1.841060042381287
  1
Material
  7
VCDSTYLE02
100
AcDbText
  0
LINE
  5
53C
330
528
100
AcDbEntity
  8
Outline
 62
     2
100
AcDbLine
 10
-170.298055045554
 20
0.0
 30
0.0
 11
-170.298055045554
 21
31.29802092729101
 31
0.0
  0
LINE
  5
53D
330
528
100
AcDbEntity
  8
Outline
 62
     2
100
AcDbLine
 10
-150.9056121242796
 20
15.64901046364552
 30
0.0
 11
-150.9056121242796
 21
31.29802092729101
 31
0.0
  0
LINE
  5
53E
330
528
100
AcDbEntity
  8
Outline
 62
     2
100
AcDbLine
 10
-82.84770245459381
 20
31.29802092729101
 30
0.0
 11
-82.84770245459381
 21
15.64901046364552
 31
0.0
  0
LINE
  5
53F
330
528
100
AcDbEntity
  8
Outline
100
AcDbLine
 10
-170.298055045554
 20
23.47351569546827
 30
0.0
 11
-82.84770245459381
 21
23.47351569546827
 31
0.0
  0
LINE
  5
540
330
528
100
AcDbEntity
  8
Outline
 62
     2
100
AcDbLine
 10
-170.298055045554
 20
23.47351569546827
 30
0.0
 11
0.0000000000000568
 21
23.47351569546827
 31
0.0
  0
TEXT
  5
541
330
528
100
AcDbEntity
  8
Outline
 62
     2
100
AcDbText
 10
-168.3495635986328
 20
24.13492584228516
 30
0.0
 40
1.841060042381287
  1
Finish
  7
VCDSTYLE02
100
AcDbText
  0
LINE
  5
542
330
528
100
AcDbEntity
  8
Outline
 62
     2
100
AcDbLine
 10
0.0000000000000568
 20
15.64901046364552
 30
0.0
 11
0.0000000000000568
 21
31.29802092729101
 31
0.0
  0
TEXT
  5
543
330
528
100
AcDbEntity
  8
Outline
 62
     2
100
AcDbText
 10
-81.25203704833984
 20
12.55433559417725
 30
0.0
 40
0.9205300211906433
  1
Notes
  7
VCDSTYLE02
100
AcDbText
  0
LINE
  5
544
330
528
100
AcDbEntity
  8
Outline
 62
     2
100
AcDbLine
 10
-170.298055045554
 20
31.29802092729101
 30
0.0
 11
-82.84770245459381
 21
31.29802092729101
 31
0.0
  0
TEXT
  5
545
330
528
100
AcDbEntity
  8
Outline
 62
     2
100
AcDbText
 10
-168.3495635986328
 20
20.20714569091797
 30
0.0
 40
1.841060042381287
  1
Weight(g)
  7
VCDSTYLE02
100
AcDbText
  0
TEXT
  5
546
330
528
100
AcDbEntity
  8
Outline
100
AcDbText
 10
-167.9451904296875
 20
7.327913284301758
 30
0.0
 40
1.200000047683716
  1
Permission is also granted to copy, distribute and/or modify this document under the terms of the
 50
360.0
  7
VCDSTYLE10
100
AcDbText
  0
TEXT
  5
547
330
528
100
AcDbEntity
  8
Outline
100
AcDbText
 10
-167.9451904296875
 20
5.407913684844971
 30
0.0
 40
1.200000047683716
  1
GNU Free Documentation License, Version 1.3 or any later version published by the Free Software
 50
360.0
  7
VCDSTYLE10
100
AcDbText
  0
TEXT
  5
548
330
528
100
AcDbEntity
  8
Outline
100
AcDbText
 10
-167.9451904296875
 20
3.487913608551025
 30
0.0
 40
1.200000047683716
  1
Foundation; with no Invariant Sections, no Front-Cover Texts, and no Back-Cover Texts.  A copy of
 50
360.0
  7
VCDSTYLE10
100
AcDbText
  0
TEXT
  5
549
330
528
100
AcDbEntity
  8
Outline
100
AcDbText
 10
-167.9451904296875
 20
1.56791353225708
 30
0.0
 40
1.200000047683716
  1
the license is included in the section entitled "GNU Free Documentation License".
 50
360.0
  7
VCDSTYLE10
100
AcDbText
  0
TEXT
  5
54A
330
528
100
AcDbEntity
  8
Outline
 62
     2
100
AcDbText
 10
-156.5416564941406
 20
45.10939788818359
 30
0.0
 40
0.9205300211906433
  1
Part #
  7
VCDSTYLE02
100
AcDbText
  0
TEXT
  5
54B
330
528
100
AcDbEntity
  8
Outline
 62
     2
100
AcDbText
 10
-169.0979461669922
 20
45.19255065917969
 30
0.0
 40
0.9205300211906433
  1
Revision
  7
VCDSTYLE02
100
AcDbText
  0
TEXT
  5
54C
330
528
100
AcDbEntity
  8
Outline
100
AcDbText
 10
-168.0283508300781
 20
12.77079391479492
 30
0.0
 40
1.5
  1
Copyright (c)                 Elphel, Inc.
 50
360.0
  7
VCDSTYLE10
100
AcDbText
  0
TEXT
  5
54D
330
528
100
AcDbEntity
  8
Outline
100
AcDbText
 10
-168.0283508300781
 20
10.37079429626465
 30
0.0
 40
1.5
  1
Licensed under CERN OHL v.1.1 or later - see http://ohwr.org/cernohl
 50
360.0
  7
VCDSTYLE10
100
AcDbText
  0
TEXT
  5
54E
330
528
100
AcDbEntity
  8
Outline
100
AcDbText
 10
-168.0283508300781
 20
7.970794200897217
 30
0.0
 40
1.5
  1
 
 50
360.0
  7
VCDSTYLE10
100
AcDbText
  0
LINE
  5
54F
330
528
100
AcDbEntity
  8
Outline
 62
     2
100
AcDbLine
 10
-59.83011277766059
 20
27.38576831137964
 30
0.0
 11
-59.83011277766059
 21
15.64901046364552
 31
0.0
  0
TEXT
  5
550
330
528
100
AcDbEntity
  8
Outline
 62
     2
100
AcDbText
 10
-82.25203704833984
 20
24.13492584228516
 30
0.0
 40
1.841060042381287
  1
Serial No.
  7
VCDSTYLE02
100
AcDbText
  0
TEXT
  5
551
330
528
100
AcDbEntity
  8
Outline
 62
     2
100
AcDbText
 10
-82.25203704833984
 20
16.18584442138672
 30
0.0
 40
1.841060042381287
  1
Date
  7
VCDSTYLE02
100
AcDbText
  0
TEXT
  5
552
330
528
100
AcDbEntity
  8
Outline
 62
     2
100
AcDbText
 10
-82.25203704833984
 20
20.20714569091797
 30
0.0
 40
1.841060042381287
  1
Assembly No.
  7
VCDSTYLE02
100
AcDbText
  0
LINE
  5
553
330
528
100
AcDbEntity
  8
Outline
 62
     2
100
AcDbLine
 10
-14.79493342379411
 20
19.56126307955689
 30
0.0
 11
-14.79493342379411
 21
15.64901046364552
 31
0.0
  0
LINE
  5
554
330
528
100
AcDbEntity
  8
Outline
 62
     2
100
AcDbLine
 10
-26.81252310072733
 20
19.56126307955689
 30
0.0
 11
-26.81252310072733
 21
15.64901046364552
 31
0.0
  0
TEXT
  5
555
330
528
100
AcDbEntity
  8
Outline
 62
     2
100
AcDbText
 10
-25.21685791015625
 20
16.18584442138672
 30
0.0
 40
1.841060042381287
  1
Scale
  7
VCDSTYLE02
100
AcDbText
  0
ENDBLK
  5
558
330
528
100
AcDbEntity
  8
0
100
AcDbBlockEnd
  0
BLOCK
  5
55D
330
559
100
AcDbEntity
  8
0
100
AcDbBlockBegin
  2
Sheet Border
 70
     0
 10
0.0
 20
0.0
 30
0.0
  3
Sheet Border
  1

  0
LWPOLYLINE
  5
55A
330
559
100
AcDbEntity
  8
Outline
 62
     2
100
AcDbPolyline
 90
        5
 70
     0
 43
0.0
 10
5.0
 20
5.0
 10
205.0
 20
5.0
 10
205.0
 20
292.0
 10
5.0
 20
292.0
 10
5.0
 20
5.0
  0
LWPOLYLINE
  5
55B
330
559
100
AcDbEntity
  8
Outline
 62
     2
100
AcDbPolyline
 90
        5
 70
     0
 43
0.0
 10
0.0
 20
0.0
 10
210.0
 20
0.0
 10
210.0
 20
297.0
 10
0.0
 20
297.0
 10
0.0
 20
0.0
  0
ENDBLK
  5
55E
330
559
100
AcDbEntity
  8
0
100
AcDbBlockEnd
  0
ENDSEC
  0
SECTION
  2
ENTITIES
  0
INSERT
  5
9C
330
1F
100
AcDbEntity
  8
Outline
100
AcDbBlockReference
  2
$AttrValue elphel_parts
 10
188.2343
 20
26.0346
 30
0.0
  0
INSERT
  5
A1
330
1F
100
AcDbEntity
  8
Outline
100
AcDbBlockReference
  2
$AttrValue elphel_parts(1)
 10
50.43000000000006
 20
34.4112
 30
0.0
  0
INSERT
  5
A6
330
1F
100
AcDbEntity
  8
Outline
100
AcDbBlockReference
  2
$AttrValue elphel_parts(2)
 10
50.43000000000006
 20
38.1451
 30
0.0
  0
INSERT
  5
AB
330
1F
100
AcDbEntity
  8
Outline
100
AcDbBlockReference
  2
$AttrValue elphel_parts(3)
 10
50.43000000000006
 20
30.3694
 30
0.0
  0
INSERT
  5
B0
330
1F
100
AcDbEntity
  8
Outline
100
AcDbBlockReference
  2
$AttrValue elphel_parts(4)
 10
47.37900000000005
 20
22.801
 30
0.0
  0
INSERT
  5
B5
330
1F
100
AcDbEntity
  8
Outline
100
AcDbBlockReference
  2
$AttrValue elphel_parts(5)
 10
119.3813000000001
 20
49.8706
 30
0.0
  0
INSERT
  5
BA
330
1F
100
AcDbEntity
  8
Outline
100
AcDbBlockReference
  2
$AttrValue elphel_parts(6)
 10
44.76700000000005
 20
44.7335
 30
0.0
  0
ARC
  5
BD
330
1F
100
AcDbEntity
  8
0
 62
     2
100
AcDbCircle
 10
69.94944403191238
 20
265.8473352186281
 30
0.0
 40
0.5
100
AcDbArc
 50
90.0000349850479
 51
179.7128874996856
  0
ARC
  5
BE
330
1F
100
AcDbEntity
  8
0
 62
     2
100
AcDbCircle
 10
69.94944403191244
 20
265.8473352186138
 30
0.0
 40
0.5
100
AcDbArc
 50
90.00003498493065
 51
140.8866385766187
  0
LINE
  5
BF
330
1F
100
AcDbEntity
  8
0
 62
     2
100
AcDbLine
 10
89.99040717867331
 20
216.0730400823913
 30
0.0
 11
89.98972862372801
 21
215.3652547462595
 31
0.0
  0
LINE
  5
C0
330
1F
100
AcDbEntity
  8
0
 62
     2
100
AcDbLine
 10
89.99040717867331
 20
216.0730400823913
 30
0.0
 11
87.85903924591128
 21
218.212597107996
 31
0.0
  0
LINE
  5
C1
330
1F
100
AcDbEntity
  8
0
 62
     2
100
AcDbLine
 10
97.1494444414007
 20
228.5996477638562
 30
0.0
 11
97.64944444140065
 21
228.0986881422497
 31
0.0
  0
LINE
  5
C2
330
1F
100
AcDbEntity
  8
0
 62
     2
100
AcDbLine
 10
97.1494444414007
 20
228.5996477638562
 30
0.0
 11
95.39944444140065
 21
228.603003222595
 31
0.0
  0
LINE
  5
C3
330
1F
100
AcDbEntity
  8
0
 62
     2
100
AcDbLine
 10
95.5237464907151
 20
272.7883048689787
 30
0.0
 11
96.23153182684689
 21
272.7876263140334
 31
0.0
  0
LINE
  5
C4
330
1F
100
AcDbEntity
  8
0
 62
     2
100
AcDbLine
 10
95.5237464907151
 20
272.7883048689787
 30
0.0
 11
93.38418946511035
 21
270.6569369362167
 31
0.0
  0
LINE
  5
C5
330
1F
100
AcDbEntity
  8
0
 62
     2
100
AcDbLine
 10
82.99713880925026
 20
279.9473421317061
 30
0.0
 11
83.49809843085677
 21
280.4473421317061
 31
0.0
  0
LINE
  5
C6
330
1F
100
AcDbEntity
  8
0
 62
     2
100
AcDbLine
 10
82.99713880925026
 20
279.9473421317061
 30
0.0
 11
82.99378335051142
 21
278.1973421317061
 31
0.0
  0
LINE
  5
C7
330
1F
100
AcDbEntity
  8
0
 62
     2
100
AcDbLine
 10
38.80848170412827
 20
278.3216441810205
 30
0.0
 11
38.80916025907356
 21
279.0294295171523
 31
0.0
  0
LINE
  5
C8
330
1F
100
AcDbEntity
  8
0
 62
     2
100
AcDbLine
 10
38.80848170412827
 20
278.3216441810205
 30
0.0
 11
40.9398496368903
 21
276.1820871554158
 31
0.0
  0
LINE
  5
C9
330
1F
100
AcDbEntity
  8
0
 62
     2
100
AcDbLine
 10
31.64944444140053
 20
265.7950364995552
 30
0.0
 11
31.14944444140053
 21
266.2959961211617
 31
0.0
  0
LINE
  5
CA
330
1F
100
AcDbEntity
  8
0
 62
     2
100
AcDbLine
 10
31.64944444140053
 20
265.7950364995552
 30
0.0
 11
33.39944444140053
 21
265.7916810408163
 31
0.0
  0
LINE
  5
CB
330
1F
100
AcDbEntity
  8
0
 62
     2
100
AcDbLine
 10
33.27514239208614
 20
221.6063793944335
 30
0.0
 11
32.56735705595429
 21
221.6070579493788
 31
0.0
  0
LINE
  5
CC
330
1F
100
AcDbEntity
  8
0
 62
     2
100
AcDbLine
 10
33.27514239208614
 20
221.6063793944335
 30
0.0
 11
35.41469941769083
 21
223.7377473271956
 31
0.0
  0
LINE
  5
CD
330
1F
100
AcDbEntity
  8
0
 62
     2
100
AcDbLine
 10
45.80175007355149
 20
214.4473421317057
 30
0.0
 11
45.30079045194503
 21
213.9473421317057
 31
0.0
  0
LINE
  5
CE
330
1F
100
AcDbEntity
  8
0
 62
     2
100
AcDbLine
 10
45.80175007355149
 20
214.4473421317057
 30
0.0
 11
45.80510553229038
 21
216.1973421317057
 31
0.0
  0
LINE
  5
CF
330
1F
100
AcDbEntity
  8
0
 62
     2
100
AcDbLine
 10
38.80438780761568
 20
215.3700271977174
 30
0.0
 11
38.80438780761568
 21
216.077133978904
 31
0.0
  0
LINE
  5
D0
330
1F
100
AcDbEntity
  8
0
 62
     2
100
AcDbLine
 10
40.93985028679907
 20
218.2125964580874
 30
0.0
 11
38.80438780761568
 21
216.077133978904
 31
0.0
  0
ARC
  5
D1
330
1F
100
AcDbEntity
  8
0
 62
     2
100
AcDbCircle
 10
42.95510461318071
 20
216.1973421317057
 30
0.0
 40
2.849999999999989
100
AcDbArc
 50
100.5654577997018
 51
134.9999999999993
  0
ARC
  5
D2
330
1F
100
AcDbEntity
  8
0
 62
     2
100
AcDbCircle
 10
42.95510461318071
 20
216.1973421317057
 30
0.0
 40
2.849999999999989
100
AcDbArc
 50
0.0
 51
100.5654577997018
  0
LINE
  5
D3
330
1F
100
AcDbEntity
  8
0
 62
     2
100
AcDbLine
 10
31.14944444140053
 20
228.1030023034859
 30
0.0
 11
31.64944444140053
 21
228.6030023034859
 31
0.0
  0
LINE
  5
D4
330
1F
100
AcDbEntity
  8
0
 62
     2
100
AcDbLine
 10
33.39944444140053
 20
228.6030023034859
 30
0.0
 11
31.64944444140053
 21
228.6030023034859
 31
0.0
  0
ARC
  5
D5
330
1F
100
AcDbEntity
  8
0
 62
     2
100
AcDbCircle
 10
33.39944444140053
 20
225.7530023034859
 30
0.0
 40
2.849999999999993
100
AcDbArc
 50
55.56545779970089
 51
89.99999999999982
  0
ARC
  5
D6
330
1F
100
AcDbEntity
  8
0
 62
     2
100
AcDbCircle
 10
33.39944444140053
 20
225.7530023034859
 30
0.0
 40
2.849999999999993
100
AcDbArc
 50
315.0000000000004
 51
55.56545779970094
  0
LINE
  5
D7
330
1F
100
AcDbEntity
  8
0
 62
     2
100
AcDbLine
 10
32.57212950741228
 20
272.792398765491
 30
0.0
 11
33.27923628859884
 21
272.7923987654911
 31
0.0
  0
LINE
  5
D8
330
1F
100
AcDbEntity
  8
0
 62
     2
100
AcDbLine
 10
35.41469876778223
 20
270.6569362863077
 30
0.0
 11
33.27923628859884
 21
272.7923987654911
 31
0.0
  0
ARC
  5
D9
330
1F
100
AcDbEntity
  8
0
 62
     2
100
AcDbCircle
 10
33.39944444140053
 20
268.641681959926
 30
0.0
 40
2.849999999999986
100
AcDbArc
 50
10.56545779970122
 51
44.99999999999979
  0
ARC
  5
DA
330
1F
100
AcDbEntity
  8
0
 62
     2
100
AcDbCircle
 10
33.39944444140053
 20
268.641681959926
 30
0.0
 40
2.849999999999986
100
AcDbArc
 50
270.0000000000003
 51
10.56545779970145
  0
LINE
  5
DB
330
1F
100
AcDbEntity
  8
0
 62
     2
100
AcDbLine
 10
45.30510461318062
 20
280.4473421317062
 30
0.0
 11
45.80510461318062
 21
279.9473421317061
 31
0.0
  0
LINE
  5
DC
330
1F
100
AcDbEntity
  8
0
 62
     2
100
AcDbLine
 10
45.80510461318062
 20
278.1973421317061
 30
0.0
 11
45.80510461318062
 21
279.9473421317061
 31
0.0
  0
ARC
  5
DD
330
1F
100
AcDbEntity
  8
0
 62
     2
100
AcDbCircle
 10
42.95510461318065
 20
278.1973421317061
 30
0.0
 40
2.849999999999993
100
AcDbArc
 50
325.5654577997009
 51
359.9999999999997
  0
ARC
  5
DE
330
1F
100
AcDbEntity
  8
0
 62
     2
100
AcDbCircle
 10
42.95510461318065
 20
278.1973421317061
 30
0.0
 40
2.849999999999993
100
AcDbArc
 50
225.0000000000007
 51
325.5654577997016
  0
LINE
  5
DF
330
1F
100
AcDbEntity
  8
0
 62
     2
100
AcDbLine
 10
89.99450107518607
 20
279.0246570656943
 30
0.0
 11
89.99450107518607
 21
278.3175502845078
 31
0.0
  0
LINE
  5
E0
330
1F
100
AcDbEntity
  8
0
 62
     2
100
AcDbLine
 10
87.85903859600268
 20
276.1820878053244
 30
0.0
 11
89.99450107518607
 21
278.3175502845078
 31
0.0
  0
ARC
  5
E1
330
1F
100
AcDbEntity
  8
0
 62
     2
100
AcDbCircle
 10
85.8437842696211
 20
278.1973421317061
 30
0.0
 40
2.849999999999982
100
AcDbArc
 50
280.5654577997016
 51
315.0
  0
ARC
  5
E2
330
1F
100
AcDbEntity
  8
0
 62
     2
100
AcDbCircle
 10
85.8437842696211
 20
278.1973421317061
 30
0.0
 40
2.849999999999982
100
AcDbArc
 50
180.0
 51
280.5654577997015
  0
LINE
  5
E3
330
1F
100
AcDbEntity
  8
0
 62
     2
100
AcDbLine
 10
97.64944444140065
 20
266.2916819599264
 30
0.0
 11
97.14944444140065
 21
265.7916819599264
 31
0.0
  0
LINE
  5
E4
330
1F
100
AcDbEntity
  8
0
 62
     2
100
AcDbLine
 10
95.39944444140065
 20
265.7916819599264
 30
0.0
 11
97.14944444140065
 21
265.7916819599264
 31
0.0
  0
ARC
  5
E5
330
1F
100
AcDbEntity
  8
0
 62
     2
100
AcDbCircle
 10
95.39944444140065
 20
268.6416819599264
 30
0.0
 40
2.849999999999988
100
AcDbArc
 50
235.5654577997019
 51
269.9999999999995
  0
ARC
  5
E6
330
1F
100
AcDbEntity
  8
0
 62
     2
100
AcDbCircle
 10
95.39944444140065
 20
268.6416819599264
 30
0.0
 40
2.849999999999988
100
AcDbArc
 50
135.0000000000002
 51
235.5654577997022
  0
LINE
  5
E7
330
1F
100
AcDbEntity
  8
0
 62
     2
100
AcDbLine
 10
83.49378426962096
 20
213.9473421317057
 30
0.0
 11
82.99378426962096
 21
214.4473421317057
 31
0.0
  0
LINE
  5
E8
330
1F
100
AcDbEntity
  8
0
 62
     2
100
AcDbLine
 10
82.99378426962096
 20
216.1973421317057
 30
0.0
 11
82.99378426962096
 21
214.4473421317057
 31
0.0
  0
ARC
  5
E9
330
1F
100
AcDbEntity
  8
0
 62
     2
100
AcDbCircle
 10
85.84378426962098
 20
216.1973421317057
 30
0.0
 40
2.849999999999988
100
AcDbArc
 50
145.5654577997014
 51
179.9999999999993
  0
ARC
  5
EA
330
1F
100
AcDbEntity
  8
0
 62
     2
100
AcDbCircle
 10
85.84378426962098
 20
216.1973421317057
 30
0.0
 40
2.849999999999988
100
AcDbArc
 50
44.99999999999979
 51
145.5654577997015
  0
LINE
  5
EB
330
1F
100
AcDbEntity
  8
0
 62
     2
100
AcDbLine
 10
96.2267593753889
 20
221.6022854979203
 30
0.0
 11
95.5196525942024
 21
221.6022854979203
 31
0.0
  0
LINE
  5
EC
330
1F
100
AcDbEntity
  8
0
 62
     2
100
AcDbLine
 10
93.38419011501901
 20
223.7377479771037
 30
0.0
 11
95.5196525942024
 21
221.6022854979203
 31
0.0
  0
ARC
  5
ED
330
1F
100
AcDbEntity
  8
0
 62
     2
100
AcDbCircle
 10
95.39944444140065
 20
225.7530023034853
 30
0.0
 40
2.849999999999989
100
AcDbArc
 50
190.5654577997006
 51
224.9999999999991
  0
ARC
  5
EE
330
1F
100
AcDbEntity
  8
0
 62
     2
100
AcDbCircle
 10
95.39944444140065
 20
225.7530023034853
 30
0.0
 40
2.849999999999989
100
AcDbArc
 50
89.99999999999972
 51
190.5654577997005
  0
LINE
  5
EF
330
1F
100
AcDbEntity
  8
0
 62
     2
100
AcDbLine
 10
33.98157095628028
 20
220.8999508302394
 30
0.0
 11
33.628017565687
 21
220.5463974396461
 31
0.0
  0
LINE
  5
F0
330
1F
100
AcDbEntity
  8
0
 62
     2
100
AcDbLine
 10
32.56735705595429
 20
221.6070579493788
 30
0.0
 11
33.628017565687
 21
220.5463974396461
 31
0.0
  0
LINE
  5
F1
330
1F
100
AcDbEntity
  8
0
 62
     2
100
AcDbLine
 10
33.27514239208614
 20
221.6063793944335
 30
0.0
 11
33.98157095628028
 21
220.8999508302394
 31
0.0
  0
LINE
  5
F2
330
1F
100
AcDbEntity
  8
0
 62
     2
100
AcDbLine
 10
37.74372763583585
 20
216.4306873694973
 30
0.0
 11
38.09728102642913
 21
216.7842407600905
 31
0.0
  0
LINE
  5
F3
330
1F
100
AcDbEntity
  8
0
 62
     2
100
AcDbLine
 10
38.09728102642913
 20
216.7842407600905
 30
0.0
 11
38.80438780761568
 21
216.077133978904
 31
0.0
  0
LINE
  5
F4
330
1F
100
AcDbEntity
  8
0
 62
     2
100
AcDbLine
 10
37.74372763583585
 20
216.4306873694973
 30
0.0
 11
38.80438780761568
 21
215.3700271977174
 31
0.0
  0
LINE
  5
F5
330
1F
100
AcDbEntity
  8
0
 62
     2
100
AcDbLine
 10
33.63278967919211
 20
273.8530589372709
 30
0.0
 11
33.98634306978539
 21
273.4995055466776
 31
0.0
  0
LINE
  5
F6
330
1F
100
AcDbEntity
  8
0
 62
     2
100
AcDbLine
 10
33.98634306978539
 20
273.4995055466776
 30
0.0
 11
33.27923628859884
 21
272.792398765491
 31
0.0
  0
LINE
  5
F7
330
1F
100
AcDbEntity
  8
0
 62
     2
100
AcDbLine
 10
33.63278967919211
 20
273.8530589372709
 30
0.0
 11
32.57212950741228
 21
272.792398765491
 31
0.0
  0
LINE
  5
F8
330
1F
100
AcDbEntity
  8
0
 62
     2
100
AcDbLine
 10
38.10205313993418
 20
277.6152156168264
 30
0.0
 11
37.74849974934091
 21
277.9687690074197
 31
0.0
  0
LINE
  5
F9
330
1F
100
AcDbEntity
  8
0
 62
     2
100
AcDbLine
 10
38.80916025907356
 20
279.0294295171523
 30
0.0
 11
37.74849974934091
 21
277.9687690074197
 31
0.0
  0
LINE
  5
FA
330
1F
100
AcDbEntity
  8
0
 62
     2
100
AcDbLine
 10
38.80848170412827
 20
278.3216441810205
 30
0.0
 11
38.10205313993418
 21
277.6152156168264
 31
0.0
  0
LINE
  5
FB
330
1F
100
AcDbEntity
  8
0
 62
     2
100
AcDbLine
 10
91.05516124696584
 20
277.9639968939146
 30
0.0
 11
90.70160785637256
 21
277.6104435033213
 31
0.0
  0
LINE
  5
FC
330
1F
100
AcDbEntity
  8
0
 62
     2
100
AcDbLine
 10
90.70160785637256
 20
277.6104435033213
 30
0.0
 11
89.99450107518607
 21
278.3175502845078
 31
0.0
  0
LINE
  5
FD
330
1F
100
AcDbEntity
  8
0
 62
     2
100
AcDbLine
 10
91.05516124696584
 20
277.9639968939146
 30
0.0
 11
89.99450107518607
 21
279.0246570656943
 31
0.0
  0
LINE
  5
FE
330
1F
100
AcDbEntity
  8
0
 62
     2
100
AcDbLine
 10
94.81731792652141
 20
273.4947334331724
 30
0.0
 11
95.17087131711469
 21
273.8482868237657
 31
0.0
  0
LINE
  5
FF
330
1F
100
AcDbEntity
  8
0
 62
     2
100
AcDbLine
 10
96.23153182684689
 20
272.7876263140334
 30
0.0
 11
95.17087131711469
 21
273.8482868237657
 31
0.0
  0
LINE
  5
100
330
1F
100
AcDbEntity
  8
0
 62
     2
100
AcDbLine
 10
95.52374649071504
 20
272.7883048689787
 30
0.0
 11
94.81731792652141
 21
273.4947334331724
 31
0.0
  0
LINE
  5
101
330
1F
100
AcDbEntity
  8
0
 62
     2
100
AcDbLine
 10
95.16609920360906
 20
220.5416253261405
 30
0.0
 11
94.81254581301579
 21
220.8951787167337
 31
0.0
  0
LINE
  5
102
330
1F
100
AcDbEntity
  8
0
 62
     2
100
AcDbLine
 10
94.81254581301579
 20
220.8951787167337
 30
0.0
 11
95.5196525942024
 21
221.6022854979203
 31
0.0
  0
LINE
  5
103
330
1F
100
AcDbEntity
  8
0
 62
     2
100
AcDbLine
 10
95.16609920360906
 20
220.5416253261405
 30
0.0
 11
96.2267593753889
 21
221.6022854979203
 31
0.0
  0
LINE
  5
104
330
1F
100
AcDbEntity
  8
0
 62
     2
100
AcDbLine
 10
90.69683574286694
 20
216.7794686465849
 30
0.0
 11
91.05038913346016
 21
216.4259152559916
 31
0.0
  0
LINE
  5
105
330
1F
100
AcDbEntity
  8
0
 62
     2
100
AcDbLine
 10
89.98972862372801
 20
215.3652547462595
 30
0.0
 11
91.05038913346016
 21
216.4259152559916
 31
0.0
  0
LINE
  5
106
330
1F
100
AcDbEntity
  8
0
 62
     2
100
AcDbLine
 10
89.99040717867331
 20
216.0730400823913
 30
0.0
 11
90.69683574286694
 21
216.7794686465849
 31
0.0
  0
LINE
  5
107
330
1F
100
AcDbEntity
  8
0
 62
     2
100
AcDbLine
 10
45.80175007355149
 20
214.4473421317057
 30
0.0
 11
82.99378426962096
 21
214.4473421317057
 31
0.0
  0
LINE
  5
108
330
1F
100
AcDbEntity
  8
0
 62
     2
100
AcDbLine
 10
45.30079045194503
 20
213.9473421317057
 30
0.0
 11
83.49378426962096
 21
213.9473421317057
 31
0.0
  0
LINE
  5
109
330
1F
100
AcDbEntity
  8
0
 62
     2
100
AcDbLine
 10
97.14944444140065
 20
228.5996477638561
 30
0.0
 11
97.14944444140065
 21
265.7916819599264
 31
0.0
  0
LINE
  5
10A
330
1F
100
AcDbEntity
  8
0
 62
     2
100
AcDbLine
 10
97.64944444140065
 20
228.0986881422497
 30
0.0
 11
97.64944444140065
 21
266.2916819599264
 31
0.0
  0
LINE
  5
10B
330
1F
100
AcDbEntity
  8
0
 62
     2
100
AcDbLine
 10
82.99713880925032
 20
279.9473421317061
 30
0.0
 11
45.80510461318062
 21
279.9473421317061
 31
0.0
  0
LINE
  5
10C
330
1F
100
AcDbEntity
  8
0
 62
     2
100
AcDbLine
 10
83.49809843085677
 20
280.4473421317061
 30
0.0
 11
45.30510461318062
 21
280.4473421317061
 31
0.0
  0
LINE
  5
10D
330
1F
100
AcDbEntity
  8
0
 62
     2
100
AcDbLine
 10
31.64944444140053
 20
265.7950364995553
 30
0.0
 11
31.64944444140053
 21
228.6030023034859
 31
0.0
  0
LINE
  5
10E
330
1F
100
AcDbEntity
  8
0
 62
     2
100
AcDbLine
 10
31.14944444140053
 20
266.2959961211617
 30
0.0
 11
31.14944444140053
 21
228.1030023034859
 31
0.0
  0
LINE
  5
10F
330
1F
100
AcDbEntity
  8
0
 62
     2
100
AcDbLine
 10
38.64175301725857
 20
217.32871275092
 30
0.0
 11
34.52604294710977
 21
221.4444228210688
 31
0.0
  0
LINE
  5
110
330
1F
100
AcDbEntity
  8
0
 62
     2
100
AcDbLine
 10
34.52604294710977
 20
221.4444228210688
 30
0.0
 11
33.98157095628028
 21
220.8999508302394
 31
0.0
  0
LINE
  5
111
330
1F
100
AcDbEntity
  8
0
 62
     2
100
AcDbLine
 10
38.09728102642913
 20
216.7842407600905
 30
0.0
 11
38.64175301725857
 21
217.32871275092
 31
0.0
  0
LINE
  5
112
330
1F
100
AcDbEntity
  8
0
 62
     2
100
AcDbLine
 10
94.26807288629652
 20
221.439651643453
 30
0.0
 11
90.15236281614767
 21
217.3239415733042
 31
0.0
  0
LINE
  5
113
330
1F
100
AcDbEntity
  8
0
 62
     2
100
AcDbLine
 10
90.15236281614767
 20
217.3239415733042
 30
0.0
 11
90.69683574286694
 21
216.7794686465849
 31
0.0
  0
LINE
  5
114
330
1F
100
AcDbEntity
  8
0
 62
     2
100
AcDbLine
 10
94.81254581301579
 20
220.8951787167337
 30
0.0
 11
94.26807288629652
 21
221.439651643453
 31
0.0
  0
LINE
  5
115
330
1F
100
AcDbEntity
  8
0
 62
     2
100
AcDbLine
 10
90.15713540417482
 20
277.0659710511235
 30
0.0
 11
94.27284547432362
 21
272.9502609809746
 31
0.0
  0
LINE
  5
116
330
1F
100
AcDbEntity
  8
0
 62
     2
100
AcDbLine
 10
94.27284547432362
 20
272.9502609809746
 30
0.0
 11
94.81731792652135
 21
273.4947334331724
 31
0.0
  0
LINE
  5
117
330
1F
100
AcDbEntity
  8
0
 62
     2
100
AcDbLine
 10
90.70160785637256
 20
277.6104435033213
 30
0.0
 11
90.15713540417482
 21
277.0659710511235
 31
0.0
  0
LINE
  5
118
330
1F
100
AcDbEntity
  8
0
 62
     2
100
AcDbLine
 10
34.53081529129906
 20
272.9550333251639
 30
0.0
 11
38.64652536144786
 21
277.0707433953128
 31
0.0
  0
LINE
  5
119
330
1F
100
AcDbEntity
  8
0
 62
     2
100
AcDbLine
 10
38.64652536144791
 20
277.0707433953128
 30
0.0
 11
38.10205313993418
 21
277.6152156168264
 31
0.0
  0
LINE
  5
11A
330
1F
100
AcDbEntity
  8
0
 62
     2
100
AcDbLine
 10
33.98634306978539
 20
273.4995055466776
 30
0.0
 11
34.53081529129906
 21
272.9550333251639
 31
0.0
  0
CIRCLE
  5
11B
330
1F
100
AcDbEntity
  8
0
 62
     2
100
AcDbCircle
 10
85.84378426962093
 20
216.1973421317057
 30
0.0
 40
1.350000000000023
  0
LINE
  5
11C
330
1F
100
AcDbEntity
  8
0
 62
     2
100
AcDbLine
 10
83.49378426962096
 20
213.9473421317057
 30
0.0
 11
88.5718160091742
 21
213.9473421317057
 31
0.0
  0
LINE
  5
11D
330
1F
100
AcDbEntity
  8
0
 62
     2
100
AcDbLine
 10
88.5718160091742
 20
213.9473421317057
 30
0.0
 11
89.98972862372801
 21
215.3652547462595
 31
0.0
  0
CIRCLE
  5
11E
330
1F
100
AcDbEntity
  8
0
 62
     2
100
AcDbCircle
 10
33.39944444140053
 20
225.7530023034859
 30
0.0
 40
1.350000000000023
  0
LINE
  5
11F
330
1F
100
AcDbEntity
  8
0
 62
     2
100
AcDbLine
 10
31.14944444140053
 20
228.1030023034859
 30
0.0
 11
31.14944444140053
 21
223.0249705639326
 31
0.0
  0
LINE
  5
120
330
1F
100
AcDbEntity
  8
0
 62
     2
100
AcDbLine
 10
31.14944444140053
 20
223.0249705639326
 30
0.0
 11
32.56735705595429
 21
221.6070579493788
 31
0.0
  0
CIRCLE
  5
121
330
1F
100
AcDbEntity
  8
0
 62
     2
100
AcDbCircle
 10
42.95510461318071
 20
216.1973421317057
 30
0.0
 40
1.350000000000023
  0
LINE
  5
122
330
1F
100
AcDbEntity
  8
0
 62
     2
100
AcDbLine
 10
40.22707287362738
 20
213.9473421317057
 30
0.0
 11
45.30079045194503
 21
213.9473421317057
 31
0.0
  0
LINE
  5
123
330
1F
100
AcDbEntity
  8
0
 62
     2
100
AcDbLine
 10
38.80438780761568
 20
215.3700271977174
 30
0.0
 11
40.22707287362738
 21
213.9473421317057
 31
0.0
  0
CIRCLE
  5
124
330
1F
100
AcDbEntity
  8
0
 62
     2
100
AcDbCircle
 10
95.39944444140065
 20
225.7530023034853
 30
0.0
 40
1.350000000000022
  0
LINE
  5
125
330
1F
100
AcDbEntity
  8
0
 62
     2
100
AcDbLine
 10
97.64944444140065
 20
223.024970563932
 30
0.0
 11
97.64944444140065
 21
228.0986881422497
 31
0.0
  0
LINE
  5
126
330
1F
100
AcDbEntity
  8
0
 62
     2
100
AcDbLine
 10
96.2267593753889
 20
221.6022854979203
 30
0.0
 11
97.64944444140065
 21
223.024970563932
 31
0.0
  0
CIRCLE
  5
127
330
1F
100
AcDbEntity
  8
0
 62
     2
100
AcDbCircle
 10
95.39944444140065
 20
268.6416819599264
 30
0.0
 40
1.350000000000023
  0
LINE
  5
128
330
1F
100
AcDbEntity
  8
0
 62
     2
100
AcDbLine
 10
97.64944444140065
 20
266.2916819599264
 30
0.0
 11
97.64944444140065
 21
271.3697136994797
 31
0.0
  0
LINE
  5
129
330
1F
100
AcDbEntity
  8
0
 62
     2
100
AcDbLine
 10
97.64944444140065
 20
271.3697136994797
 30
0.0
 11
96.23153182684689
 21
272.7876263140334
 31
0.0
  0
CIRCLE
  5
12A
330
1F
100
AcDbEntity
  8
0
 62
     2
100
AcDbCircle
 10
85.84378426962104
 20
278.1973421317061
 30
0.0
 40
1.350000000000023
  0
LINE
  5
12B
330
1F
100
AcDbEntity
  8
0
 62
     2
100
AcDbLine
 10
88.57181600917431
 20
280.4473421317061
 30
0.0
 11
83.49809843085677
 21
280.4473421317061
 31
0.0
  0
LINE
  5
12C
330
1F
100
AcDbEntity
  8
0
 62
     2
100
AcDbLine
 10
89.99450107518607
 20
279.0246570656943
 30
0.0
 11
88.57181600917437
 21
280.4473421317061
 31
0.0
  0
CIRCLE
  5
12D
330
1F
100
AcDbEntity
  8
0
 62
     2
100
AcDbCircle
 10
42.95510461318065
 20
278.1973421317061
 30
0.0
 40
1.350000000000023
  0
LINE
  5
12E
330
1F
100
AcDbEntity
  8
0
 62
     2
100
AcDbLine
 10
45.30510461318062
 20
280.4473421317061
 30
0.0
 11
40.22707287362738
 21
280.4473421317061
 31
0.0
  0
LINE
  5
12F
330
1F
100
AcDbEntity
  8
0
 62
     2
100
AcDbLine
 10
40.22707287362738
 20
280.4473421317062
 30
0.0
 11
38.80916025907356
 21
279.0294295171523
 31
0.0
  0
CIRCLE
  5
130
330
1F
100
AcDbEntity
  8
0
 62
     2
100
AcDbCircle
 10
33.39944444140053
 20
268.6416819599261
 30
0.0
 40
1.350000000000023
  0
LINE
  5
131
330
1F
100
AcDbEntity
  8
0
 62
     2
100
AcDbLine
 10
31.14944444140053
 20
271.3697136994793
 30
0.0
 11
31.14944444140053
 21
266.2959961211617
 31
0.0
  0
LINE
  5
132
330
1F
100
AcDbEntity
  8
0
 62
     2
100
AcDbLine
 10
32.57212950741228
 20
272.792398765491
 30
0.0
 11
31.14944444140053
 21
271.3697136994793
 31
0.0
  0
LINE
  5
133
330
1F
100
AcDbEntity
  8
0
 62
     2
100
AcDbLine
 10
52.69944053776732
 20
232.7473422373339
 30
0.0
 11
76.09944053776468
 21
232.7473422373339
 31
0.0
  0
LINE
  5
134
330
1F
100
AcDbEntity
  8
0
 62
     2
100
AcDbLine
 10
52.69944053776732
 20
233.2473422373339
 30
0.0
 11
76.09944053776468
 21
233.2473422373339
 31
0.0
  0
ARC
  5
135
330
1F
100
AcDbEntity
  8
0
 62
     2
100
AcDbCircle
 10
76.09944053776468
 20
235.4973422373339
 30
0.0
 40
2.749999999999989
100
AcDbArc
 50
324.9258953865441
 51
0.0000000000001527
  0
ARC
  5
136
330
1F
100
AcDbEntity
  8
0
 62
     2
100
AcDbCircle
 10
76.09944053776468
 20
235.4973422373339
 30
0.0
 40
2.749999999999989
100
AcDbArc
 50
270.0
 51
305.0741046134557
  0
LINE
  5
137
330
1F
100
AcDbEntity
  8
0
 62
     2
100
AcDbLine
 10
78.84944053776468
 20
235.4973422373339
 30
0.0
 11
78.84944053776468
 21
258.8973422373339
 31
0.0
  0
LINE
  5
138
330
1F
100
AcDbEntity
  8
0
 62
     2
100
AcDbLine
 10
78.34944053776468
 20
235.4973422373339
 30
0.0
 11
78.34944053776468
 21
258.8973422373339
 31
0.0
  0
ARC
  5
139
330
1F
100
AcDbEntity
  8
0
 62
     2
100
AcDbCircle
 10
76.09944053776468
 20
258.8973422373339
 30
0.0
 40
2.749999999999998
100
AcDbArc
 50
54.9258953865434
 51
90.00000000000036
  0
ARC
  5
13A
330
1F
100
AcDbEntity
  8
0
 62
     2
100
AcDbCircle
 10
76.09944053776468
 20
258.8973422373339
 30
0.0
 40
2.749999999999998
100
AcDbArc
 50
0.0
 51
35.07410461345621
  0
LINE
  5
13B
330
1F
100
AcDbEntity
  8
0
 62
     2
100
AcDbLine
 10
76.09944053776468
 20
261.6473422373339
 30
0.0
 11
52.69944053776732
 21
261.6473422373339
 31
0.0
  0
LINE
  5
13C
330
1F
100
AcDbEntity
  8
0
 62
     2
100
AcDbLine
 10
76.09944053776468
 20
261.1473422373339
 30
0.0
 11
52.69944053776732
 21
261.1473422373339
 31
0.0
  0
ARC
  5
13D
330
1F
100
AcDbEntity
  8
0
 62
     2
100
AcDbCircle
 10
52.69944053776732
 20
258.8973422373339
 30
0.0
 40
2.750000000000004
100
AcDbArc
 50
144.9258953865442
 51
179.9999999999999
  0
ARC
  5
13E
330
1F
100
AcDbEntity
  8
0
 62
     2
100
AcDbCircle
 10
52.69944053776732
 20
258.8973422373339
 30
0.0
 40
2.750000000000004
100
AcDbArc
 50
90.00000000000044
 51
125.0741046134567
  0
LINE
  5
13F
330
1F
100
AcDbEntity
  8
0
 62
     2
100
AcDbLine
 10
49.94944053776732
 20
258.8973422373339
 30
0.0
 11
49.94944053776732
 21
235.4973422373339
 31
0.0
  0
LINE
  5
140
330
1F
100
AcDbEntity
  8
0
 62
     2
100
AcDbLine
 10
50.44944053776732
 20
258.8973422373339
 30
0.0
 11
50.44944053776732
 21
235.4973422373339
 31
0.0
  0
ARC
  5
141
330
1F
100
AcDbEntity
  8
0
 62
     2
100
AcDbCircle
 10
52.69944053776732
 20
235.4973422373339
 30
0.0
 40
2.750000000000002
100
AcDbArc
 50
234.9258953865435
 51
269.9999999999999
  0
ARC
  5
142
330
1F
100
AcDbEntity
  8
0
 62
     2
100
AcDbCircle
 10
52.69944053776732
 20
235.4973422373339
 30
0.0
 40
2.750000000000002
100
AcDbArc
 50
180.0
 51
215.0741046134568
  0
CIRCLE
  5
143
330
1F
100
AcDbEntity
  8
0
 62
     2
100
AcDbCircle
 10
46.39944793385251
 20
229.1973422344352
 30
0.0
 40
1.350000000000023
  0
CIRCLE
  5
144
330
1F
100
AcDbEntity
  8
0
 62
     2
100
AcDbCircle
 10
46.39944444140525
 20
265.1973387419739
 30
0.0
 40
1.350000000000023
  0
CIRCLE
  5
145
330
1F
100
AcDbEntity
  8
0
 62
     2
100
AcDbCircle
 10
82.399440948944
 20
265.1973422344211
 30
0.0
 40
1.35000000000002
  0
CIRCLE
  5
146
330
1F
100
AcDbEntity
  8
0
 62
     2
100
AcDbCircle
 10
82.39944444139121
 20
229.1973457268824
 30
0.0
 40
1.35000000000002
  0
LINE
  5
147
330
1F
100
AcDbEntity
  8
0
 62
     2
100
AcDbLine
 10
71.14944401734999
 20
264.3473389084447
 30
0.0
 11
71.14944401731805
 21
263.6473426061817
 31
0.0
  0
ARC
  5
148
330
1F
100
AcDbEntity
  8
0
 62
     2
100
AcDbCircle
 10
72.14944401734999
 20
264.3473389084446
 30
0.0
 40
1.0
100
AcDbArc
 50
89.99999999999756
 51
179.999999997217
  0
LINE
  5
149
330
1F
100
AcDbEntity
  8
0
 62
     2
100
AcDbLine
 10
78.18290198355373
 20
265.3473389084446
 30
0.0
 11
72.14944401734999
 21
265.3473389084446
 31
0.0
  0
ARC
  5
14A
330
1F
100
AcDbEntity
  8
0
 62
     2
100
AcDbCircle
 10
78.18290198355112
 20
264.3473389084724
 30
0.0
 40
1.0
100
AcDbArc
 50
13.83522361361306
 51
89.9999999998501
  0
ARC
  5
14B
330
1F
100
AcDbEntity
  8
0
 62
     2
100
AcDbCircle
 10
82.64944427038483
 20
265.4473389084385
 30
0.0
 40
3.599999999999979
100
AcDbArc
 50
193.8352236135621
 51
256.1647763847556
  0
ARC
  5
14C
330
1F
100
AcDbEntity
  8
0
 62
     2
100
AcDbCircle
 10
81.54944427029079
 20
260.9807966216363
 30
0.0
 40
0.9999999999999756
100
AcDbArc
 50
0.0
 51
76.16477638475322
  0
LINE
  5
14D
330
1F
100
AcDbEntity
  8
0
 62
     2
100
AcDbLine
 10
82.54944427035582
 20
254.9473461762932
 30
0.0
 11
82.54944427029079
 21
260.9807966216546
 31
0.0
  0
ARC
  5
14E
330
1F
100
AcDbEntity
  8
0
 62
     2
100
AcDbCircle
 10
81.54944427035514
 20
254.9473461762793
 30
0.0
 40
1.0
100
AcDbArc
 50
269.9999999998827
 51
0.0
  0
LINE
  5
14F
330
1F
100
AcDbEntity
  8
0
 62
     2
100
AcDbLine
 10
80.84944412943736
 20
253.9473461762796
 30
0.0
 11
81.54944427035309
 21
253.9473461762798
 31
0.0
  0
LINE
  5
150
330
1F
100
AcDbEntity
  8
0
 62
     2
100
AcDbLine
 10
47.2494439885221
 20
253.9473461762808
 30
0.0
 11
47.94944412943767
 21
253.9473461762805
 31
0.0
  0
ARC
  5
151
330
1F
100
AcDbEntity
  8
0
 62
     2
100
AcDbCircle
 10
47.24944398852017
 20
254.9473461762797
 30
0.0
 40
1.0
100
AcDbArc
 50
180.0
 51
270.0000000009119
  0
LINE
  5
152
330
1F
100
AcDbEntity
  8
0
 62
     2
100
AcDbLine
 10
46.24944398858474
 20
260.980796621655
 30
0.0
 11
46.24944398851949
 21
254.9473461762936
 31
0.0
  0
ARC
  5
153
330
1F
100
AcDbEntity
  8
0
 62
     2
100
AcDbCircle
 10
47.24944398858474
 20
260.9807966216367
 30
0.0
 40
1.0
100
AcDbArc
 50
103.8352236152496
 51
180.0000000000035
  0
ARC
  5
154
330
1F
100
AcDbEntity
  8
0
 62
     2
100
AcDbCircle
 10
46.1494439884907
 20
265.447338908439
 30
0.0
 40
3.599999999999964
100
AcDbArc
 50
283.8352236152452
 51
346.1647763864387
  0
ARC
  5
155
330
1F
100
AcDbEntity
  8
0
 62
     2
100
AcDbCircle
 10
50.61598627532442
 20
264.3473389084728
 30
0.0
 40
0.999999999999979
100
AcDbArc
 50
90.0000000001494
 51
166.1647763863866
  0
LINE
  5
156
330
1F
100
AcDbEntity
  8
0
 62
     2
100
AcDbLine
 10
56.64944424152554
 20
265.3473389084728
 30
0.0
 11
50.6159862753218
 21
265.3473389084728
 31
0.0
  0
ARC
  5
157
330
1F
100
AcDbEntity
  8
0
 62
     2
100
AcDbCircle
 10
56.64944424152554
 20
264.3473389084448
 30
0.0
 40
1.0
100
AcDbArc
 50
0.0
 51
89.99999999721939
  0
LINE
  5
158
330
1F
100
AcDbEntity
  8
0
 62
     2
100
AcDbLine
 10
57.64944424155743
 20
263.6473426061817
 30
0.0
 11
57.64944424152554
 21
264.3473389084449
 31
0.0
  0
LINE
  5
159
330
1F
100
AcDbEntity
  8
0
 62
     2
100
AcDbLine
 10
57.64944424152549
 20
230.0473463040097
 30
0.0
 11
57.64944424155738
 21
230.7473426062729
 31
0.0
  0
ARC
  5
15A
330
1F
100
AcDbEntity
  8
0
 62
     2
100
AcDbCircle
 10
56.64944424152549
 20
230.0473463040098
 30
0.0
 40
1.0
100
AcDbArc
 50
269.9999999999992
 51
0.0
  0
LINE
  5
15B
330
1F
100
AcDbEntity
  8
0
 62
     2
100
AcDbLine
 10
50.61598627532175
 20
229.047346303954
 30
0.0
 11
56.64944424152549
 21
229.0473463040098
 31
0.0
  0
ARC
  5
15C
330
1F
100
AcDbEntity
  8
0
 62
     2
100
AcDbCircle
 10
50.61598627532436
 20
230.0473463039819
 30
0.0
 40
1.0
100
AcDbArc
 50
193.8352236136129
 51
269.9999999998499
  0
ARC
  5
15D
330
1F
100
AcDbEntity
  8
0
 62
     2
100
AcDbCircle
 10
46.14944398849065
 20
228.9473463040156
 30
0.0
 40
3.600000000000007
100
AcDbArc
 50
13.83522361356297
 51
76.16477638475632
  0
ARC
  5
15E
330
1F
100
AcDbEntity
  8
0
 62
     2
100
AcDbCircle
 10
47.24944398858469
 20
233.4138885908179
 30
0.0
 40
0.9999999999999756
100
AcDbArc
 50
180.0
 51
256.1647763847539
  0
LINE
  5
15F
330
1F
100
AcDbEntity
  8
0
 62
     2
100
AcDbLine
 10
46.24944398851943
 20
239.4473390361609
 30
0.0
 11
46.24944398858469
 21
233.4138885907995
 31
0.0
  0
ARC
  5
160
330
1F
100
AcDbEntity
  8
0
 62
     2
100
AcDbCircle
 10
47.24944398852011
 20
239.4473390361749
 30
0.0
 40
1.0
100
AcDbArc
 50
89.99999999988601
 51
180.0000000007979
  0
LINE
  5
161
330
1F
100
AcDbEntity
  8
0
 62
     2
100
AcDbLine
 10
47.94944412943767
 20
240.4473390361743
 30
0.0
 11
47.2494439885221
 21
240.4473390361743
 31
0.0
  0
ARC
  5
162
330
1F
100
AcDbEntity
  8
0
 62
     2
100
AcDbCircle
 10
81.54944427033757
 20
237.947346429131
 30
0.0
 40
1.0
100
AcDbArc
 50
0.0
 51
90.00000000001629
  0
LINE
  5
163
330
1F
100
AcDbEntity
  8
0
 62
     2
100
AcDbLine
 10
82.54944427028983
 20
233.413888590799
 30
0.0
 11
82.54944427033757
 21
237.947346429131
 31
0.0
  0
ARC
  5
164
330
1F
100
AcDbEntity
  8
0
 62
     2
100
AcDbCircle
 10
81.54944427028983
 20
233.4138885908175
 30
0.0
 40
1.0
100
AcDbArc
 50
283.8352236152464
 51
0.0000000000003562
  0
ARC
  5
165
330
1F
100
AcDbEntity
  8
0
 62
     2
100
AcDbCircle
 10
82.64944427038387
 20
228.9473463040151
 30
0.0
 40
3.599999999999991
100
AcDbArc
 50
103.8352236152436
 51
166.164776386437
  0
ARC
  5
166
330
1F
100
AcDbEntity
  8
0
 62
     2
100
AcDbCircle
 10
78.18290198355015
 20
230.0473463039815
 30
0.0
 40
0.999999999999979
100
AcDbArc
 50
270.0000000001498
 51
346.164776386387
  0
LINE
  5
167
330
1F
100
AcDbEntity
  8
0
 62
     2
100
AcDbLine
 10
72.14944401734903
 20
229.0473463040377
 30
0.0
 11
78.18290198355277
 21
229.0473463039815
 31
0.0
  0
ARC
  5
168
330
1F
100
AcDbEntity
  8
0
 62
     2
100
AcDbCircle
 10
72.14944401734903
 20
230.0473463040096
 30
0.0
 40
1.0
100
AcDbArc
 50
180.0
 51
269.9999999972193
  0
LINE
  5
169
330
1F
100
AcDbEntity
  8
0
 62
     2
100
AcDbLine
 10
71.14944401731714
 20
230.7473426062728
 30
0.0
 11
71.14944401734903
 21
230.0473463040096
 31
0.0
  0
LINE
  5
16A
330
1F
100
AcDbEntity
  8
0
 62
     2
100
AcDbLine
 10
81.54944427033757
 20
238.947346429168
 30
0.0
 11
80.84944412942849
 21
238.947346429168
 31
0.0
  0
LINE
  5
16B
330
1F
100
AcDbEntity
  8
0
 62
     2
100
AcDbLine
 10
79.84944412943753
 20
239.9473464291373
 30
0.0
 11
79.84944412943753
 21
252.9473461762797
 31
0.0
  0
LINE
  5
16C
330
1F
100
AcDbEntity
  8
0
 62
     2
100
AcDbLine
 10
70.14944401731805
 20
262.6473426062272
 30
0.0
 11
58.64944424155743
 21
262.6473426062272
 31
0.0
  0
LINE
  5
16D
330
1F
100
AcDbEntity
  8
0
 62
     2
100
AcDbLine
 10
48.9494441294375
 20
252.9473461762801
 30
0.0
 11
48.9494441294375
 21
241.4473390361744
 31
0.0
  0
LINE
  5
16E
330
1F
100
AcDbEntity
  8
0
 62
     2
100
AcDbLine
 10
58.64944424155738
 20
231.7473426062272
 30
0.0
 11
70.14944401731714
 21
231.7473426062272
 31
0.0
  0
LINE
  5
16F
330
1F
100
AcDbEntity
  8
0
 62
     2
100
AcDbLine
 10
45.44944405902964
 20
248.2473417949118
 30
0.0
 11
45.44944405901356
 21
246.1473420477884
 31
0.0
  0
LINE
  5
170
330
1F
100
AcDbEntity
  8
0
 62
     2
100
AcDbLine
 10
45.24944405903119
 20
248.4473417949045
 30
0.0
 11
45.24944405901203
 21
245.9473420477884
 31
0.0
  0
LINE
  5
171
330
1F
100
AcDbEntity
  8
0
 62
     2
100
AcDbLine
 10
45.44944405901686
 20
262.5500095414944
 30
0.0
 11
45.44944405902152
 21
253.247341794916
 31
0.0
  0
LINE
  5
172
330
1F
100
AcDbEntity
  8
0
 62
     2
100
AcDbLine
 10
45.24944405901687
 20
262.5500095414944
 30
0.0
 11
45.24944405902158
 21
253.0473417949227
 31
0.0
  0
ARC
  5
173
330
1F
100
AcDbEntity
  8
0
 62
     2
100
AcDbCircle
 10
45.84944405901683
 20
262.5500095414944
 30
0.0
 40
0.4000000000000019
100
AcDbArc
 50
63.43688722419768
 51
179.9999999999994
  0
ARC
  5
174
330
1F
100
AcDbEntity
  8
0
 62
     2
100
AcDbCircle
 10
45.84944405901683
 20
262.5500095414944
 30
0.0
 40
0.6000000000000014
100
AcDbArc
 50
63.43688722419918
 51
180.0000000000013
  0
LINE
  5
175
330
1F
100
AcDbEntity
  8
0
 62
     2
100
AcDbLine
 10
46.8983236602777
 20
262.4728201274899
 30
0.0
 11
46.0283173931947
 21
262.9077864696494
 31
0.0
  0
LINE
  5
176
330
1F
100
AcDbEntity
  8
0
 62
     2
100
AcDbLine
 10
46.98776032736657
 20
262.6517085915675
 30
0.0
 11
46.11775406028357
 21
263.086674933727
 31
0.0
  0
ARC
  5
177
330
1F
100
AcDbEntity
  8
0
 62
     2
100
AcDbCircle
 10
47.21135199508882
 20
263.0989297517614
 30
0.0
 40
0.6999999999999971
100
AcDbArc
 50
243.4368872241944
 51
291.1522912107645
  0
ARC
  5
178
330
1F
100
AcDbEntity
  8
0
 62
     2
100
AcDbCircle
 10
47.21135199508882
 20
263.0989297517614
 30
0.0
 40
0.4999999999999998
100
AcDbArc
 50
243.4368872241949
 51
291.1522819906376
  0
ARC
  5
179
330
1F
100
AcDbEntity
  8
0
 62
     2
100
AcDbCircle
 10
46.39944405902986
 20
265.1973352186254
 30
0.0
 40
2.95000000000001
100
AcDbArc
 50
291.152284827599
 51
338.847766593408
  0
ARC
  5
17A
330
1F
100
AcDbEntity
  8
0
 62
     2
100
AcDbCircle
 10
46.39944405902986
 20
265.1973352186254
 30
0.0
 40
2.750000000000011
100
AcDbArc
 50
291.1522848275993
 51
338.8477620411256
  0
ARC
  5
17B
330
1F
100
AcDbEntity
  8
0
 62
     2
100
AcDbCircle
 10
48.49785021435173
 20
264.3854290619129
 30
0.0
 40
0.7000000000000006
100
AcDbArc
 50
338.8477665934103
 51
26.56327098793548
  0
ARC
  5
17C
330
1F
100
AcDbEntity
  8
0
 62
     2
100
AcDbCircle
 10
48.49785021435173
 20
264.3854290619129
 30
0.0
 40
0.5000000000000002
100
AcDbArc
 50
338.8477665934084
 51
26.56327098946474
  0
LINE
  5
17D
330
1F
100
AcDbEntity
  8
0
 62
     2
100
AcDbLine
 10
48.68899187711759
 20
265.5684608965071
 30
0.0
 11
49.12395897425222
 21
264.6984591256063
 31
0.0
  0
LINE
  5
17E
330
1F
100
AcDbEntity
  8
0
 62
     2
100
AcDbLine
 10
48.51010366000662
 20
265.479023735445
 30
0.0
 11
48.9450707571412
 21
264.6090219645442
 31
0.0
  0
ARC
  5
17F
330
1F
100
AcDbEntity
  8
0
 62
     2
100
AcDbCircle
 10
49.04676831133963
 20
265.7473352186313
 30
0.0
 40
0.3999999999999982
100
AcDbArc
 50
90.00000000003462
 51
206.5632709894723
  0
ARC
  5
180
330
1F
100
AcDbEntity
  8
0
 62
     2
100
AcDbCircle
 10
49.04676831133963
 20
265.7473352186313
 30
0.0
 40
0.6
100
AcDbArc
 50
90.00000000003529
 51
206.5632709894724
  0
LINE
  5
181
330
1F
100
AcDbEntity
  8
0
 62
     2
100
AcDbLine
 10
58.34944428476371
 20
266.147335218637
 30
0.0
 11
49.04676831133941
 21
266.1473352186313
 31
0.0
  0
LINE
  5
182
330
1F
100
AcDbEntity
  8
0
 62
     2
100
AcDbLine
 10
58.54944428476318
 20
266.3473352186376
 30
0.0
 11
49.04676831133929
 21
266.3473352186376
 31
0.0
  0
LINE
  5
183
330
1F
100
AcDbEntity
  8
0
 62
     2
100
AcDbLine
 10
65.4494440319578
 20
266.1473352186192
 30
0.0
 11
63.34944428479542
 21
266.1473352186223
 31
0.0
  0
LINE
  5
184
330
1F
100
AcDbEntity
  8
0
 62
     2
100
AcDbLine
 10
65.64944403196631
 20
266.3473352186177
 30
0.0
 11
63.14944428480277
 21
266.3473352186177
 31
0.0
  0
LINE
  5
185
330
1F
100
AcDbEntity
  8
0
 62
     2
100
AcDbLine
 10
79.75211817646971
 20
266.1473352186279
 30
0.0
 11
70.44944403191437
 21
266.1473352186237
 31
0.0
  0
LINE
  5
186
330
1F
100
AcDbEntity
  8
0
 62
     2
100
AcDbLine
 10
79.7521181764696
 20
266.347335218628
 30
0.0
 11
70.24944403191239
 21
266.347335218628
 31
0.0
  0
ARC
  5
187
330
1F
100
AcDbEntity
  8
0
 62
     2
100
AcDbCircle
 10
79.75211817646988
 20
265.7473352186279
 30
0.0
 40
0.3999999999999997
100
AcDbArc
 50
333.4368872242168
 51
90.00000000002717
  0
ARC
  5
188
330
1F
100
AcDbEntity
  8
0
 62
     2
100
AcDbCircle
 10
79.75211817646988
 20
265.7473352186279
 30
0.0
 40
0.6000000000000014
100
AcDbArc
 50
333.4368872242168
 51
90.00000000002707
  0
LINE
  5
189
330
1F
100
AcDbEntity
  8
0
 62
     2
100
AcDbLine
 10
79.67492896789236
 20
264.6984560282547
 30
0.0
 11
80.10989510462514
 21
265.5684618844504
 31
0.0
  0
LINE
  5
18A
330
1F
100
AcDbEntity
  8
0
 62
     2
100
AcDbLine
 10
79.85381743197001
 20
264.6090193611659
 30
0.0
 11
80.28878356870274
 21
265.4790252173615
 31
0.0
  0
ARC
  5
18B
330
1F
100
AcDbEntity
  8
0
 62
     2
100
AcDbCircle
 10
80.30103859216399
 20
264.3854276934439
 30
0.0
 40
0.6999999999999958
100
AcDbArc
 50
153.4368872242194
 51
201.1522912107677
  0
ARC
  5
18C
330
1F
100
AcDbEntity
  8
0
 62
     2
100
AcDbCircle
 10
80.30103859216399
 20
264.3854276934439
 30
0.0
 40
0.5000000000000004
100
AcDbArc
 50
153.4368872242204
 51
201.1522819906379
  0
ARC
  5
18D
330
1F
100
AcDbEntity
  8
0
 62
     2
100
AcDbCircle
 10
82.39944405902793
 20
265.1973356295028
 30
0.0
 40
2.950000000000005
100
AcDbArc
 50
201.1522848275986
 51
248.8477665934072
  0
ARC
  5
18E
330
1F
100
AcDbEntity
  8
0
 62
     2
100
AcDbCircle
 10
82.39944405902793
 20
265.1973356295028
 30
0.0
 40
2.750000000000008
100
AcDbArc
 50
201.1522848275992
 51
248.8477620411256
  0
ARC
  5
18F
330
1F
100
AcDbEntity
  8
0
 62
     2
100
AcDbCircle
 10
81.58753790231549
 20
263.098929474181
 30
0.0
 40
0.6999999999999983
100
AcDbArc
 50
248.8477665934081
 51
296.5632709873373
  0
ARC
  5
190
330
1F
100
AcDbEntity
  8
0
 62
     2
100
AcDbCircle
 10
81.58753790231549
 20
263.098929474181
 30
0.0
 40
0.5000000000000006
100
AcDbArc
 50
248.8477665934064
 51
296.5632709882714
  0
LINE
  5
191
330
1F
100
AcDbEntity
  8
0
 62
     2
100
AcDbLine
 10
82.77056973691947
 20
262.9077878113972
 30
0.0
 11
81.90056796600516
 21
262.4728207142786
 31
0.0
  0
LINE
  5
192
330
1F
100
AcDbEntity
  8
0
 62
     2
100
AcDbLine
 10
82.68113257586117
 20
263.0866760285101
 30
0.0
 11
81.8111308049468
 21
262.6517089313915
 31
0.0
  0
ARC
  5
193
330
1F
100
AcDbEntity
  8
0
 62
     2
100
AcDbCircle
 10
82.94944405903618
 20
262.5500113771715
 30
0.0
 40
0.3999999999999969
100
AcDbArc
 50
0.0
 51
116.5632709882698
  0
ARC
  5
194
330
1F
100
AcDbEntity
  8
0
 62
     2
100
AcDbCircle
 10
82.94944405903618
 20
262.5500113771715
 30
0.0
 40
0.5999999999999988
100
AcDbArc
 50
0.0
 51
116.5632709882707
  0
LINE
  5
195
330
1F
100
AcDbEntity
  8
0
 62
     2
100
AcDbLine
 10
83.34944405903462
 20
253.2473418491367
 30
0.0
 11
83.34944405903616
 21
262.5500113771714
 31
0.0
  0
LINE
  5
196
330
1F
100
AcDbEntity
  8
0
 62
     2
100
AcDbLine
 10
83.54944405903461
 20
253.0473418491186
 30
0.0
 11
83.5494440590362
 21
262.5500113771714
 31
0.0
  0
LINE
  5
197
330
1F
100
AcDbEntity
  8
0
 62
     2
100
AcDbLine
 10
83.34944405902905
 20
246.1473415962232
 30
0.0
 11
83.34944405903349
 21
248.2473418491052
 31
0.0
  0
LINE
  5
198
330
1F
100
AcDbEntity
  8
0
 62
     2
100
AcDbLine
 10
83.54944405902864
 20
245.9473415962514
 30
0.0
 11
83.54944405903393
 21
248.4473418491
 31
0.0
  0
LINE
  5
199
330
1F
100
AcDbEntity
  8
0
 62
     2
100
AcDbLine
 10
83.34944405900461
 20
231.8446680860958
 30
0.0
 11
83.34944405902536
 21
241.1473415962281
 31
0.0
  0
LINE
  5
19A
330
1F
100
AcDbEntity
  8
0
 62
     2
100
AcDbLine
 10
83.5494440590046
 20
231.8446680860953
 30
0.0
 11
83.5494440590258
 21
241.3473415962211
 31
0.0
  0
ARC
  5
19B
330
1F
100
AcDbEntity
  8
0
 62
     2
100
AcDbCircle
 10
82.94944405900458
 20
231.8446680860967
 30
0.0
 40
0.399999999999998
100
AcDbArc
 50
243.4368872240129
 51
359.9999999999999
  0
ARC
  5
19C
330
1F
100
AcDbEntity
  8
0
 62
     2
100
AcDbCircle
 10
82.94944405900458
 20
231.8446680860967
 30
0.0
 40
0.6000000000000014
100
AcDbArc
 50
243.4368872240117
 51
359.9999999999999
  0
LINE
  5
19D
330
1F
100
AcDbEntity
  8
0
 62
     2
100
AcDbLine
 10
81.90056404714471
 20
231.9218577053852
 30
0.0
 11
82.77057072482734
 21
231.4868911579412
 31
0.0
  0
LINE
  5
19E
330
1F
100
AcDbEntity
  8
0
 62
     2
100
AcDbLine
 10
81.8111273800555
 20
231.7429692413078
 30
0.0
 11
82.68113405773812
 21
231.3080026938638
 31
0.0
  0
ARC
  5
19F
330
1F
100
AcDbEntity
  8
0
 62
     2
100
AcDbCircle
 10
81.58753571233251
 20
231.2957480811143
 30
0.0
 40
0.700000000000002
100
AcDbArc
 50
63.4368872240909
 51
111.1522912107409
  0
ARC
  5
1A0
330
1F
100
AcDbEntity
  8
0
 62
     2
100
AcDbCircle
 10
81.58753571233251
 20
231.2957480811143
 30
0.0
 40
0.5000000000000002
100
AcDbArc
 50
63.43688722409152
 51
111.1522819906396
  0
ARC
  5
1A1
330
1F
100
AcDbEntity
  8
0
 62
     2
100
AcDbCircle
 10
82.39944364839141
 20
229.1973426142505
 30
0.0
 40
2.949999999999842
100
AcDbArc
 50
111.1522848275574
 51
158.847766593419
  0
ARC
  5
1A2
330
1F
100
AcDbEntity
  8
0
 62
     2
100
AcDbCircle
 10
82.39944364839141
 20
229.1973426142505
 30
0.0
 40
2.749999999999846
100
AcDbArc
 50
111.1522848275578
 51
158.8477620411344
  0
ARC
  5
1A3
330
1F
100
AcDbEntity
  8
0
 62
     2
100
AcDbCircle
 10
80.3010374930696
 20
230.0092487709625
 30
0.0
 40
0.6999999999999986
100
AcDbArc
 50
158.8477665934203
 51
206.5632709870185
  0
ARC
  5
1A4
330
1F
100
AcDbEntity
  8
0
 62
     2
100
AcDbCircle
 10
80.3010374930696
 20
230.0092487709625
 30
0.0
 40
0.4999999999999992
100
AcDbArc
 50
158.8477665934188
 51
206.5632709876531
  0
LINE
  5
1A5
330
1F
100
AcDbEntity
  8
0
 62
     2
100
AcDbLine
 10
80.10989583017778
 20
228.8262169365512
 30
0.0
 11
79.67492873316615
 21
229.6962187072749
 31
0.0
  0
LINE
  5
1A6
330
1F
100
AcDbEntity
  8
0
 62
     2
100
AcDbLine
 10
80.28878404729164
 20
228.9156540976076
 30
0.0
 11
79.85381695028002
 21
229.7856558683313
 31
0.0
  0
ARC
  5
1A7
330
1F
100
AcDbEntity
  8
0
 62
     2
100
AcDbCircle
 10
79.7521193959501
 20
228.6473426144384
 30
0.0
 40
0.3999999999999999
100
AcDbArc
 50
270.0000000001262
 51
26.56327098764872
  0
ARC
  5
1A8
330
1F
100
AcDbEntity
  8
0
 62
     2
100
AcDbCircle
 10
79.7521193959501
 20
228.6473426144384
 30
0.0
 40
0.6000000000000006
100
AcDbArc
 50
270.0000000001276
 51
26.56327098764984
  0
LINE
  5
1A9
330
1F
100
AcDbEntity
  8
0
 62
     2
100
AcDbLine
 10
70.4494440319383
 20
228.2473426144175
 30
0.0
 11
79.75211939595107
 21
228.2473426144384
 31
0.0
  0
LINE
  5
1AA
330
1F
100
AcDbEntity
  8
0
 62
     2
100
AcDbLine
 10
70.24944403194695
 20
228.0473426144189
 30
0.0
 11
79.75211939595147
 21
228.0473426144615
 31
0.0
  0
LINE
  5
1AB
330
1F
100
AcDbEntity
  8
0
 62
     2
100
AcDbLine
 10
63.34944428479832
 20
228.2473426144195
 30
0.0
 11
65.44944403194347
 21
228.2473426144188
 31
0.0
  0
LINE
  5
1AC
330
1F
100
AcDbEntity
  8
0
 62
     2
100
AcDbLine
 10
63.14944428479265
 20
228.0473426144193
 30
0.0
 11
65.64944403194937
 21
228.0473426144177
 31
0.0
  0
LINE
  5
1AD
330
1F
100
AcDbEntity
  8
0
 62
     2
100
AcDbLine
 10
49.04676994159706
 20
228.2473426144076
 30
0.0
 11
58.34944428482453
 21
228.2473426144115
 31
0.0
  0
LINE
  5
1AE
330
1F
100
AcDbEntity
  8
0
 62
     2
100
AcDbLine
 10
49.04676994159718
 20
228.0473426144077
 30
0.0
 11
58.54944428482492
 21
228.0473426144154
 31
0.0
  0
ARC
  5
1AF
330
1F
100
AcDbEntity
  8
0
 62
     2
100
AcDbCircle
 10
49.04676994159695
 20
228.6473426144076
 30
0.0
 40
0.400000000000001
100
AcDbArc
 50
153.4368872249592
 51
270.0000000000237
  0
ARC
  5
1B0
330
1F
100
AcDbEntity
  8
0
 62
     2
100
AcDbCircle
 10
49.04676994159695
 20
228.6473426144076
 30
0.0
 40
0.6000000000000014
100
AcDbArc
 50
153.4368872249578
 51
270.0000000000226
  0
LINE
  5
1B1
330
1F
100
AcDbEntity
  8
0
 62
     2
100
AcDbLine
 10
49.12395915016953
 20
229.6962218047992
 30
0.0
 11
48.68899301343941
 21
228.8262159485806
 31
0.0
  0
LINE
  5
1B2
330
1F
100
AcDbEntity
  8
0
 62
     2
100
AcDbLine
 10
48.94507068609073
 20
229.7856584718857
 30
0.0
 11
48.51010454936068
 21
228.9156526156671
 31
0.0
  0
ARC
  5
1B3
330
1F
100
AcDbEntity
  8
0
 62
     2
100
AcDbCircle
 10
48.4978495258938
 20
230.0092501396019
 30
0.0
 40
0.7
100
AcDbArc
 50
333.4368872249606
 51
21.15229121076231
  0
ARC
  5
1B4
330
1F
100
AcDbEntity
  8
0
 62
     2
100
AcDbCircle
 10
48.4978495258938
 20
230.0092501396019
 30
0.0
 40
0.5000000000000002
100
AcDbArc
 50
333.4368872249599
 51
21.15228199063871
  0
ARC
  5
1B5
330
1F
100
AcDbEntity
  8
0
 62
     2
100
AcDbCircle
 10
46.39944405902986
 20
229.1973422035429
 30
0.0
 40
2.950000000000007
100
AcDbArc
 50
21.15228482759917
 51
68.84776659340974
  0
ARC
  5
1B6
330
1F
100
AcDbEntity
  8
0
 62
     2
100
AcDbCircle
 10
46.39944405902986
 20
229.197342203543
 30
0.0
 40
2.750000000000008
100
AcDbArc
 50
21.15228482759924
 51
68.84776204112565
  0
ARC
  5
1B7
330
1F
100
AcDbEntity
  8
0
 62
     2
100
AcDbCircle
 10
47.21135021574224
 20
231.2957483588648
 30
0.0
 40
0.6999999999999994
100
AcDbArc
 50
68.8477665934103
 51
116.5632709876395
  0
ARC
  5
1B8
330
1F
100
AcDbEntity
  8
0
 62
     2
100
AcDbCircle
 10
47.21135021574224
 20
231.2957483588648
 30
0.0
 40
0.5000000000000004
100
AcDbArc
 50
68.84776659341058
 51
116.5632709888856
  0
LINE
  5
1B9
330
1F
100
AcDbEntity
  8
0
 62
     2
100
AcDbLine
 10
46.02831838115776
 20
231.4868900216466
 30
0.0
 11
46.89832015205076
 21
231.9218571187662
 31
0.0
  0
LINE
  5
1BA
330
1F
100
AcDbEntity
  8
0
 62
     2
100
AcDbLine
 10
46.11775554221799
 20
231.3080018045347
 30
0.0
 11
46.98775731311105
 21
231.7429689016543
 31
0.0
  0
ARC
  5
1BB
330
1F
100
AcDbEntity
  8
0
 62
     2
100
AcDbCircle
 10
45.84944405903718
 20
231.8446664558705
 30
0.0
 40
0.3999999999999981
100
AcDbArc
 50
180.0
 51
296.5632709889275
  0
ARC
  5
1BC
330
1F
100
AcDbEntity
  8
0
 62
     2
100
AcDbCircle
 10
45.84944405903718
 20
231.8446664558705
 30
0.0
 40
0.6000000000000002
100
AcDbArc
 50
180.0
 51
296.5632709889272
  0
LINE
  5
1BD
330
1F
100
AcDbEntity
  8
0
 62
     2
100
AcDbLine
 10
45.44944405904158
 20
241.1473420478005
 30
0.0
 11
45.44944405903721
 21
231.8446664558704
 31
0.0
  0
LINE
  5
1BE
330
1F
100
AcDbEntity
  8
0
 62
     2
100
AcDbLine
 10
45.24944405904165
 20
241.3473420478005
 30
0.0
 11
45.24944405903716
 21
231.8446664558705
 31
0.0
  0
LINE
  5
1BF
330
1F
100
AcDbEntity
  8
0
 62
     2
100
AcDbLine
 10
70.44944403192693
 20
229.2473426147558
 30
0.0
 11
70.4494440319383
 21
228.2473426144175
 31
0.0
  0
LINE
  5
1C0
330
1F
100
AcDbEntity
  8
0
 62
     2
100
AcDbLine
 10
69.44944403192693
 20
229.2473426147444
 30
0.0
 11
69.44944403193489
 21
228.5473426144107
 31
0.0
  0
ARC
  5
1C1
330
1F
100
AcDbEntity
  8
0
 62
     2
100
AcDbCircle
 10
68.44944403192693
 20
229.2473426147331
 30
0.0
 40
2.000000000000007
100
AcDbArc
 50
29.99999999994176
 51
90.0000000003752
  0
ARC
  5
1C2
330
1F
100
AcDbEntity
  8
0
 62
     2
100
AcDbCircle
 10
68.44944403192693
 20
229.2473426147331
 30
0.0
 40
2.000000000000007
100
AcDbArc
 50
0.0
 51
29.9999999992906
  0
LINE
  5
1C3
330
1F
100
AcDbEntity
  8
0
 62
     2
100
AcDbLine
 10
67.44944403189459
 20
231.2473426147134
 30
0.0
 11
68.4494440319138
 21
231.24734261472
 31
0.0
  0
LINE
  5
1C4
330
1F
100
AcDbEntity
  8
0
 62
     2
100
AcDbLine
 10
67.44944403190118
 20
230.24734261472
 30
0.0
 11
68.4494440319204
 21
230.2473426147331
 31
0.0
  0
ARC
  5
1C5
330
1F
100
AcDbEntity
  8
0
 62
     2
100
AcDbCircle
 10
67.44944403191857
 20
229.2473426147243
 30
0.0
 40
1.999999999999998
100
AcDbArc
 50
120.0000000014199
 51
180.0000000008018
  0
ARC
  5
1C6
330
1F
100
AcDbEntity
  8
0
 62
     2
100
AcDbCircle
 10
67.44944403191857
 20
229.2473426147243
 30
0.0
 40
1.999999999999998
100
AcDbArc
 50
89.99999999975289
 51
120.0000000014197
  0
LINE
  5
1C7
330
1F
100
AcDbEntity
  8
0
 62
     2
100
AcDbLine
 10
65.44944403194347
 20
228.2473426144188
 30
0.0
 11
65.44944403191857
 21
229.2473426146637
 31
0.0
  0
LINE
  5
1C8
330
1F
100
AcDbEntity
  8
0
 62
     2
100
AcDbLine
 10
66.44944403193597
 20
228.5473426144311
 30
0.0
 11
66.44944403191857
 21
229.2473426146886
 31
0.0
  0
LINE
  5
1C9
330
1F
100
AcDbEntity
  8
0
 62
     2
100
AcDbLine
 10
63.34944428482402
 20
229.2473426146697
 30
0.0
 11
63.34944428479832
 21
228.2473426144195
 31
0.0
  0
LINE
  5
1CA
330
1F
100
AcDbEntity
  8
0
 62
     2
100
AcDbLine
 10
62.34944428482402
 20
229.2473426146954
 30
0.0
 11
62.34944428480605
 21
228.5473426144325
 31
0.0
  0
ARC
  5
1CB
330
1F
100
AcDbEntity
  8
0
 62
     2
100
AcDbCircle
 10
61.34944428482402
 20
229.247342614721
 30
0.0
 40
1.999999999999999
100
AcDbArc
 50
29.99999999998964
 51
90.0000000000671
  0
ARC
  5
1CC
330
1F
100
AcDbEntity
  8
0
 62
     2
100
AcDbCircle
 10
61.34944428482402
 20
229.247342614721
 30
0.0
 40
1.999999999999999
100
AcDbArc
 50
0.0
 51
29.99999999998954
  0
LINE
  5
1CD
330
1F
100
AcDbEntity
  8
0
 62
     2
100
AcDbLine
 10
60.34944428480435
 20
231.2473426147175
 30
0.0
 11
61.34944428482163
 21
231.2473426147187
 31
0.0
  0
LINE
  5
1CE
330
1F
100
AcDbEntity
  8
0
 62
     2
100
AcDbLine
 10
60.34944428480554
 20
230.2473426147187
 30
0.0
 11
61.34944428482282
 21
230.247342614721
 31
0.0
  0
ARC
  5
1CF
330
1F
100
AcDbEntity
  8
0
 62
     2
100
AcDbCircle
 10
60.34944428480787
 20
229.2473426147187
 30
0.0
 40
1.999999999999998
100
AcDbArc
 50
120.0000000009531
 51
180.0000000008862
  0
ARC
  5
1D0
330
1F
100
AcDbEntity
  8
0
 62
     2
100
AcDbCircle
 10
60.34944428480787
 20
229.2473426147187
 30
0.0
 40
1.999999999999998
100
AcDbArc
 50
90.0
 51
120.0000000009532
  0
LINE
  5
1D1
330
1F
100
AcDbEntity
  8
0
 62
     2
100
AcDbLine
 10
58.34944428482453
 20
228.2473426144115
 30
0.0
 11
58.34944428480787
 21
229.2473426146842
 31
0.0
  0
LINE
  5
1D2
330
1F
100
AcDbEntity
  8
0
 62
     2
100
AcDbLine
 10
59.34944428481953
 20
228.54734261442
 30
0.0
 11
59.34944428480787
 21
229.2473426147009
 31
0.0
  0
LINE
  5
1D3
330
1F
100
AcDbEntity
  8
0
 62
     2
100
AcDbLine
 10
46.44944406123926
 20
241.1473420478005
 30
0.0
 11
45.44944405904158
 21
241.1473420478005
 31
0.0
  0
LINE
  5
1D4
330
1F
100
AcDbEntity
  8
0
 62
     2
100
AcDbLine
 10
46.44944406123926
 20
242.1473420478005
 30
0.0
 11
45.74944405904182
 21
242.1473420478005
 31
0.0
  0
ARC
  5
1D5
330
1F
100
AcDbEntity
  8
0
 62
     2
100
AcDbCircle
 10
46.44944406123926
 20
243.1473420478005
 30
0.0
 40
1.999999999999998
100
AcDbArc
 50
300.0000000000001
 51
0.0000000000001527
  0
ARC
  5
1D6
330
1F
100
AcDbEntity
  8
0
 62
     2
100
AcDbCircle
 10
46.44944406123926
 20
243.1473420478005
 30
0.0
 40
1.999999999999998
100
AcDbArc
 50
269.9999999999998
 51
300.0
  0
LINE
  5
1D7
330
1F
100
AcDbEntity
  8
0
 62
     2
100
AcDbLine
 10
48.44944406123926
 20
244.1473420477884
 30
0.0
 11
48.44944406123926
 21
243.1473420478005
 31
0.0
  0
LINE
  5
1D8
330
1F
100
AcDbEntity
  8
0
 62
     2
100
AcDbLine
 10
47.44944406123926
 20
244.1473420477884
 30
0.0
 11
47.44944406123926
 21
243.1473420478005
 31
0.0
  0
ARC
  5
1D9
330
1F
100
AcDbEntity
  8
0
 62
     2
100
AcDbCircle
 10
46.44944406123926
 20
244.1473420477884
 30
0.0
 40
2.000000000000011
100
AcDbArc
 50
30.00000000000063
 51
90.00000000000011
  0
ARC
  5
1DA
330
1F
100
AcDbEntity
  8
0
 62
     2
100
AcDbCircle
 10
46.44944406123926
 20
244.1473420477884
 30
0.0
 40
2.000000000000011
100
AcDbArc
 50
0.0
 51
30.00000000000028
  0
LINE
  5
1DB
330
1F
100
AcDbEntity
  8
0
 62
     2
100
AcDbLine
 10
45.44944405901356
 20
246.1473420477884
 30
0.0
 11
46.44944406123926
 21
246.1473420477884
 31
0.0
  0
LINE
  5
1DC
330
1F
100
AcDbEntity
  8
0
 62
     2
100
AcDbLine
 10
45.74944405900976
 20
245.1473420477884
 30
0.0
 11
46.44944406123926
 21
245.1473420477885
 31
0.0
  0
LINE
  5
1DD
330
1F
100
AcDbEntity
  8
0
 62
     2
100
AcDbLine
 10
46.44944405613006
 20
248.2473417949171
 30
0.0
 11
45.44944405902964
 21
248.2473417949118
 31
0.0
  0
LINE
  5
1DE
330
1F
100
AcDbEntity
  8
0
 62
     2
100
AcDbLine
 10
46.44944405612472
 20
249.2473417949224
 30
0.0
 11
45.74944405903085
 21
249.2473417949224
 31
0.0
  0
ARC
  5
1DF
330
1F
100
AcDbEntity
  8
0
 62
     2
100
AcDbCircle
 10
46.44944405611943
 20
250.2473417949171
 30
0.0
 40
1.999999999999999
100
AcDbArc
 50
300.0000000000997
 51
359.9999999999999
  0
ARC
  5
1E0
330
1F
100
AcDbEntity
  8
0
 62
     2
100
AcDbCircle
 10
46.44944405611943
 20
250.2473417949171
 30
0.0
 40
1.999999999999999
100
AcDbArc
 50
270.0000000003053
 51
300.0000000000998
  0
LINE
  5
1E1
330
1F
100
AcDbEntity
  8
0
 62
     2
100
AcDbLine
 10
48.44944405611767
 20
251.2473417949088
 30
0.0
 11
48.44944405611943
 21
250.2473417949206
 31
0.0
  0
LINE
  5
1E2
330
1F
100
AcDbEntity
  8
0
 62
     2
100
AcDbLine
 10
47.44944405611767
 20
251.2473417949071
 30
0.0
 11
47.44944405611943
 21
250.2473417949189
 31
0.0
  0
ARC
  5
1E3
330
1F
100
AcDbEntity
  8
0
 62
     2
100
AcDbCircle
 10
46.44944405611767
 20
251.2473417949053
 30
0.0
 40
2.000000000000003
100
AcDbArc
 50
29.99999999991449
 51
89.99999999972144
  0
ARC
  5
1E4
330
1F
100
AcDbEntity
  8
0
 62
     2
100
AcDbCircle
 10
46.44944405611767
 20
251.2473417949053
 30
0.0
 40
2.000000000000003
100
AcDbArc
 50
0.0
 51
29.99999999981481
  0
LINE
  5
1E5
330
1F
100
AcDbEntity
  8
0
 62
     2
100
AcDbLine
 10
45.44944405902152
 20
253.247341794916
 30
0.0
 11
46.44944405612739
 21
253.2473417949112
 31
0.0
  0
LINE
  5
1E6
330
1F
100
AcDbEntity
  8
0
 62
     2
100
AcDbLine
 10
45.74944405901931
 20
252.2473417949121
 30
0.0
 11
46.4494440561225
 21
252.2473417949053
 31
0.0
  0
LINE
  5
1E7
330
1F
100
AcDbEntity
  8
0
 62
     2
100
AcDbLine
 10
65.44944403190283
 20
265.1473426148218
 30
0.0
 11
65.4494440319578
 21
266.1473352186192
 31
0.0
  0
LINE
  5
1E8
330
1F
100
AcDbEntity
  8
0
 62
     2
100
AcDbLine
 10
66.44944403190277
 20
265.1473426147668
 30
0.0
 11
66.44944403194131
 21
265.847335218591
 31
0.0
  0
ARC
  5
1E9
330
1F
100
AcDbEntity
  8
0
 62
     2
100
AcDbCircle
 10
67.44944403190277
 20
265.1473426147118
 30
0.0
 40
2.0
100
AcDbArc
 50
209.9999999992798
 51
269.9999999996658
  0
ARC
  5
1EA
330
1F
100
AcDbEntity
  8
0
 62
     2
100
AcDbCircle
 10
67.44944403190277
 20
265.1473426147118
 30
0.0
 40
2.0
100
AcDbArc
 50
180.0
 51
210.00000000243
  0
LINE
  5
1EB
330
1F
100
AcDbEntity
  8
0
 62
     2
100
AcDbLine
 10
68.44944403190203
 20
263.1473426147177
 30
0.0
 11
67.44944403189112
 21
263.1473426147235
 31
0.0
  0
LINE
  5
1EC
330
1F
100
AcDbEntity
  8
0
 62
     2
100
AcDbLine
 10
68.44944403190789
 20
264.1473426147118
 30
0.0
 11
67.44944403189697
 21
264.1473426147118
 31
0.0
  0
ARC
  5
1ED
330
1F
100
AcDbEntity
  8
0
 62
     2
100
AcDbCircle
 10
68.44944403190789
 20
265.1473426147118
 30
0.0
 40
2.000000000000001
100
AcDbArc
 50
299.9999999996273
 51
0.0000000000003053
  0
ARC
  5
1EE
330
1F
100
AcDbEntity
  8
0
 62
     2
100
AcDbCircle
 10
68.44944403190789
 20
265.1473426147118
 30
0.0
 40
2.000000000000001
100
AcDbArc
 50
269.9999999993311
 51
299.9999999996269
  0
LINE
  5
1EF
330
1F
100
AcDbEntity
  8
0
 62
     2
100
AcDbLine
 10
70.44944403191437
 20
266.1473352186237
 30
0.0
 11
70.44944403190789
 21
265.1473426147047
 31
0.0
  0
LINE
  5
1F0
330
1F
100
AcDbEntity
  8
0
 62
     2
100
AcDbLine
 10
69.44944403191244
 20
265.8473352186267
 30
0.0
 11
69.44944403190789
 21
265.1473426147111
 31
0.0
  0
LINE
  5
1F1
330
1F
100
AcDbEntity
  8
0
 62
     2
100
AcDbLine
 10
58.3494442847749
 20
265.1473426147109
 30
0.0
 11
58.34944428476371
 21
266.147335218637
 31
0.0
  0
LINE
  5
1F2
330
1F
100
AcDbEntity
  8
0
 62
     2
100
AcDbLine
 10
59.3494442847749
 20
265.147342614722
 30
0.0
 11
59.34944428476706
 21
265.8473352186429
 31
0.0
  0
ARC
  5
1F3
330
1F
100
AcDbEntity
  8
0
 62
     2
100
AcDbCircle
 10
60.3494442847749
 20
265.1473426147332
 30
0.0
 40
2.000000000000001
100
AcDbArc
 50
210.0000000017544
 51
270.0000000008143
  0
ARC
  5
1F4
330
1F
100
AcDbEntity
  8
0
 62
     2
100
AcDbCircle
 10
60.3494442847749
 20
265.1473426147332
 30
0.0
 40
2.000000000000001
100
AcDbArc
 50
180.0
 51
210.0000000011121
  0
LINE
  5
1F5
330
1F
100
AcDbEntity
  8
0
 62
     2
100
AcDbLine
 10
61.3494442847948
 20
263.147342614719
 30
0.0
 11
60.34944428480333
 21
263.1473426147048
 31
0.0
  0
LINE
  5
1F6
330
1F
100
AcDbEntity
  8
0
 62
     2
100
AcDbLine
 10
61.34944428478059
 20
264.1473426147332
 30
0.0
 11
60.34944428478912
 21
264.1473426147332
 31
0.0
  0
ARC
  5
1F7
330
1F
100
AcDbEntity
  8
0
 62
     2
100
AcDbCircle
 10
61.34944428478059
 20
265.1473426147332
 30
0.0
 40
2.000000000000006
100
AcDbArc
 50
299.9999999991468
 51
359.9999999999997
  0
ARC
  5
1F8
330
1F
100
AcDbEntity
  8
0
 62
     2
100
AcDbCircle
 10
61.34944428478059
 20
265.1473426147332
 30
0.0
 40
2.000000000000006
100
AcDbArc
 50
270.0000000016283
 51
299.9999999991472
  0
LINE
  5
1F9
330
1F
100
AcDbEntity
  8
0
 62
     2
100
AcDbLine
 10
63.34944428479542
 20
266.1473352186223
 30
0.0
 11
63.34944428478059
 21
265.1473426146893
 31
0.0
  0
LINE
  5
1FA
330
1F
100
AcDbEntity
  8
0
 62
     2
100
AcDbLine
 10
62.34944428479099
 20
265.8473352186305
 30
0.0
 11
62.34944428478059
 21
265.1473426147041
 31
0.0
  0
LINE
  5
1FB
330
1F
100
AcDbEntity
  8
0
 62
     2
100
AcDbLine
 10
82.34944405607604
 20
253.2473418491179
 30
0.0
 11
83.34944405903462
 21
253.2473418491367
 31
0.0
  0
LINE
  5
1FC
330
1F
100
AcDbEntity
  8
0
 62
     2
100
AcDbLine
 10
82.34944405609485
 20
252.2473418491367
 30
0.0
 11
83.04944405904394
 21
252.2473418491631
 31
0.0
  0
ARC
  5
1FD
330
1F
100
AcDbEntity
  8
0
 62
     2
100
AcDbCircle
 10
82.34944405611367
 20
251.2473418491179
 30
0.0
 40
2.000000000000004
100
AcDbArc
 50
120.0000000003281
 51
180.0000000003282
  0
ARC
  5
1FE
330
1F
100
AcDbEntity
  8
0
 62
     2
100
AcDbCircle
 10
82.34944405611367
 20
251.2473418491179
 30
0.0
 40
2.000000000000004
100
AcDbArc
 50
90.00000000107804
 51
120.0000000003278
  0
LINE
  5
1FF
330
1F
100
AcDbEntity
  8
0
 62
     2
100
AcDbLine
 10
80.34944405611941
 20
250.2473418490884
 30
0.0
 11
80.34944405611367
 21
251.2473418491065
 31
0.0
  0
LINE
  5
200
330
1F
100
AcDbEntity
  8
0
 62
     2
100
AcDbLine
 10
81.34944405611941
 20
250.2473418490941
 30
0.0
 11
81.34944405611367
 21
251.2473418491122
 31
0.0
  0
ARC
  5
201
330
1F
100
AcDbEntity
  8
0
 62
     2
100
AcDbCircle
 10
82.34944405611941
 20
250.2473418490998
 30
0.0
 40
1.999999999993549
100
AcDbArc
 50
210.0000000004143
 51
270.0000000003073
  0
ARC
  5
202
330
1F
100
AcDbEntity
  8
0
 62
     2
100
AcDbCircle
 10
82.34944405611941
 20
250.2473418490998
 30
0.0
 40
1.999999999993549
100
AcDbArc
 50
180.0
 51
210.0000000000867
  0
LINE
  5
203
330
1F
100
AcDbEntity
  8
0
 62
     2
100
AcDbLine
 10
83.34944405903349
 20
248.2473418491052
 30
0.0
 11
82.34944405613015
 21
248.2473418490998
 31
0.0
  0
LINE
  5
204
330
1F
100
AcDbEntity
  8
0
 62
     2
100
AcDbLine
 10
83.04944405903188
 20
249.2473418491063
 30
0.0
 11
82.34944405612475
 21
249.2473418491063
 31
0.0
  0
LINE
  5
205
330
1F
100
AcDbEntity
  8
0
 62
     2
100
AcDbLine
 10
82.34944406130762
 20
246.1473415962524
 30
0.0
 11
83.34944405902905
 21
246.1473415962232
 31
0.0
  0
LINE
  5
206
330
1F
100
AcDbEntity
  8
0
 62
     2
100
AcDbLine
 10
82.34944406127846
 20
245.1473415962232
 30
0.0
 11
83.04944405901341
 21
245.1473415961824
 31
0.0
  0
ARC
  5
207
330
1F
100
AcDbEntity
  8
0
 62
     2
100
AcDbCircle
 10
82.34944406122008
 20
244.1473415962232
 30
0.0
 40
2.0
100
AcDbArc
 50
120.0000000003689
 51
180.0000000020419
  0
ARC
  5
208
330
1F
100
AcDbEntity
  8
0
 62
     2
100
AcDbCircle
 10
82.34944406122008
 20
244.1473415962232
 30
0.0
 40
2.0
100
AcDbArc
 50
90.0
 51
120.000000000369
  0
LINE
  5
209
330
1F
100
AcDbEntity
  8
0
 62
     2
100
AcDbLine
 10
80.3494440612265
 20
243.1473415962224
 30
0.0
 11
80.34944406122008
 21
244.1473415962396
 31
0.0
  0
LINE
  5
20A
330
1F
100
AcDbEntity
  8
0
 62
     2
100
AcDbLine
 10
81.3494440612265
 20
243.1473415962289
 30
0.0
 11
81.34944406122008
 21
244.147341596246
 31
0.0
  0
ARC
  5
20B
330
1F
100
AcDbEntity
  8
0
 62
     2
100
AcDbCircle
 10
82.3494440612265
 20
243.1473415962353
 30
0.0
 40
2.00000000000574
100
AcDbArc
 50
210.0000000007953
 51
270.0000000004175
  0
ARC
  5
20C
330
1F
100
AcDbEntity
  8
0
 62
     2
100
AcDbCircle
 10
82.3494440612265
 20
243.1473415962353
 30
0.0
 40
2.00000000000574
100
AcDbArc
 50
180.0
 51
210.0000000004262
  0
LINE
  5
20D
330
1F
100
AcDbEntity
  8
0
 62
     2
100
AcDbLine
 10
83.34944405902536
 20
241.1473415962281
 30
0.0
 11
82.34944406124106
 21
241.1473415962208
 31
0.0
  0
LINE
  5
20E
330
1F
100
AcDbEntity
  8
0
 62
     2
100
AcDbLine
 10
83.04944405902285
 20
242.1473415962296
 30
0.0
 11
82.34944406123378
 21
242.1473415962296
 31
0.0
  0
LINE
  5
20F
330
1F
100
AcDbEntity
  8
0
 62
     2
100
AcDbLine
 10
83.54944405903456
 20
252.747341849131
 30
0.0
 11
83.54944405903444
 21
252.2473418491405
 31
0.0
  0
LINE
  5
210
330
1F
100
AcDbEntity
  8
0
 62
     2
100
AcDbLine
 10
83.54944405903564
 20
249.2473418491063
 30
0.0
 11
83.54944405903456
 21
248.7473418491025
 31
0.0
  0
LINE
  5
211
330
1F
100
AcDbEntity
  8
0
 62
     2
100
AcDbLine
 10
69.44944403191568
 20
266.3473352186232
 30
0.0
 11
69.94944403191221
 21
266.3473352186234
 31
0.0
  0
LINE
  5
212
330
1F
100
AcDbEntity
  8
0
 62
     2
100
AcDbLine
 10
65.94944403194205
 20
266.3473352186185
 30
0.0
 11
66.44944403099646
 21
266.3473352186177
 31
0.0
  0
LINE
  5
213
330
1F
100
AcDbEntity
  8
0
 62
     2
100
AcDbLine
 10
62.34944428479844
 20
266.3473352186239
 30
0.0
 11
62.84944428479173
 21
266.3473352186231
 31
0.0
  0
LINE
  5
214
330
1F
100
AcDbEntity
  8
0
 62
     2
100
AcDbLine
 10
58.84944428476678
 20
266.3473352186372
 30
0.0
 11
59.34944428419055
 21
266.3473352186375
 31
0.0
  0
LINE
  5
215
330
1F
100
AcDbEntity
  8
0
 62
     2
100
AcDbLine
 10
45.24944405902204
 20
252.2473417949174
 30
0.0
 11
45.24944405902176
 21
252.7473417949143
 31
0.0
  0
LINE
  5
216
330
1F
100
AcDbEntity
  8
0
 62
     2
100
AcDbLine
 10
45.24944405903352
 20
248.7473417949172
 30
0.0
 11
45.24944405903733
 21
249.2473418488991
 31
0.0
  0
LINE
  5
217
330
1F
100
AcDbEntity
  8
0
 62
     2
100
AcDbLine
 10
45.2494440590059
 20
245.1473420477884
 30
0.0
 11
45.24944405900976
 21
245.6473420477923
 31
0.0
  0
LINE
  5
218
330
1F
100
AcDbEntity
  8
0
 62
     2
100
AcDbLine
 10
45.24944405904182
 20
241.6473420478008
 30
0.0
 11
45.24944405904205
 21
242.1473415959505
 31
0.0
  0
LINE
  5
219
330
1F
100
AcDbEntity
  8
0
 62
     2
100
AcDbLine
 10
83.54944405902802
 20
245.6473415962309
 30
0.0
 11
83.54944405902694
 21
245.1473415962174
 31
0.0
  0
LINE
  5
21A
330
1F
100
AcDbEntity
  8
0
 62
     2
100
AcDbLine
 10
83.54944405902756
 20
242.1473415962296
 30
0.0
 11
83.54944405902648
 21
241.6473415962248
 31
0.0
  0
LINE
  5
21B
330
1F
100
AcDbEntity
  8
0
 62
     2
100
AcDbLine
 10
59.34944428482788
 20
228.0473426144119
 30
0.0
 11
58.84944428481975
 21
228.0473426144117
 31
0.0
  0
LINE
  5
21C
330
1F
100
AcDbEntity
  8
0
 62
     2
100
AcDbLine
 10
69.94944403193603
 20
228.0473426144164
 30
0.0
 11
69.44944403194057
 21
228.0473426144153
 31
0.0
  0
LINE
  5
21D
330
1F
100
AcDbEntity
  8
0
 62
     2
100
AcDbLine
 10
62.84944428480588
 20
228.0473426144196
 30
0.0
 11
62.34944428479321
 21
228.0473426144198
 31
0.0
  0
LINE
  5
21E
330
1F
100
AcDbEntity
  8
0
 62
     2
100
AcDbLine
 10
66.44944403194842
 20
228.0473426144185
 30
0.0
 11
65.94944403193585
 21
228.0473426144187
 31
0.0
  0
LINE
  5
21F
330
1F
100
AcDbEntity
  8
0
 62
     2
100
AcDbLine
 10
59.3494443940636
 20
266.347342674449
 30
0.0
 11
62.3494443940636
 21
266.347342674449
 31
0.0
  0
LINE
  5
220
330
1F
100
AcDbEntity
  8
0
 62
     2
100
AcDbLine
 10
66.4494433181327
 20
266.3473426795421
 30
0.0
 11
69.4494433181327
 21
266.3473426795421
 31
0.0
  0
LINE
  5
221
330
1F
100
AcDbEntity
  8
0
 62
     2
100
AcDbLine
 10
83.54944413789815
 20
252.2473424508787
 30
0.0
 11
83.54944413789815
 21
249.2473424508787
 31
0.0
  0
LINE
  5
222
330
1F
100
AcDbEntity
  8
0
 62
     2
100
AcDbLine
 10
83.54944413793783
 20
245.1473427038171
 30
0.0
 11
83.54944413793783
 21
242.1473427038171
 31
0.0
  0
LINE
  5
223
330
1F
100
AcDbEntity
  8
0
 62
     2
100
AcDbLine
 10
69.44944337231647
 20
228.0473426766297
 30
0.0
 11
66.44944337231647
 21
228.0473426766297
 31
0.0
  0
LINE
  5
224
330
1F
100
AcDbEntity
  8
0
 62
     2
100
AcDbLine
 10
62.3494431194398
 20
228.0473426766364
 30
0.0
 11
59.3494431194398
 21
228.0473426766364
 31
0.0
  0
LINE
  5
225
330
1F
100
AcDbEntity
  8
0
 62
     2
100
AcDbLine
 10
45.2494441376287
 20
242.1473427037164
 30
0.0
 11
45.2494441376287
 21
245.1473427037164
 31
0.0
  0
LINE
  5
226
330
1F
100
AcDbEntity
  8
0
 62
     2
100
AcDbLine
 10
45.24944413762211
 20
249.2473424508369
 30
0.0
 11
45.24944413762211
 21
252.2473424508369
 31
0.0
  0
ARC
  5
227
330
1F
100
AcDbEntity
  8
0
 62
     2
100
AcDbCircle
 10
67.44944403190277
 20
265.1473426147118
 30
0.0
 40
1.0
100
AcDbArc
 50
180.0
 51
270.0000000028161
  0
ARC
  5
228
330
1F
100
AcDbEntity
  8
0
 62
     2
100
AcDbCircle
 10
60.3494442847749
 20
265.1473426147332
 30
0.0
 40
1.0
100
AcDbArc
 50
180.0
 51
270.0000000001718
  0
ARC
  5
229
330
1F
100
AcDbEntity
  8
0
 62
     2
100
AcDbCircle
 10
82.3494440612265
 20
243.1473415962353
 30
0.0
 40
1.0
100
AcDbArc
 50
180.0
 51
270.0000000005509
  0
ARC
  5
22A
330
1F
100
AcDbEntity
  8
0
 62
     2
100
AcDbCircle
 10
82.34944405611941
 20
250.2473418490998
 30
0.0
 40
1.0
100
AcDbArc
 50
180.0
 51
269.9999999999802
  0
ARC
  5
22B
330
1F
100
AcDbEntity
  8
0
 62
     2
100
AcDbCircle
 10
68.44944403190789
 20
265.1473426147118
 30
0.0
 40
1.0
100
AcDbArc
 50
269.9999999993307
 51
359.9999999999997
  0
ARC
  5
22C
330
1F
100
AcDbEntity
  8
0
 62
     2
100
AcDbCircle
 10
61.34944428478059
 20
265.1473426147332
 30
0.0
 40
1.0
100
AcDbArc
 50
270.000000001628
 51
359.9999999999998
  0
ARC
  5
22D
330
1F
100
AcDbEntity
  8
0
 62
     2
100
AcDbCircle
 10
46.44944405611943
 20
250.2473417949171
 30
0.0
 40
1.0
100
AcDbArc
 50
270.0000000003049
 51
359.9999999999998
  0
ARC
  5
22E
330
1F
100
AcDbEntity
  8
0
 62
     2
100
AcDbCircle
 10
46.44944406123926
 20
243.1473420478005
 30
0.0
 40
1.0
100
AcDbArc
 50
269.9999999999996
 51
359.9999999999998
  0
ARC
  5
22F
330
1F
100
AcDbEntity
  8
0
 62
     2
100
AcDbCircle
 10
46.44944405611767
 20
251.2473417949053
 30
0.0
 40
1.0
100
AcDbArc
 50
0.0
 51
89.99999999962185
  0
ARC
  5
230
330
1F
100
AcDbEntity
  8
0
 62
     2
100
AcDbCircle
 10
46.44944406123926
 20
244.1473420477884
 30
0.0
 40
1.0
100
AcDbArc
 50
0.0
 51
90.0000000000008
  0
ARC
  5
231
330
1F
100
AcDbEntity
  8
0
 62
     2
100
AcDbCircle
 10
68.44944403192693
 20
229.2473426147331
 30
0.0
 40
1.0
100
AcDbArc
 50
0.0
 51
89.99999999972444
  0
ARC
  5
232
330
1F
100
AcDbEntity
  8
0
 62
     2
100
AcDbCircle
 10
61.34944428482402
 20
229.247342614721
 30
0.0
 40
1.0
100
AcDbArc
 50
0.0
 51
90.0000000000673
  0
ARC
  5
233
330
1F
100
AcDbEntity
  8
0
 62
     2
100
AcDbCircle
 10
60.34944428480787
 20
229.2473426147187
 30
0.0
 40
1.0
100
AcDbArc
 50
90.0
 51
180.0000000010205
  0
ARC
  5
234
330
1F
100
AcDbEntity
  8
0
 62
     2
100
AcDbCircle
 10
82.34944406122008
 20
244.1473415962232
 30
0.0
 40
1.0
100
AcDbArc
 50
90.0
 51
179.9999999986962
  0
ARC
  5
235
330
1F
100
AcDbEntity
  8
0
 62
     2
100
AcDbCircle
 10
67.44944403191857
 20
229.2473426147243
 30
0.0
 40
1.0
100
AcDbArc
 50
89.99999999975329
 51
180.000000002047
  0
ARC
  5
236
330
1F
100
AcDbEntity
  8
0
 62
     2
100
AcDbCircle
 10
82.34944405611367
 20
251.2473418491179
 30
0.0
 40
1.0
100
AcDbArc
 50
90.00000000107804
 51
180.0000000003278
  0
LINE
  5
237
330
1F
100
AcDbEntity
  8
0
 62
     2
100
AcDbLine
 10
82.34944406124106
 20
241.1473415962208
 30
0.0
 11
82.34944406123378
 21
242.147341596204
 31
0.0
  0
LINE
  5
238
330
1F
100
AcDbEntity
  8
0
 62
     2
100
AcDbLine
 10
81.34944406122077
 20
243.1473415962293
 30
0.0
 11
80.34944406121804
 21
243.1473415962259
 31
0.0
  0
LINE
  5
239
330
1F
100
AcDbEntity
  8
0
 62
     2
100
AcDbLine
 10
80.34944406122008
 20
244.1473415962396
 30
0.0
 11
81.34944406122008
 21
244.1473415962525
 31
0.0
  0
LINE
  5
23A
330
1F
100
AcDbEntity
  8
0
 62
     2
100
AcDbLine
 10
82.34944406127846
 20
245.1473415962232
 30
0.0
 11
82.34944406127846
 21
246.1473415962232
 31
0.0
  0
LINE
  5
23B
330
1F
100
AcDbEntity
  8
0
 62
     2
100
AcDbLine
 10
82.34944405613015
 20
248.2473418490998
 30
0.0
 11
82.34944405612475
 21
249.2473418490874
 31
0.0
  0
LINE
  5
23C
330
1F
100
AcDbEntity
  8
0
 62
     2
100
AcDbLine
 10
81.34944405612583
 20
250.2473418490941
 30
0.0
 11
80.34944405612583
 21
250.2473418490884
 31
0.0
  0
LINE
  5
23D
330
1F
100
AcDbEntity
  8
0
 62
     2
100
AcDbLine
 10
80.34944405611367
 20
251.2473418491065
 30
0.0
 11
81.34944405611367
 21
251.247341849118
 31
0.0
  0
LINE
  5
23E
330
1F
100
AcDbEntity
  8
0
 62
     2
100
AcDbLine
 10
82.34944405609485
 20
252.2473418491179
 30
0.0
 11
82.34944405607604
 21
253.2473418491179
 31
0.0
  0
LINE
  5
23F
330
1F
100
AcDbEntity
  8
0
 62
     2
100
AcDbLine
 10
63.34944428478059
 20
265.1473426147192
 30
0.0
 11
62.34944428478059
 21
265.1473426147192
 31
0.0
  0
LINE
  5
240
330
1F
100
AcDbEntity
  8
0
 62
     2
100
AcDbLine
 10
61.34944428478059
 20
264.1473426147332
 30
0.0
 11
61.34944428480901
 21
263.1473426147332
 31
0.0
  0
LINE
  5
241
330
1F
100
AcDbEntity
  8
0
 62
     2
100
AcDbLine
 10
60.34944428480333
 20
263.1473426147048
 30
0.0
 11
60.34944428478912
 21
264.1473426146756
 31
0.0
  0
LINE
  5
242
330
1F
100
AcDbEntity
  8
0
 62
     2
100
AcDbLine
 10
59.3494442847749
 20
265.147342614722
 30
0.0
 11
58.3494442847749
 21
265.1473426147109
 31
0.0
  0
LINE
  5
243
330
1F
100
AcDbEntity
  8
0
 62
     2
100
AcDbLine
 10
70.44944403190789
 20
265.1473426147177
 30
0.0
 11
69.44944403190789
 21
265.1473426147177
 31
0.0
  0
LINE
  5
244
330
1F
100
AcDbEntity
  8
0
 62
     2
100
AcDbLine
 10
68.44944403190789
 20
264.1473426147118
 30
0.0
 11
68.44944403189618
 21
263.1473426147119
 31
0.0
  0
LINE
  5
245
330
1F
100
AcDbEntity
  8
0
 62
     2
100
AcDbLine
 10
67.44944403189112
 20
263.1473426147235
 30
0.0
 11
67.44944403189697
 21
264.1473426147355
 31
0.0
  0
LINE
  5
246
330
1F
100
AcDbEntity
  8
0
 62
     2
100
AcDbLine
 10
66.44944403190277
 20
265.1473426147668
 30
0.0
 11
65.44944403190277
 21
265.1473426148218
 31
0.0
  0
LINE
  5
247
330
1F
100
AcDbEntity
  8
0
 62
     2
100
AcDbLine
 10
46.44944405612739
 20
253.2473417949112
 30
0.0
 11
46.4494440561225
 21
252.2473417949224
 31
0.0
  0
LINE
  5
248
330
1F
100
AcDbEntity
  8
0
 62
     2
100
AcDbLine
 10
47.44944405611767
 20
251.2473417949071
 30
0.0
 11
48.44944405611767
 21
251.2473417949088
 31
0.0
  0
LINE
  5
249
330
1F
100
AcDbEntity
  8
0
 62
     2
100
AcDbLine
 10
48.44944405611943
 20
250.2473417949171
 30
0.0
 11
47.44944405611943
 21
250.2473417949171
 31
0.0
  0
LINE
  5
24A
330
1F
100
AcDbEntity
  8
0
 62
     2
100
AcDbLine
 10
46.44944405612472
 20
249.2473417949171
 30
0.0
 11
46.44944405613006
 21
248.2473417949171
 31
0.0
  0
LINE
  5
24B
330
1F
100
AcDbEntity
  8
0
 62
     2
100
AcDbLine
 10
46.44944406123926
 20
246.1473420477884
 30
0.0
 11
46.44944406123926
 21
245.1473420477884
 31
0.0
  0
LINE
  5
24C
330
1F
100
AcDbEntity
  8
0
 62
     2
100
AcDbLine
 10
47.44944406123926
 20
244.1473420477884
 30
0.0
 11
48.44944406123926
 21
244.1473420477884
 31
0.0
  0
LINE
  5
24D
330
1F
100
AcDbEntity
  8
0
 62
     2
100
AcDbLine
 10
48.44944406123926
 20
243.1473420478005
 30
0.0
 11
47.44944406123926
 21
243.1473420478005
 31
0.0
  0
LINE
  5
24E
330
1F
100
AcDbEntity
  8
0
 62
     2
100
AcDbLine
 10
46.44944406123926
 20
242.1473420478005
 30
0.0
 11
46.44944406123926
 21
241.1473420478005
 31
0.0
  0
LINE
  5
24F
330
1F
100
AcDbEntity
  8
0
 62
     2
100
AcDbLine
 10
58.34944428480787
 20
229.2473426146844
 30
0.0
 11
59.34944428480787
 21
229.2473426147177
 31
0.0
  0
LINE
  5
250
330
1F
100
AcDbEntity
  8
0
 62
     2
100
AcDbLine
 10
60.34944428480554
 20
230.2473426147187
 30
0.0
 11
60.34944428480554
 21
231.2473426147187
 31
0.0
  0
LINE
  5
251
330
1F
100
AcDbEntity
  8
0
 62
     2
100
AcDbLine
 10
61.34944428482163
 20
231.2473426147187
 30
0.0
 11
61.34944428482282
 21
230.2473426147163
 31
0.0
  0
LINE
  5
252
330
1F
100
AcDbEntity
  8
0
 62
     2
100
AcDbLine
 10
62.34944428482402
 20
229.2473426146954
 30
0.0
 11
63.34944428482402
 21
229.2473426146697
 31
0.0
  0
LINE
  5
253
330
1F
100
AcDbEntity
  8
0
 62
     2
100
AcDbLine
 10
65.44944403191857
 20
229.2473426146639
 30
0.0
 11
66.44944403191857
 21
229.2473426147137
 31
0.0
  0
LINE
  5
254
330
1F
100
AcDbEntity
  8
0
 62
     2
100
AcDbLine
 10
67.44944403190186
 20
230.2473426147243
 30
0.0
 11
67.4494440319055
 21
231.2473426147285
 31
0.0
  0
LINE
  5
255
330
1F
100
AcDbEntity
  8
0
 62
     2
100
AcDbLine
 10
68.4494440319138
 20
231.24734261472
 30
0.0
 11
68.4494440319204
 21
230.2473426147064
 31
0.0
  0
LINE
  5
256
330
1F
100
AcDbEntity
  8
0
 62
     2
100
AcDbLine
 10
69.44944403192693
 20
229.2473426147444
 30
0.0
 11
70.44944403192693
 21
229.2473426147558
 31
0.0
  0
LINE
  5
257
330
1F
100
AcDbEntity
  8
0
 62
     2
100
AcDbLine
 10
45.44944405903721
 20
231.8446664558704
 30
0.0
 11
45.24944405903716
 21
231.8446664558705
 31
0.0
  0
LINE
  5
258
330
1F
100
AcDbEntity
  8
0
 62
     2
100
AcDbLine
 10
46.11775554221799
 20
231.3080018045347
 30
0.0
 11
46.0283183811577
 21
231.4868900216467
 31
0.0
  0
LINE
  5
259
330
1F
100
AcDbEntity
  8
0
 62
     2
100
AcDbLine
 10
46.89832015205076
 20
231.9218571187662
 30
0.0
 11
46.98775731311105
 21
231.7429689016543
 31
0.0
  0
LINE
  5
25A
330
1F
100
AcDbEntity
  8
0
 62
     2
100
AcDbLine
 10
47.46394324227498
 20
231.9485858294094
 30
0.0
 11
47.39177380612279
 21
231.7620608378252
 31
0.0
  0
LINE
  5
25B
330
1F
100
AcDbEntity
  8
0
 62
     2
100
AcDbLine
 10
49.15068672954345
 20
230.2618438559351
 30
0.0
 11
48.96416180272894
 21
230.1896742523831
 31
0.0
  0
LINE
  5
25C
330
1F
100
AcDbEntity
  8
0
 62
     2
100
AcDbLine
 10
49.12395915016953
 20
229.6962218047992
 30
0.0
 11
48.94507068609073
 21
229.7856584718857
 31
0.0
  0
LINE
  5
25D
330
1F
100
AcDbEntity
  8
0
 62
     2
100
AcDbLine
 10
48.68899301343941
 20
228.8262159485806
 30
0.0
 11
48.51010454936068
 21
228.9156526156671
 31
0.0
  0
LINE
  5
25E
330
1F
100
AcDbEntity
  8
0
 62
     2
100
AcDbLine
 10
49.04676994159718
 20
228.0473426144077
 30
0.0
 11
49.04676994159706
 21
228.2473426144077
 31
0.0
  0
LINE
  5
25F
330
1F
100
AcDbEntity
  8
0
 62
     2
100
AcDbLine
 10
79.75211939595107
 20
228.2473426144384
 30
0.0
 11
79.75211939595147
 21
228.0473426144445
 31
0.0
  0
LINE
  5
260
330
1F
100
AcDbEntity
  8
0
 62
     2
100
AcDbLine
 10
80.28878404729164
 20
228.9156540976076
 30
0.0
 11
80.10989583017783
 21
228.8262169365512
 31
0.0
  0
LINE
  5
261
330
1F
100
AcDbEntity
  8
0
 62
     2
100
AcDbLine
 10
79.67492873316615
 20
229.6962187072749
 30
0.0
 11
79.85381695028002
 21
229.7856558683313
 31
0.0
  0
LINE
  5
262
330
1F
100
AcDbEntity
  8
0
 62
     2
100
AcDbLine
 10
79.64820002252497
 20
230.2618417974952
 30
0.0
 11
79.83472501410915
 21
230.189672361343
 31
0.0
  0
LINE
  5
263
330
1F
100
AcDbEntity
  8
0
 62
     2
100
AcDbLine
 10
81.33494199599897
 20
231.9485852847637
 30
0.0
 11
81.40711159955094
 21
231.7620603579493
 31
0.0
  0
LINE
  5
264
330
1F
100
AcDbEntity
  8
0
 62
     2
100
AcDbLine
 10
81.90056404714477
 20
231.9218577053852
 30
0.0
 11
81.81112738005555
 21
231.7429692413078
 31
0.0
  0
LINE
  5
265
330
1F
100
AcDbEntity
  8
0
 62
     2
100
AcDbLine
 10
82.77057072482734
 20
231.4868911579412
 30
0.0
 11
82.68113405773812
 21
231.3080026938639
 31
0.0
  0
LINE
  5
266
330
1F
100
AcDbEntity
  8
0
 62
     2
100
AcDbLine
 10
83.5494440590046
 20
231.8446680860953
 30
0.0
 11
83.34944405900461
 21
231.8446680860958
 31
0.0
  0
LINE
  5
267
330
1F
100
AcDbEntity
  8
0
 62
     2
100
AcDbLine
 10
83.34944405903616
 20
262.5500113771714
 30
0.0
 11
83.5494440590362
 21
262.5500113771714
 31
0.0
  0
LINE
  5
268
330
1F
100
AcDbEntity
  8
0
 62
     2
100
AcDbLine
 10
82.68113257586111
 20
263.0866760285101
 30
0.0
 11
82.77056973691947
 21
262.9077878113973
 31
0.0
  0
LINE
  5
269
330
1F
100
AcDbEntity
  8
0
 62
     2
100
AcDbLine
 10
81.90056796600516
 20
262.4728207142786
 30
0.0
 11
81.8111308049468
 21
262.6517089313915
 31
0.0
  0
LINE
  5
26A
330
1F
100
AcDbEntity
  8
0
 62
     2
100
AcDbLine
 10
81.33494487578275
 20
262.4460920036364
 30
0.0
 11
81.40711431193495
 21
262.6326169952206
 31
0.0
  0
LINE
  5
26B
330
1F
100
AcDbEntity
  8
0
 62
     2
100
AcDbLine
 10
79.6482013885144
 20
264.1328339771106
 30
0.0
 11
79.83472631532891
 21
264.2050035806627
 31
0.0
  0
LINE
  5
26C
330
1F
100
AcDbEntity
  8
0
 62
     2
100
AcDbLine
 10
79.67492896789236
 20
264.6984560282547
 30
0.0
 11
79.85381743196996
 21
264.6090193611659
 31
0.0
  0
LINE
  5
26D
330
1F
100
AcDbEntity
  8
0
 62
     2
100
AcDbLine
 10
80.10989510462514
 20
265.5684618844504
 30
0.0
 11
80.28878356870274
 21
265.4790252173615
 31
0.0
  0
LINE
  5
26E
330
1F
100
AcDbEntity
  8
0
 62
     2
100
AcDbLine
 10
79.7521181764696
 20
266.347335218628
 30
0.0
 11
79.75211817646971
 21
266.1473352186279
 31
0.0
  0
LINE
  5
26F
330
1F
100
AcDbEntity
  8
0
 62
     2
100
AcDbLine
 10
49.04676831133941
 20
266.1473352186313
 30
0.0
 11
49.04676831133929
 21
266.3473352186329
 31
0.0
  0
LINE
  5
270
330
1F
100
AcDbEntity
  8
0
 62
     2
100
AcDbLine
 10
48.51010366000662
 20
265.479023735445
 30
0.0
 11
48.68899187711764
 21
265.5684608965071
 31
0.0
  0
LINE
  5
271
330
1F
100
AcDbEntity
  8
0
 62
     2
100
AcDbLine
 10
49.12395897425222
 20
264.6984591256063
 30
0.0
 11
48.9450707571412
 21
264.6090219645442
 31
0.0
  0
LINE
  5
272
330
1F
100
AcDbEntity
  8
0
 62
     2
100
AcDbLine
 10
49.1506876848963
 20
264.1328360353802
 30
0.0
 11
48.96416269331212
 21
264.2050054715324
 31
0.0
  0
LINE
  5
273
330
1F
100
AcDbEntity
  8
0
 62
     2
100
AcDbLine
 10
47.46394571142201
 20
262.4460925481118
 30
0.0
 11
47.39177610786999
 21
262.6326174749263
 31
0.0
  0
LINE
  5
274
330
1F
100
AcDbEntity
  8
0
 62
     2
100
AcDbLine
 10
46.8983236602777
 20
262.4728201274899
 30
0.0
 11
46.98776032736657
 21
262.6517085915675
 31
0.0
  0
LINE
  5
275
330
1F
100
AcDbEntity
  8
0
 62
     2
100
AcDbLine
 10
46.0283173931947
 20
262.9077864696494
 30
0.0
 11
46.11775406028357
 21
263.086674933727
 31
0.0
  0
LINE
  5
276
330
1F
100
AcDbEntity
  8
0
 62
     2
100
AcDbLine
 10
45.24944405901687
 20
262.5500095414944
 30
0.0
 11
45.44944405901686
 21
262.5500095414944
 31
0.0
  0
ARC
  5
277
330
1F
100
AcDbEntity
  8
0
 62
     2
100
AcDbCircle
 10
47.94944412943755
 20
252.9473461762801
 30
0.0
 40
1.0
100
AcDbArc
 50
0.0
 51
89.99999999998988
  0
ARC
  5
278
330
1F
100
AcDbEntity
  8
0
 62
     2
100
AcDbCircle
 10
47.9494441294375
 20
241.4473390361745
 30
0.0
 40
1.0
100
AcDbArc
 50
270.0000000000094
 51
0.0
  0
ARC
  5
279
330
1F
100
AcDbEntity
  8
0
 62
     2
100
AcDbCircle
 10
58.64944424155738
 20
230.7473426062272
 30
0.0
 40
1.0
100
AcDbArc
 50
90.0000000000004
 51
179.9999999973881
  0
ARC
  5
27A
330
1F
100
AcDbEntity
  8
0
 62
     2
100
AcDbCircle
 10
70.14944401731714
 20
230.7473426062272
 30
0.0
 40
1.0
100
AcDbArc
 50
0.0
 51
89.99999999738793
  0
ARC
  5
27B
330
1F
100
AcDbEntity
  8
0
 62
     2
100
AcDbCircle
 10
80.84944412943747
 20
239.9473464291373
 30
0.0
 40
1.0
100
AcDbArc
 50
180.0
 51
269.999999999484
  0
ARC
  5
27C
330
1F
100
AcDbEntity
  8
0
 62
     2
100
AcDbCircle
 10
80.84944412943753
 20
252.9473461762797
 30
0.0
 40
1.0
100
AcDbArc
 50
90.00000000000733
 51
179.9999999999999
  0
ARC
  5
27D
330
1F
100
AcDbEntity
  8
0
 62
     2
100
AcDbCircle
 10
70.14944401731805
 20
263.6473426062273
 30
0.0
 40
1.0
100
AcDbArc
 50
270.0
 51
359.9999999999997
  0
ARC
  5
27E
330
1F
100
AcDbEntity
  8
0
 62
     2
100
AcDbCircle
 10
58.64944424155743
 20
263.6473426062273
 30
0.0
 40
1.0
100
AcDbArc
 50
180.0
 51
269.999999997388
  0
LINE
  5
27F
330
1F
100
AcDbEntity
  8
0
 62
     2
100
AcDbLine
 10
45.44944405901356
 20
246.1473420477884
 30
0.0
 11
45.24944405901203
 21
245.9473420477884
 31
0.0
  0
LINE
  5
280
330
1F
100
AcDbEntity
  8
0
 62
     2
100
AcDbLine
 10
45.24944405903119
 20
248.4473417949045
 30
0.0
 11
45.44944405902964
 21
248.2473417949118
 31
0.0
  0
LINE
  5
281
330
1F
100
AcDbEntity
  8
0
 62
     2
100
AcDbLine
 10
45.44944405902152
 20
253.247341794916
 30
0.0
 11
45.24944405902164
 21
253.0473417949227
 31
0.0
  0
LINE
  5
282
330
1F
100
AcDbEntity
  8
0
 62
     2
100
AcDbLine
 10
58.54944428476318
 20
266.3473352186358
 30
0.0
 11
58.34944428476371
 21
266.147335218637
 31
0.0
  0
LINE
  5
283
330
1F
100
AcDbEntity
  8
0
 62
     2
100
AcDbLine
 10
65.64944403196631
 20
266.3473352186202
 30
0.0
 11
65.4494440319578
 21
266.1473352186192
 31
0.0
  0
LINE
  5
284
330
1F
100
AcDbEntity
  8
0
 62
     2
100
AcDbLine
 10
63.34944428479542
 20
266.1473352186223
 30
0.0
 11
63.14944428480277
 21
266.3473352186221
 31
0.0
  0
LINE
  5
285
330
1F
100
AcDbEntity
  8
0
 62
     2
100
AcDbLine
 10
70.44944403191437
 20
266.1473352186237
 30
0.0
 11
70.24944403191239
 21
266.3473352186246
 31
0.0
  0
LINE
  5
286
330
1F
100
AcDbEntity
  8
0
 62
     2
100
AcDbLine
 10
83.54944405903461
 20
253.0473418491186
 30
0.0
 11
83.34944405903462
 21
253.2473418491367
 31
0.0
  0
LINE
  5
287
330
1F
100
AcDbEntity
  8
0
 62
     2
100
AcDbLine
 10
83.34944405903349
 20
248.2473418491052
 30
0.0
 11
83.54944405903393
 21
248.4473418491
 31
0.0
  0
LINE
  5
288
330
1F
100
AcDbEntity
  8
0
 62
     2
100
AcDbLine
 10
83.54944405902864
 20
245.9473415962514
 30
0.0
 11
83.34944405902905
 21
246.1473415962232
 31
0.0
  0
LINE
  5
289
330
1F
100
AcDbEntity
  8
0
 62
     2
100
AcDbLine
 10
70.24944403194695
 20
228.0473426144125
 30
0.0
 11
70.4494440319383
 21
228.2473426144175
 31
0.0
  0
LINE
  5
28A
330
1F
100
AcDbEntity
  8
0
 62
     2
100
AcDbLine
 10
83.34944405902536
 20
241.1473415962281
 30
0.0
 11
83.5494440590258
 21
241.3473415962211
 31
0.0
  0
LINE
  5
28B
330
1F
100
AcDbEntity
  8
0
 62
     2
100
AcDbLine
 10
65.44944403194347
 20
228.2473426144188
 30
0.0
 11
65.64944403194937
 21
228.0473426144186
 31
0.0
  0
LINE
  5
28C
330
1F
100
AcDbEntity
  8
0
 62
     2
100
AcDbLine
 10
63.14944428479265
 20
228.0473426144198
 30
0.0
 11
63.34944428479832
 21
228.2473426144195
 31
0.0
  0
LINE
  5
28D
330
1F
100
AcDbEntity
  8
0
 62
     2
100
AcDbLine
 10
58.34944428482453
 20
228.2473426144115
 30
0.0
 11
58.54944428482492
 21
228.0473426144125
 31
0.0
  0
LINE
  5
28E
330
1F
100
AcDbEntity
  8
0
 62
     2
100
AcDbLine
 10
45.24944405904165
 20
241.3473420478005
 30
0.0
 11
45.44944405904158
 21
241.1473420478005
 31
0.0
  0
ARC
  5
28F
330
1F
100
AcDbEntity
  8
0
 62
     2
100
AcDbCircle
 10
69.94944403193489
 20
228.547342614416
 30
0.0
 40
0.5
100
AcDbArc
 50
180.0
 51
180.2871124881987
  0
ARC
  5
290
330
1F
100
AcDbEntity
  8
0
 62
     2
100
AcDbCircle
 10
69.94944403193489
 20
228.547342614416
 30
0.0
 40
0.5
100
AcDbArc
 50
180.2871124888502
 51
269.9999650151117
  0
ARC
  5
291
330
1F
100
AcDbEntity
  8
0
 62
     2
100
AcDbCircle
 10
65.94944403193597
 20
228.5473426144175
 30
0.0
 40
0.5
100
AcDbArc
 50
359.712887501454
 51
0.0000000000002544
  0
LINE
  5
292
330
1F
100
AcDbEntity
  8
0
 62
     2
100
AcDbLine
 10
65.6494440319484
 20
228.0473426144187
 30
0.0
 11
65.94944403193585
 21
228.0473426144187
 31
0.0
  0
LINE
  5
293
330
1F
100
AcDbEntity
  8
0
 62
     2
100
AcDbLine
 10
69.94944403193603
 20
228.0473426144164
 30
0.0
 11
70.24944403194058
 21
228.0473426144171
 31
0.0
  0
ARC
  5
294
330
1F
100
AcDbEntity
  8
0
 62
     2
100
AcDbCircle
 10
58.84944428481953
 20
228.5473426144104
 30
0.0
 40
0.5
100
AcDbArc
 50
359.71288750136
 51
0.0000000000011704
  0
ARC
  5
295
330
1F
100
AcDbEntity
  8
0
 62
     2
100
AcDbCircle
 10
62.84944428480605
 20
228.5473426144195
 30
0.0
 40
0.5
100
AcDbArc
 50
180.0
 51
180.2871124998792
  0
ARC
  5
296
330
1F
100
AcDbEntity
  8
0
 62
     2
100
AcDbCircle
 10
62.84944428480605
 20
228.5473426144195
 30
0.0
 40
0.5
100
AcDbArc
 50
180.2871124984064
 51
269.9999650149634
  0
LINE
  5
297
330
1F
100
AcDbEntity
  8
0
 62
     2
100
AcDbLine
 10
58.54944428482787
 20
228.0473426144115
 30
0.0
 11
58.84944428481975
 21
228.0473426144117
 31
0.0
  0
LINE
  5
298
330
1F
100
AcDbEntity
  8
0
 62
     2
100
AcDbLine
 10
62.84944428480588
 20
228.0473426144196
 30
0.0
 11
63.14944428479316
 21
228.0473426144196
 31
0.0
  0
ARC
  5
299
330
1F
100
AcDbEntity
  8
0
 62
     2
100
AcDbCircle
 10
45.74944405900976
 20
245.6473420477884
 30
0.0
 40
0.5
100
AcDbArc
 50
180.0000349734699
 51
269.7128874894199
  0
ARC
  5
29A
330
1F
100
AcDbEntity
  8
0
 62
     2
100
AcDbCircle
 10
45.74944405900976
 20
245.6473420477884
 30
0.0
 40
0.5
100
AcDbArc
 50
269.7128875005275
 51
270.0
  0
ARC
  5
29B
330
1F
100
AcDbEntity
  8
0
 62
     2
100
AcDbCircle
 10
45.74944405904182
 20
241.6473420478005
 30
0.0
 40
0.5
100
AcDbArc
 50
89.99999999999837
 51
90.28711249970499
  0
ARC
  5
29C
330
1F
100
AcDbEntity
  8
0
 62
     2
100
AcDbCircle
 10
45.74944405904182
 20
241.6473420478005
 30
0.0
 40
0.5
100
AcDbArc
 50
90.28711249970539
 51
179.9999650149551
  0
LINE
  5
29D
330
1F
100
AcDbEntity
  8
0
 62
     2
100
AcDbLine
 10
45.24944405901203
 20
245.9473420477884
 30
0.0
 11
45.24944405900976
 21
245.6473420477923
 31
0.0
  0
LINE
  5
29E
330
1F
100
AcDbEntity
  8
0
 62
     2
100
AcDbLine
 10
45.24944405904182
 20
241.6473420478008
 30
0.0
 11
45.24944405904165
 21
241.3473420478005
 31
0.0
  0
ARC
  5
29F
330
1F
100
AcDbEntity
  8
0
 62
     2
100
AcDbCircle
 10
45.74944405902176
 20
252.7473417949113
 30
0.0
 40
0.5
100
AcDbArc
 50
180.0000349734699
 51
269.7128872442627
  0
ARC
  5
2A0
330
1F
100
AcDbEntity
  8
0
 62
     2
100
AcDbCircle
 10
45.74944405902176
 20
252.7473417949113
 30
0.0
 40
0.5
100
AcDbArc
 50
269.7128872556382
 51
269.9999999997216
  0
ARC
  5
2A1
330
1F
100
AcDbEntity
  8
0
 62
     2
100
AcDbCircle
 10
45.74944405903352
 20
248.7473417949254
 30
0.0
 40
0.5
100
AcDbArc
 50
90.00000000168217
 51
90.28711276920936
  0
ARC
  5
2A2
330
1F
100
AcDbEntity
  8
0
 62
     2
100
AcDbCircle
 10
45.74944405903352
 20
248.7473417949254
 30
0.0
 40
0.5
100
AcDbArc
 50
90.28711276920976
 51
179.9999650159218
  0
LINE
  5
2A3
330
1F
100
AcDbEntity
  8
0
 62
     2
100
AcDbLine
 10
45.24944405902158
 20
253.0473417949227
 30
0.0
 11
45.24944405902176
 21
252.7473417949143
 31
0.0
  0
LINE
  5
2A4
330
1F
100
AcDbEntity
  8
0
 62
     2
100
AcDbLine
 10
45.24944405903352
 20
248.7473417949172
 30
0.0
 11
45.24944405903119
 21
248.4473417949045
 31
0.0
  0
ARC
  5
2A5
330
1F
100
AcDbEntity
  8
0
 62
     2
100
AcDbCircle
 10
69.94944403191244
 20
265.8473352186219
 30
0.0
 40
0.5
100
AcDbArc
 50
179.7128874993784
 51
179.9999999994592
  0
ARC
  5
2A6
330
1F
100
AcDbEntity
  8
0
 62
     2
100
AcDbCircle
 10
65.94944403194131
 20
265.8473352186177
 30
0.0
 40
0.5
100
AcDbArc
 50
0.0
 51
0.2871124968763184
  0
ARC
  5
2A7
330
1F
100
AcDbEntity
  8
0
 62
     2
100
AcDbCircle
 10
65.94944403194131
 20
265.8473352186177
 30
0.0
 40
0.5
100
AcDbArc
 50
0.2871124968755205
 51
89.9999650148966
  0
LINE
  5
2A8
330
1F
100
AcDbEntity
  8
0
 62
     2
100
AcDbLine
 10
70.24944403191569
 20
266.3473352186236
 30
0.0
 11
69.94944403191221
 21
266.3473352186234
 31
0.0
  0
LINE
  5
2A9
330
1F
100
AcDbEntity
  8
0
 62
     2
100
AcDbLine
 10
65.94944403194205
 20
266.3473352186185
 30
0.0
 11
65.64944403196876
 21
266.3473352186189
 31
0.0
  0
ARC
  5
2AA
330
1F
100
AcDbEntity
  8
0
 62
     2
100
AcDbCircle
 10
62.84944428479099
 20
265.8473352186177
 30
0.0
 40
0.5
100
AcDbArc
 50
90.00003498493145
 51
140.8866385766196
  0
ARC
  5
2AB
330
1F
100
AcDbEntity
  8
0
 62
     2
100
AcDbCircle
 10
62.84944428479099
 20
265.8473352186177
 30
0.0
 40
0.5
100
AcDbArc
 50
179.7128874992502
 51
179.9999999985326
  0
ARC
  5
2AC
330
1F
100
AcDbEntity
  8
0
 62
     2
100
AcDbCircle
 10
58.84944428476706
 20
265.8473352186376
 30
0.0
 40
0.5
100
AcDbArc
 50
0.0
 51
0.2871124999077318
  0
ARC
  5
2AD
330
1F
100
AcDbEntity
  8
0
 62
     2
100
AcDbCircle
 10
58.84944428476706
 20
265.8473352186376
 30
0.0
 40
0.5
100
AcDbArc
 50
0.2871125005492209
 51
89.99996501501641
  0
LINE
  5
2AE
330
1F
100
AcDbEntity
  8
0
 62
     2
100
AcDbLine
 10
63.14944428479839
 20
266.3473352186227
 30
0.0
 11
62.84944428479173
 21
266.3473352186231
 31
0.0
  0
LINE
  5
2AF
330
1F
100
AcDbEntity
  8
0
 62
     2
100
AcDbLine
 10
58.84944428476678
 20
266.3473352186372
 30
0.0
 11
58.54944428476148
 21
266.3473352186371
 31
0.0
  0
ARC
  5
2B0
330
1F
100
AcDbEntity
  8
0
 62
     2
100
AcDbCircle
 10
83.04944405903456
 20
252.7473418491311
 30
0.0
 40
0.5
100
AcDbArc
 50
270.000000001078
 51
270.2871118851636
  0
ARC
  5
2B1
330
1F
100
AcDbEntity
  8
0
 62
     2
100
AcDbCircle
 10
83.04944405903456
 20
252.7473418491311
 30
0.0
 40
0.5
100
AcDbArc
 50
270.2871118851628
 51
359.9999650149726
  0
ARC
  5
2B2
330
1F
100
AcDbEntity
  8
0
 62
     2
100
AcDbCircle
 10
83.04944405903456
 20
248.7473418491036
 30
0.0
 40
0.5
100
AcDbArc
 50
0.0000349838895513
 51
89.71288722924282
  0
ARC
  5
2B3
330
1F
100
AcDbEntity
  8
0
 62
     2
100
AcDbCircle
 10
83.04944405903456
 20
248.7473418491036
 30
0.0
 40
0.5
100
AcDbArc
 50
89.71288723024881
 51
90.00000000030788
  0
LINE
  5
2B4
330
1F
100
AcDbEntity
  8
0
 62
     2
100
AcDbLine
 10
83.54944405903393
 20
248.4473418491
 30
0.0
 11
83.54944405903456
 21
248.7473418491025
 31
0.0
  0
LINE
  5
2B5
330
1F
100
AcDbEntity
  8
0
 62
     2
100
AcDbLine
 10
83.54944405903456
 20
252.747341849131
 30
0.0
 11
83.54944405903461
 21
253.0473418491186
 31
0.0
  0
ARC
  5
2B6
330
1F
100
AcDbEntity
  8
0
 62
     2
100
AcDbCircle
 10
83.04944405902802
 20
245.647341596232
 30
0.0
 40
0.5
100
AcDbArc
 50
269.9999999983276
 51
270.287113454008
  0
ARC
  5
2B7
330
1F
100
AcDbEntity
  8
0
 62
     2
100
AcDbCircle
 10
83.04944405902802
 20
245.647341596232
 30
0.0
 40
0.5
100
AcDbArc
 50
270.2871134540076
 51
359.999965014862
  0
ARC
  5
2B8
330
1F
100
AcDbEntity
  8
0
 62
     2
100
AcDbCircle
 10
83.04944405902648
 20
241.6473415962296
 30
0.0
 40
0.5
100
AcDbArc
 50
0.0000349838895513
 51
89.71288713366395
  0
ARC
  5
2B9
330
1F
100
AcDbEntity
  8
0
 62
     2
100
AcDbCircle
 10
83.04944405902648
 20
241.6473415962296
 30
0.0
 40
0.5
100
AcDbArc
 50
89.71288713424595
 51
90.00000000041689
  0
LINE
  5
2BA
330
1F
100
AcDbEntity
  8
0
 62
     2
100
AcDbLine
 10
83.5494440590258
 20
241.3473415962211
 30
0.0
 11
83.54944405902648
 21
241.6473415962248
 31
0.0
  0
LINE
  5
2BB
330
1F
100
AcDbEntity
  8
0
 62
     2
100
AcDbLine
 10
83.54944405902802
 20
245.6473415962309
 30
0.0
 11
83.54944405902864
 21
245.9473415962514
 31
0.0
  0
ARC
  5
2BC
330
1F
100
AcDbEntity
  8
0
 62
     2
100
AcDbCircle
 10
76.09944053776468
 20
235.4973422373339
 30
0.0
 40
2.749999999999989
100
AcDbArc
 50
305.0741046134559
 51
324.925895386544
  0
ARC
  5
2BD
330
1F
100
AcDbEntity
  8
0
 62
     2
100
AcDbCircle
 10
76.09944053776468
 20
235.4973422373339
 30
0.0
 40
2.25
100
AcDbArc
 50
270.0
 51
0.0000000000001018
  0
ARC
  5
2BE
330
1F
100
AcDbEntity
  8
0
 62
     2
100
AcDbCircle
 10
52.69944053776732
 20
235.4973422373339
 30
0.0
 40
2.750000000000002
100
AcDbArc
 50
215.0741046134564
 51
234.9258953865433
  0
ARC
  5
2BF
330
1F
100
AcDbEntity
  8
0
 62
     2
100
AcDbCircle
 10
52.69944053776732
 20
235.4973422373339
 30
0.0
 40
2.25
100
AcDbArc
 50
180.0
 51
269.9999999999999
  0
ARC
  5
2C0
330
1F
100
AcDbEntity
  8
0
 62
     2
100
AcDbCircle
 10
52.69944053776732
 20
258.8973422373339
 30
0.0
 40
2.750000000000004
100
AcDbArc
 50
125.0741046134566
 51
144.9258953865437
  0
ARC
  5
2C1
330
1F
100
AcDbEntity
  8
0
 62
     2
100
AcDbCircle
 10
52.69944053776732
 20
258.8973422373339
 30
0.0
 40
2.25
100
AcDbArc
 50
89.99999999999982
 51
179.9999999999995
  0
ARC
  5
2C2
330
1F
100
AcDbEntity
  8
0
 62
     2
100
AcDbCircle
 10
76.09944053776468
 20
258.8973422373339
 30
0.0
 40
2.749999999999998
100
AcDbArc
 50
35.07410461345587
 51
54.92589538654301
  0
ARC
  5
2C3
330
1F
100
AcDbEntity
  8
0
 62
     2
100
AcDbCircle
 10
76.09944053776468
 20
258.8973422373339
 30
0.0
 40
2.25
100
AcDbArc
 50
0.0
 51
90.0000000000002
  0
LINE
  5
2C4
330
1F
100
AcDbEntity
  8
0
 62
     2
100
AcDbLine
 10
50.44944053776732
 20
235.4973422373339
 30
0.0
 11
49.94944053776732
 21
235.4973422373339
 31
0.0
  0
LINE
  5
2C5
330
1F
100
AcDbEntity
  8
0
 62
     2
100
AcDbLine
 10
49.94944053776732
 20
258.8973422373339
 30
0.0
 11
50.44944053776732
 21
258.8973422373339
 31
0.0
  0
LINE
  5
2C6
330
1F
100
AcDbEntity
  8
0
 62
     2
100
AcDbLine
 10
52.69944053776732
 20
261.1473422373339
 30
0.0
 11
52.69944053776732
 21
261.6473422373339
 31
0.0
  0
LINE
  5
2C7
330
1F
100
AcDbEntity
  8
0
 62
     2
100
AcDbLine
 10
76.09944053776468
 20
261.6473422373339
 30
0.0
 11
76.09944053776468
 21
261.1473422373339
 31
0.0
  0
LINE
  5
2C8
330
1F
100
AcDbEntity
  8
0
 62
     2
100
AcDbLine
 10
78.34944053776468
 20
258.8973422373339
 30
0.0
 11
78.84944053776468
 21
258.8973422373339
 31
0.0
  0
LINE
  5
2C9
330
1F
100
AcDbEntity
  8
0
 62
     2
100
AcDbLine
 10
78.84944053776468
 20
235.4973422373339
 30
0.0
 11
78.34944053776468
 21
235.4973422373339
 31
0.0
  0
LINE
  5
2CA
330
1F
100
AcDbEntity
  8
0
 62
     2
100
AcDbLine
 10
76.09944053776468
 20
233.2473422373339
 30
0.0
 11
76.09944053776468
 21
232.7473422373339
 31
0.0
  0
LINE
  5
2CB
330
1F
100
AcDbEntity
  8
0
 62
     2
100
AcDbLine
 10
52.69944053776732
 20
233.2473422373339
 30
0.0
 11
52.69944053776732
 21
232.7473422373339
 31
0.0
  0
LINE
  5
2CC
330
1F
100
AcDbEntity
  8
0
 62
     2
100
AcDbLine
 10
31.14944444140053
 20
266.2959961211617
 30
0.0
 11
33.39944444140053
 21
266.291681959926
 31
0.0
  0
LINE
  5
2CD
330
1F
100
AcDbEntity
  8
0
 62
     2
100
AcDbLine
 10
35.06114537718895
 20
270.3033828957144
 30
0.0
 11
32.57212950741228
 21
272.792398765491
 31
0.0
  0
ARC
  5
2CE
330
1F
100
AcDbEntity
  8
0
 62
     2
100
AcDbCircle
 10
33.39944444140053
 20
268.641681959926
 30
0.0
 40
2.349999999999983
100
AcDbArc
 50
269.9999999999998
 51
44.99999999999918
  0
LINE
  5
2CF
330
1F
100
AcDbEntity
  8
0
 62
     2
100
AcDbLine
 10
41.29017979318894
 20
276.5388774668547
 30
0.0
 11
41.29340367739223
 21
276.5356411959177
 31
0.0
  0
LINE
  5
2D0
330
1F
100
AcDbEntity
  8
0
 62
     2
100
AcDbLine
 10
38.80916025907356
 20
279.0294295171523
 30
0.0
 11
41.29017979318894
 21
276.5388774668547
 31
0.0
  0
LINE
  5
2D1
330
1F
100
AcDbEntity
  8
0
 62
     2
100
AcDbLine
 10
45.30510461318062
 20
278.1973421317061
 30
0.0
 11
45.30510461318062
 21
280.4473421317062
 31
0.0
  0
ARC
  5
2D2
330
1F
100
AcDbEntity
  8
0
 62
     2
100
AcDbCircle
 10
42.95510461318065
 20
278.1973421317061
 30
0.0
 40
2.349999999999983
100
AcDbArc
 50
224.9999999999996
 51
359.9999999999998
  0
LINE
  5
2D3
330
1F
100
AcDbEntity
  8
0
 62
     2
100
AcDbLine
 10
83.49809843085677
 20
280.4473421317061
 30
0.0
 11
83.49378426962107
 21
278.1973421317061
 31
0.0
  0
LINE
  5
2D4
330
1F
100
AcDbEntity
  8
0
 62
     2
100
AcDbLine
 10
87.5054852054094
 20
276.5356411959177
 30
0.0
 11
89.99450107518607
 21
279.0246570656943
 31
0.0
  0
ARC
  5
2D5
330
1F
100
AcDbEntity
  8
0
 62
     2
100
AcDbCircle
 10
85.8437842696211
 20
278.1973421317061
 30
0.0
 40
2.349999999999983
100
AcDbArc
 50
180.0
 51
314.9999999999993
  0
LINE
  5
2D6
330
1F
100
AcDbEntity
  8
0
 62
     2
100
AcDbLine
 10
93.74097977654924
 20
270.306606779918
 30
0.0
 11
93.73774350561223
 21
270.3033828957148
 31
0.0
  0
LINE
  5
2D7
330
1F
100
AcDbEntity
  8
0
 62
     2
100
AcDbLine
 10
96.23153182684689
 20
272.7876263140334
 30
0.0
 11
93.74097977654924
 21
270.306606779918
 31
0.0
  0
LINE
  5
2D8
330
1F
100
AcDbEntity
  8
0
 62
     2
100
AcDbLine
 10
95.39944444140065
 20
266.2916819599264
 30
0.0
 11
97.64944444140065
 21
266.2916819599264
 31
0.0
  0
ARC
  5
2D9
330
1F
100
AcDbEntity
  8
0
 62
     2
100
AcDbCircle
 10
95.39944444140065
 20
268.6416819599264
 30
0.0
 40
2.349999999999983
100
AcDbArc
 50
135.0000000000003
 51
269.9999999999997
  0
LINE
  5
2DA
330
1F
100
AcDbEntity
  8
0
 62
     2
100
AcDbLine
 10
97.64944444140065
 20
228.0986881422497
 30
0.0
 11
95.39944444140065
 21
228.1030023034854
 31
0.0
  0
LINE
  5
2DB
330
1F
100
AcDbEntity
  8
0
 62
     2
100
AcDbLine
 10
93.73774350561223
 20
224.091301367697
 30
0.0
 11
96.2267593753889
 21
221.6022854979203
 31
0.0
  0
ARC
  5
2DC
330
1F
100
AcDbEntity
  8
0
 62
     2
100
AcDbCircle
 10
95.39944444140065
 20
225.7530023034853
 30
0.0
 40
2.349999999999983
100
AcDbArc
 50
90.0
 51
224.9999999999995
  0
LINE
  5
2DD
330
1F
100
AcDbEntity
  8
0
 62
     2
100
AcDbLine
 10
45.30079045194503
 20
213.9473421317057
 30
0.0
 11
45.30510461318073
 21
216.1973421317057
 31
0.0
  0
LINE
  5
2DE
330
1F
100
AcDbEntity
  8
0
 62
     2
100
AcDbLine
 10
41.29340367739235
 20
217.8590430674941
 30
0.0
 11
38.80438780761568
 21
215.3700271977174
 31
0.0
  0
ARC
  5
2DF
330
1F
100
AcDbEntity
  8
0
 62
     2
100
AcDbCircle
 10
42.95510461318071
 20
216.1973421317057
 30
0.0
 40
2.349999999999983
100
AcDbArc
 50
0.0
 51
134.9999999999995
  0
LINE
  5
2E0
330
1F
100
AcDbEntity
  8
0
 62
     2
100
AcDbLine
 10
35.05790910625194
 20
224.0880774834942
 30
0.0
 11
35.06114537718895
 21
224.0913013676975
 31
0.0
  0
LINE
  5
2E1
330
1F
100
AcDbEntity
  8
0
 62
     2
100
AcDbLine
 10
32.56735705595429
 20
221.6070579493788
 30
0.0
 11
35.05790910625194
 21
224.0880774834942
 31
0.0
  0
LINE
  5
2E2
330
1F
100
AcDbEntity
  8
0
 62
     2
100
AcDbLine
 10
33.39944444140053
 20
228.1030023034859
 30
0.0
 11
31.14944444140053
 21
228.1030023034859
 31
0.0
  0
ARC
  5
2E3
330
1F
100
AcDbEntity
  8
0
 62
     2
100
AcDbCircle
 10
33.39944444140053
 20
225.7530023034859
 30
0.0
 40
2.349999999999983
100
AcDbArc
 50
314.9999999999997
 51
89.99999999999919
  0
LINE
  5
2E4
330
1F
100
AcDbEntity
  8
0
 62
     2
100
AcDbLine
 10
87.50870908961258
 20
217.8558067965571
 30
0.0
 11
87.50548520540934
 21
217.8590430674941
 31
0.0
  0
LINE
  5
2E5
330
1F
100
AcDbEntity
  8
0
 62
     2
100
AcDbLine
 10
89.98972862372801
 20
215.3652547462595
 30
0.0
 11
87.50870908961258
 21
217.8558067965571
 31
0.0
  0
LINE
  5
2E6
330
1F
100
AcDbEntity
  8
0
 62
     2
100
AcDbLine
 10
83.49378426962096
 20
216.1973421317057
 30
0.0
 11
83.49378426962096
 21
213.9473421317057
 31
0.0
  0
ARC
  5
2E7
330
1F
100
AcDbEntity
  8
0
 62
     2
100
AcDbCircle
 10
85.84378426962098
 20
216.1973421317057
 30
0.0
 40
2.349999999999983
100
AcDbArc
 50
44.99999999999977
 51
179.9999999999993
  0
LINE
  5
2E8
330
1F
100
AcDbEntity
  8
0
 62
     2
100
AcDbLine
 10
95.39944444140065
 20
228.6030023034853
 30
0.0
 11
95.39944444140065
 21
228.1030023034853
 31
0.0
  0
LINE
  5
2E9
330
1F
100
AcDbEntity
  8
0
 62
     2
100
AcDbLine
 10
93.38419011501895
 20
223.7377479771037
 30
0.0
 11
93.73774350561223
 21
224.091301367697
 31
0.0
  0
LINE
  5
2EA
330
1F
100
AcDbEntity
  8
0
 62
     2
100
AcDbLine
 10
87.85903859600262
 20
218.2125964580873
 30
0.0
 11
87.50548520540929
 21
217.8590430674941
 31
0.0
  0
LINE
  5
2EB
330
1F
100
AcDbEntity
  8
0
 62
     2
100
AcDbLine
 10
82.99378426962096
 20
216.1973421317057
 30
0.0
 11
83.49378426962096
 21
216.1973421317057
 31
0.0
  0
LINE
  5
2EC
330
1F
100
AcDbEntity
  8
0
 62
     2
100
AcDbLine
 10
93.38419011501901
 20
270.656936286308
 30
0.0
 11
93.73774350561229
 21
270.3033828957147
 31
0.0
  0
LINE
  5
2ED
330
1F
100
AcDbEntity
  8
0
 62
     2
100
AcDbLine
 10
95.39944444140065
 20
265.7916819599264
 30
0.0
 11
95.39944444140065
 21
266.2916819599264
 31
0.0
  0
LINE
  5
2EE
330
1F
100
AcDbEntity
  8
0
 62
     2
100
AcDbLine
 10
82.99378426962107
 20
278.1973421317061
 30
0.0
 11
83.49378426962107
 21
278.1973421317061
 31
0.0
  0
LINE
  5
2EF
330
1F
100
AcDbEntity
  8
0
 62
     2
100
AcDbLine
 10
87.85903859600268
 20
276.1820878053244
 30
0.0
 11
87.5054852054094
 21
276.5356411959177
 31
0.0
  0
LINE
  5
2F0
330
1F
100
AcDbEntity
  8
0
 62
     2
100
AcDbLine
 10
40.93985028679896
 20
276.1820878053245
 30
0.0
 11
41.29340367739229
 21
276.5356411959178
 31
0.0
  0
LINE
  5
2F1
330
1F
100
AcDbEntity
  8
0
 62
     2
100
AcDbLine
 10
45.80510461318067
 20
278.1973421317061
 30
0.0
 11
45.30510461318062
 21
278.1973421317061
 31
0.0
  0
LINE
  5
2F2
330
1F
100
AcDbEntity
  8
0
 62
     2
100
AcDbLine
 10
33.39944444140053
 20
265.7916819599261
 30
0.0
 11
33.39944444140059
 21
266.2916819599261
 31
0.0
  0
LINE
  5
2F3
330
1F
100
AcDbEntity
  8
0
 62
     2
100
AcDbLine
 10
35.41469876778223
 20
270.6569362863077
 30
0.0
 11
35.06114537718895
 21
270.3033828957144
 31
0.0
  0
LINE
  5
2F4
330
1F
100
AcDbEntity
  8
0
 62
     2
100
AcDbLine
 10
35.41469876778217
 20
223.7377479771042
 30
0.0
 11
35.06114537718889
 21
224.0913013676975
 31
0.0
  0
LINE
  5
2F5
330
1F
100
AcDbEntity
  8
0
 62
     2
100
AcDbLine
 10
33.39944444140053
 20
228.6030023034859
 30
0.0
 11
33.39944444140053
 21
228.1030023034859
 31
0.0
  0
LINE
  5
2F6
330
1F
100
AcDbEntity
  8
0
 62
     2
100
AcDbLine
 10
45.80510461318067
 20
216.1973421317057
 30
0.0
 11
45.30510461318067
 21
216.1973421317057
 31
0.0
  0
LINE
  5
2F7
330
1F
100
AcDbEntity
  8
0
 62
     2
100
AcDbLine
 10
40.93985028679907
 20
218.2125964580874
 30
0.0
 11
41.29340367739235
 21
217.8590430674941
 31
0.0
  0
LINE
  5
2F8
330
1F
100
AcDbEntity
  8
0
 62
     2
100
AcDbLine
 10
37.74372763583585
 20
137.1139967705141
 30
0.0
 11
40.22707287362738
 21
139.5973420083057
 31
0.0
  0
LINE
  5
2F9
330
1F
100
AcDbEntity
  8
0
 62
     2
100
AcDbLine
 10
34.52604294710977
 20
132.1002613189426
 30
0.0
 11
38.64175301725857
 21
136.2159713890914
 31
0.0
  0
LINE
  5
2FA
330
1F
100
AcDbEntity
  8
0
 62
     2
100
AcDbLine
 10
33.62801733500282
 20
132.9982869310495
 30
0.0
 11
34.52604294710977
 21
132.1002613189426
 31
0.0
  0
LINE
  5
2FB
330
1F
100
AcDbEntity
  8
0
 62
     2
100
AcDbLine
 10
38.64175301725857
 20
136.2159713890914
 30
0.0
 11
37.74372740515167
 21
137.1139970011984
 31
0.0
  0
LINE
  5
2FC
330
1F
100
AcDbEntity
  8
0
 62
     2
100
AcDbLine
 10
95.16609920360906
 20
133.003058813871
 30
0.0
 11
97.64944444140065
 21
130.5197135760794
 31
0.0
  0
LINE
  5
2FD
330
1F
100
AcDbEntity
  8
0
 62
     2
100
AcDbLine
 10
90.15236281614767
 20
136.2207425667073
 30
0.0
 11
94.26807288629652
 21
132.1050324965584
 31
0.0
  0
LINE
  5
2FE
330
1F
100
AcDbEntity
  8
0
 62
     2
100
AcDbLine
 10
91.05038842825456
 20
137.1187681788142
 30
0.0
 11
90.15236281614767
 21
136.2207425667073
 31
0.0
  0
LINE
  5
2FF
330
1F
100
AcDbEntity
  8
0
 62
     2
100
AcDbLine
 10
94.26807288629652
 20
132.1050324965584
 30
0.0
 11
95.16609849840347
 21
133.0030581086654
 31
0.0
  0
LINE
  5
300
330
1F
100
AcDbEntity
  8
0
 62
     2
100
AcDbLine
 10
91.05516124696584
 20
75.58068724609686
 30
0.0
 11
88.57181600917431
 21
73.09734200830535
 31
0.0
  0
LINE
  5
301
330
1F
100
AcDbEntity
  8
0
 62
     2
100
AcDbLine
 10
94.27284547432362
 20
80.59442315903678
 30
0.0
 11
90.15713540417482
 21
76.47871308888793
 31
0.0
  0
LINE
  5
302
330
1F
100
AcDbEntity
  8
0
 62
     2
100
AcDbLine
 10
95.17087108643051
 20
79.69639754692986
 30
0.0
 11
94.27284547432362
 21
80.59442315903678
 31
0.0
  0
LINE
  5
303
330
1F
100
AcDbEntity
  8
0
 62
     2
100
AcDbLine
 10
90.15713540417477
 20
76.47871308888794
 30
0.0
 11
91.05516101628172
 21
75.58068747678102
 31
0.0
  0
LINE
  5
304
330
1F
100
AcDbEntity
  8
0
 62
     2
100
AcDbLine
 10
33.63278967919211
 20
79.69162520274052
 30
0.0
 11
31.14944444140053
 21
82.17497044053206
 31
0.0
  0
LINE
  5
305
330
1F
100
AcDbEntity
  8
0
 62
     2
100
AcDbLine
 10
38.64652536144786
 20
76.47394074469865
 30
0.0
 11
34.53081529129906
 21
80.58965081484747
 31
0.0
  0
LINE
  5
306
330
1F
100
AcDbEntity
  8
0
 62
     2
100
AcDbLine
 10
37.74849974934097
 20
75.57591513259175
 30
0.0
 11
38.64652536144786
 21
76.47394074469865
 31
0.0
  0
LINE
  5
307
330
1F
100
AcDbEntity
  8
0
 62
     2
100
AcDbLine
 10
34.53081529129906
 20
80.58965081484747
 30
0.0
 11
33.63278967919211
 21
79.69162520274057
 31
0.0
  0
ARC
  5
308
330
1F
100
AcDbEntity
  8
0
 62
     2
100
AcDbCircle
 10
38.74947563931875
 20
90.65457864471169
 30
0.0
 40
3.0
100
AcDbArc
 50
180.0
 51
225.0000000000014
  0
ARC
  5
309
330
1F
100
AcDbEntity
  8
0
 62
     2
100
AcDbCircle
 10
48.70671227572541
 20
80.69734200830551
 30
0.0
 40
3.0
100
AcDbArc
 50
225.0000000000074
 51
270.0000000000056
  0
ARC
  5
30A
330
1F
100
AcDbEntity
  8
0
 62
     2
100
AcDbCircle
 10
80.09223900291181
 20
80.69734200830524
 30
0.0
 40
3.0
100
AcDbArc
 50
270.0
 51
314.9999999999998
  0
ARC
  5
30B
330
1F
100
AcDbEntity
  8
0
 62
     2
100
AcDbCircle
 10
90.04947563931876
 20
90.65457864471199
 30
0.0
 40
3.0
100
AcDbArc
 50
314.999999999999
 51
359.9999999999999
  0
ARC
  5
30C
330
1F
100
AcDbEntity
  8
0
 62
     2
100
AcDbCircle
 10
90.04947563931887
 20
122.0401053718984
 30
0.0
 40
3.0
100
AcDbArc
 50
0.0
 51
44.99999999999743
  0
ARC
  5
30D
330
1F
100
AcDbEntity
  8
0
 62
     2
100
AcDbCircle
 10
80.09223900291227
 20
131.9973420083059
 30
0.0
 40
3.0
100
AcDbArc
 50
44.9999999999927
 51
89.99999999999554
  0
ARC
  5
30E
330
1F
100
AcDbEntity
  8
0
 62
     2
100
AcDbCircle
 10
48.70671227572564
 20
131.9973420083056
 30
0.0
 40
3.0
100
AcDbArc
 50
90.00000000000097
 51
134.9999999999983
  0
ARC
  5
30F
330
1F
100
AcDbEntity
  8
0
 62
     2
100
AcDbCircle
 10
38.74947563931875
 20
122.0401053718996
 30
0.0
 40
3.0
100
AcDbArc
 50
134.9999999999977
 51
179.9999999999999
  0
CIRCLE
  5
310
330
1F
100
AcDbEntity
  8
0
 62
     2
100
AcDbCircle
 10
46.39945183748733
 20
88.34734200540674
 30
0.0
 40
2.35
  0
CIRCLE
  5
311
330
1F
100
AcDbEntity
  8
0
 62
     2
100
AcDbCircle
 10
46.39944444140525
 20
88.34734539803753
 30
0.0
 40
1.350000000000023
  0
CIRCLE
  5
312
330
1F
100
AcDbEntity
  8
0
 62
     2
100
AcDbCircle
 10
46.39944834504001
 20
124.3473385129454
 30
0.0
 40
2.35
  0
CIRCLE
  5
313
330
1F
100
AcDbEntity
  8
0
 62
     2
100
AcDbCircle
 10
46.39944793385251
 20
124.3473419055762
 30
0.0
 40
1.350000000000023
  0
CIRCLE
  5
314
330
1F
100
AcDbEntity
  8
0
 62
     2
100
AcDbCircle
 10
82.39944485257877
 20
124.3473420053928
 30
0.0
 40
2.35
  0
CIRCLE
  5
315
330
1F
100
AcDbEntity
  8
0
 62
     2
100
AcDbCircle
 10
82.39944444139121
 20
124.347338413129
 30
0.0
 40
1.35000000000002
  0
CIRCLE
  5
316
330
1F
100
AcDbEntity
  8
0
 62
     2
100
AcDbCircle
 10
82.39944834502597
 20
88.34734549785401
 30
0.0
 40
2.35
  0
CIRCLE
  5
317
330
1F
100
AcDbEntity
  8
0
 62
     2
100
AcDbCircle
 10
82.399440948944
 20
88.3473419055903
 30
0.0
 40
1.35000000000002
  0
CIRCLE
  5
318
330
1F
100
AcDbEntity
  8
0
 62
     2
100
AcDbCircle
 10
95.39944444140065
 20
127.7916818365261
 30
0.0
 40
1.350000000000022
  0
CIRCLE
  5
319
330
1F
100
AcDbEntity
  8
0
 62
     2
100
AcDbCircle
 10
85.84378426962093
 20
137.3473420083057
 30
0.0
 40
1.350000000000023
  0
CIRCLE
  5
31A
330
1F
100
AcDbEntity
  8
0
 62
     2
100
AcDbCircle
 10
42.95510461318071
 20
137.3473420083057
 30
0.0
 40
1.350000000000023
  0
CIRCLE
  5
31B
330
1F
100
AcDbEntity
  8
0
 62
     2
100
AcDbCircle
 10
33.39944444140053
 20
127.7916818365255
 30
0.0
 40
1.350000000000023
  0
CIRCLE
  5
31C
330
1F
100
AcDbEntity
  8
0
 62
     2
100
AcDbCircle
 10
33.39944444140053
 20
84.90300218008537
 30
0.0
 40
1.350000000000023
  0
CIRCLE
  5
31D
330
1F
100
AcDbEntity
  8
0
 62
     2
100
AcDbCircle
 10
42.95510461318065
 20
75.34734200830526
 30
0.0
 40
1.350000000000023
  0
CIRCLE
  5
31E
330
1F
100
AcDbEntity
  8
0
 62
     2
100
AcDbCircle
 10
85.84378426962104
 20
75.34734200830533
 30
0.0
 40
1.350000000000023
  0
CIRCLE
  5
31F
330
1F
100
AcDbEntity
  8
0
 62
     2
100
AcDbCircle
 10
95.39944444140065
 20
84.90300218008505
 30
0.0
 40
1.350000000000023
  0
LINE
  5
320
330
1F
100
AcDbEntity
  8
0
 62
     2
100
AcDbLine
 10
40.22707287362738
 20
139.5973420083057
 30
0.0
 11
88.5718160091742
 21
139.5973420083057
 31
0.0
  0
LINE
  5
321
330
1F
100
AcDbEntity
  8
0
 62
     2
100
AcDbLine
 10
31.14944444140053
 20
130.5197135760788
 30
0.0
 11
33.628017565687
 21
132.9982867003653
 31
0.0
  0
LINE
  5
322
330
1F
100
AcDbEntity
  8
0
 62
     2
100
AcDbLine
 10
31.14944444140053
 20
82.17497044053206
 30
0.0
 11
31.14944444140053
 21
130.5197135760788
 31
0.0
  0
LINE
  5
323
330
1F
100
AcDbEntity
  8
0
 62
     2
100
AcDbLine
 10
40.22707287362738
 20
73.09734200830525
 30
0.0
 11
37.74849974934091
 21
75.5759151325917
 31
0.0
  0
LINE
  5
324
330
1F
100
AcDbEntity
  8
0
 62
     2
100
AcDbLine
 10
88.57181600917431
 20
73.09734200830535
 30
0.0
 11
40.22707287362732
 21
73.09734200830535
 31
0.0
  0
LINE
  5
325
330
1F
100
AcDbEntity
  8
0
 62
     2
100
AcDbLine
 10
97.64944444140065
 20
82.17497044053174
 30
0.0
 11
95.17087131711463
 21
79.69639731624571
 31
0.0
  0
LINE
  5
326
330
1F
100
AcDbEntity
  8
0
 62
     2
100
AcDbLine
 10
97.64944444140065
 20
130.5197135760794
 30
0.0
 11
97.64944444140065
 21
82.17497044053174
 31
0.0
  0
LINE
  5
327
330
1F
100
AcDbEntity
  8
0
 62
     2
100
AcDbLine
 10
88.5718160091742
 20
139.5973420083057
 30
0.0
 11
91.05038913346016
 21
137.1187688840197
 31
0.0
  0
LINE
  5
328
330
1F
100
AcDbEntity
  8
0
 62
     2
100
AcDbLine
 10
78.8494444413995
 20
94.64734200830554
 30
0.0
 11
78.84944444139944
 21
118.0473420083055
 31
0.0
  0
LINE
  5
329
330
1F
100
AcDbEntity
  8
0
 62
     2
100
AcDbLine
 10
78.3494444413995
 20
94.64734200830556
 30
0.0
 11
78.34944444139944
 21
118.0473420083055
 31
0.0
  0
ARC
  5
32A
330
1F
100
AcDbEntity
  8
0
 62
     2
100
AcDbCircle
 10
76.0994444413995
 20
94.64734200830556
 30
0.0
 40
2.750000000000002
100
AcDbArc
 50
324.9258953865438
 51
0.0000000000000509
  0
ARC
  5
32B
330
1F
100
AcDbEntity
  8
0
 62
     2
100
AcDbCircle
 10
76.0994444413995
 20
94.64734200830556
 30
0.0
 40
2.750000000000002
100
AcDbArc
 50
269.9999999999994
 51
305.0741046134557
  0
LINE
  5
32C
330
1F
100
AcDbEntity
  8
0
 62
     2
100
AcDbLine
 10
52.69944444140214
 20
91.89734200830551
 30
0.0
 11
76.0994444413995
 21
91.89734200830556
 31
0.0
  0
LINE
  5
32D
330
1F
100
AcDbEntity
  8
0
 62
     2
100
AcDbLine
 10
52.69944444140208
 20
92.3973420083055
 30
0.0
 11
76.0994444413995
 21
92.39734200830556
 31
0.0
  0
ARC
  5
32E
330
1F
100
AcDbEntity
  8
0
 62
     2
100
AcDbCircle
 10
52.69944444140208
 20
94.6473420083055
 30
0.0
 40
2.75
100
AcDbArc
 50
234.925895386544
 51
269.9999999999999
  0
ARC
  5
32F
330
1F
100
AcDbEntity
  8
0
 62
     2
100
AcDbCircle
 10
52.69944444140208
 20
94.6473420083055
 30
0.0
 40
2.75
100
AcDbArc
 50
180.0
 51
215.0741046134552
  0
LINE
  5
330
330
1F
100
AcDbEntity
  8
0
 62
     2
100
AcDbLine
 10
49.94944444140208
 20
118.0473420083055
 30
0.0
 11
49.94944444140208
 21
94.64734200830549
 31
0.0
  0
LINE
  5
331
330
1F
100
AcDbEntity
  8
0
 62
     2
100
AcDbLine
 10
50.44944444140208
 20
118.0473420083055
 30
0.0
 11
50.44944444140208
 21
94.64734200830549
 31
0.0
  0
ARC
  5
332
330
1F
100
AcDbEntity
  8
0
 62
     2
100
AcDbCircle
 10
52.69944444140208
 20
118.0473420083055
 30
0.0
 40
2.750000000000003
100
AcDbArc
 50
144.9258953865434
 51
180.0000000000002
  0
ARC
  5
333
330
1F
100
AcDbEntity
  8
0
 62
     2
100
AcDbCircle
 10
52.69944444140208
 20
118.0473420083055
 30
0.0
 40
2.750000000000003
100
AcDbArc
 50
90.0000000000003
 51
125.0741046134565
  0
LINE
  5
334
330
1F
100
AcDbEntity
  8
0
 62
     2
100
AcDbLine
 10
76.09944444139944
 20
120.7973420083055
 30
0.0
 11
52.69944444140208
 21
120.7973420083055
 31
0.0
  0
LINE
  5
335
330
1F
100
AcDbEntity
  8
0
 62
     2
100
AcDbLine
 10
76.09944444139944
 20
120.2973420083055
 30
0.0
 11
52.69944444140208
 21
120.2973420083055
 31
0.0
  0
ARC
  5
336
330
1F
100
AcDbEntity
  8
0
 62
     2
100
AcDbCircle
 10
76.09944444139944
 20
118.0473420083055
 30
0.0
 40
2.750000000000005
100
AcDbArc
 50
54.9258953865434
 51
89.99999999999991
  0
ARC
  5
337
330
1F
100
AcDbEntity
  8
0
 62
     2
100
AcDbCircle
 10
76.09944444139944
 20
118.0473420083055
 30
0.0
 40
2.750000000000005
100
AcDbArc
 50
0.0
 51
35.07410461345624
  0
LINE
  5
338
330
1F
100
AcDbEntity
  8
0
 62
     2
100
AcDbLine
 10
36.6281552957592
 20
124.1614257154593
 30
0.0
 11
46.58539193216603
 21
134.1186623518653
 31
0.0
  0
LINE
  5
339
330
1F
100
AcDbEntity
  8
0
 62
     2
100
AcDbLine
 10
35.74947563931875
 20
90.65457864471165
 30
0.0
 11
35.74947563931875
 21
122.0401053718996
 31
0.0
  0
LINE
  5
33A
330
1F
100
AcDbEntity
  8
0
 62
     2
100
AcDbLine
 10
46.58539193216603
 20
78.5760216647456
 30
0.0
 11
36.62815529575914
 21
88.53325830115196
 31
0.0
  0
LINE
  5
33B
330
1F
100
AcDbEntity
  8
0
 62
     2
100
AcDbLine
 10
80.09223900291181
 20
77.69734200830524
 30
0.0
 11
48.70671227572564
 21
77.69734200830524
 31
0.0
  0
LINE
  5
33C
330
1F
100
AcDbEntity
  8
0
 62
     2
100
AcDbLine
 10
92.1707959828783
 20
88.5332583011523
 30
0.0
 11
82.21355934647141
 21
78.57602166474558
 31
0.0
  0
LINE
  5
33D
330
1F
100
AcDbEntity
  8
0
 62
     2
100
AcDbLine
 10
93.04947563931887
 20
122.0401053718984
 30
0.0
 11
93.04947563931876
 21
90.65457864471195
 31
0.0
  0
LINE
  5
33E
330
1F
100
AcDbEntity
  8
0
 62
     2
100
AcDbLine
 10
82.21355934647215
 20
134.1186623518653
 30
0.0
 11
92.17079598287859
 21
124.161425715458
 31
0.0
  0
LINE
  5
33F
330
1F
100
AcDbEntity
  8
0
 62
     2
100
AcDbLine
 10
48.70671227572558
 20
134.9973420083056
 30
0.0
 11
80.09223900291232
 21
134.9973420083059
 31
0.0
  0
ARC
  5
340
330
1F
100
AcDbEntity
  8
0
 62
     2
100
AcDbCircle
 10
76.09944444139944
 20
118.0473420083055
 30
0.0
 40
2.750000000000005
100
AcDbArc
 50
35.0741046134566
 51
54.92589538654341
  0
ARC
  5
341
330
1F
100
AcDbEntity
  8
0
 62
     2
100
AcDbCircle
 10
76.09944444139944
 20
118.0473420083055
 30
0.0
 40
2.25
100
AcDbArc
 50
0.0
 51
89.99999999999994
  0
ARC
  5
342
330
1F
100
AcDbEntity
  8
0
 62
     2
100
AcDbCircle
 10
52.69944444140208
 20
118.0473420083055
 30
0.0
 40
2.750000000000003
100
AcDbArc
 50
125.0741046134565
 51
144.9258953865436
  0
ARC
  5
343
330
1F
100
AcDbEntity
  8
0
 62
     2
100
AcDbCircle
 10
52.69944444140208
 20
118.0473420083055
 30
0.0
 40
2.25
100
AcDbArc
 50
90.0
 51
180.0000000000001
  0
ARC
  5
344
330
1F
100
AcDbEntity
  8
0
 62
     2
100
AcDbCircle
 10
52.69944444140208
 20
94.6473420083055
 30
0.0
 40
2.75
100
AcDbArc
 50
215.0741046134563
 51
234.9258953865442
  0
ARC
  5
345
330
1F
100
AcDbEntity
  8
0
 62
     2
100
AcDbCircle
 10
52.69944444140208
 20
94.6473420083055
 30
0.0
 40
2.25
100
AcDbArc
 50
180.0
 51
269.9999999999999
  0
ARC
  5
346
330
1F
100
AcDbEntity
  8
0
 62
     2
100
AcDbCircle
 10
76.0994444413995
 20
94.64734200830556
 30
0.0
 40
2.750000000000002
100
AcDbArc
 50
305.074104613456
 51
324.925895386544
  0
ARC
  5
347
330
1F
100
AcDbEntity
  8
0
 62
     2
100
AcDbCircle
 10
76.0994444413995
 20
94.64734200830556
 30
0.0
 40
2.25
100
AcDbArc
 50
270.0
 51
359.9999999999999
  0
LINE
  5
348
330
1F
100
AcDbEntity
  8
0
 62
     2
100
AcDbLine
 10
76.09944444139944
 20
120.2973420083055
 30
0.0
 11
76.09944444139944
 21
120.7973420083055
 31
0.0
  0
LINE
  5
349
330
1F
100
AcDbEntity
  8
0
 62
     2
100
AcDbLine
 10
52.69944444140208
 20
120.2973420083055
 30
0.0
 11
52.69944444140208
 21
120.7973420083055
 31
0.0
  0
LINE
  5
34A
330
1F
100
AcDbEntity
  8
0
 62
     2
100
AcDbLine
 10
50.44944444140208
 20
118.0473420083055
 30
0.0
 11
49.94944444140208
 21
118.0473420083055
 31
0.0
  0
LINE
  5
34B
330
1F
100
AcDbEntity
  8
0
 62
     2
100
AcDbLine
 10
50.44944444140208
 20
94.64734200830549
 30
0.0
 11
49.94944444140208
 21
94.64734200830549
 31
0.0
  0
LINE
  5
34C
330
1F
100
AcDbEntity
  8
0
 62
     2
100
AcDbLine
 10
52.69944444140208
 20
92.39734200830549
 30
0.0
 11
52.69944444140208
 21
91.89734200830549
 31
0.0
  0
LINE
  5
34D
330
1F
100
AcDbEntity
  8
0
 62
     2
100
AcDbLine
 10
76.0994444413995
 20
92.39734200830556
 30
0.0
 11
76.0994444413995
 21
91.89734200830554
 31
0.0
  0
LINE
  5
34E
330
1F
100
AcDbEntity
  8
0
 62
     2
100
AcDbLine
 10
78.34944444139944
 20
118.0473420083055
 30
0.0
 11
78.84944444139944
 21
118.0473420083055
 31
0.0
  0
LINE
  5
34F
330
1F
100
AcDbEntity
  8
0
 62
     2
100
AcDbLine
 10
78.3494444413995
 20
94.64734200830556
 30
0.0
 11
78.8494444413995
 21
94.64734200830556
 31
0.0
  0
LINE
  5
350
330
1F
100
AcDbEntity
  8
0
 62
     2
100
AcDbLine
 10
146.9467687692713
 20
171.7973420083057
 30
0.0
 11
146.9467687655654
 21
175.9473420083057
 31
0.0
  0
LINE
  5
351
330
1F
100
AcDbEntity
  8
0
 62
     2
100
AcDbLine
 10
178.8521118476242
 20
171.7973420083057
 30
0.0
 11
178.8521118511893
 21
175.9473420083057
 31
0.0
  0
LINE
  5
352
330
1F
100
AcDbEntity
  8
0
 62
     2
100
AcDbLine
 10
146.9467687655654
 20
171.7973420083057
 30
0.0
 11
147.1467687655654
 21
171.5973420083057
 31
0.0
  0
LINE
  5
353
330
1F
100
AcDbEntity
  8
0
 62
     2
100
AcDbLine
 10
143.7494449241026
 20
171.7973420083057
 30
0.0
 11
143.9494449241026
 21
171.5973420083057
 31
0.0
  0
LINE
  5
354
330
1F
100
AcDbEntity
  8
0
 62
     2
100
AcDbLine
 10
182.0494375283262
 20
171.7973420083057
 30
0.0
 11
181.8494375283262
 21
171.5973420083057
 31
0.0
  0
LINE
  5
355
330
1F
100
AcDbEntity
  8
0
 62
     2
100
AcDbLine
 10
178.8521118511893
 20
171.7973420083057
 30
0.0
 11
178.6521118511894
 21
171.5973420083057
 31
0.0
  0
LINE
  5
356
330
1F
100
AcDbEntity
  8
0
 62
     2
100
AcDbLine
 10
194.0237464907154
 20
175.9473421317055
 30
0.0
 11
194.7315318268473
 21
176.4473421317055
 31
0.0
  0
LINE
  5
357
330
1F
100
AcDbEntity
  8
0
 62
     2
100
AcDbLine
 10
181.4971388092501
 20
175.9473421317056
 30
0.0
 11
181.9980984308567
 21
176.4473421317055
 31
0.0
  0
LINE
  5
358
330
1F
100
AcDbEntity
  8
0
 62
     2
100
AcDbLine
 10
137.3084817041284
 20
175.9473421317055
 30
0.0
 11
137.3091602590737
 21
176.4473421317055
 31
0.0
  0
LINE
  5
359
330
1F
100
AcDbEntity
  8
0
 62
     2
100
AcDbLine
 10
137.3084817041284
 20
175.9473421317055
 30
0.0
 11
139.4398496368905
 21
175.9473421317055
 31
0.0
  0
LINE
  5
35A
330
1F
100
AcDbEntity
  8
0
 62
     2
100
AcDbLine
 10
130.1494444414006
 20
175.9473421317055
 30
0.0
 11
129.6494444414006
 21
176.4473421317055
 31
0.0
  0
LINE
  5
35B
330
1F
100
AcDbEntity
  8
0
 62
     2
100
AcDbLine
 10
130.1494444414006
 20
175.9473421317055
 30
0.0
 11
131.7792362885989
 21
175.9473421317055
 31
0.0
  0
LINE
  5
35C
330
1F
100
AcDbEntity
  8
0
 62
     2
100
AcDbLine
 10
131.0721295074123
 20
176.4473421317055
 30
0.0
 11
131.7792362885989
 21
175.9473421317055
 31
0.0
  0
LINE
  5
35D
330
1F
100
AcDbEntity
  8
0
 62
     2
100
AcDbLine
 10
143.8051046131808
 20
176.4473421317055
 30
0.0
 11
144.3051046131808
 21
175.9473421317055
 31
0.0
  0
LINE
  5
35E
330
1F
100
AcDbEntity
  8
0
 62
     2
100
AcDbLine
 10
143.8057069330059
 20
175.9473421317055
 30
0.0
 11
144.3051046131808
 21
175.9473421317055
 31
0.0
  0
LINE
  5
35F
330
1F
100
AcDbEntity
  8
0
 62
     2
100
AcDbLine
 10
139.4398502867991
 20
175.9473421317055
 30
0.0
 11
143.8057069330059
 21
175.9473421317055
 31
0.0
  0
LINE
  5
360
330
1F
100
AcDbEntity
  8
0
 62
     2
100
AcDbLine
 10
188.494501075186
 20
176.4473421317055
 30
0.0
 11
188.494501075186
 21
175.9473421317055
 31
0.0
  0
LINE
  5
361
330
1F
100
AcDbEntity
  8
0
 62
     2
100
AcDbLine
 10
186.3590385960026
 20
175.9473421317055
 30
0.0
 11
188.494501075186
 21
175.9473421317055
 31
0.0
  0
LINE
  5
362
330
1F
100
AcDbEntity
  8
0
 62
     2
100
AcDbLine
 10
184.8663566499691
 20
175.9473421317055
 30
0.0
 11
186.3590385960026
 21
175.9473421317055
 31
0.0
  0
LINE
  5
363
330
1F
100
AcDbEntity
  8
0
 62
     2
100
AcDbLine
 10
181.4971388092502
 20
175.9473421317055
 30
0.0
 11
184.8663566499691
 21
175.9473421317055
 31
0.0
  0
LINE
  5
364
330
1F
100
AcDbEntity
  8
0
 62
     2
100
AcDbLine
 10
196.1494444414011
 20
176.4473421317055
 30
0.0
 11
195.6494444414011
 21
175.9473421317056
 31
0.0
  0
LINE
  5
365
330
1F
100
AcDbEntity
  8
0
 62
     2
100
AcDbLine
 10
194.0237464907154
 20
175.9473421317056
 30
0.0
 11
195.6494444414011
 21
175.9473421317056
 31
0.0
  0
LINE
  5
366
330
1F
100
AcDbEntity
  8
0
 62
     2
100
AcDbLine
 10
136.6020531399343
 20
175.9473421317055
 30
0.0
 11
136.248499749341
 21
176.4473421317055
 31
0.0
  0
LINE
  5
367
330
1F
100
AcDbEntity
  8
0
 62
     2
100
AcDbLine
 10
137.3091602590737
 20
176.4473421317055
 30
0.0
 11
136.248499749341
 21
176.4473421317055
 31
0.0
  0
LINE
  5
368
330
1F
100
AcDbEntity
  8
0
 62
     2
100
AcDbLine
 10
137.3084817041284
 20
175.9473421317055
 30
0.0
 11
136.6020531399343
 21
175.9473421317055
 31
0.0
  0
LINE
  5
369
330
1F
100
AcDbEntity
  8
0
 62
     2
100
AcDbLine
 10
132.1327896791922
 20
176.4473421317055
 30
0.0
 11
132.4863430697854
 21
175.9473421317055
 31
0.0
  0
LINE
  5
36A
330
1F
100
AcDbEntity
  8
0
 62
     2
100
AcDbLine
 10
132.4863430697854
 20
175.9473421317055
 30
0.0
 11
131.7792362885989
 21
175.9473421317055
 31
0.0
  0
LINE
  5
36B
330
1F
100
AcDbEntity
  8
0
 62
     2
100
AcDbLine
 10
132.1327896791922
 20
176.4473421317055
 30
0.0
 11
131.0721295074123
 21
176.4473421317055
 31
0.0
  0
LINE
  5
36C
330
1F
100
AcDbEntity
  8
0
 62
     2
100
AcDbLine
 10
189.5551612469658
 20
176.4473421317055
 30
0.0
 11
189.2016078563726
 21
175.9473421317055
 31
0.0
  0
LINE
  5
36D
330
1F
100
AcDbEntity
  8
0
 62
     2
100
AcDbLine
 10
189.2016078563726
 20
175.9473421317055
 30
0.0
 11
188.494501075186
 21
175.9473421317055
 31
0.0
  0
LINE
  5
36E
330
1F
100
AcDbEntity
  8
0
 62
     2
100
AcDbLine
 10
189.5551612469658
 20
176.4473421317055
 30
0.0
 11
188.494501075186
 21
176.4473421317055
 31
0.0
  0
LINE
  5
36F
330
1F
100
AcDbEntity
  8
0
 62
     2
100
AcDbLine
 10
193.3173179265214
 20
175.9473421317055
 30
0.0
 11
193.6708713171146
 21
176.4473421317055
 31
0.0
  0
LINE
  5
370
330
1F
100
AcDbEntity
  8
0
 62
     2
100
AcDbLine
 10
194.7315318268473
 20
176.4473421317055
 30
0.0
 11
193.6708713171146
 21
176.4473421317055
 31
0.0
  0
LINE
  5
371
330
1F
100
AcDbEntity
  8
0
 62
     2
100
AcDbLine
 10
194.0237464907154
 20
175.9473421317055
 30
0.0
 11
193.3173179265214
 21
175.9473421317055
 31
0.0
  0
LINE
  5
372
330
1F
100
AcDbEntity
  8
0
 62
     2
100
AcDbLine
 10
181.4971388092502
 20
175.9473421317055
 30
0.0
 11
144.3051046131808
 21
175.9473421317055
 31
0.0
  0
LINE
  5
373
330
1F
100
AcDbEntity
  8
0
 62
     2
100
AcDbLine
 10
181.9980984308567
 20
176.4473421317055
 30
0.0
 11
143.8051046131808
 21
176.4473421317055
 31
0.0
  0
LINE
  5
374
330
1F
100
AcDbEntity
  8
0
 62
     2
100
AcDbLine
 10
132.1327896791922
 20
179.9473421317055
 30
0.0
 11
129.6494444414006
 21
179.9473421317055
 31
0.0
  0
LINE
  5
375
330
1F
100
AcDbEntity
  8
0
 62
     2
100
AcDbLine
 10
136.248499749341
 20
179.9473421317055
 30
0.0
 11
133.0308150606149
 21
179.9473421317055
 31
0.0
  0
LINE
  5
376
330
1F
100
AcDbEntity
  8
0
 62
     2
100
AcDbLine
 10
133.0308150606149
 20
175.9473421317055
 30
0.0
 11
136.6020531399343
 21
175.9473421317055
 31
0.0
  0
LINE
  5
377
330
1F
100
AcDbEntity
  8
0
 62
     2
100
AcDbLine
 10
136.248499749341
 20
176.4473421317055
 30
0.0
 11
136.248499749341
 21
179.9473422551011
 31
0.0
  0
LINE
  5
378
330
1F
100
AcDbEntity
  8
0
 62
     2
100
AcDbLine
 10
132.1327896791922
 20
179.9473422551011
 30
0.0
 11
132.1327896791922
 21
176.4473421317055
 31
0.0
  0
LINE
  5
379
330
1F
100
AcDbEntity
  8
0
 62
     2
100
AcDbLine
 10
133.0308150606149
 20
179.9473421317055
 30
0.0
 11
132.132789448508
 21
179.9473421317055
 31
0.0
  0
LINE
  5
37A
330
1F
100
AcDbEntity
  8
0
 62
     2
100
AcDbLine
 10
132.4863430697854
 20
175.9473421317055
 30
0.0
 11
133.0308150606149
 21
175.9473421317055
 31
0.0
  0
LINE
  5
37B
330
1F
100
AcDbEntity
  8
0
 62
     2
100
AcDbLine
 10
189.5551612469658
 20
179.9473421317055
 30
0.0
 11
187.0718160091743
 21
179.9473421317055
 31
0.0
  0
LINE
  5
37C
330
1F
100
AcDbEntity
  8
0
 62
     2
100
AcDbLine
 10
192.7728457050077
 20
179.9473421317056
 30
0.0
 11
189.555161159712
 21
179.9473421317056
 31
0.0
  0
LINE
  5
37D
330
1F
100
AcDbEntity
  8
0
 62
     2
100
AcDbLine
 10
189.2016078563726
 20
175.9473421317055
 30
0.0
 11
192.7728457050077
 21
175.9473421317055
 31
0.0
  0
LINE
  5
37E
330
1F
100
AcDbEntity
  8
0
 62
     2
100
AcDbLine
 10
193.6708713171146
 20
176.4473421317055
 30
0.0
 11
193.6708713171146
 21
179.947342255101
 31
0.0
  0
LINE
  5
37F
330
1F
100
AcDbEntity
  8
0
 62
     2
100
AcDbLine
 10
193.6708713171146
 20
179.9473421317056
 30
0.0
 11
192.7728457050077
 21
179.9473421317056
 31
0.0
  0
LINE
  5
380
330
1F
100
AcDbEntity
  8
0
 62
     2
100
AcDbLine
 10
192.7728457050077
 20
175.9473421317055
 30
0.0
 11
193.3173179265214
 21
175.9473421317055
 31
0.0
  0
LINE
  5
381
330
1F
100
AcDbEntity
  8
0
 62
     2
100
AcDbLine
 10
189.5551612469658
 20
179.947342255101
 30
0.0
 11
189.5551612469658
 21
176.4473421317055
 31
0.0
  0
LINE
  5
382
330
1F
100
AcDbEntity
  8
0
 62
     2
100
AcDbLine
 10
143.8051046131808
 20
178.4473421317055
 30
0.0
 11
138.7270728736275
 21
178.4473421317055
 31
0.0
  0
LINE
  5
383
330
1F
100
AcDbEntity
  8
0
 62
     2
100
AcDbLine
 10
143.8051046131808
 20
176.4473421317055
 30
0.0
 11
143.8051046131808
 21
178.4473421317055
 31
0.0
  0
LINE
  5
384
330
1F
100
AcDbEntity
  8
0
 62
     2
100
AcDbLine
 10
137.3091602590737
 20
178.4473421317055
 30
0.0
 11
137.3091602590737
 21
176.4473421317055
 31
0.0
  0
LINE
  5
385
330
1F
100
AcDbEntity
  8
0
 62
     2
100
AcDbLine
 10
138.7270728736275
 20
178.4473421317055
 30
0.0
 11
137.3091602590737
 21
178.4473421317055
 31
0.0
  0
LINE
  5
386
330
1F
100
AcDbEntity
  8
0
 62
     2
100
AcDbLine
 10
129.6494444414006
 20
178.4473421317055
 30
0.0
 11
129.6494444414006
 21
176.4473421317055
 31
0.0
  0
LINE
  5
387
330
1F
100
AcDbEntity
  8
0
 62
     2
100
AcDbLine
 10
131.0721295074123
 20
176.4473421317055
 30
0.0
 11
131.0721295074123
 21
178.4473421317055
 31
0.0
  0
LINE
  5
388
330
1F
100
AcDbEntity
  8
0
 62
     2
100
AcDbLine
 10
131.0721295074123
 20
178.4473421317055
 30
0.0
 11
129.6494444414006
 21
178.4473421317055
 31
0.0
  0
LINE
  5
389
330
1F
100
AcDbEntity
  8
0
 62
     2
100
AcDbLine
 10
196.1494444414011
 20
176.4473421317055
 30
0.0
 11
196.1494444414011
 21
178.4473421317055
 31
0.0
  0
LINE
  5
38A
330
1F
100
AcDbEntity
  8
0
 62
     2
100
AcDbLine
 10
194.7315318268473
 20
178.4473421317055
 30
0.0
 11
194.7315318268473
 21
176.4473421317055
 31
0.0
  0
LINE
  5
38B
330
1F
100
AcDbEntity
  8
0
 62
     2
100
AcDbLine
 10
196.1494444414011
 20
178.4473421317055
 30
0.0
 11
194.7315318268473
 21
178.4473421317055
 31
0.0
  0
LINE
  5
38C
330
1F
100
AcDbEntity
  8
0
 62
     2
100
AcDbLine
 10
181.9980984308567
 20
178.4473421317055
 30
0.0
 11
181.9980984308567
 21
176.4473421317055
 31
0.0
  0
LINE
  5
38D
330
1F
100
AcDbEntity
  8
0
 62
     2
100
AcDbLine
 10
187.0718160091743
 20
178.4473421317055
 30
0.0
 11
181.9980984308567
 21
178.4473421317055
 31
0.0
  0
LINE
  5
38E
330
1F
100
AcDbEntity
  8
0
 62
     2
100
AcDbLine
 10
188.494501075186
 20
176.4473421317055
 30
0.0
 11
188.494501075186
 21
178.4473421317055
 31
0.0
  0
LINE
  5
38F
330
1F
100
AcDbEntity
  8
0
 62
     2
100
AcDbLine
 10
188.494501075186
 20
178.4473421317055
 30
0.0
 11
187.0718160091743
 21
178.4473421317055
 31
0.0
  0
LINE
  5
390
330
1F
100
AcDbEntity
  8
0
 62
     2
100
AcDbLine
 10
178.5922078049947
 20
181.9473421317056
 30
0.0
 11
180.7135281485544
 21
181.9473421317056
 31
0.0
  0
LINE
  5
391
330
1F
100
AcDbEntity
  8
0
 62
     2
100
AcDbLine
 10
190.6707647849607
 20
181.9473421317055
 30
0.0
 11
191.5494444414009
 21
181.9473421317055
 31
0.0
  0
LINE
  5
392
330
1F
100
AcDbEntity
  8
0
 62
     2
100
AcDbLine
 10
134.2494444414007
 20
181.9473421317056
 30
0.0
 11
135.128124097841
 21
181.9473421317056
 31
0.0
  0
LINE
  5
393
330
1F
100
AcDbEntity
  8
0
 62
     2
100
AcDbLine
 10
145.085360734247
 20
181.9473421317056
 30
0.0
 11
147.2066810778068
 21
181.9473421317056
 31
0.0
  0
LINE
  5
394
330
1F
100
AcDbEntity
  8
0
 62
     2
100
AcDbLine
 10
138.7270728736275
 20
179.9473421317055
 30
0.0
 11
136.248499749341
 21
179.9473421317055
 31
0.0
  0
LINE
  5
395
330
1F
100
AcDbEntity
  8
0
 62
     2
100
AcDbLine
 10
187.0718160091743
 20
179.9473421317055
 30
0.0
 11
138.7270728736275
 21
179.9473421317055
 31
0.0
  0
LINE
  5
396
330
1F
100
AcDbEntity
  8
0
 62
     2
100
AcDbLine
 10
196.1494444414011
 20
179.9473421317055
 30
0.0
 11
193.6708713171147
 21
179.9473421317055
 31
0.0
  0
LINE
  5
397
330
1F
100
AcDbEntity
  8
0
 62
     2
100
AcDbLine
 10
129.6494444414006
 20
179.9473421317055
 30
0.0
 11
129.6494444414006
 21
178.4473421317055
 31
0.0
  0
LINE
  5
398
330
1F
100
AcDbEntity
  8
0
 62
     2
100
AcDbLine
 10
138.7270728736275
 20
179.9473421317055
 30
0.0
 11
138.7270728736275
 21
178.4473421317055
 31
0.0
  0
LINE
  5
399
330
1F
100
AcDbEntity
  8
0
 62
     2
100
AcDbLine
 10
187.0718160091743
 20
179.9473421317055
 30
0.0
 11
187.0718160091743
 21
178.4473421317055
 31
0.0
  0
LINE
  5
39A
330
1F
100
AcDbEntity
  8
0
 62
     2
100
AcDbLine
 10
196.1494444414011
 20
179.9473421317055
 30
0.0
 11
196.1494444414011
 21
178.4473421317055
 31
0.0
  0
LINE
  5
39B
330
1F
100
AcDbEntity
  8
0
 62
     2
100
AcDbLine
 10
163.9494441046068
 20
171.5973420083057
 30
0.0
 11
161.8494443574834
 21
171.5973420083057
 31
0.0
  0
LINE
  5
39C
330
1F
100
AcDbEntity
  8
0
 62
     2
100
AcDbLine
 10
164.1494441045995
 20
171.7973420083057
 30
0.0
 11
161.6494443574834
 21
171.7973420083057
 31
0.0
  0
LINE
  5
39D
330
1F
100
AcDbEntity
  8
0
 62
     2
100
AcDbLine
 10
178.2521118511893
 20
171.5973420083057
 30
0.0
 11
168.949444104611
 21
171.5973420083057
 31
0.0
  0
LINE
  5
39E
330
1F
100
AcDbEntity
  8
0
 62
     2
100
AcDbLine
 10
178.2521118511893
 20
171.7973420083057
 30
0.0
 11
168.7494441046176
 21
171.7973420083057
 31
0.0
  0
LINE
  5
39F
330
1F
100
AcDbEntity
  8
0
 62
     2
100
AcDbLine
 10
178.6521118488126
 20
171.5973420083057
 30
0.0
 11
178.2521118511893
 21
171.5973420083057
 31
0.0
  0
LINE
  5
3A0
330
1F
100
AcDbEntity
  8
0
 62
     2
100
AcDbLine
 10
178.8521118476242
 20
171.7973420083057
 30
0.0
 11
178.2521118511893
 21
171.7973420083057
 31
0.0
  0
LINE
  5
3A1
330
1F
100
AcDbEntity
  8
0
 62
     2
100
AcDbLine
 10
178.6521118511894
 20
171.5973420083057
 30
0.0
 11
179.8349383450751
 21
171.5973420083057
 31
0.0
  0
LINE
  5
3A2
330
1F
100
AcDbEntity
  8
0
 62
     2
100
AcDbLine
 10
178.8521118476242
 20
171.7973420083057
 30
0.0
 11
179.9071075774544
 21
171.7973420083057
 31
0.0
  0
LINE
  5
3A3
330
1F
100
AcDbEntity
  8
0
 62
     2
100
AcDbLine
 10
179.8349383450751
 20
171.5973420083057
 30
0.0
 11
180.4005614353084
 21
171.5973420083057
 31
0.0
  0
LINE
  5
3A4
330
1F
100
AcDbEntity
  8
0
 62
     2
100
AcDbLine
 10
179.9071077812274
 20
171.7973420083057
 30
0.0
 11
180.3111242742631
 21
171.7973420083057
 31
0.0
  0
LINE
  5
3A5
330
1F
100
AcDbEntity
  8
0
 62
     2
100
AcDbLine
 10
181.270563206202
 20
171.5973420083057
 30
0.0
 11
180.4005614353013
 21
171.5973420083057
 31
0.0
  0
LINE
  5
3A6
330
1F
100
AcDbEntity
  8
0
 62
     2
100
AcDbLine
 10
181.1811260451399
 20
171.7973420083057
 30
0.0
 11
180.3111242742391
 21
171.7973420083057
 31
0.0
  0
LINE
  5
3A7
330
1F
100
AcDbEntity
  8
0
 62
     2
100
AcDbLine
 10
181.8494375283262
 20
171.5973420083057
 30
0.0
 11
181.270563206202
 21
171.5973420083057
 31
0.0
  0
LINE
  5
3A8
330
1F
100
AcDbEntity
  8
0
 62
     2
100
AcDbLine
 10
182.0494375283262
 20
171.7973420083057
 30
0.0
 11
181.1811260451399
 21
171.7973420083057
 31
0.0
  0
LINE
  5
3A9
330
1F
100
AcDbEntity
  8
0
 62
     2
100
AcDbLine
 10
144.5283182582756
 20
171.5973420083057
 30
0.0
 11
143.9494449241026
 21
171.5973420083057
 31
0.0
  0
LINE
  5
3AA
330
1F
100
AcDbEntity
  8
0
 62
     2
100
AcDbLine
 10
144.6177549253621
 20
171.7973420083057
 30
0.0
 11
143.7494449241026
 21
171.7973420083057
 31
0.0
  0
LINE
  5
3AB
330
1F
100
AcDbEntity
  8
0
 62
     2
100
AcDbLine
 10
145.3983241144941
 20
171.5973420083057
 30
0.0
 11
144.5283182582756
 21
171.5973420083057
 31
0.0
  0
LINE
  5
3AC
330
1F
100
AcDbEntity
  8
0
 62
     2
100
AcDbLine
 10
145.4877607815806
 20
171.7973420083057
 30
0.0
 11
144.6177549253621
 21
171.7973420083057
 31
0.0
  0
LINE
  5
3AD
330
1F
100
AcDbEntity
  8
0
 62
     2
100
AcDbLine
 10
145.3983241144941
 20
171.5973420083057
 30
0.0
 11
145.9639461344597
 21
171.5973420083057
 31
0.0
  0
LINE
  5
3AE
330
1F
100
AcDbEntity
  8
0
 62
     2
100
AcDbLine
 10
145.4877607815806
 20
171.7973420083057
 30
0.0
 11
145.8917764350878
 21
171.7973420083057
 31
0.0
  0
LINE
  5
3AF
330
1F
100
AcDbEntity
  8
0
 62
     2
100
AcDbLine
 10
145.96394616563
 20
171.5973420083057
 30
0.0
 11
147.1467687655654
 21
171.5973420083057
 31
0.0
  0
LINE
  5
3B0
330
1F
100
AcDbEntity
  8
0
 62
     2
100
AcDbLine
 10
145.891776562078
 20
171.7973420083057
 30
0.0
 11
146.9467687692713
 21
171.7973420083057
 31
0.0
  0
LINE
  5
3B1
330
1F
100
AcDbEntity
  8
0
 62
     2
100
AcDbLine
 10
147.5467687655657
 20
171.5973420083057
 30
0.0
 11
147.1467687680361
 21
171.5973420083057
 31
0.0
  0
LINE
  5
3B2
330
1F
100
AcDbEntity
  8
0
 62
     2
100
AcDbLine
 10
147.5467687655658
 20
171.7973420083057
 30
0.0
 11
146.9467687692713
 21
171.7973420083057
 31
0.0
  0
LINE
  5
3B3
330
1F
100
AcDbEntity
  8
0
 62
     2
100
AcDbLine
 10
156.8494443574955
 20
171.5973420083057
 30
0.0
 11
147.5467687655653
 21
171.5973420083057
 31
0.0
  0
LINE
  5
3B4
330
1F
100
AcDbEntity
  8
0
 62
     2
100
AcDbLine
 10
157.0494443574955
 20
171.7973420083057
 30
0.0
 11
147.5467687655654
 21
171.7973420083057
 31
0.0
  0
LINE
  5
3B5
330
1F
100
AcDbEntity
  8
0
 62
     2
100
AcDbLine
 10
157.1173935499266
 20
171.5973420083057
 30
0.0
 11
158.8494443574955
 21
171.5973420083057
 31
0.0
  0
LINE
  5
3B6
330
1F
100
AcDbEntity
  8
0
 62
     2
100
AcDbLine
 10
156.8494443574955
 20
171.5973420083057
 30
0.0
 11
157.1173935499266
 21
171.5973420083057
 31
0.0
  0
LINE
  5
3B7
330
1F
100
AcDbEntity
  8
0
 62
     2
100
AcDbLine
 10
159.8494443574834
 20
171.5973420083057
 30
0.0
 11
158.8494443574955
 21
171.5973420083057
 31
0.0
  0
LINE
  5
3B8
330
1F
100
AcDbEntity
  8
0
 62
     2
100
AcDbLine
 10
159.8494443574834
 20
172.5973420083057
 30
0.0
 11
158.8494443574955
 21
172.5973420083057
 31
0.0
  0
LINE
  5
3B9
330
1F
100
AcDbEntity
  8
0
 62
     2
100
AcDbLine
 10
160.8494443574834
 20
171.5973420083057
 30
0.0
 11
161.8494443574834
 21
171.5973420083057
 31
0.0
  0
LINE
  5
3BA
330
1F
100
AcDbEntity
  8
0
 62
     2
100
AcDbLine
 10
159.8494443574834
 20
171.5973420083057
 30
0.0
 11
160.8494443574834
 21
171.5973420083057
 31
0.0
  0
LINE
  5
3BB
330
1F
100
AcDbEntity
  8
0
 62
     2
100
AcDbLine
 10
164.217393297045
 20
171.5973420083057
 30
0.0
 11
165.9494441046156
 21
171.5973420083057
 31
0.0
  0
LINE
  5
3BC
330
1F
100
AcDbEntity
  8
0
 62
     2
100
AcDbLine
 10
163.9494441046121
 20
171.5973420083057
 30
0.0
 11
164.217393297045
 21
171.5973420083057
 31
0.0
  0
LINE
  5
3BD
330
1F
100
AcDbEntity
  8
0
 62
     2
100
AcDbLine
 10
166.9494441046038
 20
171.5973420083057
 30
0.0
 11
165.9494441046155
 21
171.5973420083057
 31
0.0
  0
LINE
  5
3BE
330
1F
100
AcDbEntity
  8
0
 62
     2
100
AcDbLine
 10
166.949444104602
 20
172.5973420083057
 30
0.0
 11
165.9494441046138
 21
172.5973420083057
 31
0.0
  0
LINE
  5
3BF
330
1F
100
AcDbEntity
  8
0
 62
     2
100
AcDbLine
 10
167.9494441045977
 20
171.5973420083057
 30
0.0
 11
168.9494441046003
 21
171.5973420083057
 31
0.0
  0
LINE
  5
3C0
330
1F
100
AcDbEntity
  8
0
 62
     2
100
AcDbLine
 10
166.9494441046037
 20
171.5973420083057
 30
0.0
 11
167.9494441045977
 21
171.5973420083057
 31
0.0
  0
LINE
  5
3C1
330
1F
100
AcDbEntity
  8
0
 62
     2
100
AcDbLine
 10
167.9494441046071
 20
172.5973420083057
 30
0.0
 11
167.9494441046071
 21
175.7473420083057
 31
0.0
  0
LINE
  5
3C2
330
1F
100
AcDbEntity
  8
0
 62
     2
100
AcDbLine
 10
168.4494441046078
 20
172.0973420083226
 30
0.0
 11
168.4494441046066
 21
175.7473420083057
 31
0.0
  0
LINE
  5
3C3
330
1F
100
AcDbEntity
  8
0
 62
     2
100
AcDbLine
 10
167.9494441046123
 20
175.7473420083057
 30
0.0
 11
168.4494441046093
 21
175.7473420083057
 31
0.0
  0
LINE
  5
3C4
330
1F
100
AcDbEntity
  8
0
 62
     2
100
AcDbLine
 10
164.4494441046122
 20
172.0973420083277
 30
0.0
 11
164.4494441046122
 21
175.7473420083057
 31
0.0
  0
LINE
  5
3C5
330
1F
100
AcDbEntity
  8
0
 62
     2
100
AcDbLine
 10
164.9494441046204
 20
172.5973420083057
 30
0.0
 11
164.9494441046204
 21
175.7473420083057
 31
0.0
  0
LINE
  5
3C6
330
1F
100
AcDbEntity
  8
0
 62
     2
100
AcDbLine
 10
164.4494441046122
 20
175.7473420083057
 30
0.0
 11
164.949444158594
 21
175.7473420083057
 31
0.0
  0
LINE
  5
3C7
330
1F
100
AcDbEntity
  8
0
 62
     2
100
AcDbLine
 10
160.8494443574834
 20
172.5973420083057
 30
0.0
 11
160.8494443574834
 21
175.7473420083057
 31
0.0
  0
LINE
  5
3C8
330
1F
100
AcDbEntity
  8
0
 62
     2
100
AcDbLine
 10
161.3494443574872
 20
172.0973420083019
 30
0.0
 11
161.3494443574872
 21
175.7473420083057
 31
0.0
  0
LINE
  5
3C9
330
1F
100
AcDbEntity
  8
0
 62
     2
100
AcDbLine
 10
160.8494443574834
 20
175.7473420083057
 30
0.0
 11
161.3494443574872
 21
175.7473420083057
 31
0.0
  0
LINE
  5
3CA
330
1F
100
AcDbEntity
  8
0
 62
     2
100
AcDbLine
 10
157.3494443574957
 20
172.0973420083059
 30
0.0
 11
157.3494443574957
 21
175.7473420083057
 31
0.0
  0
LINE
  5
3CB
330
1F
100
AcDbEntity
  8
0
 62
     2
100
AcDbLine
 10
157.8494443574955
 20
172.5973420083057
 30
0.0
 11
157.8494443574955
 21
175.7473420083057
 31
0.0
  0
LINE
  5
3CC
330
1F
100
AcDbEntity
  8
0
 62
     2
100
AcDbLine
 10
157.3494443574957
 20
175.7473420083057
 30
0.0
 11
157.8494439056454
 21
175.7473420083057
 31
0.0
  0
LINE
  5
3CD
330
1F
100
AcDbEntity
  8
0
 62
     2
100
AcDbLine
 10
159.8494443574834
 20
172.5973420083057
 30
0.0
 11
159.8494443574834
 21
175.7473420083057
 31
0.0
  0
LINE
  5
3CE
330
1F
100
AcDbEntity
  8
0
 62
     2
100
AcDbLine
 10
166.9494441046078
 20
172.5973420083057
 30
0.0
 11
166.9494441046078
 21
175.7473420083057
 31
0.0
  0
LINE
  5
3CF
330
1F
100
AcDbEntity
  8
0
 62
     2
100
AcDbLine
 10
158.8494443574955
 20
172.5973420083057
 30
0.0
 11
158.8494443574955
 21
175.7473420083057
 31
0.0
  0
LINE
  5
3D0
330
1F
100
AcDbEntity
  8
0
 62
     2
100
AcDbLine
 10
165.9494441046138
 20
172.5973420083057
 30
0.0
 11
165.9494441046138
 21
175.7473420083057
 31
0.0
  0
LINE
  5
3D1
330
1F
100
AcDbEntity
  8
0
 62
     2
100
AcDbLine
 10
143.7494449241026
 20
171.7973420083057
 30
0.0
 11
143.7494449241026
 21
175.9473420083057
 31
0.0
  0
LINE
  5
3D2
330
1F
100
AcDbEntity
  8
0
 62
     2
100
AcDbLine
 10
144.6177549253621
 20
171.7973420083057
 30
0.0
 11
144.6177549253621
 21
175.9473420083057
 31
0.0
  0
LINE
  5
3D3
330
1F
100
AcDbEntity
  8
0
 62
     2
100
AcDbLine
 10
145.4877607815541
 20
171.7973420083057
 30
0.0
 11
145.4877607815541
 21
175.9473420083057
 31
0.0
  0
LINE
  5
3D4
330
1F
100
AcDbEntity
  8
0
 62
     2
100
AcDbLine
 10
145.8917764350878
 20
171.7973420083057
 30
0.0
 11
145.8917764350878
 21
175.9473420083057
 31
0.0
  0
LINE
  5
3D5
330
1F
100
AcDbEntity
  8
0
 62
     2
100
AcDbLine
 10
147.5467687655654
 20
171.7973420083057
 30
0.0
 11
147.5467687655654
 21
175.9473420083057
 31
0.0
  0
LINE
  5
3D6
330
1F
100
AcDbEntity
  8
0
 62
     2
100
AcDbLine
 10
178.2521118511893
 20
171.7973420083057
 30
0.0
 11
178.2521118511893
 21
175.9473420083057
 31
0.0
  0
LINE
  5
3D7
330
1F
100
AcDbEntity
  8
0
 62
     2
100
AcDbLine
 10
179.9071075774544
 20
171.7973420083057
 30
0.0
 11
179.9071075774544
 21
175.9473420083057
 31
0.0
  0
LINE
  5
3D8
330
1F
100
AcDbEntity
  8
0
 62
     2
100
AcDbLine
 10
180.3111242742631
 20
171.7973420083057
 30
0.0
 11
180.3111242742631
 21
175.9473420083057
 31
0.0
  0
LINE
  5
3D9
330
1F
100
AcDbEntity
  8
0
 62
     2
100
AcDbLine
 10
181.1811260451399
 20
171.7973420083057
 30
0.0
 11
181.1811260451399
 21
175.9473420083057
 31
0.0
  0
LINE
  5
3DA
330
1F
100
AcDbEntity
  8
0
 62
     2
100
AcDbLine
 10
182.0494375283262
 20
171.7973420083057
 30
0.0
 11
182.0494375283262
 21
175.9473420083057
 31
0.0
  0
LINE
  5
3DB
330
1F
100
AcDbEntity
  8
0
 62
     2
100
AcDbLine
 10
157.8494450134114
 20
175.7473420083057
 30
0.0
 11
160.8494450134114
 21
175.7473420083057
 31
0.0
  0
LINE
  5
3DC
330
1F
100
AcDbEntity
  8
0
 62
     2
100
AcDbLine
 10
164.9494447605318
 20
175.7473420083057
 30
0.0
 11
167.9494447605318
 21
175.7473420083057
 31
0.0
  0
LINE
  5
3DD
330
1F
100
AcDbEntity
  8
0
 62
     2
100
AcDbLine
 10
165.9494441046138
 20
172.5973420083057
 30
0.0
 11
164.9494441046121
 21
172.5973420083057
 31
0.0
  0
LINE
  5
3DE
330
1F
100
AcDbEntity
  8
0
 62
     2
100
AcDbLine
 10
158.8494443574955
 20
172.5973420083057
 30
0.0
 11
157.8494443574955
 21
172.5973420083057
 31
0.0
  0
LINE
  5
3DF
330
1F
100
AcDbEntity
  8
0
 62
     2
100
AcDbLine
 10
167.9494441046003
 20
172.5973420083057
 30
0.0
 11
166.949444104602
 21
172.5973420083057
 31
0.0
  0
LINE
  5
3E0
330
1F
100
AcDbEntity
  8
0
 62
     2
100
AcDbLine
 10
160.8494443574834
 20
172.5973420083057
 30
0.0
 11
159.8494443574834
 21
172.5973420083057
 31
0.0
  0
LINE
  5
3E1
330
1F
100
AcDbEntity
  8
0
 62
     2
100
AcDbLine
 10
168.2146900076672
 20
172.3320961052654
 30
0.0
 11
168.2138080938529
 21
172.3329780190797
 31
0.0
  0
LINE
  5
3E2
330
1F
100
AcDbEntity
  8
0
 62
     2
100
AcDbLine
 10
166.949444104602
 20
172.5973420083057
 30
0.0
 11
166.9494441046037
 21
171.5973420083057
 31
0.0
  0
LINE
  5
3E3
330
1F
100
AcDbEntity
  8
0
 62
     2
100
AcDbLine
 10
165.949444104612
 20
171.5973420083057
 30
0.0
 11
165.949444104612
 21
172.5973420083057
 31
0.0
  0
LINE
  5
3E4
330
1F
100
AcDbEntity
  8
0
 62
     2
100
AcDbLine
 10
164.6850801153373
 20
172.3329780190309
 30
0.0
 11
164.6841982015231
 21
172.3320961052168
 31
0.0
  0
LINE
  5
3E5
330
1F
100
AcDbEntity
  8
0
 62
     2
100
AcDbLine
 10
161.114691263154
 20
172.3320951026351
 30
0.0
 11
161.1138094156605
 21
172.3329769501285
 31
0.0
  0
LINE
  5
3E6
330
1F
100
AcDbEntity
  8
0
 62
     2
100
AcDbLine
 10
159.8494443574834
 20
172.5973420083057
 30
0.0
 11
159.8494443574834
 21
171.5973420083057
 31
0.0
  0
LINE
  5
3E7
330
1F
100
AcDbEntity
  8
0
 62
     2
100
AcDbLine
 10
158.8494443574955
 20
171.5973420083057
 30
0.0
 11
158.8494443574955
 21
172.5973420083057
 31
0.0
  0
LINE
  5
3E8
330
1F
100
AcDbEntity
  8
0
 62
     2
100
AcDbLine
 10
147.5467687655653
 20
171.5973420083057
 30
0.0
 11
147.5467687655654
 21
171.7973420083057
 31
0.0
  0
LINE
  5
3E9
330
1F
100
AcDbEntity
  8
0
 62
     2
100
AcDbLine
 10
145.96394616563
 20
171.5973420083057
 30
0.0
 11
145.891776562078
 21
171.7973420083057
 31
0.0
  0
LINE
  5
3EA
330
1F
100
AcDbEntity
  8
0
 62
     2
100
AcDbLine
 10
145.3983241144941
 20
171.5973420083057
 30
0.0
 11
145.4877607815806
 21
171.7973420083057
 31
0.0
  0
LINE
  5
3EB
330
1F
100
AcDbEntity
  8
0
 62
     2
100
AcDbLine
 10
144.5283182582756
 20
171.5973420083057
 30
0.0
 11
144.6177549253621
 21
171.7973420083057
 31
0.0
  0
LINE
  5
3EC
330
1F
100
AcDbEntity
  8
0
 62
     2
100
AcDbLine
 10
143.7494449241026
 20
171.7973420083057
 30
0.0
 11
143.9494449241026
 21
171.5973420083057
 31
0.0
  0
LINE
  5
3ED
330
1F
100
AcDbEntity
  8
0
 62
     2
100
AcDbLine
 10
181.8494375283262
 20
171.5973420083057
 30
0.0
 11
182.0494375283279
 21
171.7973420083103
 31
0.0
  0
LINE
  5
3EE
330
1F
100
AcDbEntity
  8
0
 62
     2
100
AcDbLine
 10
181.1811260451399
 20
171.7973420083057
 30
0.0
 11
181.270563206202
 21
171.5973420083057
 31
0.0
  0
LINE
  5
3EF
330
1F
100
AcDbEntity
  8
0
 62
     2
100
AcDbLine
 10
180.4005614353013
 20
171.5973420083057
 30
0.0
 11
180.3111242742391
 21
171.7973420083057
 31
0.0
  0
LINE
  5
3F0
330
1F
100
AcDbEntity
  8
0
 62
     2
100
AcDbLine
 10
179.8349383450751
 20
171.5973420083057
 30
0.0
 11
179.9071077812274
 21
171.7973420083057
 31
0.0
  0
LINE
  5
3F1
330
1F
100
AcDbEntity
  8
0
 62
     2
100
AcDbLine
 10
178.2521118511893
 20
171.7973420083057
 30
0.0
 11
178.2521118511893
 21
171.5973420083057
 31
0.0
  0
LINE
  5
3F2
330
1F
100
AcDbEntity
  8
0
 62
     2
100
AcDbLine
 10
161.8494443574834
 20
171.5973420083057
 30
0.0
 11
161.6494443574834
 21
171.7973420083057
 31
0.0
  0
LINE
  5
3F3
330
1F
100
AcDbEntity
  8
0
 62
     2
100
AcDbLine
 10
164.1494441045995
 20
171.7973420083057
 30
0.0
 11
163.9494441046068
 21
171.5973420083057
 31
0.0
  0
LINE
  5
3F4
330
1F
100
AcDbEntity
  8
0
 62
     2
100
AcDbLine
 10
168.949444104611
 20
171.5973420083057
 30
0.0
 11
168.7494441046176
 21
171.7973420083057
 31
0.0
  0
LINE
  5
3F5
330
1F
100
AcDbEntity
  8
0
 62
     2
100
AcDbLine
 10
157.0494443574955
 20
171.7973420083057
 30
0.0
 11
156.8494443574955
 21
171.5973420083057
 31
0.0
  0
LINE
  5
3F6
330
1F
100
AcDbEntity
  8
0
 62
     2
100
AcDbLine
 10
160.8494506351469
 20
172.5973363261849
 30
0.0
 11
161.3494440521853
 21
172.0973423136283
 31
0.0
  0
LINE
  5
3F7
330
1F
100
AcDbEntity
  8
0
 62
     2
100
AcDbLine
 10
157.3494446627976
 20
172.0973423136324
 30
0.0
 11
157.8494380798319
 21
172.5973363261849
 31
0.0
  0
LINE
  5
3F8
330
1F
100
AcDbEntity
  8
0
 62
     2
100
AcDbLine
 10
161.6494443574834
 20
171.7973420083057
 30
0.0
 11
161.3494443574872
 21
172.0973420083019
 31
0.0
  0
LINE
  5
3F9
330
1F
100
AcDbEntity
  8
0
 62
     2
100
AcDbLine
 10
157.3494443574957
 20
172.0973420083059
 30
0.0
 11
157.0494443574955
 21
171.7973420083057
 31
0.0
  0
LINE
  5
3FA
330
1F
100
AcDbEntity
  8
0
 62
     2
100
AcDbLine
 10
167.9494503822813
 20
172.5973363262054
 30
0.0
 11
168.4494437993059
 21
172.097342313649
 31
0.0
  0
LINE
  5
3FB
330
1F
100
AcDbEntity
  8
0
 62
     2
100
AcDbLine
 10
164.449444409914
 20
172.0973423136542
 30
0.0
 11
164.949437826945
 21
172.5973363262106
 31
0.0
  0
LINE
  5
3FC
330
1F
100
AcDbEntity
  8
0
 62
     2
100
AcDbLine
 10
168.7494441046176
 20
171.7973420083057
 30
0.0
 11
168.4494441046093
 21
172.0973420083226
 31
0.0
  0
LINE
  5
3FD
330
1F
100
AcDbEntity
  8
0
 62
     2
100
AcDbLine
 10
164.4494441046122
 20
172.0973420083277
 30
0.0
 11
164.1494441045995
 21
171.7973420083057
 31
0.0
  0
LINE
  5
3FE
330
1F
100
AcDbEntity
  8
0
 62
     2
100
AcDbLine
 10
178.5922078049947
 20
179.9473421317056
 30
0.0
 11
178.5922078049947
 21
181.9473421317056
 31
0.0
  0
LINE
  5
3FF
330
1F
100
AcDbEntity
  8
0
 62
     2
100
AcDbLine
 10
180.7135281485544
 20
179.9473421317055
 30
0.0
 11
180.7135281485544
 21
181.9473421317056
 31
0.0
  0
LINE
  5
400
330
1F
100
AcDbEntity
  8
0
 62
     2
100
AcDbLine
 10
190.6707647849607
 20
179.9473421317055
 30
0.0
 11
190.6707647849607
 21
181.9473421317057
 31
0.0
  0
LINE
  5
401
330
1F
100
AcDbEntity
  8
0
 62
     2
100
AcDbLine
 10
191.5494444414009
 20
179.9473421317054
 30
0.0
 11
191.5494444414009
 21
181.9473421317055
 31
0.0
  0
LINE
  5
402
330
1F
100
AcDbEntity
  8
0
 62
     2
100
AcDbLine
 10
135.128124097841
 20
179.9473421317055
 30
0.0
 11
135.128124097841
 21
181.9473421317056
 31
0.0
  0
LINE
  5
403
330
1F
100
AcDbEntity
  8
0
 62
     2
100
AcDbLine
 10
134.2494444414007
 20
179.9473421317056
 30
0.0
 11
134.2494444414007
 21
181.9473421317056
 31
0.0
  0
LINE
  5
404
330
1F
100
AcDbEntity
  8
0
 62
     2
100
AcDbLine
 10
145.085360734247
 20
179.9473421317056
 30
0.0
 11
145.085360734247
 21
181.9473421317056
 31
0.0
  0
LINE
  5
405
330
1F
100
AcDbEntity
  8
0
 62
     2
100
AcDbLine
 10
147.2066810778068
 20
179.9473421317055
 30
0.0
 11
147.2066810778068
 21
181.9473421317056
 31
0.0
  0
LINE
  5
406
330
1F
100
AcDbEntity
  8
0
 62
     2
100
AcDbLine
 10
145.085360734247
 20
181.9473421317056
 30
0.0
 11
135.128124097841
 21
181.9473421317056
 31
0.0
  0
LINE
  5
407
330
1F
100
AcDbEntity
  8
0
 62
     2
100
AcDbLine
 10
178.5922078049947
 20
181.9473421317056
 30
0.0
 11
147.2066810778068
 21
181.9473421317056
 31
0.0
  0
LINE
  5
408
330
1F
100
AcDbEntity
  8
0
 62
     2
100
AcDbLine
 10
190.6707647849607
 20
181.9473421317055
 30
0.0
 11
180.7135281485544
 21
181.9473421317056
 31
0.0
  0
LINE
  5
409
330
1F
100
AcDbEntity
  8
0
 62
     2
100
AcDbLine
 10
186.0054852054093
 20
176.4473421317055
 30
0.0
 11
188.494501075186
 21
176.4473421317055
 31
0.0
  0
LINE
  5
40A
330
1F
100
AcDbEntity
  8
0
 62
     2
100
AcDbLine
 10
181.9980984308565
 20
176.4473421317055
 30
0.0
 11
186.0054852054093
 21
176.4473421317055
 31
0.0
  0
LINE
  5
40B
330
1F
100
AcDbEntity
  8
0
 62
     2
100
AcDbLine
 10
186.0054852054093
 20
176.4473421317055
 30
0.0
 11
186.0054852054093
 21
178.4473421317055
 31
0.0
  0
LINE
  5
40C
330
1F
100
AcDbEntity
  8
0
 62
     2
100
AcDbLine
 10
194.7315318268473
 20
176.4473421317055
 30
0.0
 11
196.1494444414011
 21
176.4473421317055
 31
0.0
  0
LINE
  5
40D
330
1F
100
AcDbEntity
  8
0
 62
     2
100
AcDbLine
 10
129.6494444414006
 20
176.4473421317055
 30
0.0
 11
131.0721295074123
 21
176.4473421317055
 31
0.0
  0
LINE
  5
40E
330
1F
100
AcDbEntity
  8
0
 62
     2
100
AcDbLine
 10
139.7901797931892
 20
176.4473421317055
 30
0.0
 11
139.7934036773924
 21
176.4473421317055
 31
0.0
  0
LINE
  5
40F
330
1F
100
AcDbEntity
  8
0
 62
     2
100
AcDbLine
 10
137.3091602590737
 20
176.4473421317055
 30
0.0
 11
139.7901797931892
 21
176.4473421317055
 31
0.0
  0
LINE
  5
410
330
1F
100
AcDbEntity
  8
0
 62
     2
100
AcDbLine
 10
139.7934036773925
 20
176.4473421317055
 30
0.0
 11
143.8051046131808
 21
176.4473421317055
 31
0.0
  0
LINE
  5
411
330
1F
100
AcDbEntity
  8
0
 62
     2
100
AcDbLine
 10
139.7934036773925
 20
176.4473421317055
 30
0.0
 11
139.7934036773925
 21
178.4473421317055
 31
0.0
  0
LINE
  5
412
330
1F
100
AcDbEntity
  8
0
 62
     2
100
AcDbLine
 10
192.7728457050077
 20
175.947342255101
 30
0.0
 11
192.7728457050077
 21
179.947342255101
 31
0.0
  0
LINE
  5
413
330
1F
100
AcDbEntity
  8
0
 62
     2
100
AcDbLine
 10
133.0308150606149
 20
175.9473422551011
 30
0.0
 11
133.0308150606149
 21
179.9473422551011
 31
0.0
  0
LINE
  5
414
330
1F
100
AcDbEntity
  8
0
 62
     2
100
AcDbLine
 10
186.3590385960026
 20
175.9473421317055
 30
0.0
 11
186.0054852054093
 21
176.4473421317055
 31
0.0
  0
LINE
  5
415
330
1F
100
AcDbEntity
  8
0
 62
     2
100
AcDbLine
 10
139.4398502867991
 20
175.9473421317055
 30
0.0
 11
139.7934036773925
 21
176.4473421317055
 31
0.0
  0
LINE
  5
416
330
1F
100
AcDbEntity
  8
0
 62
     2
100
AcDbLine
 10
48.44676831504557
 20
171.7973420083057
 30
0.0
 11
48.44676831133961
 21
175.9473420083057
 31
0.0
  0
LINE
  5
417
330
1F
100
AcDbEntity
  8
0
 62
     2
100
AcDbLine
 10
80.35211817290474
 20
171.7973420083057
 30
0.0
 11
80.35211817646984
 21
175.9473420083057
 31
0.0
  0
LINE
  5
418
330
1F
100
AcDbEntity
  8
0
 62
     2
100
AcDbLine
 10
83.54944405903615
 20
171.7973420083057
 30
0.0
 11
83.34944405903616
 21
171.5973420083057
 31
0.0
  0
LINE
  5
419
330
1F
100
AcDbEntity
  8
0
 62
     2
100
AcDbLine
 10
80.35211817646984
 20
171.7973420083057
 30
0.0
 11
80.15211817646986
 21
171.5973420083057
 31
0.0
  0
LINE
  5
41A
330
1F
100
AcDbEntity
  8
0
 62
     2
100
AcDbLine
 10
48.44676831133961
 20
171.7973420083057
 30
0.0
 11
48.6467683113396
 21
171.5973420083057
 31
0.0
  0
LINE
  5
41B
330
1F
100
AcDbEntity
  8
0
 62
     2
100
AcDbLine
 10
45.24944405901681
 20
171.7973420083057
 30
0.0
 11
45.4494440590168
 21
171.5973420083057
 31
0.0
  0
LINE
  5
41C
330
1F
100
AcDbEntity
  8
0
 62
     2
100
AcDbLine
 10
95.52374649071504
 20
175.9473421317056
 30
0.0
 11
96.23153182684689
 21
176.4473421317056
 31
0.0
  0
LINE
  5
41D
330
1F
100
AcDbEntity
  8
0
 62
     2
100
AcDbLine
 10
82.99713880925026
 20
175.9473421317056
 30
0.0
 11
83.49809843085671
 21
176.4473421317055
 31
0.0
  0
LINE
  5
41E
330
1F
100
AcDbEntity
  8
0
 62
     2
100
AcDbLine
 10
38.80848170412827
 20
175.9473421317055
 30
0.0
 11
38.80916025907356
 21
176.4473421317055
 31
0.0
  0
LINE
  5
41F
330
1F
100
AcDbEntity
  8
0
 62
     2
100
AcDbLine
 10
38.80848170412827
 20
175.9473421317055
 30
0.0
 11
40.9398496368903
 21
175.9473421317055
 31
0.0
  0
LINE
  5
420
330
1F
100
AcDbEntity
  8
0
 62
     2
100
AcDbLine
 10
31.64944444140048
 20
175.9473421317056
 30
0.0
 11
31.14944444140053
 21
176.4473421317055
 31
0.0
  0
LINE
  5
421
330
1F
100
AcDbEntity
  8
0
 62
     2
100
AcDbLine
 10
31.64944444140048
 20
175.9473421317056
 30
0.0
 11
33.27923628859872
 21
175.9473421317056
 31
0.0
  0
LINE
  5
422
330
1F
100
AcDbEntity
  8
0
 62
     2
100
AcDbLine
 10
32.57212950741223
 20
176.4473421317055
 30
0.0
 11
33.27923628859878
 21
175.9473421317056
 31
0.0
  0
LINE
  5
423
330
1F
100
AcDbEntity
  8
0
 62
     2
100
AcDbLine
 10
45.30510461318062
 20
176.4473421317055
 30
0.0
 11
45.80510461318062
 21
175.9473421317056
 31
0.0
  0
LINE
  5
424
330
1F
100
AcDbEntity
  8
0
 62
     2
100
AcDbLine
 10
45.30570693300569
 20
175.9473421317055
 30
0.0
 11
45.80510461318062
 21
175.9473421317055
 31
0.0
  0
LINE
  5
425
330
1F
100
AcDbEntity
  8
0
 62
     2
100
AcDbLine
 10
40.93985028679896
 20
175.9473421317055
 30
0.0
 11
45.30570693300569
 21
175.9473421317055
 31
0.0
  0
LINE
  5
426
330
1F
100
AcDbEntity
  8
0
 62
     2
100
AcDbLine
 10
89.99450107518607
 20
176.4473421317056
 30
0.0
 11
89.99450107518607
 21
175.9473421317056
 31
0.0
  0
LINE
  5
427
330
1F
100
AcDbEntity
  8
0
 62
     2
100
AcDbLine
 10
87.85903859600268
 20
175.9473421317056
 30
0.0
 11
89.99450107518607
 21
175.9473421317056
 31
0.0
  0
LINE
  5
428
330
1F
100
AcDbEntity
  8
0
 62
     2
100
AcDbLine
 10
86.36635664996919
 20
175.9473421317056
 30
0.0
 11
87.85903859600268
 21
175.9473421317055
 31
0.0
  0
LINE
  5
429
330
1F
100
AcDbEntity
  8
0
 62
     2
100
AcDbLine
 10
82.99713880925026
 20
175.9473421317056
 30
0.0
 11
86.36635664996925
 21
175.9473421317056
 31
0.0
  0
LINE
  5
42A
330
1F
100
AcDbEntity
  8
0
 62
     2
100
AcDbLine
 10
97.64944444140065
 20
176.4473421317055
 30
0.0
 11
97.14944444140065
 21
175.9473421317056
 31
0.0
  0
LINE
  5
42B
330
1F
100
AcDbEntity
  8
0
 62
     2
100
AcDbLine
 10
95.52374649071504
 20
175.9473421317056
 30
0.0
 11
97.14944444140065
 21
175.9473421317056
 31
0.0
  0
LINE
  5
42C
330
1F
100
AcDbEntity
  8
0
 62
     2
100
AcDbLine
 10
33.63278967919206
 20
176.4473421317055
 30
0.0
 11
33.98634306978533
 21
175.9473421317055
 31
0.0
  0
LINE
  5
42D
330
1F
100
AcDbEntity
  8
0
 62
     2
100
AcDbLine
 10
33.98634306978533
 20
175.9473421317055
 30
0.0
 11
33.27923628859878
 21
175.9473421317055
 31
0.0
  0
LINE
  5
42E
330
1F
100
AcDbEntity
  8
0
 62
     2
100
AcDbLine
 10
33.63278967919206
 20
176.4473421317055
 30
0.0
 11
32.57212950741228
 21
176.4473421317055
 31
0.0
  0
LINE
  5
42F
330
1F
100
AcDbEntity
  8
0
 62
     2
100
AcDbLine
 10
38.10205313993418
 20
175.9473421317055
 30
0.0
 11
37.74849974934091
 21
176.4473421317055
 31
0.0
  0
LINE
  5
430
330
1F
100
AcDbEntity
  8
0
 62
     2
100
AcDbLine
 10
38.80916025907356
 20
176.4473421317055
 30
0.0
 11
37.74849974934091
 21
176.4473421317055
 31
0.0
  0
LINE
  5
431
330
1F
100
AcDbEntity
  8
0
 62
     2
100
AcDbLine
 10
38.80848170412827
 20
175.9473421317055
 30
0.0
 11
38.10205313993418
 21
175.9473421317055
 31
0.0
  0
LINE
  5
432
330
1F
100
AcDbEntity
  8
0
 62
     2
100
AcDbLine
 10
91.05516124696584
 20
176.4473421317056
 30
0.0
 11
90.70160785637256
 21
175.9473421317056
 31
0.0
  0
LINE
  5
433
330
1F
100
AcDbEntity
  8
0
 62
     2
100
AcDbLine
 10
90.70160785637256
 20
175.9473421317056
 30
0.0
 11
89.99450107518607
 21
175.9473421317056
 31
0.0
  0
LINE
  5
434
330
1F
100
AcDbEntity
  8
0
 62
     2
100
AcDbLine
 10
91.05516124696584
 20
176.4473421317056
 30
0.0
 11
89.99450107518607
 21
176.4473421317056
 31
0.0
  0
LINE
  5
435
330
1F
100
AcDbEntity
  8
0
 62
     2
100
AcDbLine
 10
94.81731792652135
 20
175.9473421317056
 30
0.0
 11
95.17087131711463
 21
176.4473421317056
 31
0.0
  0
LINE
  5
436
330
1F
100
AcDbEntity
  8
0
 62
     2
100
AcDbLine
 10
96.23153182684689
 20
176.4473421317056
 30
0.0
 11
95.17087131711463
 21
176.4473421317056
 31
0.0
  0
LINE
  5
437
330
1F
100
AcDbEntity
  8
0
 62
     2
100
AcDbLine
 10
95.52374649071504
 20
175.9473421317056
 30
0.0
 11
94.81731792652135
 21
175.9473421317056
 31
0.0
  0
LINE
  5
438
330
1F
100
AcDbEntity
  8
0
 62
     2
100
AcDbLine
 10
82.99713880925026
 20
175.9473421317056
 30
0.0
 11
45.80510461318062
 21
175.9473421317055
 31
0.0
  0
LINE
  5
439
330
1F
100
AcDbEntity
  8
0
 62
     2
100
AcDbLine
 10
83.49809843085671
 20
176.4473421317056
 30
0.0
 11
45.30510461318056
 21
176.4473421317055
 31
0.0
  0
LINE
  5
43A
330
1F
100
AcDbEntity
  8
0
 62
     2
100
AcDbLine
 10
91.05516124696584
 20
179.9473421317056
 30
0.0
 11
88.57181600917431
 21
179.9473421317056
 31
0.0
  0
LINE
  5
43B
330
1F
100
AcDbEntity
  8
0
 62
     2
100
AcDbLine
 10
94.27284547432362
 20
179.9473421317056
 30
0.0
 11
91.05516115971204
 21
179.9473421317056
 31
0.0
  0
LINE
  5
43C
330
1F
100
AcDbEntity
  8
0
 62
     2
100
AcDbLine
 10
90.70160785637256
 20
175.9473421317055
 30
0.0
 11
94.27284547432362
 21
175.9473421317055
 31
0.0
  0
LINE
  5
43D
330
1F
100
AcDbEntity
  8
0
 62
     2
100
AcDbLine
 10
95.17087131711463
 20
176.4473421317056
 30
0.0
 11
95.17087131711469
 21
179.9473422551011
 31
0.0
  0
LINE
  5
43E
330
1F
100
AcDbEntity
  8
0
 62
     2
100
AcDbLine
 10
95.17087108643051
 20
179.9473421317056
 30
0.0
 11
94.27284547432362
 21
179.9473421317056
 31
0.0
  0
LINE
  5
43F
330
1F
100
AcDbEntity
  8
0
 62
     2
100
AcDbLine
 10
94.27284547432362
 20
175.9473421317055
 30
0.0
 11
94.81731792652135
 21
175.9473421317055
 31
0.0
  0
LINE
  5
440
330
1F
100
AcDbEntity
  8
0
 62
     2
100
AcDbLine
 10
91.05516124696584
 20
179.9473422551011
 30
0.0
 11
91.05516124696584
 21
176.4473421317056
 31
0.0
  0
LINE
  5
441
330
1F
100
AcDbEntity
  8
0
 62
     2
100
AcDbLine
 10
33.63278967919206
 20
179.9473421317055
 30
0.0
 11
31.14944444140053
 21
179.9473421317055
 31
0.0
  0
LINE
  5
442
330
1F
100
AcDbEntity
  8
0
 62
     2
100
AcDbLine
 10
37.74849974934091
 20
179.9473421317056
 30
0.0
 11
34.53081529129901
 21
179.9473421317056
 31
0.0
  0
LINE
  5
443
330
1F
100
AcDbEntity
  8
0
 62
     2
100
AcDbLine
 10
34.53081529129901
 20
175.9473421317055
 30
0.0
 11
38.10205313993418
 21
175.9473421317055
 31
0.0
  0
LINE
  5
444
330
1F
100
AcDbEntity
  8
0
 62
     2
100
AcDbLine
 10
37.74849974934091
 20
176.4473421317055
 30
0.0
 11
37.74849974934091
 21
179.947342255101
 31
0.0
  0
LINE
  5
445
330
1F
100
AcDbEntity
  8
0
 62
     2
100
AcDbLine
 10
33.63278967919206
 20
179.947342255101
 30
0.0
 11
33.63278967919206
 21
176.4473421317055
 31
0.0
  0
LINE
  5
446
330
1F
100
AcDbEntity
  8
0
 62
     2
100
AcDbLine
 10
34.53081529129901
 20
179.9473421317056
 30
0.0
 11
33.63278967919211
 21
179.9473421317056
 31
0.0
  0
LINE
  5
447
330
1F
100
AcDbEntity
  8
0
 62
     2
100
AcDbLine
 10
33.98634306978533
 20
175.9473421317055
 30
0.0
 11
34.53081529129901
 21
175.9473421317055
 31
0.0
  0
LINE
  5
448
330
1F
100
AcDbEntity
  8
0
 62
     2
100
AcDbLine
 10
97.64944444140065
 20
176.4473421317055
 30
0.0
 11
97.64944444140065
 21
178.4473421317055
 31
0.0
  0
LINE
  5
449
330
1F
100
AcDbEntity
  8
0
 62
     2
100
AcDbLine
 10
96.23153182684689
 20
178.4473421317055
 30
0.0
 11
96.23153182684689
 21
176.4473421317055
 31
0.0
  0
LINE
  5
44A
330
1F
100
AcDbEntity
  8
0
 62
     2
100
AcDbLine
 10
97.64944444140065
 20
178.4473421317055
 30
0.0
 11
96.23153182684689
 21
178.4473421317055
 31
0.0
  0
LINE
  5
44B
330
1F
100
AcDbEntity
  8
0
 62
     2
100
AcDbLine
 10
83.49809843085671
 20
178.4473421317056
 30
0.0
 11
83.49809843085671
 21
176.4473421317056
 31
0.0
  0
LINE
  5
44C
330
1F
100
AcDbEntity
  8
0
 62
     2
100
AcDbLine
 10
88.57181600917431
 20
178.4473421317055
 30
0.0
 11
83.49809843085671
 21
178.4473421317056
 31
0.0
  0
LINE
  5
44D
330
1F
100
AcDbEntity
  8
0
 62
     2
100
AcDbLine
 10
89.99450107518607
 20
176.4473421317056
 30
0.0
 11
89.99450107518607
 21
178.4473421317056
 31
0.0
  0
LINE
  5
44E
330
1F
100
AcDbEntity
  8
0
 62
     2
100
AcDbLine
 10
89.99450107518607
 20
178.4473421317055
 30
0.0
 11
88.57181600917431
 21
178.4473421317055
 31
0.0
  0
LINE
  5
44F
330
1F
100
AcDbEntity
  8
0
 62
     2
100
AcDbLine
 10
45.30510461318062
 20
178.4473421317055
 30
0.0
 11
40.22707287362738
 21
178.4473421317055
 31
0.0
  0
LINE
  5
450
330
1F
100
AcDbEntity
  8
0
 62
     2
100
AcDbLine
 10
45.30510461318062
 20
176.4473421317055
 30
0.0
 11
45.30510461318062
 21
178.4473421317055
 31
0.0
  0
LINE
  5
451
330
1F
100
AcDbEntity
  8
0
 62
     2
100
AcDbLine
 10
38.80916025907356
 20
178.4473421317055
 30
0.0
 11
38.80916025907356
 21
176.4473421317055
 31
0.0
  0
LINE
  5
452
330
1F
100
AcDbEntity
  8
0
 62
     2
100
AcDbLine
 10
40.22707287362738
 20
178.4473421317055
 30
0.0
 11
38.80916025907356
 21
178.4473421317055
 31
0.0
  0
LINE
  5
453
330
1F
100
AcDbEntity
  8
0
 62
     2
100
AcDbLine
 10
31.14944444140053
 20
178.4473421317055
 30
0.0
 11
31.14944444140053
 21
176.4473421317055
 31
0.0
  0
LINE
  5
454
330
1F
100
AcDbEntity
  8
0
 62
     2
100
AcDbLine
 10
32.57212950741228
 20
176.4473421317055
 30
0.0
 11
32.57212950741228
 21
178.4473421317055
 31
0.0
  0
LINE
  5
455
330
1F
100
AcDbEntity
  8
0
 62
     2
100
AcDbLine
 10
32.57212950741228
 20
178.4473421317055
 30
0.0
 11
31.14944444140053
 21
178.4473421317055
 31
0.0
  0
LINE
  5
456
330
1F
100
AcDbEntity
  8
0
 62
     2
100
AcDbLine
 10
35.74947563931875
 20
181.9473421317056
 30
0.0
 11
36.62815529575914
 21
181.9473421317056
 31
0.0
  0
LINE
  5
457
330
1F
100
AcDbEntity
  8
0
 62
     2
100
AcDbLine
 10
46.58539193216603
 20
181.9473421317055
 30
0.0
 11
48.70671227572569
 21
181.9473421317055
 31
0.0
  0
LINE
  5
458
330
1F
100
AcDbEntity
  8
0
 62
     2
100
AcDbLine
 10
80.09223900291181
 20
181.9473421317055
 30
0.0
 11
82.21355934647141
 21
181.9473421317055
 31
0.0
  0
LINE
  5
459
330
1F
100
AcDbEntity
  8
0
 62
     2
100
AcDbLine
 10
92.1707959828783
 20
181.9473421317055
 30
0.0
 11
93.0494756393187
 21
181.9473421317055
 31
0.0
  0
LINE
  5
45A
330
1F
100
AcDbEntity
  8
0
 62
     2
100
AcDbLine
 10
40.22707287362738
 20
179.9473421317055
 30
0.0
 11
37.74849974934091
 21
179.9473421317055
 31
0.0
  0
LINE
  5
45B
330
1F
100
AcDbEntity
  8
0
 62
     2
100
AcDbLine
 10
88.57181600917431
 20
179.9473421317056
 30
0.0
 11
40.22707287362732
 21
179.9473421317055
 31
0.0
  0
LINE
  5
45C
330
1F
100
AcDbEntity
  8
0
 62
     2
100
AcDbLine
 10
97.64944444140065
 20
179.9473421317055
 30
0.0
 11
95.17087131711463
 21
179.9473421317056
 31
0.0
  0
LINE
  5
45D
330
1F
100
AcDbEntity
  8
0
 62
     2
100
AcDbLine
 10
31.14944444140053
 20
179.9473421317055
 30
0.0
 11
31.14944444140053
 21
178.4473421317055
 31
0.0
  0
LINE
  5
45E
330
1F
100
AcDbEntity
  8
0
 62
     2
100
AcDbLine
 10
40.22707287362738
 20
179.9473421317055
 30
0.0
 11
40.22707287362738
 21
178.4473421317055
 31
0.0
  0
LINE
  5
45F
330
1F
100
AcDbEntity
  8
0
 62
     2
100
AcDbLine
 10
88.57181600917431
 20
179.9473421317056
 30
0.0
 11
88.57181600917431
 21
178.4473421317055
 31
0.0
  0
LINE
  5
460
330
1F
100
AcDbEntity
  8
0
 62
     2
100
AcDbLine
 10
97.64944444140065
 20
179.9473421317055
 30
0.0
 11
97.64944444140065
 21
178.4473421317055
 31
0.0
  0
LINE
  5
461
330
1F
100
AcDbEntity
  8
0
 62
     2
100
AcDbLine
 10
46.02831739319458
 20
171.5973420083057
 30
0.0
 11
45.44944405901686
 21
171.5973420083057
 31
0.0
  0
LINE
  5
462
330
1F
100
AcDbEntity
  8
0
 62
     2
100
AcDbLine
 10
46.11775406028346
 20
171.7973420083057
 30
0.0
 11
45.24944405901681
 21
171.7973420083057
 31
0.0
  0
LINE
  5
463
330
1F
100
AcDbEntity
  8
0
 62
     2
100
AcDbLine
 10
46.8983236602777
 20
171.5973420083057
 30
0.0
 11
46.0283173931947
 21
171.5973420083057
 31
0.0
  0
LINE
  5
464
330
1F
100
AcDbEntity
  8
0
 62
     2
100
AcDbLine
 10
46.98776032736657
 20
171.7973420083057
 30
0.0
 11
46.11775406028357
 21
171.7973420083057
 31
0.0
  0
LINE
  5
465
330
1F
100
AcDbEntity
  8
0
 62
     2
100
AcDbLine
 10
46.8983236602777
 20
171.5973420083057
 30
0.0
 11
47.46394568025164
 21
171.5973420083057
 31
0.0
  0
LINE
  5
466
330
1F
100
AcDbEntity
  8
0
 62
     2
100
AcDbLine
 10
46.98776032736657
 20
171.7973420083057
 30
0.0
 11
47.39177598087969
 21
171.7973420083057
 31
0.0
  0
LINE
  5
467
330
1F
100
AcDbEntity
  8
0
 62
     2
100
AcDbLine
 10
47.46394571142196
 20
171.5973420083057
 30
0.0
 11
48.6467683113396
 21
171.5973420083057
 31
0.0
  0
LINE
  5
468
330
1F
100
AcDbEntity
  8
0
 62
     2
100
AcDbLine
 10
47.39177610786993
 20
171.7973420083057
 30
0.0
 11
48.44676831504557
 21
171.7973420083057
 31
0.0
  0
LINE
  5
469
330
1F
100
AcDbEntity
  8
0
 62
     2
100
AcDbLine
 10
49.04676831133935
 20
171.5973420083057
 30
0.0
 11
48.64676831381024
 21
171.5973420083057
 31
0.0
  0
LINE
  5
46A
330
1F
100
AcDbEntity
  8
0
 62
     2
100
AcDbLine
 10
49.04676831133924
 20
171.7973420083057
 30
0.0
 11
48.44676831504557
 21
171.7973420083057
 31
0.0
  0
LINE
  5
46B
330
1F
100
AcDbEntity
  8
0
 62
     2
100
AcDbLine
 10
58.34944428476371
 20
171.5973420083057
 30
0.0
 11
49.04676831133941
 21
171.5973420083057
 31
0.0
  0
LINE
  5
46C
330
1F
100
AcDbEntity
  8
0
 62
     2
100
AcDbLine
 10
58.54944428476318
 20
171.7973420083057
 30
0.0
 11
49.04676831133924
 21
171.7973420083057
 31
0.0
  0
LINE
  5
46D
330
1F
100
AcDbEntity
  8
0
 62
     2
100
AcDbLine
 10
65.4494440319578
 20
171.5973420083057
 30
0.0
 11
63.34944428479542
 21
171.5973420083057
 31
0.0
  0
LINE
  5
46E
330
1F
100
AcDbEntity
  8
0
 62
     2
100
AcDbLine
 10
65.64944403196625
 20
171.7973420083057
 30
0.0
 11
63.14944428480277
 21
171.7973420083057
 31
0.0
  0
LINE
  5
46F
330
1F
100
AcDbEntity
  8
0
 62
     2
100
AcDbLine
 10
79.75211817646971
 20
171.5973420083057
 30
0.0
 11
70.44944403191437
 21
171.5973420083057
 31
0.0
  0
LINE
  5
470
330
1F
100
AcDbEntity
  8
0
 62
     2
100
AcDbLine
 10
79.7521181764696
 20
171.7973420083057
 30
0.0
 11
70.24944403191239
 21
171.7973420083057
 31
0.0
  0
LINE
  5
471
330
1F
100
AcDbEntity
  8
0
 62
     2
100
AcDbLine
 10
80.15211817409312
 20
171.5973420083057
 30
0.0
 11
79.75211817646971
 21
171.5973420083057
 31
0.0
  0
LINE
  5
472
330
1F
100
AcDbEntity
  8
0
 62
     2
100
AcDbLine
 10
80.35211817290474
 20
171.7973420083057
 30
0.0
 11
79.7521181764696
 21
171.7973420083057
 31
0.0
  0
LINE
  5
473
330
1F
100
AcDbEntity
  8
0
 62
     2
100
AcDbLine
 10
80.15211817646986
 20
171.5973420083057
 30
0.0
 11
81.3349448757827
 21
171.5973420083057
 31
0.0
  0
LINE
  5
474
330
1F
100
AcDbEntity
  8
0
 62
     2
100
AcDbLine
 10
80.35211817290474
 20
171.7973420083057
 30
0.0
 11
81.40711410816209
 21
171.7973420083057
 31
0.0
  0
LINE
  5
475
330
1F
100
AcDbEntity
  8
0
 62
     2
100
AcDbLine
 10
81.3349448757827
 20
171.5973420083057
 30
0.0
 11
81.90056796600948
 21
171.5973420083057
 31
0.0
  0
LINE
  5
476
330
1F
100
AcDbEntity
  8
0
 62
     2
100
AcDbLine
 10
81.40711431193495
 20
171.7973420083057
 30
0.0
 11
81.81113080496135
 21
171.7973420083057
 31
0.0
  0
LINE
  5
477
330
1F
100
AcDbEntity
  8
0
 62
     2
100
AcDbLine
 10
82.77056973691947
 20
171.5973420083057
 30
0.0
 11
81.90056796600516
 21
171.5973420083057
 31
0.0
  0
LINE
  5
478
330
1F
100
AcDbEntity
  8
0
 62
     2
100
AcDbLine
 10
82.68113257586111
 20
171.7973420083057
 30
0.0
 11
81.8111308049468
 21
171.7973420083057
 31
0.0
  0
LINE
  5
479
330
1F
100
AcDbEntity
  8
0
 62
     2
100
AcDbLine
 10
83.34944405903616
 20
171.5973420083057
 30
0.0
 11
82.77056973691947
 21
171.5973420083057
 31
0.0
  0
LINE
  5
47A
330
1F
100
AcDbEntity
  8
0
 62
     2
100
AcDbLine
 10
83.54944405903615
 20
171.7973420083057
 30
0.0
 11
82.68113257586111
 21
171.7973420083057
 31
0.0
  0
LINE
  5
47B
330
1F
100
AcDbEntity
  8
0
 62
     2
100
AcDbLine
 10
65.71739322432131
 20
171.5973420083057
 30
0.0
 11
67.44944403189112
 21
171.5973420083057
 31
0.0
  0
LINE
  5
47C
330
1F
100
AcDbEntity
  8
0
 62
     2
100
AcDbLine
 10
65.44944403190277
 20
171.5973420083057
 30
0.0
 11
65.71739322432131
 21
171.5973420083057
 31
0.0
  0
LINE
  5
47D
330
1F
100
AcDbEntity
  8
0
 62
     2
100
AcDbLine
 10
68.44944403190203
 20
171.5973420083057
 30
0.0
 11
67.44944403189112
 21
171.5973420083057
 31
0.0
  0
LINE
  5
47E
330
1F
100
AcDbEntity
  8
0
 62
     2
100
AcDbLine
 10
68.44944403190783
 20
172.5973420083057
 30
0.0
 11
67.44944403189697
 21
172.5973420083057
 31
0.0
  0
LINE
  5
47F
330
1F
100
AcDbEntity
  8
0
 62
     2
100
AcDbLine
 10
69.44944403189658
 20
171.5973420083057
 30
0.0
 11
70.44944403190783
 21
171.5973420083057
 31
0.0
  0
LINE
  5
480
330
1F
100
AcDbEntity
  8
0
 62
     2
100
AcDbLine
 10
68.44944403188452
 20
171.5973420083057
 30
0.0
 11
69.44944403189658
 21
171.5973420083057
 31
0.0
  0
LINE
  5
481
330
1F
100
AcDbEntity
  8
0
 62
     2
100
AcDbLine
 10
58.61739347723665
 20
171.5973420083057
 30
0.0
 11
60.34944428480333
 21
171.5973420083057
 31
0.0
  0
LINE
  5
482
330
1F
100
AcDbEntity
  8
0
 62
     2
100
AcDbLine
 10
58.3494442847749
 20
171.5973420083057
 30
0.0
 11
58.61739347723665
 21
171.5973420083057
 31
0.0
  0
LINE
  5
483
330
1F
100
AcDbEntity
  8
0
 62
     2
100
AcDbLine
 10
61.34944428479474
 20
171.5973420083057
 30
0.0
 11
60.34944428480333
 21
171.5973420083057
 31
0.0
  0
LINE
  5
484
330
1F
100
AcDbEntity
  8
0
 62
     2
100
AcDbLine
 10
61.34944428478053
 20
172.5973420083057
 30
0.0
 11
60.34944428478912
 21
172.5973420083057
 31
0.0
  0
LINE
  5
485
330
1F
100
AcDbEntity
  8
0
 62
     2
100
AcDbLine
 10
62.34944428475478
 20
171.5973420083057
 30
0.0
 11
63.34944428478053
 21
171.5973420083057
 31
0.0
  0
LINE
  5
486
330
1F
100
AcDbEntity
  8
0
 62
     2
100
AcDbLine
 10
61.34944428483738
 20
171.5973420083057
 30
0.0
 11
62.34944428475478
 21
171.5973420083057
 31
0.0
  0
LINE
  5
487
330
1F
100
AcDbEntity
  8
0
 62
     2
100
AcDbLine
 10
69.44944403191244
 20
172.5973420083057
 30
0.0
 11
69.44944403191244
 21
175.7473420083057
 31
0.0
  0
LINE
  5
488
330
1F
100
AcDbEntity
  8
0
 62
     2
100
AcDbLine
 10
69.94944403191221
 20
172.0973420083092
 30
0.0
 11
69.94944403191221
 21
175.7473420083057
 31
0.0
  0
LINE
  5
489
330
1F
100
AcDbEntity
  8
0
 62
     2
100
AcDbLine
 10
69.44944403191568
 20
175.7473420083057
 30
0.0
 11
69.94944403191221
 21
175.7473420083057
 31
0.0
  0
LINE
  5
48A
330
1F
100
AcDbEntity
  8
0
 62
     2
100
AcDbLine
 10
65.949444031942
 20
172.097342008279
 30
0.0
 11
65.949444031942
 21
175.7473420083057
 31
0.0
  0
LINE
  5
48B
330
1F
100
AcDbEntity
  8
0
 62
     2
100
AcDbLine
 10
66.44944403194125
 20
172.5973420083057
 30
0.0
 11
66.44944403194125
 21
175.7473420083057
 31
0.0
  0
LINE
  5
48C
330
1F
100
AcDbEntity
  8
0
 62
     2
100
AcDbLine
 10
65.949444031942
 20
175.7473420083057
 30
0.0
 11
66.4494440309964
 21
175.7473420083057
 31
0.0
  0
LINE
  5
48D
330
1F
100
AcDbEntity
  8
0
 62
     2
100
AcDbLine
 10
62.34944428479093
 20
172.5973420083057
 30
0.0
 11
62.34944428479093
 21
175.7473420083057
 31
0.0
  0
LINE
  5
48E
330
1F
100
AcDbEntity
  8
0
 62
     2
100
AcDbLine
 10
62.84944428479173
 20
172.0973420083124
 30
0.0
 11
62.84944428479173
 21
175.7473420083057
 31
0.0
  0
LINE
  5
48F
330
1F
100
AcDbEntity
  8
0
 62
     2
100
AcDbLine
 10
62.34944428479838
 20
175.7473420083057
 30
0.0
 11
62.84944428479173
 21
175.7473420083057
 31
0.0
  0
LINE
  5
490
330
1F
100
AcDbEntity
  8
0
 62
     2
100
AcDbLine
 10
58.84944428476672
 20
172.097342008311
 30
0.0
 11
58.84944428476672
 21
175.7473420083057
 31
0.0
  0
LINE
  5
491
330
1F
100
AcDbEntity
  8
0
 62
     2
100
AcDbLine
 10
59.34944428476706
 20
172.5973420083057
 30
0.0
 11
59.34944428476706
 21
175.7473420083057
 31
0.0
  0
LINE
  5
492
330
1F
100
AcDbEntity
  8
0
 62
     2
100
AcDbLine
 10
58.84944428476672
 20
175.7473420083057
 30
0.0
 11
59.34944428419055
 21
175.7473420083057
 31
0.0
  0
LINE
  5
493
330
1F
100
AcDbEntity
  8
0
 62
     2
100
AcDbLine
 10
61.34944428479474
 20
172.5973420083057
 30
0.0
 11
61.34944428479474
 21
175.7473420083057
 31
0.0
  0
LINE
  5
494
330
1F
100
AcDbEntity
  8
0
 62
     2
100
AcDbLine
 10
68.44944403190203
 20
172.5973420083057
 30
0.0
 11
68.44944403190203
 21
175.7473420083057
 31
0.0
  0
LINE
  5
495
330
1F
100
AcDbEntity
  8
0
 62
     2
100
AcDbLine
 10
60.34944428478912
 20
172.5973420083057
 30
0.0
 11
60.34944428478912
 21
175.7473420083057
 31
0.0
  0
LINE
  5
496
330
1F
100
AcDbEntity
  8
0
 62
     2
100
AcDbLine
 10
67.44944403189697
 20
172.5973420083057
 30
0.0
 11
67.44944403189697
 21
175.7473420083057
 31
0.0
  0
LINE
  5
497
330
1F
100
AcDbEntity
  8
0
 62
     2
100
AcDbLine
 10
45.24944405901681
 20
171.7973420083057
 30
0.0
 11
45.24944405901681
 21
175.9473420083057
 31
0.0
  0
LINE
  5
498
330
1F
100
AcDbEntity
  8
0
 62
     2
100
AcDbLine
 10
46.11775406028357
 20
171.7973420083057
 30
0.0
 11
46.11775406028357
 21
175.9473420083057
 31
0.0
  0
LINE
  5
499
330
1F
100
AcDbEntity
  8
0
 62
     2
100
AcDbLine
 10
46.98776032734611
 20
171.7973420083057
 30
0.0
 11
46.98776032734611
 21
175.9473420083057
 31
0.0
  0
LINE
  5
49A
330
1F
100
AcDbEntity
  8
0
 62
     2
100
AcDbLine
 10
47.39177598087969
 20
171.7973420083057
 30
0.0
 11
47.39177598087969
 21
175.9473420083057
 31
0.0
  0
LINE
  5
49B
330
1F
100
AcDbEntity
  8
0
 62
     2
100
AcDbLine
 10
49.04676831133924
 20
171.7973420083057
 30
0.0
 11
49.04676831133924
 21
175.9473420083057
 31
0.0
  0
LINE
  5
49C
330
1F
100
AcDbEntity
  8
0
 62
     2
100
AcDbLine
 10
79.7521181764696
 20
171.7973420083057
 30
0.0
 11
79.7521181764696
 21
175.9473420083057
 31
0.0
  0
LINE
  5
49D
330
1F
100
AcDbEntity
  8
0
 62
     2
100
AcDbLine
 10
81.40711410816209
 20
171.7973420083057
 30
0.0
 11
81.40711410816209
 21
175.9473420083057
 31
0.0
  0
LINE
  5
49E
330
1F
100
AcDbEntity
  8
0
 62
     2
100
AcDbLine
 10
81.81113080496135
 20
171.7973420083057
 30
0.0
 11
81.81113080496135
 21
175.9473420083057
 31
0.0
  0
LINE
  5
49F
330
1F
100
AcDbEntity
  8
0
 62
     2
100
AcDbLine
 10
82.68113257586111
 20
171.7973420083057
 30
0.0
 11
82.68113257586111
 21
175.9473420083057
 31
0.0
  0
LINE
  5
4A0
330
1F
100
AcDbEntity
  8
0
 62
     2
100
AcDbLine
 10
83.54944405903615
 20
171.7973420083057
 30
0.0
 11
83.54944405903615
 21
175.9473420083057
 31
0.0
  0
LINE
  5
4A1
330
1F
100
AcDbEntity
  8
0
 62
     2
100
AcDbLine
 10
59.34944439406354
 20
175.7473420083057
 30
0.0
 11
62.34944439406354
 21
175.7473420083057
 31
0.0
  0
LINE
  5
4A2
330
1F
100
AcDbEntity
  8
0
 62
     2
100
AcDbLine
 10
66.4494433181327
 20
175.7473420083057
 30
0.0
 11
69.4494433181327
 21
175.7473420083057
 31
0.0
  0
LINE
  5
4A3
330
1F
100
AcDbEntity
  8
0
 62
     2
100
AcDbLine
 10
67.44944403189697
 20
172.5973420083057
 30
0.0
 11
66.44944403190277
 21
172.5973420083057
 31
0.0
  0
LINE
  5
4A4
330
1F
100
AcDbEntity
  8
0
 62
     2
100
AcDbLine
 10
60.34944428478912
 20
172.5973420083057
 30
0.0
 11
59.3494442847749
 21
172.5973420083057
 31
0.0
  0
LINE
  5
4A5
330
1F
100
AcDbEntity
  8
0
 62
     2
100
AcDbLine
 10
69.44944403190783
 20
172.5973420083057
 30
0.0
 11
68.44944403189618
 21
172.5973420083057
 31
0.0
  0
LINE
  5
4A6
330
1F
100
AcDbEntity
  8
0
 62
     2
100
AcDbLine
 10
62.34944428478053
 20
172.5973420083057
 30
0.0
 11
61.34944428480895
 21
172.5973420083057
 31
0.0
  0
LINE
  5
4A7
330
1F
100
AcDbEntity
  8
0
 62
     2
100
AcDbLine
 10
62.61469119046251
 20
172.3320951026238
 30
0.0
 11
62.61380934296909
 21
172.3329769501172
 31
0.0
  0
LINE
  5
4A8
330
1F
100
AcDbEntity
  8
0
 62
     2
100
AcDbLine
 10
61.34944428478053
 20
172.5973420083057
 30
0.0
 11
61.34944428480895
 21
171.5973420083057
 31
0.0
  0
LINE
  5
4A9
330
1F
100
AcDbEntity
  8
0
 62
     2
100
AcDbLine
 10
60.34944428480333
 20
171.5973420083057
 30
0.0
 11
60.34944428478912
 21
172.5973420083635
 31
0.0
  0
LINE
  5
4AA
330
1F
100
AcDbEntity
  8
0
 62
     2
100
AcDbLine
 10
59.08508029608095
 20
172.3329780196118
 30
0.0
 11
59.08419838226496
 21
172.3320961057958
 31
0.0
  0
LINE
  5
4AB
330
1F
100
AcDbEntity
  8
0
 62
     2
100
AcDbLine
 10
69.71468993441721
 20
172.3320961057964
 30
0.0
 11
69.71380909008974
 21
172.3329769501239
 31
0.0
  0
LINE
  5
4AC
330
1F
100
AcDbEntity
  8
0
 62
     2
100
AcDbLine
 10
68.44944403190783
 20
172.5973420083057
 30
0.0
 11
68.44944403189618
 21
171.5973420083057
 31
0.0
  0
LINE
  5
4AD
330
1F
100
AcDbEntity
  8
0
 62
     2
100
AcDbLine
 10
67.44944403189112
 20
171.5973420083057
 30
0.0
 11
67.44944403189697
 21
172.597342008282
 31
0.0
  0
LINE
  5
4AE
330
1F
100
AcDbEntity
  8
0
 62
     2
100
AcDbLine
 10
66.18508004318858
 20
172.3329780195915
 30
0.0
 11
66.18419812937253
 21
172.3320961057755
 31
0.0
  0
LINE
  5
4AF
330
1F
100
AcDbEntity
  8
0
 62
     2
100
AcDbLine
 10
83.34944405903616
 20
171.5973420083057
 30
0.0
 11
83.54944405903615
 21
171.7973420083057
 31
0.0
  0
LINE
  5
4B0
330
1F
100
AcDbEntity
  8
0
 62
     2
100
AcDbLine
 10
82.68113257586111
 20
171.7973420083057
 30
0.0
 11
82.77056973691947
 21
171.5973420083057
 31
0.0
  0
LINE
  5
4B1
330
1F
100
AcDbEntity
  8
0
 62
     2
100
AcDbLine
 10
81.90056796600516
 20
171.5973420083057
 30
0.0
 11
81.8111308049468
 21
171.7973420083057
 31
0.0
  0
LINE
  5
4B2
330
1F
100
AcDbEntity
  8
0
 62
     2
100
AcDbLine
 10
81.3349448757827
 20
171.5973420083057
 30
0.0
 11
81.40711431193489
 21
171.7973420083057
 31
0.0
  0
LINE
  5
4B3
330
1F
100
AcDbEntity
  8
0
 62
     2
100
AcDbLine
 10
79.7521181764696
 20
171.7973420083057
 30
0.0
 11
79.75211817646971
 21
171.5973420083057
 31
0.0
  0
LINE
  5
4B4
330
1F
100
AcDbEntity
  8
0
 62
     2
100
AcDbLine
 10
49.04676831133941
 20
171.5973420083057
 30
0.0
 11
49.04676831133924
 21
171.7973420083103
 31
0.0
  0
LINE
  5
4B5
330
1F
100
AcDbEntity
  8
0
 62
     2
100
AcDbLine
 10
47.46394571142196
 20
171.5973420083057
 30
0.0
 11
47.39177610786999
 21
171.7973420083057
 31
0.0
  0
LINE
  5
4B6
330
1F
100
AcDbEntity
  8
0
 62
     2
100
AcDbLine
 10
46.8983236602777
 20
171.5973420083057
 30
0.0
 11
46.98776032736657
 21
171.7973420083057
 31
0.0
  0
LINE
  5
4B7
330
1F
100
AcDbEntity
  8
0
 62
     2
100
AcDbLine
 10
46.0283173931947
 20
171.5973420083057
 30
0.0
 11
46.11775406028357
 21
171.7973420083057
 31
0.0
  0
LINE
  5
4B8
330
1F
100
AcDbEntity
  8
0
 62
     2
100
AcDbLine
 10
45.24944405901681
 20
171.7973420083057
 30
0.0
 11
45.44944405901686
 21
171.5973420083057
 31
0.0
  0
LINE
  5
4B9
330
1F
100
AcDbEntity
  8
0
 62
     2
100
AcDbLine
 10
58.54944428476318
 20
171.7973420083075
 30
0.0
 11
58.34944428476371
 21
171.5973420083057
 31
0.0
  0
LINE
  5
4BA
330
1F
100
AcDbEntity
  8
0
 62
     2
100
AcDbLine
 10
65.64944403196625
 20
171.7973420083032
 30
0.0
 11
65.4494440319578
 21
171.5973420083057
 31
0.0
  0
LINE
  5
4BB
330
1F
100
AcDbEntity
  8
0
 62
     2
100
AcDbLine
 10
63.34944428479542
 20
171.5973420083057
 30
0.0
 11
63.14944428480277
 21
171.7973420083014
 31
0.0
  0
LINE
  5
4BC
330
1F
100
AcDbEntity
  8
0
 62
     2
100
AcDbLine
 10
70.44944403191437
 20
171.5973420083057
 30
0.0
 11
70.24944403191239
 21
171.797342008309
 31
0.0
  0
LINE
  5
4BD
330
1F
100
AcDbEntity
  8
0
 62
     2
100
AcDbLine
 10
69.44945030957598
 20
172.5973363261849
 30
0.0
 11
69.9494437266103
 21
172.0973423136384
 31
0.0
  0
LINE
  5
4BE
330
1F
100
AcDbEntity
  8
0
 62
     2
100
AcDbLine
 10
65.9494443372439
 20
172.0973423136055
 30
0.0
 11
66.44943775427782
 21
172.5973363261849
 31
0.0
  0
LINE
  5
4BF
330
1F
100
AcDbEntity
  8
0
 62
     2
100
AcDbLine
 10
70.24944403191569
 20
171.7973420083057
 30
0.0
 11
69.94944403191221
 21
172.0973420083092
 31
0.0
  0
LINE
  5
4C0
330
1F
100
AcDbEntity
  8
0
 62
     2
100
AcDbLine
 10
65.949444031942
 20
172.097342008279
 30
0.0
 11
65.64944403196876
 21
171.7973420083057
 31
0.0
  0
LINE
  5
4C1
330
1F
100
AcDbEntity
  8
0
 62
     2
100
AcDbLine
 10
62.34945056245454
 20
172.5973363261849
 30
0.0
 11
62.84944397948982
 21
172.0973423136389
 31
0.0
  0
LINE
  5
4C2
330
1F
100
AcDbEntity
  8
0
 62
     2
100
AcDbLine
 10
58.84944459006863
 20
172.0973423136375
 30
0.0
 11
59.34943800710346
 21
172.5973363261849
 31
0.0
  0
LINE
  5
4C3
330
1F
100
AcDbEntity
  8
0
 62
     2
100
AcDbLine
 10
63.14944428479839
 20
171.7973420083057
 30
0.0
 11
62.84944428479173
 21
172.0973420083124
 31
0.0
  0
LINE
  5
4C4
330
1F
100
AcDbEntity
  8
0
 62
     2
100
AcDbLine
 10
58.84944428476672
 20
172.097342008311
 30
0.0
 11
58.54944428476142
 21
171.7973420083057
 31
0.0
  0
LINE
  5
4C5
330
1F
100
AcDbEntity
  8
0
 62
     2
100
AcDbLine
 10
35.74947563931875
 20
179.9473421317056
 30
0.0
 11
35.74947563931875
 21
181.9473421317056
 31
0.0
  0
LINE
  5
4C6
330
1F
100
AcDbEntity
  8
0
 62
     2
100
AcDbLine
 10
36.62815529575914
 20
179.9473421317055
 30
0.0
 11
36.62815529575914
 21
181.9473421317056
 31
0.0
  0
LINE
  5
4C7
330
1F
100
AcDbEntity
  8
0
 62
     2
100
AcDbLine
 10
46.58539193216598
 20
179.9473421317055
 30
0.0
 11
46.58539193216603
 21
181.9473421317057
 31
0.0
  0
LINE
  5
4C8
330
1F
100
AcDbEntity
  8
0
 62
     2
100
AcDbLine
 10
48.70671227572541
 20
179.9473421317054
 30
0.0
 11
48.70671227572541
 21
181.9473421317055
 31
0.0
  0
LINE
  5
4C9
330
1F
100
AcDbEntity
  8
0
 62
     2
100
AcDbLine
 10
80.09223900291181
 20
179.9473421317055
 30
0.0
 11
80.09223900291181
 21
181.9473421317056
 31
0.0
  0
LINE
  5
4CA
330
1F
100
AcDbEntity
  8
0
 62
     2
100
AcDbLine
 10
82.21355934647136
 20
179.9473421317055
 30
0.0
 11
82.21355934647136
 21
181.9473421317055
 31
0.0
  0
LINE
  5
4CB
330
1F
100
AcDbEntity
  8
0
 62
     2
100
AcDbLine
 10
92.1707959828783
 20
179.9473421317055
 30
0.0
 11
92.1707959828783
 21
181.9473421317056
 31
0.0
  0
LINE
  5
4CC
330
1F
100
AcDbEntity
  8
0
 62
     2
100
AcDbLine
 10
93.0494756393187
 20
179.9473421317055
 30
0.0
 11
93.0494756393187
 21
181.9473421317055
 31
0.0
  0
LINE
  5
4CD
330
1F
100
AcDbEntity
  8
0
 62
     2
100
AcDbLine
 10
46.58539193216603
 20
181.9473421317055
 30
0.0
 11
36.62815529575914
 21
181.9473421317056
 31
0.0
  0
LINE
  5
4CE
330
1F
100
AcDbEntity
  8
0
 62
     2
100
AcDbLine
 10
80.09223900291181
 20
181.9473421317055
 30
0.0
 11
48.70671227572564
 21
181.9473421317055
 31
0.0
  0
LINE
  5
4CF
330
1F
100
AcDbEntity
  8
0
 62
     2
100
AcDbLine
 10
92.1707959828783
 20
181.9473421317055
 30
0.0
 11
82.21355934647141
 21
181.9473421317055
 31
0.0
  0
LINE
  5
4D0
330
1F
100
AcDbEntity
  8
0
 62
     2
100
AcDbLine
 10
31.14944444140053
 20
176.4473421317055
 30
0.0
 11
32.57212950741228
 21
176.4473421317055
 31
0.0
  0
LINE
  5
4D1
330
1F
100
AcDbEntity
  8
0
 62
     2
100
AcDbLine
 10
41.29017979318894
 20
176.4473421317055
 30
0.0
 11
41.29340367739223
 21
176.4473421317055
 31
0.0
  0
LINE
  5
4D2
330
1F
100
AcDbEntity
  8
0
 62
     2
100
AcDbLine
 10
38.80916025907356
 20
176.4473421317055
 30
0.0
 11
41.29017979318894
 21
176.4473421317055
 31
0.0
  0
LINE
  5
4D3
330
1F
100
AcDbEntity
  8
0
 62
     2
100
AcDbLine
 10
41.29340367739223
 20
176.4473421317056
 30
0.0
 11
45.30510461318062
 21
176.4473421317055
 31
0.0
  0
LINE
  5
4D4
330
1F
100
AcDbEntity
  8
0
 62
     2
100
AcDbLine
 10
41.29340367739223
 20
176.4473421317056
 30
0.0
 11
41.29340367739223
 21
178.4473421317055
 31
0.0
  0
LINE
  5
4D5
330
1F
100
AcDbEntity
  8
0
 62
     2
100
AcDbLine
 10
87.5054852054094
 20
176.4473421317056
 30
0.0
 11
89.99450107518607
 21
176.4473421317056
 31
0.0
  0
LINE
  5
4D6
330
1F
100
AcDbEntity
  8
0
 62
     2
100
AcDbLine
 10
83.49809843085666
 20
176.4473421317056
 30
0.0
 11
87.5054852054094
 21
176.4473421317055
 31
0.0
  0
LINE
  5
4D7
330
1F
100
AcDbEntity
  8
0
 62
     2
100
AcDbLine
 10
87.5054852054094
 20
176.4473421317055
 30
0.0
 11
87.5054852054094
 21
178.4473421317056
 31
0.0
  0
LINE
  5
4D8
330
1F
100
AcDbEntity
  8
0
 62
     2
100
AcDbLine
 10
96.23153182684689
 20
176.4473421317055
 30
0.0
 11
97.64944444140065
 21
176.4473421317055
 31
0.0
  0
LINE
  5
4D9
330
1F
100
AcDbEntity
  8
0
 62
     2
100
AcDbLine
 10
34.53081529129901
 20
175.947342255101
 30
0.0
 11
34.53081529129901
 21
179.947342255101
 31
0.0
  0
LINE
  5
4DA
330
1F
100
AcDbEntity
  8
0
 62
     2
100
AcDbLine
 10
94.27284547432362
 20
175.9473422551011
 30
0.0
 11
94.27284547432362
 21
179.9473422551011
 31
0.0
  0
LINE
  5
4DB
330
1F
100
AcDbEntity
  8
0
 62
     2
100
AcDbLine
 10
87.85903859600268
 20
175.9473421317055
 30
0.0
 11
87.5054852054094
 21
176.4473421317055
 31
0.0
  0
LINE
  5
4DC
330
1F
100
AcDbEntity
  8
0
 62
     2
100
AcDbLine
 10
40.93985028679896
 20
175.9473421317055
 30
0.0
 11
41.29340367739223
 21
176.4473421317056
 31
0.0
  0
POINT
  5
4DD
330
1F
100
AcDbEntity
  8
Outline
100
AcDbPoint
 10
64.39944444140059
 20
247.1973421317059
 30
0.0
  0
ARC
  5
4DE
330
1F
100
AcDbEntity
  8
0
 62
     2
100
AcDbCircle
 10
65.94944403193608
 20
228.5473429197195
 30
0.0
 40
0.5
100
AcDbArc
 50
270.2871124984849
 51
359.9999650149621
  0
ARC
  5
4DF
330
1F
100
AcDbEntity
  8
0
 62
     2
100
AcDbCircle
 10
58.84944428481953
 20
228.5473426144158
 30
0.0
 40
0.5
100
AcDbArc
 50
270.2871124984849
 51
359.9999650149621
  0
ARC
  5
4E0
330
1F
100
AcDbEntity
  8
0
 62
     2
100
AcDbCircle
 10
62.84944428479093
 20
265.847335218632
 30
0.0
 40
0.5
100
AcDbArc
 50
90.0000349850479
 51
179.7128874996856
  0
POINT
  5
4E1
330
1F
100
AcDbEntity
  8
Outline
100
AcDbPoint
 10
64.3994444414006
 20
247.1973421317059
 30
0.0
  0
DIMENSION
  5
4EA
330
1F
100
AcDbEntity
  8
Dimension
100
AcDbDimension
280
     0
  2
*D8
 10
83.54944796263761
 20
204.0168556238618
 30
0.0
 11
64.67678303719887
 21
204.0168556238618
 31
0.0
 70
   160
 71
     5
 42
38.29999999996677
 73
     0
 74
     0
 75
     0
  3
VCDDIMSTYLE01
100
AcDbAlignedDimension
 13
45.24944796267084
 23
231.593792033899
 33
0.0
 14
83.54944796263761
 24
231.5937940137136
 34
0.0
100
AcDbRotatedDimension
1001
ACAD
1000
DSTYLE
1002
{
1070
   271
1070
     4
1002
}
  0
DIMENSION
  5
4F8
330
1F
100
AcDbEntity
  8
Dimension
100
AcDbDimension
280
     0
  2
*D9
 10
108.1647989800577
 20
228.0473425088084
 30
0.0
 11
108.1647989800577
 21
248.2113051218345
 31
0.0
 70
   160
 71
     5
 42
38.29999260418964
 73
     0
 74
     0
 75
     0
  3
VCDDIMSTYLE01
100
AcDbAlignedDimension
 13
80.00299597241616
 23
266.3473351129981
 33
0.0
 14
80.00299761595596
 24
228.0473425088084
 34
0.0
 50
90.0
100
AcDbRotatedDimension
1001
ACAD
1000
DSTYLE
1002
{
1070
   271
1070
     4
1002
}
  0
DIMENSION
  5
507
330
1F
100
AcDbEntity
  8
Dimension
100
AcDbDimension
280
     0
  2
*D10
 10
108.3716968513487
 20
171.5973419026778
 30
0.0
 11
108.3716968513487
 21
200.6616277403634
 31
0.0
 70
   160
 71
     5
 42
10.35000012339981
 73
     0
 74
     0
 75
     0
  3
VCDDIMSTYLE01
100
AcDbAlignedDimension
 13
93.04947954295332
 23
181.9473420260776
 33
0.0
 14
83.34944796267206
 24
171.5973419026778
 34
0.0
 50
90.0
100
AcDbRotatedDimension
1001
ACAD
1000
DSTYLE
1002
{
1070
   271
1070
     4
1002
}
  0
DIMENSION
  5
515
330
1F
100
AcDbEntity
  8
Dimension
100
AcDbDimension
280
     0
  2
*D11
 10
108.627122558834
 20
73.09734190267694
 30
0.0
 11
108.627122558834
 21
107.3726010862798
 31
0.0
 70
   160
 71
     5
 42
66.50000000000038
 73
     0
 74
     0
 75
     0
  3
VCDDIMSTYLE01
100
AcDbAlignedDimension
 13
88.57181991280879
 23
139.5973419026773
 33
0.0
 14
88.57181991280892
 24
73.09734190267694
 34
0.0
 50
90.0
100
AcDbRotatedDimension
1001
ACAD
1000
DSTYLE
1002
{
1070
   271
1070
     4
1002
}
  0
DIMENSION
  5
522
330
1F
100
AcDbEntity
  8
Dimension
100
AcDbDimension
280
     0
  2
*D12
 10
97.64944834503521
 20
150.0139219778694
 30
0.0
 11
63.81218608973491
 21
150.0139219778694
 31
0.0
 70
   160
 71
     5
 42
66.50000000000009
 73
     0
 74
     0
 75
     0
  3
VCDDIMSTYLE01
100
AcDbAlignedDimension
 13
31.14944834503513
 23
130.5197134704505
 33
0.0
 14
97.64944834503521
 24
130.519713470451
 34
0.0
100
AcDbRotatedDimension
1001
ACAD
1000
DSTYLE
1002
{
1070
   271
1070
     4
1002
}
  0
INSERT
  5
556
330
1F
100
AcDbEntity
  8
Outline
100
AcDbBlockReference
  2
$TitleBlock elphel_parts
 10
200.0
 20
10.0
 30
0.0
  0
INSERT
  5
55C
330
1F
100
AcDbEntity
  8
Outline
100
AcDbBlockReference
  2
Sheet Border
 10
0.0
 20
0.0
 30
0.0
  0
ENDSEC
  0
SECTION
  2
OBJECTS
  0
DICTIONARY
  5
C
330
0
100
AcDbDictionary
281
     1
  3
ACAD_DETAILVIEWSTYLE
350
566
  3
ACAD_GROUP
350
D
  3
ACAD_LAYOUT
350
1A
  3
ACAD_MATERIAL
350
43
  3
ACAD_MLEADERSTYLE
350
6B
  3
ACAD_MLINESTYLE
350
17
  3
ACAD_PLOTSETTINGS
350
19
  3
ACAD_PLOTSTYLENAME
350
E
  3
ACAD_SCALELIST
350
47
  3
ACAD_SECTIONVIEWSTYLE
350
567
  3
ACAD_TABLESTYLE
350
69
  3
ACAD_VISUALSTYLE
350
2A
  3
ACDB_RECOMPOSE_DATA
350
563
  3
AcDbVariableDictionary
350
55F
  0
SUN
  5
6D
330
29
100
AcDbSun
 90
        1
290
     0
 63
     7
421
 16777215
 40
1.0
291
     1
 91
  2455826
 92
 54000000
292
     0
 70
     2
 71
   256
280
     1
  0
DICTIONARY
  5
566
102
{ACAD_REACTORS
330
C
102
}
330
C
100
AcDbDictionary
281
     1
  0
DICTIONARY
  5
D
102
{ACAD_REACTORS
330
C
102
}
330
C
100
AcDbDictionary
281
     1
  0
DICTIONARY
  5
1A
102
{ACAD_REACTORS
330
C
102
}
330
C
100
AcDbDictionary
281
     1
  3
Layout1
350
1E
  3
Layout2
350
26
  3
Model
350
22
  0
DICTIONARY
  5
43
102
{ACAD_REACTORS
330
C
102
}
330
C
100
AcDbDictionary
281
     1
  3
ByBlock
350
45
  3
ByLayer
350
44
  3
Global
350
46
  0
DICTIONARY
  5
6B
102
{ACAD_REACTORS
330
C
102
}
330
C
100
AcDbDictionary
281
     1
  3
Standard
350
6C
  0
DICTIONARY
  5
17
102
{ACAD_REACTORS
330
C
102
}
330
C
100
AcDbDictionary
281
     1
  3
Standard
350
18
  0
DICTIONARY
  5
19
102
{ACAD_REACTORS
330
C
102
}
330
C
100
AcDbDictionary
281
     1
  0
ACDBDICTIONARYWDFLT
  5
E
102
{ACAD_REACTORS
330
C
102
}
330
C
100
AcDbDictionary
281
     1
  3
Normal
350
F
100
AcDbDictionaryWithDefault
340
F
  0
DICTIONARY
  5
47
102
{ACAD_REACTORS
330
C
102
}
330
C
100
AcDbDictionary
281
     1
  3
A0
350
48
  3
A1
350
49
  3
A2
350
4A
  3
A3
350
4B
  3
A4
350
4C
  3
A5
350
4D
  3
A6
350
4E
  3
A7
350
4F
  3
A8
350
50
  3
A9
350
51
  3
B0
350
52
  3
B1
350
53
  3
B2
350
54
  3
B3
350
55
  3
B4
350
56
  3
B5
350
57
  3
B6
350
58
  3
B7
350
59
  3
B8
350
5A
  3
B9
350
5B
  3
C0
350
5C
  3
C1
350
5D
  3
C2
350
5E
  3
C3
350
5F
  3
C4
350
60
  3
C5
350
61
  3
C6
350
62
  3
C7
350
63
  3
C8
350
64
  3
C9
350
65
  3
D0
350
66
  3
D1
350
67
  3
D2
350
68
  0
DICTIONARY
  5
567
102
{ACAD_REACTORS
330
C
102
}
330
C
100
AcDbDictionary
281
     1
  0
DICTIONARY
  5
69
102
{ACAD_REACTORS
330
C
102
}
330
C
100
AcDbDictionary
281
     1
  3
Standard
350
6A
  0
DICTIONARY
  5
2A
102
{ACAD_REACTORS
330
C
102
}
330
C
100
AcDbDictionary
281
     1
  3
2dWireframe
350
2F
  3
Basic
350
32
  3
Brighten
350
36
  3
ColorChange
350
3A
  3
Conceptual
350
34
  3
Dim
350
35
  3
EdgeColorOff
350
3D
  3
Facepattern
350
39
  3
Flat
350
2B
  3
FlatWithEdges
350
2C
  3
Gouraud
350
2D
  3
GouraudWithEdges
350
2E
  3
Hidden
350
31
  3
JitterOff
350
3B
  3
Linepattern
350
38
  3
OverhangOff
350
3C
  3
Realistic
350
33
  3
Shaded
350
42
  3
Shaded with edges
350
41
  3
Shades of Gray
350
3E
  3
Sketchy
350
3F
  3
Thicken
350
37
  3
Wireframe
350
30
  3
X-Ray
350
40
  0
XRECORD
  5
563
102
{ACAD_REACTORS
330
C
102
}
330
C
100
AcDbXrecord
280
     1
 90
        1
330
6A
  0
DICTIONARY
  5
55F
102
{ACAD_REACTORS
330
C
102
}
330
C
100
AcDbDictionary
281
     1
  3
CANNOSCALE
350
560
  3
CMLEADERSTYLE
350
565
  3
CTABLESTYLE
350
564
  0
LAYOUT
  5
1E
102
{ACAD_REACTORS
330
1A
102
}
330
1A
100
AcDbPlotSettings
  1

  2
none_device
  4

  6

 40
0.0
 41
0.0
 42
0.0
 43
0.0
 44
0.0
 45
0.0
 46
0.0
 47
0.0
 48
0.0
 49
0.0
140
0.0
141
0.0
142
1.0
143
1.0
 70
   688
 72
     1
 73
     0
 74
     5
  7

 75
    16
 76
     0
 77
     2
 78
   300
147
1.0
148
0.0
149
0.0
100
AcDbLayout
  1
Layout1
 70
     1
 71
     1
 10
0.0
 20
0.0
 11
420.0
 21
297.0
 12
0.0
 22
0.0
 32
0.0
 14
1.000000000000000E+20
 24
1.000000000000000E+20
 34
1.000000000000000E+20
 15
-1.000000000000000E+20
 25
-1.000000000000000E+20
 35
-1.000000000000000E+20
146
0.0
 13
0.0
 23
0.0
 33
0.0
 16
1.0
 26
0.0
 36
0.0
 17
0.0
 27
1.0
 37
0.0
 76
     0
330
1B
  0
LAYOUT
  5
26
102
{ACAD_REACTORS
330
1A
102
}
330
1A
100
AcDbPlotSettings
  1

  2
none_device
  4

  6

 40
0.0
 41
0.0
 42
0.0
 43
0.0
 44
0.0
 45
0.0
 46
0.0
 47
0.0
 48
0.0
 49
0.0
140
0.0
141
0.0
142
1.0
143
1.0
 70
   688
 72
     1
 73
     0
 74
     5
  7

 75
    16
 76
     0
 77
     2
 78
   300
147
1.0
148
0.0
149
0.0
100
AcDbLayout
  1
Layout2
 70
     1
 71
     2
 10
0.0
 20
0.0
 11
0.0
 21
0.0
 12
0.0
 22
0.0
 32
0.0
 14
0.0
 24
0.0
 34
0.0
 15
0.0
 25
0.0
 35
0.0
146
0.0
 13
0.0
 23
0.0
 33
0.0
 16
1.0
 26
0.0
 36
0.0
 17
0.0
 27
1.0
 37
0.0
 76
     0
330
23
  0
LAYOUT
  5
22
102
{ACAD_REACTORS
330
1A
102
}
330
1A
100
AcDbPlotSettings
  1

  2
none_device
  4
Letter_(8.50_x_11.00_Inches)
  6

 40
6.35
 41
6.35
 42
6.35000508
 43
6.35000508
 44
215.9
 45
279.4
 46
0.0
 47
0.0
 48
0.0
 49
0.0
140
0.0
141
0.0
142
1.0
143
1.0
 70
  1712
 72
     1
 73
     0
 74
     0
  7

 75
     0
 76
     0
 77
     2
 78
   300
147
1.0
148
0.0
149
0.0
100
AcDbLayout
  1
Model
 70
     1
 71
     0
 10
0.0
 20
0.0
 11
210.0
 21
297.0
 12
0.0
 22
0.0
 32
0.0
 14
0.0
 24
0.0
 34
0.0
 15
210.0
 25
297.0
 35
0.0
146
0.0
 13
0.0
 23
0.0
 33
0.0
 16
1.0
 26
0.0
 36
0.0
 17
0.0
 27
1.0
 37
0.0
 76
     0
330
1F
331
29
  0
MATERIAL
  5
45
102
{ACAD_REACTORS
330
43
102
}
330
43
100
AcDbMaterial
  1
ByBlock
 72
     1
 94
      127
  0
MATERIAL
  5
44
102
{ACAD_REACTORS
330
43
102
}
330
43
100
AcDbMaterial
  1
ByLayer
 72
     1
 94
      127
  0
MATERIAL
  5
46
102
{ACAD_REACTORS
330
43
102
}
330
43
100
AcDbMaterial
  1
Global
 72
     1
 94
      127
  0
MLEADERSTYLE
  5
6C
102
{ACAD_REACTORS
330
6B
102
}
330
6B
100
AcDbMLeaderStyle
179
     2
170
     2
171
     1
172
     0
 90
        2
 40
0.0
 41
0.0
173
     1
 91
-1056964608
340
14
 92
       -2
290
     1
 42
2.0
291
     1
 43
8.0
  3
Standard
341
0
 44
4.0
300

342
11
174
     1
178
     6
175
     1
176
     0
 93
-1056964608
 45
4.0
292
     0
297
     0
 46
4.0
343
0
 94
-1056964608
 47
1.0
 49
1.0
140
1.0
293
     1
141
0.0
294
     1
177
     0
142
1.0
295
     0
296
     0
143
3.75
271
     0
272
     9
273
     9
298
     0
  0
MLINESTYLE
  5
18
102
{ACAD_REACTORS
330
17
102
}
330
17
100
AcDbMlineStyle
  2
Standard
 70
     0
  3

 62
   256
 51
90.0
 52
90.0
 71
     2
 49
0.5
 62
   256
  6
BYLAYER
 49
-0.5
 62
   256
  6
BYLAYER
  0
ACDBPLACEHOLDER
  5
F
102
{ACAD_REACTORS
330
E
102
}
330
E
  0
SCALE
  5
48
102
{ACAD_REACTORS
330
47
102
}
330
47
100
AcDbScale
 70
     0
300
1:1
140
1.0
141
1.0
290
     1
  0
SCALE
  5
49
102
{ACAD_REACTORS
330
47
102
}
330
47
100
AcDbScale
 70
     0
300
1:2
140
1.0
141
2.0
290
     0
  0
SCALE
  5
4A
102
{ACAD_REACTORS
330
47
102
}
330
47
100
AcDbScale
 70
     0
300
1:4
140
1.0
141
4.0
290
     0
  0
SCALE
  5
4B
102
{ACAD_REACTORS
330
47
102
}
330
47
100
AcDbScale
 70
     0
300
1:5
140
1.0
141
5.0
290
     0
  0
SCALE
  5
4C
102
{ACAD_REACTORS
330
47
102
}
330
47
100
AcDbScale
 70
     0
300
1:8
140
1.0
141
8.0
290
     0
  0
SCALE
  5
4D
102
{ACAD_REACTORS
330
47
102
}
330
47
100
AcDbScale
 70
     0
300
1:10
140
1.0
141
10.0
290
     0
  0
SCALE
  5
4E
102
{ACAD_REACTORS
330
47
102
}
330
47
100
AcDbScale
 70
     0
300
1:16
140
1.0
141
16.0
290
     0
  0
SCALE
  5
4F
102
{ACAD_REACTORS
330
47
102
}
330
47
100
AcDbScale
 70
     0
300
1:20
140
1.0
141
20.0
290
     0
  0
SCALE
  5
50
102
{ACAD_REACTORS
330
47
102
}
330
47
100
AcDbScale
 70
     0
300
1:30
140
1.0
141
30.0
290
     0
  0
SCALE
  5
51
102
{ACAD_REACTORS
330
47
102
}
330
47
100
AcDbScale
 70
     0
300
1:40
140
1.0
141
40.0
290
     0
  0
SCALE
  5
52
102
{ACAD_REACTORS
330
47
102
}
330
47
100
AcDbScale
 70
     0
300
1:50
140
1.0
141
50.0
290
     0
  0
SCALE
  5
53
102
{ACAD_REACTORS
330
47
102
}
330
47
100
AcDbScale
 70
     0
300
1:100
140
1.0
141
100.0
290
     0
  0
SCALE
  5
54
102
{ACAD_REACTORS
330
47
102
}
330
47
100
AcDbScale
 70
     0
300
2:1
140
2.0
141
1.0
290
     0
  0
SCALE
  5
55
102
{ACAD_REACTORS
330
47
102
}
330
47
100
AcDbScale
 70
     0
300
4:1
140
4.0
141
1.0
290
     0
  0
SCALE
  5
56
102
{ACAD_REACTORS
330
47
102
}
330
47
100
AcDbScale
 70
     0
300
8:1
140
8.0
141
1.0
290
     0
  0
SCALE
  5
57
102
{ACAD_REACTORS
330
47
102
}
330
47
100
AcDbScale
 70
     0
300
10:1
140
10.0
141
1.0
290
     0
  0
SCALE
  5
58
102
{ACAD_REACTORS
330
47
102
}
330
47
100
AcDbScale
 70
     0
300
100:1
140
100.0
141
1.0
290
     0
  0
SCALE
  5
59
102
{ACAD_REACTORS
330
47
102
}
330
47
100
AcDbScale
 70
     0
300
1/128" = 1'-0"
140
0.0078125
141
12.0
290
     0
  0
SCALE
  5
5A
102
{ACAD_REACTORS
330
47
102
}
330
47
100
AcDbScale
 70
     0
300
1/64" = 1'-0"
140
0.015625
141
12.0
290
     0
  0
SCALE
  5
5B
102
{ACAD_REACTORS
330
47
102
}
330
47
100
AcDbScale
 70
     0
300
1/32" = 1'-0"
140
0.03125
141
12.0
290
     0
  0
SCALE
  5
5C
102
{ACAD_REACTORS
330
47
102
}
330
47
100
AcDbScale
 70
     0
300
1/16" = 1'-0"
140
0.0625
141
12.0
290
     0
  0
SCALE
  5
5D
102
{ACAD_REACTORS
330
47
102
}
330
47
100
AcDbScale
 70
     0
300
3/32" = 1'-0"
140
0.09375
141
12.0
290
     0
  0
SCALE
  5
5E
102
{ACAD_REACTORS
330
47
102
}
330
47
100
AcDbScale
 70
     0
300
1/8" = 1'-0"
140
0.125
141
12.0
290
     0
  0
SCALE
  5
5F
102
{ACAD_REACTORS
330
47
102
}
330
47
100
AcDbScale
 70
     0
300
3/16" = 1'-0"
140
0.1875
141
12.0
290
     0
  0
SCALE
  5
60
102
{ACAD_REACTORS
330
47
102
}
330
47
100
AcDbScale
 70
     0
300
1/4" = 1'-0"
140
0.25
141
12.0
290
     0
  0
SCALE
  5
61
102
{ACAD_REACTORS
330
47
102
}
330
47
100
AcDbScale
 70
     0
300
3/8" = 1'-0"
140
0.375
141
12.0
290
     0
  0
SCALE
  5
62
102
{ACAD_REACTORS
330
47
102
}
330
47
100
AcDbScale
 70
     0
300
1/2" = 1'-0"
140
0.5
141
12.0
290
     0
  0
SCALE
  5
63
102
{ACAD_REACTORS
330
47
102
}
330
47
100
AcDbScale
 70
     0
300
3/4" = 1'-0"
140
0.75
141
12.0
290
     0
  0
SCALE
  5
64
102
{ACAD_REACTORS
330
47
102
}
330
47
100
AcDbScale
 70
     0
300
1" = 1'-0"
140
1.0
141
12.0
290
     0
  0
SCALE
  5
65
102
{ACAD_REACTORS
330
47
102
}
330
47
100
AcDbScale
 70
     0
300
1-1/2" = 1'-0"
140
1.5
141
12.0
290
     0
  0
SCALE
  5
66
102
{ACAD_REACTORS
330
47
102
}
330
47
100
AcDbScale
 70
     0
300
3" = 1'-0"
140
3.0
141
12.0
290
     0
  0
SCALE
  5
67
102
{ACAD_REACTORS
330
47
102
}
330
47
100
AcDbScale
 70
     0
300
6" = 1'-0"
140
6.0
141
12.0
290
     0
  0
SCALE
  5
68
102
{ACAD_REACTORS
330
47
102
}
330
47
100
AcDbScale
 70
     0
300
1'-0" = 1'-0"
140
12.0
141
12.0
290
     0
  0
TABLESTYLE
  5
6A
102
{ACAD_REACTORS
330
69
102
}
102
{ACAD_XDICTIONARY
360
561
102
}
330
69
100
AcDbTableStyle
  3
Standard
 70
     0
 71
     0
 40
0.06
 41
0.06
280
     0
281
     0
  7
Standard
140
4.5
170
     2
 62
     0
 63
   257
283
     0
 90
        4
 91
        0
  1

274
    -2
284
     1
 64
     0
275
    -2
285
     1
 65
     0
276
    -2
286
     1
 66
     0
277
    -2
287
     1
 67
     0
278
    -2
288
     1
 68
     0
279
    -2
289
     1
 69
     0
  7
Standard
140
6.0
170
     5
 62
     0
 63
   257
283
     0
 90
        4
 91
        0
  1

274
    -2
284
     1
 64
     0
275
    -2
285
     1
 65
     0
276
    -2
286
     1
 66
     0
277
    -2
287
     1
 67
     0
278
    -2
288
     1
 68
     0
279
    -2
289
     1
 69
     0
  7
Standard
140
4.5
170
     5
 62
     0
 63
   257
283
     0
 90
        4
 91
        0
  1

274
    -2
284
     1
 64
     0
275
    -2
285
     1
 65
     0
276
    -2
286
     1
 66
     0
277
    -2
287
     1
 67
     0
278
    -2
288
     1
 68
     0
279
    -2
289
     1
 69
     0
  0
VISUALSTYLE
  5
2F
102
{ACAD_REACTORS
330
2A
102
}
330
2A
100
AcDbVisualStyle
  2
2dWireframe
 70
     4
177
     3
291
     0
 70
    58
 90
        0
176
     1
 90
        2
176
     1
 90
        0
176
     1
 90
        0
176
     1
 40
0.6
176
     1
 40
30.0
176
     1
 62
     7
420
 16777215
176
     1
 90
        1
176
     1
 90
        4
176
     1
 62
     7
176
     1
 62
   257
176
     1
 90
        1
176
     1
 90
        1
176
     1
 40
1.0
176
     1
 90
        0
176
     1
 62
   257
176
     1
 40
1.0
176
     1
 90
        1
176
     1
 90
        6
176
     1
 90
        2
176
     1
 62
     7
176
     1
 90
        5
176
     1
 90
        0
176
     1
 90
        0
176
     1
290
     0
176
     1
 90
        1
176
     1
 40
0.0
176
     1
 90
        0
176
     1
290
     1
176
     1
290
     1
176
     1
290
     0
176
     1
290
     0
176
     1
290
     0
176
     1
290
     0
176
     1
290
     0
176
     1
290
     0
176
     1
290
     0
176
     1
 90
       50
176
     1
 40
0.0
176
     1
 40
1.0
176
     1
 90
        0
176
     1
 62
   178
420
        0
176
     1
 90
       50
176
     1
 90
        3
176
     1
 62
     5
420
      255
176
     1
290
     0
176
     1
 90
       50
176
     1
 90
       50
176
     1
 90
       50
176
     1
290
     0
176
     1
 90
       50
176
     1
 62
   256
176
     0
 40
1.0
176
     0
 90
        2
176
     1
  1
strokes_ogs.tif
176
     1
290
     0
176
     1
 40
1.0
176
     1
 40
1.0
176
     1
  0
VISUALSTYLE
  5
32
102
{ACAD_REACTORS
330
2A
102
}
330
2A
100
AcDbVisualStyle
  2
Basic
 70
     7
177
     3
291
     1
 70
    58
 90
        1
176
     1
 90
        0
176
     1
 90
        1
176
     1
 90
        0
176
     1
 40
0.6
176
     1
 40
30.0
176
     1
 62
     7
420
 16777215
176
     1
 90
        0
176
     1
 90
        4
176
     1
 62
     7
176
     1
 62
   257
176
     1
 90
        1
176
     1
 90
        1
176
     1
 40
1.0
176
     1
 90
        8
176
     1
 62
     7
176
     1
 40
1.0
176
     1
 90
        1
176
     1
 90
        6
176
     1
 90
        2
176
     1
 62
     7
176
     1
 90
        5
176
     1
 90
        0
176
     1
 90
        0
176
     1
290
     0
176
     1
 90
        1
176
     1
 40
0.0
176
     1
 90
        0
176
     1
290
     0
176
     1
290
     1
176
     1
290
     1
176
     1
290
     0
176
     1
290
     0
176
     1
290
     0
176
     1
290
     0
176
     1
290
     0
176
     1
290
     0
176
     1
 90
       50
176
     1
 40
0.0
176
     1
 40
1.0
176
     1
 90
        0
176
     1
 62
   178
420
        0
176
     1
 90
       50
176
     1
 90
        3
176
     1
 62
     5
420
      255
176
     1
290
     0
176
     1
 90
       50
176
     1
 90
       50
176
     1
 90
       50
176
     1
290
     0
176
     1
 90
       50
176
     1
 62
   256
176
     0
 40
1.0
176
     0
 90
        2
176
     1
  1
strokes_ogs.tif
176
     1
290
     0
176
     1
 40
1.0
176
     1
 40
1.0
176
     1
  0
VISUALSTYLE
  5
36
102
{ACAD_REACTORS
330
2A
102
}
330
2A
100
AcDbVisualStyle
  2
Brighten
 70
    12
177
     3
291
     1
 70
    58
 90
        2
176
     1
 90
        2
176
     1
 90
        0
176
     1
 90
        0
176
     1
 40
0.6
176
     1
 40
30.0
176
     1
 62
     7
420
 16777215
176
     1
 90
        1
176
     1
 90
        4
176
     1
 62
     7
176
     1
 62
   257
176
     1
 90
        1
176
     1
 90
        1
176
     1
 40
1.0
176
     1
 90
        8
176
     1
 62
     7
176
     1
 40
1.0
176
     1
 90
        1
176
     1
 90
        6
176
     1
 90
        2
176
     1
 62
     7
176
     1
 90
        5
176
     1
 90
        0
176
     1
 90
        0
176
     1
290
     0
176
     1
 90
        1
176
     1
 40
50.0
176
     1
 90
        0
176
     1
290
     0
176
     1
290
     1
176
     1
290
     1
176
     1
290
     0
176
     1
290
     0
176
     1
290
     0
176
     1
290
     0
176
     1
290
     0
176
     1
290
     0
176
     1
 90
       50
176
     1
 40
0.0
176
     1
 40
1.0
176
     1
 90
        0
176
     1
 62
   178
420
        0
176
     1
 90
       50
176
     1
 90
        3
176
     1
 62
     5
420
      255
176
     1
290
     0
176
     1
 90
       50
176
     1
 90
       50
176
     1
 90
       50
176
     1
290
     0
176
     1
 90
       50
176
     1
 62
   256
176
     0
 40
1.0
176
     0
 90
        2
176
     1
  1
strokes_ogs.tif
176
     1
290
     0
176
     1
 40
1.0
176
     1
 40
1.0
176
     1
  0
VISUALSTYLE
  5
3A
102
{ACAD_REACTORS
330
2A
102
}
330
2A
100
AcDbVisualStyle
  2
ColorChange
 70
    16
177
     3
291
     1
 70
    58
 90
        2
176
     1
 90
        2
176
     1
 90
        3
176
     1
 90
        0
176
     1
 40
0.6
176
     1
 40
30.0
176
     1
 62
     8
420
  8421504
176
     1
 90
        1
176
     1
 90
        4
176
     1
 62
     7
176
     1
 62
   257
176
     1
 90
        1
176
     1
 90
        1
176
     1
 40
1.0
176
     1
 90
        8
176
     1
 62
     8
420
  8421504
176
     1
 40
1.0
176
     1
 90
        1
176
     1
 90
        6
176
     1
 90
        2
176
     1
 62
     7
176
     1
 90
        5
176
     1
 90
        0
176
     1
 90
        0
176
     1
290
     0
176
     1
 90
        1
176
     1
 40
0.0
176
     1
 90
        0
176
     1
290
     0
176
     1
290
     1
176
     1
290
     1
176
     1
290
     0
176
     1
290
     0
176
     1
290
     0
176
     1
290
     0
176
     1
290
     0
176
     1
290
     0
176
     1
 90
       50
176
     1
 40
0.0
176
     1
 40
1.0
176
     1
 90
        0
176
     1
 62
   178
420
        0
176
     1
 90
       50
176
     1
 90
        3
176
     1
 62
     5
420
      255
176
     1
290
     0
176
     1
 90
       50
176
     1
 90
       50
176
     1
 90
       50
176
     1
290
     0
176
     1
 90
       50
176
     1
 62
   256
176
     0
 40
1.0
176
     0
 90
        2
176
     1
  1
strokes_ogs.tif
176
     1
290
     0
176
     1
 40
1.0
176
     1
 40
1.0
176
     1
  0
VISUALSTYLE
  5
34
102
{ACAD_REACTORS
330
2A
102
}
330
2A
100
AcDbVisualStyle
  2
Conceptual
 70
     9
177
     3
291
     0
 70
    58
 90
        3
176
     1
 90
        2
176
     1
 90
        0
176
     1
 90
        0
176
     1
 40
0.6
176
     1
 40
30.0
176
     1
 62
     7
420
 16777215
176
     1
 90
        2
176
     1
 90
        2
176
     1
 62
     7
176
     1
 62
   257
176
     1
 90
        1
176
     1
 90
        1
176
     1
 40
179.0
176
     1
 90
        8
176
     1
 62
     7
176
     1
 40
1.0
176
     1
 90
        1
176
     1
 90
        6
176
     1
 90
        2
176
     1
 62
     7
176
     1
 90
        3
176
     1
 90
        0
176
     1
 90
        0
176
     1
290
     0
176
     1
 90
        1
176
     1
 40
0.0
176
     1
 90
        0
176
     1
290
     0
176
     1
290
     1
176
     1
290
     1
176
     1
290
     0
176
     1
290
     0
176
     1
290
     0
176
     1
290
     0
176
     1
290
     0
176
     1
290
     0
176
     1
 90
       50
176
     1
 40
0.0
176
     1
 40
1.0
176
     1
 90
        0
176
     1
 62
   178
420
        0
176
     1
 90
       50
176
     1
 90
        3
176
     1
 62
     5
420
      255
176
     1
290
     0
176
     1
 90
       50
176
     1
 90
       50
176
     1
 90
       50
176
     1
290
     0
176
     1
 90
       50
176
     1
 62
   256
176
     0
 40
1.0
176
     0
 90
        2
176
     1
  1
strokes_ogs.tif
176
     1
290
     0
176
     1
 40
1.0
176
     1
 40
1.0
176
     1
  0
VISUALSTYLE
  5
35
102
{ACAD_REACTORS
330
2A
102
}
330
2A
100
AcDbVisualStyle
  2
Dim
 70
    11
177
     3
291
     1
 70
    58
 90
        2
176
     1
 90
        2
176
     1
 90
        0
176
     1
 90
        0
176
     1
 40
0.6
176
     1
 40
30.0
176
     1
 62
     7
420
 16777215
176
     1
 90
        1
176
     1
 90
        4
176
     1
 62
     7
176
     1
 62
   257
176
     1
 90
        1
176
     1
 90
        1
176
     1
 40
1.0
176
     1
 90
        8
176
     1
 62
     7
176
     1
 40
1.0
176
     1
 90
        1
176
     1
 90
        6
176
     1
 90
        2
176
     1
 62
     7
176
     1
 90
        5
176
     1
 90
        0
176
     1
 90
        0
176
     1
290
     0
176
     1
 90
        1
176
     1
 40
-50.0
176
     1
 90
        0
176
     1
290
     0
176
     1
290
     1
176
     1
290
     1
176
     1
290
     0
176
     1
290
     0
176
     1
290
     0
176
     1
290
     0
176
     1
290
     0
176
     1
290
     0
176
     1
 90
       50
176
     1
 40
0.0
176
     1
 40
1.0
176
     1
 90
        0
176
     1
 62
   178
420
        0
176
     1
 90
       50
176
     1
 90
        3
176
     1
 62
     5
420
      255
176
     1
290
     0
176
     1
 90
       50
176
     1
 90
       50
176
     1
 90
       50
176
     1
290
     0
176
     1
 90
       50
176
     1
 62
   256
176
     0
 40
1.0
176
     0
 90
        2
176
     1
  1
strokes_ogs.tif
176
     1
290
     0
176
     1
 40
1.0
176
     1
 40
1.0
176
     1
  0
VISUALSTYLE
  5
3D
102
{ACAD_REACTORS
330
2A
102
}
330
2A
100
AcDbVisualStyle
  2
EdgeColorOff
 70
    22
177
     3
291
     1
 70
    58
 90
        2
176
     0
 90
        2
176
     0
 90
        0
176
     0
 90
        0
176
     0
 40
0.6
176
     0
 40
30.0
176
     0
 62
     7
420
 16777215
176
     0
 90
        1
176
     0
 90
        4
176
     0
 62
     7
176
     0
 62
   257
176
     0
 90
        1
176
     0
 90
        1
176
     0
 40
1.0
176
     0
 90
        8
176
     2
 62
     7
176
     0
 40
1.0
176
     0
 90
        1
176
     0
 90
        6
176
     0
 90
        2
176
     0
 62
     7
176
     0
 90
        5
176
     0
 90
        0
176
     0
 90
        0
176
     0
290
     0
176
     0
 90
        1
176
     0
 40
0.0
176
     0
 90
        0
176
     0
290
     0
176
     0
290
     1
176
     0
290
     1
176
     0
290
     0
176
     0
290
     0
176
     0
290
     0
176
     0
290
     0
176
     0
290
     0
176
     0
290
     0
176
     0
 90
       50
176
     0
 40
0.0
176
     0
 40
1.0
176
     0
 90
        0
176
     0
 62
   178
420
        0
176
     0
 90
       50
176
     0
 90
        3
176
     0
 62
     5
420
      255
176
     0
290
     0
176
     0
 90
       50
176
     0
 90
       50
176
     0
 90
       50
176
     0
290
     0
176
     0
 90
       50
176
     0
 62
   256
176
     0
 40
1.0
176
     0
 90
        2
176
     0
  1
strokes_ogs.tif
176
     0
290
     0
176
     0
 40
1.0
176
     0
 40
1.0
176
     0
  0
VISUALSTYLE
  5
39
102
{ACAD_REACTORS
330
2A
102
}
330
2A
100
AcDbVisualStyle
  2
Facepattern
 70
    15
177
     3
291
     1
 70
    58
 90
        2
176
     1
 90
        2
176
     1
 90
        0
176
     1
 90
        0
176
     1
 40
0.6
176
     1
 40
30.0
176
     1
 62
     7
420
 16777215
176
     1
 90
        1
176
     1
 90
        4
176
     1
 62
     7
176
     1
 62
   257
176
     1
 90
        1
176
     1
 90
        1
176
     1
 40
1.0
176
     1
 90
        8
176
     1
 62
     7
176
     1
 40
1.0
176
     1
 90
        1
176
     1
 90
        6
176
     1
 90
        2
176
     1
 62
     7
176
     1
 90
        5
176
     1
 90
        0
176
     1
 90
        0
176
     1
290
     0
176
     1
 90
        1
176
     1
 40
0.0
176
     1
 90
        0
176
     1
290
     0
176
     1
290
     1
176
     1
290
     1
176
     1
290
     0
176
     1
290
     0
176
     1
290
     0
176
     1
290
     0
176
     1
290
     0
176
     1
290
     0
176
     1
 90
       50
176
     1
 40
0.0
176
     1
 40
1.0
176
     1
 90
        0
176
     1
 62
   178
420
        0
176
     1
 90
       50
176
     1
 90
        3
176
     1
 62
     5
420
      255
176
     1
290
     0
176
     1
 90
       50
176
     1
 90
       50
176
     1
 90
       50
176
     1
290
     0
176
     1
 90
       50
176
     1
 62
   256
176
     0
 40
1.0
176
     0
 90
        2
176
     1
  1
strokes_ogs.tif
176
     1
290
     0
176
     1
 40
1.0
176
     1
 40
1.0
176
     1
  0
VISUALSTYLE
  5
2B
102
{ACAD_REACTORS
330
2A
102
}
330
2A
100
AcDbVisualStyle
  2
Flat
 70
     0
177
     3
291
     1
 70
    58
 90
        2
176
     1
 90
        1
176
     1
 90
        1
176
     1
 90
        2
176
     1
 40
0.6
176
     1
 40
30.0
176
     1
 62
     7
420
 16777215
176
     1
 90
        0
176
     1
 90
        0
176
     1
 62
     7
176
     1
 62
   257
176
     1
 90
        1
176
     1
 90
        1
176
     1
 40
1.0
176
     1
 90
        8
176
     1
 62
     7
176
     1
 40
1.0
176
     1
 90
        1
176
     1
 90
        6
176
     1
 90
        2
176
     1
 62
     7
176
     1
 90
        5
176
     1
 90
        0
176
     1
 90
        0
176
     1
290
     0
176
     1
 90
       13
176
     1
 40
0.0
176
     1
 90
        0
176
     1
290
     0
176
     1
290
     1
176
     1
290
     1
176
     1
290
     0
176
     1
290
     0
176
     1
290
     0
176
     1
290
     0
176
     1
290
     0
176
     1
290
     0
176
     1
 90
       50
176
     1
 40
0.0
176
     1
 40
1.0
176
     1
 90
        0
176
     1
 62
   178
420
        0
176
     1
 90
       50
176
     1
 90
        3
176
     1
 62
     5
420
      255
176
     1
290
     0
176
     1
 90
       50
176
     1
 90
       50
176
     1
 90
       50
176
     1
290
     0
176
     1
 90
       50
176
     1
 62
   256
176
     0
 40
1.0
176
     0
 90
        2
176
     1
  1
strokes_ogs.tif
176
     1
290
     0
176
     1
 40
1.0
176
     1
 40
1.0
176
     1
  0
VISUALSTYLE
  5
2C
102
{ACAD_REACTORS
330
2A
102
}
330
2A
100
AcDbVisualStyle
  2
FlatWithEdges
 70
     1
177
     3
291
     1
 70
    58
 90
        2
176
     1
 90
        1
176
     1
 90
        1
176
     1
 90
        2
176
     1
 40
0.6
176
     1
 40
30.0
176
     1
 62
     7
420
 16777215
176
     1
 90
        1
176
     1
 90
        0
176
     1
 62
     7
176
     1
 62
   257
176
     1
 90
        1
176
     1
 90
        1
176
     1
 40
1.0
176
     1
 90
        0
176
     1
 62
   257
176
     1
 40
1.0
176
     1
 90
        1
176
     1
 90
        6
176
     1
 90
        2
176
     1
 62
     7
176
     1
 90
        5
176
     1
 90
        0
176
     1
 90
        0
176
     1
290
     0
176
     1
 90
       13
176
     1
 40
0.0
176
     1
 90
        0
176
     1
290
     0
176
     1
290
     1
176
     1
290
     1
176
     1
290
     0
176
     1
290
     0
176
     1
290
     0
176
     1
290
     0
176
     1
290
     0
176
     1
290
     0
176
     1
 90
       50
176
     1
 40
0.0
176
     1
 40
1.0
176
     1
 90
        0
176
     1
 62
   178
420
        0
176
     1
 90
       50
176
     1
 90
        3
176
     1
 62
     5
420
      255
176
     1
290
     0
176
     1
 90
       50
176
     1
 90
       50
176
     1
 90
       50
176
     1
290
     0
176
     1
 90
       50
176
     1
 62
   256
176
     0
 40
1.0
176
     0
 90
        2
176
     1
  1
strokes_ogs.tif
176
     1
290
     0
176
     1
 40
1.0
176
     1
 40
1.0
176
     1
  0
VISUALSTYLE
  5
2D
102
{ACAD_REACTORS
330
2A
102
}
330
2A
100
AcDbVisualStyle
  2
Gouraud
 70
     2
177
     3
291
     1
 70
    58
 90
        2
176
     1
 90
        2
176
     1
 90
        1
176
     1
 90
        2
176
     1
 40
0.6
176
     1
 40
30.0
176
     1
 62
     7
420
 16777215
176
     1
 90
        0
176
     1
 90
        0
176
     1
 62
     7
176
     1
 62
   257
176
     1
 90
        1
176
     1
 90
        1
176
     1
 40
1.0
176
     1
 90
        0
176
     1
 62
     7
176
     1
 40
1.0
176
     1
 90
        1
176
     1
 90
        6
176
     1
 90
        2
176
     1
 62
     7
176
     1
 90
        5
176
     1
 90
        0
176
     1
 90
        0
176
     1
290
     0
176
     1
 90
       13
176
     1
 40
0.0
176
     1
 90
        0
176
     1
290
     0
176
     1
290
     1
176
     1
290
     1
176
     1
290
     0
176
     1
290
     0
176
     1
290
     0
176
     1
290
     0
176
     1
290
     0
176
     1
290
     0
176
     1
 90
       50
176
     1
 40
0.0
176
     1
 40
1.0
176
     1
 90
        0
176
     1
 62
   178
420
        0
176
     1
 90
       50
176
     1
 90
        3
176
     1
 62
     5
420
      255
176
     1
290
     0
176
     1
 90
       50
176
     1
 90
       50
176
     1
 90
       50
176
     1
290
     0
176
     1
 90
       50
176
     1
 62
   256
176
     0
 40
1.0
176
     0
 90
        2
176
     1
  1
strokes_ogs.tif
176
     1
290
     0
176
     1
 40
1.0
176
     1
 40
1.0
176
     1
  0
VISUALSTYLE
  5
2E
102
{ACAD_REACTORS
330
2A
102
}
330
2A
100
AcDbVisualStyle
  2
GouraudWithEdges
 70
     3
177
     3
291
     1
 70
    58
 90
        2
176
     1
 90
        2
176
     1
 90
        1
176
     1
 90
        2
176
     1
 40
0.6
176
     1
 40
30.0
176
     1
 62
     7
420
 16777215
176
     1
 90
        1
176
     1
 90
        0
176
     1
 62
     7
176
     1
 62
   257
176
     1
 90
        1
176
     1
 90
        1
176
     1
 40
1.0
176
     1
 90
        0
176
     1
 62
   257
176
     1
 40
1.0
176
     1
 90
        1
176
     1
 90
        6
176
     1
 90
        2
176
     1
 62
     7
176
     1
 90
        5
176
     1
 90
        0
176
     1
 90
        0
176
     1
290
     0
176
     1
 90
       13
176
     1
 40
0.0
176
     1
 90
        0
176
     1
290
     0
176
     1
290
     1
176
     1
290
     1
176
     1
290
     0
176
     1
290
     0
176
     1
290
     0
176
     1
290
     0
176
     1
290
     0
176
     1
290
     0
176
     1
 90
       50
176
     1
 40
0.0
176
     1
 40
1.0
176
     1
 90
        0
176
     1
 62
   178
420
        0
176
     1
 90
       50
176
     1
 90
        3
176
     1
 62
     5
420
      255
176
     1
290
     0
176
     1
 90
       50
176
     1
 90
       50
176
     1
 90
       50
176
     1
290
     0
176
     1
 90
       50
176
     1
 62
   256
176
     0
 40
1.0
176
     0
 90
        2
176
     1
  1
strokes_ogs.tif
176
     1
290
     0
176
     1
 40
1.0
176
     1
 40
1.0
176
     1
  0
VISUALSTYLE
  5
31
102
{ACAD_REACTORS
330
2A
102
}
330
2A
100
AcDbVisualStyle
  2
Hidden
 70
     6
177
     3
291
     0
 70
    58
 90
        1
176
     1
 90
        2
176
     1
 90
        2
176
     1
 90
        0
176
     1
 40
0.6
176
     1
 40
30.0
176
     1
 62
     7
420
 16777215
176
     1
 90
        2
176
     1
 90
        2
176
     1
 62
     7
176
     1
 62
   257
176
     1
 90
        2
176
     1
 90
        1
176
     1
 40
40.0
176
     1
 90
        0
176
     1
 62
   257
176
     1
 40
1.0
176
     1
 90
        1
176
     1
 90
        6
176
     1
 90
        2
176
     1
 62
     7
176
     1
 90
        3
176
     1
 90
        0
176
     1
 90
        0
176
     1
290
     0
176
     1
 90
        1
176
     1
 40
0.0
176
     1
 90
        0
176
     1
290
     0
176
     1
290
     1
176
     1
290
     1
176
     1
290
     0
176
     1
290
     0
176
     1
290
     0
176
     1
290
     0
176
     1
290
     0
176
     1
290
     0
176
     1
 90
       50
176
     1
 40
0.0
176
     1
 40
1.0
176
     1
 90
        0
176
     1
 62
   178
420
        0
176
     1
 90
       50
176
     1
 90
        3
176
     1
 62
     5
420
      255
176
     1
290
     0
176
     1
 90
       50
176
     1
 90
       50
176
     1
 90
       50
176
     1
290
     0
176
     1
 90
       50
176
     1
 62
   256
176
     0
 40
1.0
176
     0
 90
        2
176
     1
  1
strokes_ogs.tif
176
     1
290
     0
176
     1
 40
1.0
176
     1
 40
1.0
176
     1
  0
VISUALSTYLE
  5
3B
102
{ACAD_REACTORS
330
2A
102
}
330
2A
100
AcDbVisualStyle
  2
JitterOff
 70
    20
177
     3
291
     1
 70
    58
 90
        2
176
     0
 90
        2
176
     0
 90
        0
176
     0
 90
        0
176
     0
 40
0.6
176
     0
 40
30.0
176
     0
 62
     7
420
 16777215
176
     0
 90
        1
176
     0
 90
        4
176
     0
 62
     7
176
     0
 62
   257
176
     0
 90
        1
176
     0
 90
        1
176
     0
 40
1.0
176
     0
 90
       10
176
     2
 62
     7
176
     0
 40
1.0
176
     0
 90
        1
176
     0
 90
        6
176
     0
 90
        2
176
     0
 62
     7
176
     0
 90
        5
176
     0
 90
        0
176
     0
 90
        0
176
     0
290
     0
176
     0
 90
        1
176
     0
 40
0.0
176
     0
 90
        0
176
     0
290
     0
176
     0
290
     1
176
     0
290
     1
176
     0
290
     0
176
     0
290
     0
176
     0
290
     0
176
     0
290
     0
176
     0
290
     0
176
     0
290
     0
176
     0
 90
       50
176
     0
 40
0.0
176
     0
 40
1.0
176
     0
 90
        0
176
     0
 62
   178
420
        0
176
     0
 90
       50
176
     0
 90
        3
176
     0
 62
     5
420
      255
176
     0
290
     0
176
     0
 90
       50
176
     0
 90
       50
176
     0
 90
       50
176
     0
290
     0
176
     0
 90
       50
176
     0
 62
   256
176
     0
 40
1.0
176
     0
 90
        2
176
     0
  1
strokes_ogs.tif
176
     0
290
     0
176
     0
 40
1.0
176
     0
 40
1.0
176
     0
  0
VISUALSTYLE
  5
38
102
{ACAD_REACTORS
330
2A
102
}
330
2A
100
AcDbVisualStyle
  2
Linepattern
 70
    14
177
     3
291
     1
 70
    58
 90
        2
176
     1
 90
        2
176
     1
 90
        0
176
     1
 90
        0
176
     1
 40
0.6
176
     1
 40
30.0
176
     1
 62
     7
420
 16777215
176
     1
 90
        1
176
     1
 90
        4
176
     1
 62
     7
176
     1
 62
   257
176
     1
 90
        7
176
     1
 90
        7
176
     1
 40
1.0
176
     1
 90
        8
176
     1
 62
     7
176
     1
 40
1.0
176
     1
 90
        1
176
     1
 90
        6
176
     1
 90
        2
176
     1
 62
     7
176
     1
 90
        5
176
     1
 90
        0
176
     1
 90
        0
176
     1
290
     0
176
     1
 90
        1
176
     1
 40
0.0
176
     1
 90
        0
176
     1
290
     0
176
     1
290
     1
176
     1
290
     1
176
     1
290
     0
176
     1
290
     0
176
     1
290
     0
176
     1
290
     0
176
     1
290
     0
176
     1
290
     0
176
     1
 90
       50
176
     1
 40
0.0
176
     1
 40
1.0
176
     1
 90
        0
176
     1
 62
   178
420
        0
176
     1
 90
       50
176
     1
 90
        3
176
     1
 62
     5
420
      255
176
     1
290
     0
176
     1
 90
       50
176
     1
 90
       50
176
     1
 90
       50
176
     1
290
     0
176
     1
 90
       50
176
     1
 62
   256
176
     0
 40
1.0
176
     0
 90
        2
176
     1
  1
strokes_ogs.tif
176
     1
290
     0
176
     1
 40
1.0
176
     1
 40
1.0
176
     1
  0
VISUALSTYLE
  5
3C
102
{ACAD_REACTORS
330
2A
102
}
330
2A
100
AcDbVisualStyle
  2
OverhangOff
 70
    21
177
     3
291
     1
 70
    58
 90
        2
176
     0
 90
        2
176
     0
 90
        0
176
     0
 90
        0
176
     0
 40
0.6
176
     0
 40
30.0
176
     0
 62
     7
420
 16777215
176
     0
 90
        1
176
     0
 90
        4
176
     0
 62
     7
176
     0
 62
   257
176
     0
 90
        1
176
     0
 90
        1
176
     0
 40
1.0
176
     0
 90
        9
176
     2
 62
     7
176
     0
 40
1.0
176
     0
 90
        1
176
     0
 90
        6
176
     0
 90
        2
176
     0
 62
     7
176
     0
 90
        5
176
     0
 90
        0
176
     0
 90
        0
176
     0
290
     0
176
     0
 90
        1
176
     0
 40
0.0
176
     0
 90
        0
176
     0
290
     0
176
     0
290
     1
176
     0
290
     1
176
     0
290
     0
176
     0
290
     0
176
     0
290
     0
176
     0
290
     0
176
     0
290
     0
176
     0
290
     0
176
     0
 90
       50
176
     0
 40
0.0
176
     0
 40
1.0
176
     0
 90
        0
176
     0
 62
   178
420
        0
176
     0
 90
       50
176
     0
 90
        3
176
     0
 62
     5
420
      255
176
     0
290
     0
176
     0
 90
       50
176
     0
 90
       50
176
     0
 90
       50
176
     0
290
     0
176
     0
 90
       50
176
     0
 62
   256
176
     0
 40
1.0
176
     0
 90
        2
176
     0
  1
strokes_ogs.tif
176
     0
290
     0
176
     0
 40
1.0
176
     0
 40
1.0
176
     0
  0
VISUALSTYLE
  5
33
102
{ACAD_REACTORS
330
2A
102
}
330
2A
100
AcDbVisualStyle
  2
Realistic
 70
     8
177
     3
291
     0
 70
    58
 90
        2
176
     1
 90
        3
176
     1
 90
        0
176
     1
 90
        2
176
     1
 40
0.6
176
     1
 40
30.0
176
     1
 62
     7
420
 16777215
176
     1
 90
        0
176
     1
 90
        0
176
     1
 62
     7
176
     1
 62
   257
176
     1
 90
        1
176
     1
 90
        1
176
     1
 40
1.0
176
     1
 90
        8
176
     1
 62
   257
176
     1
 40
1.0
176
     1
 90
        1
176
     1
 90
        6
176
     1
 90
        2
176
     1
 62
     7
176
     1
 90
        3
176
     1
 90
        0
176
     1
 90
        0
176
     1
290
     0
176
     1
 90
       13
176
     1
 40
0.0
176
     1
 90
        0
176
     1
290
     0
176
     1
290
     1
176
     1
290
     1
176
     1
290
     0
176
     1
290
     0
176
     1
290
     0
176
     1
290
     0
176
     1
290
     0
176
     1
290
     0
176
     1
 90
       50
176
     1
 40
0.0
176
     1
 40
1.0
176
     1
 90
        0
176
     1
 62
   178
420
        0
176
     1
 90
       50
176
     1
 90
        3
176
     1
 62
     5
420
      255
176
     1
290
     0
176
     1
 90
       50
176
     1
 90
       50
176
     1
 90
       50
176
     1
290
     0
176
     1
 90
       50
176
     1
 62
   256
176
     0
 40
1.0
176
     0
 90
        2
176
     1
  1
strokes_ogs.tif
176
     1
290
     0
176
     1
 40
1.0
176
     1
 40
1.0
176
     1
  0
VISUALSTYLE
  5
42
102
{ACAD_REACTORS
330
2A
102
}
330
2A
100
AcDbVisualStyle
  2
Shaded
 70
    27
177
     3
291
     0
 70
    58
 90
        2
176
     1
 90
        2
176
     1
 90
        1
176
     1
 90
        2
176
     1
 40
0.6
176
     1
 40
30.0
176
     1
 62
     7
420
 16777215
176
     1
 90
        0
176
     1
 90
        4
176
     1
 62
     7
176
     1
 62
   257
176
     1
 90
        1
176
     1
 90
        1
176
     1
 40
1.0
176
     1
 90
        8
176
     1
 62
   257
176
     1
 40
1.0
176
     1
 90
        1
176
     1
 90
        6
176
     1
 90
        2
176
     1
 62
     8
420
  7895160
176
     1
 90
        3
176
     1
 90
        0
176
     1
 90
        0
176
     1
290
     0
176
     1
 90
        5
176
     1
 40
0.0
176
     1
 90
        0
176
     1
290
     0
176
     1
290
     1
176
     1
290
     1
176
     1
290
     0
176
     1
290
     0
176
     1
290
     0
176
     1
290
     0
176
     1
290
     0
176
     1
290
     0
176
     1
 90
       50
176
     1
 40
0.0
176
     1
 40
1.0
176
     1
 90
        0
176
     1
 62
   178
420
        0
176
     1
 90
       50
176
     1
 90
        3
176
     1
 62
     5
420
      255
176
     1
290
     0
176
     1
 90
       50
176
     1
 90
       50
176
     1
 90
       50
176
     1
290
     0
176
     1
 90
       50
176
     1
 62
   256
176
     0
 40
1.0
176
     0
 90
        2
176
     1
  1
strokes_ogs.tif
176
     1
290
     0
176
     1
 40
1.0
176
     1
 40
1.0
176
     1
  0
VISUALSTYLE
  5
41
102
{ACAD_REACTORS
330
2A
102
}
330
2A
100
AcDbVisualStyle
  2
Shaded with edges
 70
    26
177
     3
291
     0
 70
    58
 90
        2
176
     1
 90
        2
176
     1
 90
        1
176
     1
 90
        2
176
     1
 40
0.6
176
     1
 40
30.0
176
     1
 62
     7
420
 16777215
176
     1
 90
        1
176
     1
 90
       10
176
     1
 62
     7
176
     1
 62
   257
176
     1
 90
        2
176
     1
 90
        1
176
     1
 40
1.0
176
     1
 90
        8
176
     1
 62
   257
176
     1
 40
1.0
176
     1
 90
        1
176
     1
 90
        6
176
     1
 90
        2
176
     1
 62
     7
176
     1
 90
        3
176
     1
 90
        0
176
     1
 90
        0
176
     1
290
     0
176
     1
 90
        5
176
     1
 40
0.0
176
     1
 90
        0
176
     1
290
     0
176
     1
290
     1
176
     1
290
     1
176
     1
290
     0
176
     1
290
     0
176
     1
290
     0
176
     1
290
     0
176
     1
290
     0
176
     1
290
     0
176
     1
 90
       50
176
     1
 40
0.0
176
     1
 40
1.0
176
     1
 90
        0
176
     1
 62
   178
420
        0
176
     1
 90
       50
176
     1
 90
        3
176
     1
 62
     5
420
      255
176
     1
290
     0
176
     1
 90
       50
176
     1
 90
       50
176
     1
 90
       50
176
     1
290
     0
176
     1
 90
       50
176
     1
 62
   256
176
     0
 40
1.0
176
     0
 90
        2
176
     1
  1
strokes_ogs.tif
176
     1
290
     0
176
     1
 40
1.0
176
     1
 40
1.0
176
     1
  0
VISUALSTYLE
  5
3E
102
{ACAD_REACTORS
330
2A
102
}
330
2A
100
AcDbVisualStyle
  2
Shades of Gray
 70
    23
177
     3
291
     0
 70
    58
 90
        2
176
     1
 90
        2
176
     1
 90
        3
176
     1
 90
        0
176
     1
 40
0.6
176
     1
 40
30.0
176
     1
 62
     7
420
 16777215
176
     1
 90
        2
176
     1
 90
        2
176
     1
 62
     7
176
     1
 62
     7
176
     1
 90
        1
176
     1
 90
        1
176
     1
 40
40.0
176
     1
 90
        8
176
     1
 62
     7
176
     1
 40
1.0
176
     1
 90
        1
176
     1
 90
        6
176
     1
 90
        2
176
     1
 62
     7
176
     1
 90
        3
176
     1
 90
        0
176
     1
 90
        0
176
     1
290
     0
176
     1
 90
        1
176
     1
 40
0.0
176
     1
 90
        0
176
     1
290
     0
176
     1
290
     1
176
     1
290
     1
176
     1
290
     0
176
     1
290
     0
176
     1
290
     0
176
     1
290
     0
176
     1
290
     0
176
     1
290
     0
176
     1
 90
       50
176
     1
 40
0.0
176
     1
 40
1.0
176
     1
 90
        0
176
     1
 62
   178
420
        0
176
     1
 90
       50
176
     1
 90
        3
176
     1
 62
     5
420
      255
176
     1
290
     0
176
     1
 90
       50
176
     1
 90
       50
176
     1
 90
       50
176
     1
290
     0
176
     1
 90
       50
176
     1
 62
   256
176
     0
 40
1.0
176
     0
 90
        2
176
     1
  1
strokes_ogs.tif
176
     1
290
     0
176
     1
 40
1.0
176
     1
 40
1.0
176
     1
  0
VISUALSTYLE
  5
3F
102
{ACAD_REACTORS
330
2A
102
}
330
2A
100
AcDbVisualStyle
  2
Sketchy
 70
    24
177
     3
291
     0
 70
    58
 90
        1
176
     1
 90
        2
176
     1
 90
        2
176
     1
 90
        0
176
     1
 40
0.6
176
     1
 40
30.0
176
     1
 62
     7
420
 16777215
176
     1
 90
        2
176
     1
 90
        2
176
     1
 62
     7
176
     1
 62
     7
176
     1
 90
        1
176
     1
 90
        1
176
     1
 40
40.0
176
     1
 90
       11
176
     1
 62
     7
176
     1
 40
1.0
176
     1
 90
        1
176
     1
 90
        6
176
     1
 90
        2
176
     1
 62
     7
176
     1
 90
        6
176
     1
 90
        0
176
     1
 90
        0
176
     1
290
     0
176
     1
 90
        1
176
     1
 40
0.0
176
     1
 90
        0
176
     1
290
     0
176
     1
290
     1
176
     1
290
     1
176
     1
290
     0
176
     1
290
     0
176
     1
290
     0
176
     1
290
     0
176
     1
290
     0
176
     1
290
     0
176
     1
 90
       50
176
     1
 40
0.0
176
     1
 40
1.0
176
     1
 90
        0
176
     1
 62
   178
420
        0
176
     1
 90
       50
176
     1
 90
        3
176
     1
 62
     5
420
      255
176
     1
290
     0
176
     1
 90
       50
176
     1
 90
       50
176
     1
 90
       50
176
     1
290
     0
176
     1
 90
       50
176
     1
 62
   256
176
     0
 40
1.0
176
     0
 90
        2
176
     1
  1
strokes_ogs.tif
176
     1
290
     0
176
     1
 40
1.0
176
     1
 40
1.0
176
     1
  0
VISUALSTYLE
  5
37
102
{ACAD_REACTORS
330
2A
102
}
330
2A
100
AcDbVisualStyle
  2
Thicken
 70
    13
177
     3
291
     1
 70
    58
 90
        2
176
     1
 90
        2
176
     1
 90
        0
176
     1
 90
        0
176
     1
 40
0.6
176
     1
 40
30.0
176
     1
 62
     7
420
 16777215
176
     1
 90
        1
176
     1
 90
        4
176
     1
 62
     7
176
     1
 62
   257
176
     1
 90
        1
176
     1
 90
        1
176
     1
 40
1.0
176
     1
 90
       12
176
     1
 62
     7
176
     1
 40
1.0
176
     1
 90
        1
176
     1
 90
        6
176
     1
 90
        2
176
     1
 62
     7
176
     1
 90
        5
176
     1
 90
        0
176
     1
 90
        0
176
     1
290
     0
176
     1
 90
        1
176
     1
 40
0.0
176
     1
 90
        0
176
     1
290
     0
176
     1
290
     1
176
     1
290
     1
176
     1
290
     0
176
     1
290
     0
176
     1
290
     0
176
     1
290
     0
176
     1
290
     0
176
     1
290
     0
176
     1
 90
       50
176
     1
 40
0.0
176
     1
 40
1.0
176
     1
 90
        0
176
     1
 62
   178
420
        0
176
     1
 90
       50
176
     1
 90
        3
176
     1
 62
     5
420
      255
176
     1
290
     0
176
     1
 90
       50
176
     1
 90
       50
176
     1
 90
       50
176
     1
290
     0
176
     1
 90
       50
176
     1
 62
   256
176
     0
 40
1.0
176
     0
 90
        2
176
     1
  1
strokes_ogs.tif
176
     1
290
     0
176
     1
 40
1.0
176
     1
 40
1.0
176
     1
  0
VISUALSTYLE
  5
30
102
{ACAD_REACTORS
330
2A
102
}
330
2A
100
AcDbVisualStyle
  2
Wireframe
 70
     5
177
     3
291
     0
 70
    58
 90
        0
176
     1
 90
        2
176
     1
 90
        0
176
     1
 90
        0
176
     1
 40
0.6
176
     1
 40
30.0
176
     1
 62
     7
420
 16777215
176
     1
 90
        1
176
     1
 90
        4
176
     1
 62
     7
176
     1
 62
   257
176
     1
 90
        1
176
     1
 90
        1
176
     1
 40
1.0
176
     1
 90
        0
176
     1
 62
   257
176
     1
 40
1.0
176
     1
 90
        1
176
     1
 90
        6
176
     1
 90
        2
176
     1
 62
     7
176
     1
 90
        3
176
     1
 90
        0
176
     1
 90
        0
176
     1
290
     0
176
     1
 90
        1
176
     1
 40
0.0
176
     1
 90
        0
176
     1
290
     0
176
     1
290
     1
176
     1
290
     1
176
     1
290
     0
176
     1
290
     0
176
     1
290
     0
176
     1
290
     0
176
     1
290
     0
176
     1
290
     0
176
     1
 90
       50
176
     1
 40
0.0
176
     1
 40
1.0
176
     1
 90
        0
176
     1
 62
   178
420
        0
176
     1
 90
       50
176
     1
 90
        3
176
     1
 62
     5
420
      255
176
     1
290
     0
176
     1
 90
       50
176
     1
 90
       50
176
     1
 90
       50
176
     1
290
     0
176
     1
 90
       50
176
     1
 62
   256
176
     0
 40
1.0
176
     0
 90
        2
176
     1
  1
strokes_ogs.tif
176
     1
290
     0
176
     1
 40
1.0
176
     1
 40
1.0
176
     1
  0
VISUALSTYLE
  5
40
102
{ACAD_REACTORS
330
2A
102
}
330
2A
100
AcDbVisualStyle
  2
X-Ray
 70
    25
177
     3
291
     0
 70
    58
 90
        2
176
     1
 90
        2
176
     1
 90
        1
176
     1
 90
        1
176
     1
 40
0.5
176
     1
 40
30.0
176
     1
 62
     7
420
 16777215
176
     1
 90
        1
176
     1
 90
        0
176
     1
 62
     7
176
     1
 62
   257
176
     1
 90
        1
176
     1
 90
        1
176
     1
 40
1.0
176
     1
 90
        8
176
     1
 62
     7
176
     1
 40
1.0
176
     1
 90
        1
176
     1
 90
        6
176
     1
 90
        2
176
     1
 62
     7
176
     1
 90
        3
176
     1
 90
        0
176
     1
 90
        0
176
     1
290
     0
176
     1
 90
       13
176
     1
 40
0.0
176
     1
 90
        0
176
     1
290
     0
176
     1
290
     1
176
     1
290
     1
176
     1
290
     0
176
     1
290
     0
176
     1
290
     0
176
     1
290
     0
176
     1
290
     0
176
     1
290
     0
176
     1
 90
       50
176
     1
 40
0.0
176
     1
 40
1.0
176
     1
 90
        0
176
     1
 62
   178
420
        0
176
     1
 90
       50
176
     1
 90
        3
176
     1
 62
     5
420
      255
176
     1
290
     0
176
     1
 90
       50
176
     1
 90
       50
176
     1
 90
       50
176
     1
290
     0
176
     1
 90
       50
176
     1
 62
   256
176
     0
 40
1.0
176
     0
 90
        2
176
     1
  1
strokes_ogs.tif
176
     1
290
     0
176
     1
 40
1.0
176
     1
 40
1.0
176
     1
  0
DICTIONARYVAR
  5
560
102
{ACAD_REACTORS
330
55F
102
}
330
55F
100
DictionaryVariables
280
     0
  1
1:1
  0
DICTIONARYVAR
  5
565
102
{ACAD_REACTORS
330
55F
102
}
330
55F
100
DictionaryVariables
280
     0
  1
Standard
  0
DICTIONARYVAR
  5
564
102
{ACAD_REACTORS
330
55F
102
}
330
55F
100
DictionaryVariables
280
     0
  1
Standard
  0
DICTIONARY
  5
561
330
6A
100
AcDbDictionary
280
     1
281
     1
  3
ACAD_ROUNDTRIP_2008_TABLESTYLE_CELLSTYLEMAP
360
562
  0
CELLSTYLEMAP
  5
562
102
{ACAD_REACTORS
330
561
102
}
330
561
100
AcDbCellStyleMap
 90
        3
300
CELLSTYLE
  1
TABLEFORMAT_BEGIN
 90
        5
170
     1
 91
        0
 92
    32768
 62
   257
 93
        1
300
CONTENTFORMAT
  1
CONTENTFORMAT_BEGIN
 90
        0
 91
        0
 92
        4
 93
        0
300

 40
0.0
140
1.0
 94
        5
 62
     0
340
11
144
6.0
309
CONTENTFORMAT_END
171
     1
301
MARGIN
  1
CELLMARGIN_BEGIN
 40
1.5
 40
1.5
 40
1.5
 40
1.5
 40
1.5
 40
1.5
309
CELLMARGIN_END
 94
        6
 95
        1
302
GRIDFORMAT
  1
GRIDFORMAT_BEGIN
 90
        0
 91
        1
 62
     0
 92
       -2
340
14
 93
        0
 40
0.045
309
GRIDFORMAT_END
 95
        2
302
GRIDFORMAT
  1
GRIDFORMAT_BEGIN
 90
        0
 91
        1
 62
     0
 92
       -2
340
14
 93
        0
 40
0.045
309
GRIDFORMAT_END
 95
        4
302
GRIDFORMAT
  1
GRIDFORMAT_BEGIN
 90
        0
 91
        1
 62
     0
 92
       -2
340
14
 93
        0
 40
0.045
309
GRIDFORMAT_END
 95
        8
302
GRIDFORMAT
  1
GRIDFORMAT_BEGIN
 90
        0
 91
        1
 62
     0
 92
       -2
340
14
 93
        0
 40
0.045
309
GRIDFORMAT_END
 95
       16
302
GRIDFORMAT
  1
GRIDFORMAT_BEGIN
 90
        0
 91
        1
 62
     0
 92
       -2
340
14
 93
        0
 40
0.045
309
GRIDFORMAT_END
 95
       32
302
GRIDFORMAT
  1
GRIDFORMAT_BEGIN
 90
        0
 91
        1
 62
     0
 92
       -2
340
14
 93
        0
 40
0.045
309
GRIDFORMAT_END
309
TABLEFORMAT_END
  1
CELLSTYLE_BEGIN
 90
        1
 91
        1
300
_TITLE
309
CELLSTYLE_END
300
CELLSTYLE
  1
TABLEFORMAT_BEGIN
 90
        5
170
     1
 91
        0
 92
        0
 62
   257
 93
        1
300
CONTENTFORMAT
  1
CONTENTFORMAT_BEGIN
 90
        0
 91
        0
 92
        4
 93
        0
300

 40
0.0
140
1.0
 94
        5
 62
     0
340
11
144
4.5
309
CONTENTFORMAT_END
171
     1
301
MARGIN
  1
CELLMARGIN_BEGIN
 40
1.5
 40
1.5
 40
1.5
 40
1.5
 40
1.5
 40
1.5
309
CELLMARGIN_END
 94
        6
 95
        1
302
GRIDFORMAT
  1
GRIDFORMAT_BEGIN
 90
        0
 91
        1
 62
     0
 92
       -2
340
14
 93
        0
 40
0.045
309
GRIDFORMAT_END
 95
        2
302
GRIDFORMAT
  1
GRIDFORMAT_BEGIN
 90
        0
 91
        1
 62
     0
 92
       -2
340
14
 93
        0
 40
0.045
309
GRIDFORMAT_END
 95
        4
302
GRIDFORMAT
  1
GRIDFORMAT_BEGIN
 90
        0
 91
        1
 62
     0
 92
       -2
340
14
 93
        0
 40
0.045
309
GRIDFORMAT_END
 95
        8
302
GRIDFORMAT
  1
GRIDFORMAT_BEGIN
 90
        0
 91
        1
 62
     0
 92
       -2
340
14
 93
        0
 40
0.045
309
GRIDFORMAT_END
 95
       16
302
GRIDFORMAT
  1
GRIDFORMAT_BEGIN
 90
        0
 91
        1
 62
     0
 92
       -2
340
14
 93
        0
 40
0.045
309
GRIDFORMAT_END
 95
       32
302
GRIDFORMAT
  1
GRIDFORMAT_BEGIN
 90
        0
 91
        1
 62
     0
 92
       -2
340
14
 93
        0
 40
0.045
309
GRIDFORMAT_END
309
TABLEFORMAT_END
  1
CELLSTYLE_BEGIN
 90
        2
 91
        1
300
_HEADER
309
CELLSTYLE_END
300
CELLSTYLE
  1
TABLEFORMAT_BEGIN
 90
        5
170
     1
 91
        0
 92
        0
 62
   257
 93
        1
300
CONTENTFORMAT
  1
CONTENTFORMAT_BEGIN
 90
        0
 91
        0
 92
        4
 93
        0
300

 40
0.0
140
1.0
 94
        2
 62
     0
340
11
144
4.5
309
CONTENTFORMAT_END
171
     1
301
MARGIN
  1
CELLMARGIN_BEGIN
 40
1.5
 40
1.5
 40
1.5
 40
1.5
 40
1.5
 40
1.5
309
CELLMARGIN_END
 94
        6
 95
        1
302
GRIDFORMAT
  1
GRIDFORMAT_BEGIN
 90
        0
 91
        1
 62
     0
 92
       -2
340
14
 93
        0
 40
0.045
309
GRIDFORMAT_END
 95
        2
302
GRIDFORMAT
  1
GRIDFORMAT_BEGIN
 90
        0
 91
        1
 62
     0
 92
       -2
340
14
 93
        0
 40
0.045
309
GRIDFORMAT_END
 95
        4
302
GRIDFORMAT
  1
GRIDFORMAT_BEGIN
 90
        0
 91
        1
 62
     0
 92
       -2
340
14
 93
        0
 40
0.045
309
GRIDFORMAT_END
 95
        8
302
GRIDFORMAT
  1
GRIDFORMAT_BEGIN
 90
        0
 91
        1
 62
     0
 92
       -2
340
14
 93
        0
 40
0.045
309
GRIDFORMAT_END
 95
       16
302
GRIDFORMAT
  1
GRIDFORMAT_BEGIN
 90
        0
 91
        1
 62
     0
 92
       -2
340
14
 93
        0
 40
0.045
309
GRIDFORMAT_END
 95
       32
302
GRIDFORMAT
  1
GRIDFORMAT_BEGIN
 90
        0
 91
        1
 62
     0
 92
       -2
340
14
 93
        0
 40
0.045
309
GRIDFORMAT_END
309
TABLEFORMAT_END
  1
CELLSTYLE_BEGIN
 90
        3
 91
        2
300
_DATA
309
CELLSTYLE_END
  0
ENDSEC
  0
EOF
