  0
SECTION
  2
HEADER
  9
$ACADVER
  1
AC1027
  9
$ACADMAINTVER
 70
     8
  9
$DWGCODEPAGE
  3
ANSI_1252
  9
$REQUIREDVERSIONS
160
                 0
  9
$INSBASE
 10
0.0
 20
0.0
 30
0.0
  9
$EXTMIN
 10
-0.0000000000127898
 20
-0.0000000000535465
 30
0.0
  9
$EXTMAX
 10
209.9999999999827
 20
296.9999999999802
 30
0.0
  9
$LIMMIN
 10
0.0
 20
0.0
  9
$LIMMAX
 10
210.0
 20
297.0
  9
$ORTHOMODE
 70
     0
  9
$REGENMODE
 70
     1
  9
$FILLMODE
 70
     1
  9
$QTEXTMODE
 70
     0
  9
$MIRRTEXT
 70
     1
  9
$LTSCALE
 40
1.0
  9
$ATTMODE
 70
     1
  9
$TEXTSIZE
 40
2.5
  9
$TRACEWID
 40
1.0
  9
$TEXTSTYLE
  7
Standard
  9
$CLAYER
  8
Dimension
  9
$CELTYPE
  6
ByLayer
  9
$CECOLOR
 62
   256
  9
$CELTSCALE
 40
1.0
  9
$DISPSILH
 70
     0
  9
$DIMSCALE
 40
1.0
  9
$DIMASZ
 40
2.5
  9
$DIMEXO
 40
0.625
  9
$DIMDLI
 40
3.75
  9
$DIMRND
 40
0.0
  9
$DIMDLE
 40
0.0
  9
$DIMEXE
 40
1.25
  9
$DIMTP
 40
0.0
  9
$DIMTM
 40
0.0
  9
$DIMTXT
 40
2.5
  9
$DIMCEN
 40
2.5
  9
$DIMTSZ
 40
0.0
  9
$DIMTOL
 70
     0
  9
$DIMLIM
 70
     0
  9
$DIMTIH
 70
     0
  9
$DIMTOH
 70
     0
  9
$DIMSE1
 70
     0
  9
$DIMSE2
 70
     0
  9
$DIMTAD
 70
     1
  9
$DIMZIN
 70
     8
  9
$DIMBLK
  1

  9
$DIMASO
 70
     1
  9
$DIMSHO
 70
     1
  9
$DIMPOST
  1

  9
$DIMAPOST
  1

  9
$DIMALT
 70
     0
  9
$DIMALTD
 70
     3
  9
$DIMALTF
 40
0.03937007874016
  9
$DIMLFAC
 40
1.0
  9
$DIMTOFL
 70
     1
  9
$DIMTVP
 40
0.0
  9
$DIMTIX
 70
     0
  9
$DIMSOXD
 70
     0
  9
$DIMSAH
 70
     0
  9
$DIMBLK1
  1

  9
$DIMBLK2
  1

  9
$DIMSTYLE
  2
ISO-25
  9
$DIMCLRD
 70
     0
  9
$DIMCLRE
 70
     0
  9
$DIMCLRT
 70
     0
  9
$DIMTFAC
 40
1.0
  9
$DIMGAP
 40
0.625
  9
$DIMJUST
 70
     0
  9
$DIMSD1
 70
     0
  9
$DIMSD2
 70
     0
  9
$DIMTOLJ
 70
     0
  9
$DIMTZIN
 70
     8
  9
$DIMALTZ
 70
     0
  9
$DIMALTTZ
 70
     0
  9
$DIMUPT
 70
     0
  9
$DIMDEC
 70
     2
  9
$DIMTDEC
 70
     2
  9
$DIMALTU
 70
     2
  9
$DIMALTTD
 70
     3
  9
$DIMTXSTY
  7
Standard
  9
$DIMAUNIT
 70
     0
  9
$DIMADEC
 70
     0
  9
$DIMALTRND
 40
0.0
  9
$DIMAZIN
 70
     0
  9
$DIMDSEP
 70
    44
  9
$DIMATFIT
 70
     3
  9
$DIMFRAC
 70
     0
  9
$DIMLDRBLK
  1

  9
$DIMLUNIT
 70
     2
  9
$DIMLWD
 70
    -2
  9
$DIMLWE
 70
    -2
  9
$DIMTMOVE
 70
     0
  9
$DIMFXL
 40
1.0
  9
$DIMFXLON
 70
     0
  9
$DIMJOGANG
 40
0.7853981633974483
  9
$DIMTFILL
 70
     0
  9
$DIMTFILLCLR
 70
     0
  9
$DIMARCSYM
 70
     0
  9
$DIMLTYPE
  6

  9
$DIMLTEX1
  6

  9
$DIMLTEX2
  6

  9
$DIMTXTDIRECTION
 70
     0
  9
$LUNITS
 70
     2
  9
$LUPREC
 70
     4
  9
$SKETCHINC
 40
1.0
  9
$FILLETRAD
 40
10.0
  9
$AUNITS
 70
     0
  9
$AUPREC
 70
     0
  9
$MENU
  1
.
  9
$ELEVATION
 40
0.0
  9
$PELEVATION
 40
0.0
  9
$THICKNESS
 40
0.0
  9
$LIMCHECK
 70
     0
  9
$CHAMFERA
 40
0.0
  9
$CHAMFERB
 40
0.0
  9
$CHAMFERC
 40
0.0
  9
$CHAMFERD
 40
0.0
  9
$SKPOLY
 70
     0
  9
$TDCREATE
 40
2457509.617835648
  9
$TDUCREATE
 40
2457509.909502315
  9
$TDUPDATE
 40
2457509.617835648
  9
$TDUUPDATE
 40
2457509.909502315
  9
$TDINDWG
 40
0.0000000116
  9
$TDUSRTIMER
 40
0.0000000116
  9
$USRTIMER
 70
     1
  9
$ANGBASE
 50
0.0
  9
$ANGDIR
 70
     0
  9
$PDMODE
 70
     0
  9
$PDSIZE
 40
0.0
  9
$PLINEWID
 40
0.0
  9
$SPLFRAME
 70
     0
  9
$SPLINETYPE
 70
     6
  9
$SPLINESEGS
 70
     8
  9
$HANDSEED
  5
493
  9
$SURFTAB1
 70
     6
  9
$SURFTAB2
 70
     6
  9
$SURFTYPE
 70
     6
  9
$SURFU
 70
     6
  9
$SURFV
 70
     6
  9
$UCSBASE
  2

  9
$UCSNAME
  2

  9
$UCSORG
 10
0.0
 20
0.0
 30
0.0
  9
$UCSXDIR
 10
1.0
 20
0.0
 30
0.0
  9
$UCSYDIR
 10
0.0
 20
1.0
 30
0.0
  9
$UCSORTHOREF
  2

  9
$UCSORTHOVIEW
 70
     0
  9
$UCSORGTOP
 10
0.0
 20
0.0
 30
0.0
  9
$UCSORGBOTTOM
 10
0.0
 20
0.0
 30
0.0
  9
$UCSORGLEFT
 10
0.0
 20
0.0
 30
0.0
  9
$UCSORGRIGHT
 10
0.0
 20
0.0
 30
0.0
  9
$UCSORGFRONT
 10
0.0
 20
0.0
 30
0.0
  9
$UCSORGBACK
 10
0.0
 20
0.0
 30
0.0
  9
$PUCSBASE
  2

  9
$PUCSNAME
  2

  9
$PUCSORG
 10
0.0
 20
0.0
 30
0.0
  9
$PUCSXDIR
 10
1.0
 20
0.0
 30
0.0
  9
$PUCSYDIR
 10
0.0
 20
1.0
 30
0.0
  9
$PUCSORTHOREF
  2

  9
$PUCSORTHOVIEW
 70
     0
  9
$PUCSORGTOP
 10
0.0
 20
0.0
 30
0.0
  9
$PUCSORGBOTTOM
 10
0.0
 20
0.0
 30
0.0
  9
$PUCSORGLEFT
 10
0.0
 20
0.0
 30
0.0
  9
$PUCSORGRIGHT
 10
0.0
 20
0.0
 30
0.0
  9
$PUCSORGFRONT
 10
0.0
 20
0.0
 30
0.0
  9
$PUCSORGBACK
 10
0.0
 20
0.0
 30
0.0
  9
$USERI1
 70
     0
  9
$USERI2
 70
     0
  9
$USERI3
 70
     0
  9
$USERI4
 70
     0
  9
$USERI5
 70
     0
  9
$USERR1
 40
0.0
  9
$USERR2
 40
0.0
  9
$USERR3
 40
0.0
  9
$USERR4
 40
0.0
  9
$USERR5
 40
0.0
  9
$WORLDVIEW
 70
     1
  9
$SHADEDGE
 70
     3
  9
$SHADEDIF
 70
    70
  9
$TILEMODE
 70
     1
  9
$MAXACTVP
 70
    64
  9
$PINSBASE
 10
0.0
 20
0.0
 30
0.0
  9
$PLIMCHECK
 70
     0
  9
$PEXTMIN
 10
1.000000000000000E+20
 20
1.000000000000000E+20
 30
1.000000000000000E+20
  9
$PEXTMAX
 10
-1.000000000000000E+20
 20
-1.000000000000000E+20
 30
-1.000000000000000E+20
  9
$PLIMMIN
 10
0.0
 20
0.0
  9
$PLIMMAX
 10
420.0
 20
297.0
  9
$UNITMODE
 70
     0
  9
$VISRETAIN
 70
     1
  9
$PLINEGEN
 70
     0
  9
$PSLTSCALE
 70
     1
  9
$TREEDEPTH
 70
  3020
  9
$CMLSTYLE
  2
Standard
  9
$CMLJUST
 70
     0
  9
$CMLSCALE
 40
20.0
  9
$PROXYGRAPHICS
 70
     1
  9
$MEASUREMENT
 70
     1
  9
$CELWEIGHT
370
    -1
  9
$ENDCAPS
280
     0
  9
$JOINSTYLE
280
     0
  9
$LWDISPLAY
290
     0
  9
$INSUNITS
 70
     4
  9
$HYPERLINKBASE
  1

  9
$STYLESHEET
  1

  9
$XEDIT
290
     1
  9
$CEPSNTYPE
380
     0
  9
$PSTYLEMODE
290
     1
  9
$FINGERPRINTGUID
  2
{221d5479-2473-4d1a-a7dc-9989360fab49}
  9
$VERSIONGUID
  2
{FAEB1C32-E019-11D5-929B-00C0DF256EC4}
  9
$EXTNAMES
290
     1
  9
$PSVPSCALE
 40
0.0
  9
$OLESTARTUP
290
     0
  9
$SORTENTS
280
   127
  9
$INDEXCTL
280
     0
  9
$HIDETEXT
280
     1
  9
$XCLIPFRAME
280
     2
  9
$HALOGAP
280
     0
  9
$OBSCOLOR
 70
   257
  9
$OBSLTYPE
280
     0
  9
$INTERSECTIONDISPLAY
280
     0
  9
$INTERSECTIONCOLOR
 70
   257
  9
$DIMASSOC
280
     2
  9
$PROJECTNAME
  1

  9
$CAMERADISPLAY
290
     0
  9
$LENSLENGTH
 40
50.0
  9
$CAMERAHEIGHT
 40
0.0
  9
$STEPSPERSEC
 40
2.0
  9
$STEPSIZE
 40
6.0
  9
$3DDWFPREC
 40
2.0
  9
$PSOLWIDTH
 40
5.0
  9
$PSOLHEIGHT
 40
80.0
  9
$LOFTANG1
 40
1.570796326794897
  9
$LOFTANG2
 40
1.570796326794897
  9
$LOFTMAG1
 40
0.0
  9
$LOFTMAG2
 40
0.0
  9
$LOFTPARAM
 70
     7
  9
$LOFTNORMALS
280
     1
  9
$LATITUDE
 40
37.795
  9
$LONGITUDE
 40
-122.394
  9
$NORTHDIRECTION
 40
0.0
  9
$TIMEZONE
 70
 -8000
  9
$LIGHTGLYPHDISPLAY
280
     1
  9
$TILEMODELIGHTSYNCH
280
     1
  9
$CMATERIAL
347
44
  9
$SOLIDHIST
280
     0
  9
$SHOWHIST
280
     1
  9
$DWFFRAME
280
     2
  9
$DGNFRAME
280
     2
  9
$REALWORLDSCALE
290
     1
  9
$INTERFERECOLOR
 62
   256
  9
$CSHADOW
280
     0
  9
$SHADOWPLANELOCATION
 40
0.0
  0
ENDSEC
  0
SECTION
  2
CLASSES
  0
CLASS
  1
ACDBDICTIONARYWDFLT
  2
AcDbDictionaryWithDefault
  3
ObjectDBX Classes
 90
        0
 91
        4
280
     0
281
     0
  0
CLASS
  1
VISUALSTYLE
  2
AcDbVisualStyle
  3
ObjectDBX Classes
 90
     4095
 91
        4
280
     0
281
     0
  0
CLASS
  1
MATERIAL
  2
AcDbMaterial
  3
ObjectDBX Classes
 90
     1153
 91
        4
280
     0
281
     0
  0
CLASS
  1
SCALE
  2
AcDbScale
  3
ObjectDBX Classes
 90
     1153
 91
        4
280
     0
281
     0
  0
CLASS
  1
TABLESTYLE
  2
AcDbTableStyle
  3
ObjectDBX Classes
 90
     4095
 91
        4
280
     0
281
     0
  0
CLASS
  1
MLEADERSTYLE
  2
AcDbMLeaderStyle
  3
ACDB_MLEADERSTYLE_CLASS
 90
     4095
 91
        4
280
     0
281
     0
  0
CLASS
  1
SUN
  2
AcDbSun
  3
SCENEOE
 90
     1153
 91
        4
280
     0
281
     0
  0
CLASS
  1
DICTIONARYVAR
  2
AcDbDictionaryVar
  3
ObjectDBX Classes
 90
        0
 91
        4
280
     0
281
     0
  0
CLASS
  1
CELLSTYLEMAP
  2
AcDbCellStyleMap
  3
ObjectDBX Classes
 90
     1152
 91
        4
280
     0
281
     0
  0
ENDSEC
  0
SECTION
  2
TABLES
  0
TABLE
  2
VPORT
  5
8
330
0
100
AcDbSymbolTable
 70
     1
  0
VPORT
  5
29
330
8
100
AcDbSymbolTableRecord
100
AcDbViewportTableRecord
  2
*Active
 70
     0
 10
0.0
 20
0.0
 11
1.0
 21
1.0
 12
80.02113988433712
 22
160.1340788978496
 13
0.0
 23
0.0
 14
10.0
 24
10.0
 15
10.0
 25
10.0
 16
0.0
 26
0.0
 36
1.0
 17
0.0
 27
0.0
 37
0.0
 40
385.1293900568039
 41
1.863590772316951
 42
50.0
 43
0.0
 44
0.0
 50
0.0
 51
0.0
 71
     0
 72
   100
 73
     1
 74
     3
 75
     0
 76
     0
 77
     0
 78
     0
281
     0
 65
     1
110
0.0
120
0.0
130
0.0
111
1.0
121
0.0
131
0.0
112
0.0
122
1.0
132
0.0
 79
     0
146
0.0
348
2F
 60
     3
 61
     5
292
     1
282
     1
141
0.0
142
0.0
 63
   250
361
6D
  0
ENDTAB
  0
TABLE
  2
LTYPE
  5
5
330
0
100
AcDbSymbolTable
 70
     7
  0
LTYPE
  5
14
330
5
100
AcDbSymbolTableRecord
100
AcDbLinetypeTableRecord
  2
ByBlock
 70
     0
  3

 72
    65
 73
     0
 40
0.0
  0
LTYPE
  5
15
330
5
100
AcDbSymbolTableRecord
100
AcDbLinetypeTableRecord
  2
ByLayer
 70
     0
  3

 72
    65
 73
     0
 40
0.0
  0
LTYPE
  5
16
330
5
100
AcDbSymbolTableRecord
100
AcDbLinetypeTableRecord
  2
Continuous
 70
     0
  3
Solid line
 72
    65
 73
     0
 40
0.0
  0
LTYPE
  5
6E
330
5
100
AcDbSymbolTableRecord
100
AcDbLinetypeTableRecord
  2
DOT
 70
     0
  3
Dot . . . . . . . . . . . . . . . . . . . . . . . .
 72
    65
 73
     2
 40
2.032
 49
1.016
 74
     0
 49
-1.016
 74
     0
  0
LTYPE
  5
6F
330
5
100
AcDbSymbolTableRecord
100
AcDbLinetypeTableRecord
  2
CENTER
 70
     0
  3
Center ____ _ ____ _ ____ _ ____ _ ____ _ ____
 72
    65
 73
     4
 40
13.208
 49
8.128
 74
     0
 49
-1.524
 74
     0
 49
2.032
 74
     0
 49
-1.524
 74
     0
  0
LTYPE
  5
70
330
5
100
AcDbSymbolTableRecord
100
AcDbLinetypeTableRecord
  2
HIDDEN2
 70
     0
  3
Hidden (.5x) _ _ _ _ _ _ _ _ _ _ _ _ _ _ _ _ _
 72
    65
 73
     2
 40
4.762499999999999
 49
3.175
 74
     0
 49
-1.5875
 74
     0
  0
LTYPE
  5
71
330
5
100
AcDbSymbolTableRecord
100
AcDbLinetypeTableRecord
  2
DASHED
 70
     0
  3
Dashed __ __ __ __ __ __ __ __ __ __ __ __ __ _
 72
    65
 73
     2
 40
9.652
 49
8.128
 74
     0
 49
-1.524
 74
     0
  0
LTYPE
  5
72
330
5
100
AcDbSymbolTableRecord
100
AcDbLinetypeTableRecord
  2
PHANTOM2
 70
     0
  3
Phantom (.5x) ___ _ _ ___ _ _ ___ _ _ ___ _ _
 72
    65
 73
     6
 40
14.732
 49
8.128
 74
     0
 49
-1.524
 74
     0
 49
1.016
 74
     0
 49
-1.524
 74
     0
 49
1.016
 74
     0
 49
-1.524
 74
     0
  0
LTYPE
  5
73
330
5
100
AcDbSymbolTableRecord
100
AcDbLinetypeTableRecord
  2
DASHDOT
 70
     0
  3
Dash dot __ . __ . __ . __ . __ . __ . __ . __
 72
    65
 73
     4
 40
11.176
 49
8.128
 74
     0
 49
-1.524
 74
     0
 49
0.0
 74
     0
 49
-1.524
 74
     0
  0
ENDTAB
  0
TABLE
  2
LAYER
  5
2
330
0
100
AcDbSymbolTable
 70
     8
  0
LAYER
  5
10
330
2
100
AcDbSymbolTableRecord
100
AcDbLayerTableRecord
  2
0
 70
     0
 62
     7
  6
Continuous
370
    -3
390
F
347
46
348
0
  0
LAYER
  5
74
330
2
100
AcDbSymbolTableRecord
100
AcDbLayerTableRecord
  2
Outline
 70
     0
 62
     7
  6
Continuous
370
    -3
390
F
347
46
348
0
  0
LAYER
  5
75
330
2
100
AcDbSymbolTableRecord
100
AcDbLayerTableRecord
  2
Axis
 70
     0
 62
     5
  6
DASHDOT
370
    -3
390
F
347
46
348
0
  0
LAYER
  5
76
330
2
100
AcDbSymbolTableRecord
100
AcDbLayerTableRecord
  2
Dimension
 70
     0
 62
     7
  6
Continuous
370
    -3
390
F
347
46
348
0
  0
LAYER
  5
77
330
2
100
AcDbSymbolTableRecord
100
AcDbLayerTableRecord
  2
Hatch
 70
     0
 62
     5
  6
Continuous
370
    -3
390
F
347
46
348
0
  0
LAYER
  5
78
330
2
100
AcDbSymbolTableRecord
100
AcDbLayerTableRecord
  2
Auxiliary
 70
     0
 62
     1
  6
DOT
370
    -3
390
F
347
46
348
0
  0
LAYER
  5
79
330
2
100
AcDbSymbolTableRecord
100
AcDbLayerTableRecord
  2
Invisible
 70
     0
 62
     6
  6
DOT
370
    -3
390
F
347
46
348
0
  0
LAYER
  5
D0
330
2
100
AcDbSymbolTableRecord
100
AcDbLayerTableRecord
  2
Defpoints
 70
     0
 62
     7
  6
Continuous
290
     0
370
    -3
390
F
347
46
348
0
  0
ENDTAB
  0
TABLE
  2
STYLE
  5
3
330
0
100
AcDbSymbolTable
 70
    33
  0
STYLE
  5
11
330
3
100
AcDbSymbolTableRecord
100
AcDbTextStyleTableRecord
  2
Standard
 70
     0
 40
0.0
 41
1.0
 50
0.0
 71
     0
 42
2.5
  3
txt
  4

  0
STYLE
  5
7A
330
3
100
AcDbSymbolTableRecord
100
AcDbTextStyleTableRecord
  2
VCDSTYLE01
 70
     0
 40
0.0
 41
1.0
 50
0.0
 71
     0
 42
2.5
  3
txt
  4

  0
STYLE
  5
7B
330
3
100
AcDbSymbolTableRecord
100
AcDbTextStyleTableRecord
  2
VCDSTYLE02
 70
     0
 40
0.0
 41
1.0
 50
0.0
 71
     0
 42
2.5
  3
txt
  4

  0
STYLE
  5
7C
330
3
100
AcDbSymbolTableRecord
100
AcDbTextStyleTableRecord
  2
VCDSTYLE03
 70
     0
 40
0.0
 41
1.0
 50
0.0
 71
     0
 42
2.5
  3
txt
  4

  0
STYLE
  5
7D
330
3
100
AcDbSymbolTableRecord
100
AcDbTextStyleTableRecord
  2
VCDSTYLE04
 70
     0
 40
0.0
 41
1.0
 50
0.0
 71
     0
 42
2.5
  3
txt
  4

  0
STYLE
  5
7E
330
3
100
AcDbSymbolTableRecord
100
AcDbTextStyleTableRecord
  2
VCDSTYLE05
 70
     0
 40
0.0
 41
1.0
 50
0.0
 71
     0
 42
2.5
  3
txt
  4

  0
STYLE
  5
7F
330
3
100
AcDbSymbolTableRecord
100
AcDbTextStyleTableRecord
  2
VCDSTYLE06
 70
     0
 40
0.0
 41
1.0
 50
0.0
 71
     0
 42
2.5
  3
txt
  4

  0
STYLE
  5
80
330
3
100
AcDbSymbolTableRecord
100
AcDbTextStyleTableRecord
  2
VCDSTYLE07
 70
     0
 40
0.0
 41
1.0
 50
0.0
 71
     0
 42
2.5
  3
txt
  4

  0
STYLE
  5
81
330
3
100
AcDbSymbolTableRecord
100
AcDbTextStyleTableRecord
  2
VCDSTYLE08
 70
     0
 40
0.0
 41
1.0
 50
0.0
 71
     0
 42
2.5
  3
txt
  4

  0
STYLE
  5
82
330
3
100
AcDbSymbolTableRecord
100
AcDbTextStyleTableRecord
  2
VCDSTYLE09
 70
     0
 40
0.0
 41
1.0
 50
0.0
 71
     0
 42
2.5
  3
txt
  4

  0
STYLE
  5
83
330
3
100
AcDbSymbolTableRecord
100
AcDbTextStyleTableRecord
  2
VCDSTYLE10
 70
     0
 40
0.0
 41
1.0
 50
0.0
 71
     0
 42
2.5
  3
Sans Serif.ttf
  4

1001
ACAD
1000
Sans Serif
1071
        0
  0
STYLE
  5
84
330
3
100
AcDbSymbolTableRecord
100
AcDbTextStyleTableRecord
  2
VCDSTYLE11
 70
     0
 40
0.0
 41
1.0
 50
0.0
 71
     0
 42
2.5
  3
Sans Serif.ttf
  4

1001
ACAD
1000
Sans Serif
1071
 16777216
  0
STYLE
  5
85
330
3
100
AcDbSymbolTableRecord
100
AcDbTextStyleTableRecord
  2
VCDSTYLE12
 70
     0
 40
0.0
 41
1.0
 50
0.0
 71
     0
 42
2.5
  3
DejaVu Sans.ttf
  4

1001
ACAD
1000
DejaVu Sans
1071
        0
  0
STYLE
  5
86
330
3
100
AcDbSymbolTableRecord
100
AcDbTextStyleTableRecord
  2
VCDSTYLE13
 70
     0
 40
0.0
 41
1.0
 50
0.0
 71
     0
 42
2.5
  3
DejaVu Sans.ttf
  4

1001
ACAD
1000
DejaVu Sans
1071
 16777216
  0
STYLE
  5
87
330
3
100
AcDbSymbolTableRecord
100
AcDbTextStyleTableRecord
  2
VCDSTYLE14
 70
     0
 40
0.0
 41
1.0
 50
0.0
 71
     0
 42
2.5
  3
DejaVu Sans Mono.ttf
  4

1001
ACAD
1000
DejaVu Sans Mono
1071
        0
  0
STYLE
  5
88
330
3
100
AcDbSymbolTableRecord
100
AcDbTextStyleTableRecord
  2
VCDSTYLE15
 70
     0
 40
0.0
 41
1.0
 50
0.0
 71
     0
 42
2.5
  3
DejaVu Sans Mono.ttf
  4

1001
ACAD
1000
DejaVu Sans Mono
1071
 16777216
  0
STYLE
  5
89
330
3
100
AcDbSymbolTableRecord
100
AcDbTextStyleTableRecord
  2
VCDSTYLE16
 70
     0
 40
0.0
 41
1.0
 50
0.0
 71
     0
 42
2.5
  3
UnDotum.ttf
  4

1001
ACAD
1000
UnDotum
1071
        0
  0
STYLE
  5
8A
330
3
100
AcDbSymbolTableRecord
100
AcDbTextStyleTableRecord
  2
VCDSTYLE17
 70
     0
 40
0.0
 41
1.0
 50
0.0
 71
     0
 42
2.5
  3
UnDotum.ttf
  4

1001
ACAD
1000
UnDotum
1071
 16777216
  0
STYLE
  5
8B
330
3
100
AcDbSymbolTableRecord
100
AcDbTextStyleTableRecord
  2
VCDSTYLE18
 70
     0
 40
0.0
 41
1.0
 50
0.0
 71
     0
 42
2.5
  3
Sans Serif.ttf
  4

1001
ACAD
1000
Sans Serif
1071
        0
  0
STYLE
  5
8C
330
3
100
AcDbSymbolTableRecord
100
AcDbTextStyleTableRecord
  2
VCDSTYLE19
 70
     0
 40
0.0
 41
1.0
 50
0.0
 71
     0
 42
2.5
  3
Sans Serif.ttf
  4

1001
ACAD
1000
Sans Serif
1071
 16777216
  0
STYLE
  5
8D
330
3
100
AcDbSymbolTableRecord
100
AcDbTextStyleTableRecord
  2
VCDSTYLE20
 70
     0
 40
0.0
 41
1.0
 50
0.0
 71
     0
 42
2.5
  3
Sans Serif.ttf
  4

1001
ACAD
1000
Sans Serif
1071
        0
  0
STYLE
  5
8E
330
3
100
AcDbSymbolTableRecord
100
AcDbTextStyleTableRecord
  2
VCDSTYLE21
 70
     0
 40
0.0
 41
1.0
 50
0.0
 71
     0
 42
2.5
  3
Sans Serif.ttf
  4

1001
ACAD
1000
Sans Serif
1071
 16777216
  0
STYLE
  5
8F
330
3
100
AcDbSymbolTableRecord
100
AcDbTextStyleTableRecord
  2
VCDSTYLE22
 70
     0
 40
0.0
 41
1.0
 50
0.0
 71
     0
 42
2.5
  3
Monospace.ttf
  4

1001
ACAD
1000
Monospace
1071
        0
  0
STYLE
  5
90
330
3
100
AcDbSymbolTableRecord
100
AcDbTextStyleTableRecord
  2
VCDSTYLE23
 70
     0
 40
0.0
 41
1.0
 50
0.0
 71
     0
 42
2.5
  3
Monospace.ttf
  4

1001
ACAD
1000
Monospace
1071
 16777216
  0
STYLE
  5
91
330
3
100
AcDbSymbolTableRecord
100
AcDbTextStyleTableRecord
  2
VCDSTYLE24
 70
     0
 40
0.0
 41
1.0
 50
0.0
 71
     0
 42
2.5
  3
URW Gothic L.ttf
  4

1001
ACAD
1000
URW Gothic L
1071
        0
  0
STYLE
  5
92
330
3
100
AcDbSymbolTableRecord
100
AcDbTextStyleTableRecord
  2
VCDSTYLE25
 70
     0
 40
0.0
 41
1.0
 50
0.0
 71
     0
 42
2.5
  3
URW Gothic L.ttf
  4

1001
ACAD
1000
URW Gothic L
1071
 16777216
  0
STYLE
  5
93
330
3
100
AcDbSymbolTableRecord
100
AcDbTextStyleTableRecord
  2
VCDSTYLE26
 70
     0
 40
0.0
 41
1.0
 50
0.0
 71
     0
 42
2.5
  3
Waree.ttf
  4

1001
ACAD
1000
Waree
1071
        0
  0
STYLE
  5
94
330
3
100
AcDbSymbolTableRecord
100
AcDbTextStyleTableRecord
  2
VCDSTYLE27
 70
     0
 40
0.0
 41
1.0
 50
0.0
 71
     0
 42
2.5
  3
Waree.ttf
  4

1001
ACAD
1000
Waree
1071
 16777216
  0
STYLE
  5
95
330
3
100
AcDbSymbolTableRecord
100
AcDbTextStyleTableRecord
  2
VCDSTYLE28
 70
     0
 40
0.0
 41
1.0
 50
0.0
 71
     0
 42
2.5
  3
Nimbus Mono L.ttf
  4

1001
ACAD
1000
Nimbus Mono L
1071
        0
  0
STYLE
  5
96
330
3
100
AcDbSymbolTableRecord
100
AcDbTextStyleTableRecord
  2
VCDSTYLE29
 70
     0
 40
0.0
 41
1.0
 50
0.0
 71
     0
 42
2.5
  3
Nimbus Sans L.ttf
  4

1001
ACAD
1000
Nimbus Sans L
1071
        0
  0
STYLE
  5
97
330
3
100
AcDbSymbolTableRecord
100
AcDbTextStyleTableRecord
  2
VCDSTYLE30
 70
     0
 40
0.0
 41
1.0
 50
0.0
 71
     0
 42
2.5
  3
Nimbus Sans L.ttf
  4

1001
ACAD
1000
Nimbus Sans L
1071
 16777216
  0
STYLE
  5
98
330
3
100
AcDbSymbolTableRecord
100
AcDbTextStyleTableRecord
  2
VCDSTYLE31
 70
     0
 40
0.0
 41
1.0
 50
0.0
 71
     0
 42
2.5
  3
Serif.ttf
  4

1001
ACAD
1000
Serif
1071
        0
  0
STYLE
  5
99
330
3
100
AcDbSymbolTableRecord
100
AcDbTextStyleTableRecord
  2
VCDSTYLE32
 70
     0
 40
0.0
 41
1.0
 50
0.0
 71
     0
 42
2.5
  3
Serif.ttf
  4

1001
ACAD
1000
Serif
1071
 16777216
  0
ENDTAB
  0
TABLE
  2
VIEW
  5
6
330
0
100
AcDbSymbolTable
 70
     0
  0
ENDTAB
  0
TABLE
  2
UCS
  5
7
330
0
100
AcDbSymbolTable
 70
     0
  0
ENDTAB
  0
TABLE
  2
APPID
  5
9
330
0
100
AcDbSymbolTable
 70
     1
  0
APPID
  5
12
330
9
100
AcDbSymbolTableRecord
100
AcDbRegAppTableRecord
  2
ACAD
 70
     0
  0
ENDTAB
  0
TABLE
  2
DIMSTYLE
  5
A
330
0
100
AcDbSymbolTable
 70
     2
100
AcDbDimStyleTable
  0
DIMSTYLE
105
27
330
A
100
AcDbSymbolTableRecord
100
AcDbDimStyleTableRecord
  2
ISO-25
 70
     0
 41
2.5
 42
0.625
 43
3.75
 44
1.25
 73
     0
 74
     0
 77
     1
 78
     8
140
2.5
141
2.5
143
0.03937007874016
147
0.625
171
     3
172
     1
178
     0
271
     2
272
     2
274
     3
278
    44
283
     0
284
     8
340
11
  0
DIMSTYLE
105
CE
102
{ACAD_REACTORS
330
CF
330
DD
330
EC
102
}
330
A
100
AcDbSymbolTableRecord
100
AcDbDimStyleTableRecord
  2
VCDDIMSTYLE01
 70
     0
 41
5.0
 42
0.0
 43
8.0
 44
1.0
 73
     0
 74
     0
 77
     1
 78
     8
 79
     2
140
4.0
147
1.0
172
     1
173
     1
178
     0
179
     3
271
     5
275
     1
288
     1
289
     0
340
7B
  0
ENDTAB
  0
TABLE
  2
BLOCK_RECORD
  5
1
330
0
100
AcDbSymbolTable
 70
    15
  0
BLOCK_RECORD
  5
1F
330
1
100
AcDbSymbolTableRecord
100
AcDbBlockTableRecord
  2
*Model_Space
340
22
 70
     0
280
     1
281
     0
  0
BLOCK_RECORD
  5
1B
330
1
100
AcDbSymbolTableRecord
100
AcDbBlockTableRecord
  2
*Paper_Space
340
1E
 70
     0
280
     1
281
     0
  0
BLOCK_RECORD
  5
23
330
1
100
AcDbSymbolTableRecord
100
AcDbBlockTableRecord
  2
*Paper_Space0
340
26
 70
     0
280
     1
281
     0
  0
BLOCK_RECORD
  5
9A
330
1
100
AcDbSymbolTableRecord
100
AcDbBlockTableRecord
  2
$AttrValue elphel_parts
340
0
102
{BLKREFS
331
9C
102
}
 70
     0
280
     1
281
     0
  0
BLOCK_RECORD
  5
9F
330
1
100
AcDbSymbolTableRecord
100
AcDbBlockTableRecord
  2
$AttrValue elphel_parts(1)
340
0
102
{BLKREFS
331
A1
102
}
 70
     0
280
     1
281
     0
  0
BLOCK_RECORD
  5
A4
330
1
100
AcDbSymbolTableRecord
100
AcDbBlockTableRecord
  2
$AttrValue elphel_parts(2)
340
0
102
{BLKREFS
331
A6
102
}
 70
     0
280
     1
281
     0
  0
BLOCK_RECORD
  5
A9
330
1
100
AcDbSymbolTableRecord
100
AcDbBlockTableRecord
  2
$AttrValue elphel_parts(3)
340
0
102
{BLKREFS
331
AB
102
}
 70
     0
280
     1
281
     0
  0
BLOCK_RECORD
  5
AE
330
1
100
AcDbSymbolTableRecord
100
AcDbBlockTableRecord
  2
$AttrValue elphel_parts(4)
340
0
102
{BLKREFS
331
B0
102
}
 70
     0
280
     1
281
     0
  0
BLOCK_RECORD
  5
B3
330
1
100
AcDbSymbolTableRecord
100
AcDbBlockTableRecord
  2
$AttrValue elphel_parts(5)
340
0
102
{BLKREFS
331
B5
102
}
 70
     0
280
     1
281
     0
  0
BLOCK_RECORD
  5
B8
330
1
100
AcDbSymbolTableRecord
100
AcDbBlockTableRecord
  2
$AttrValue elphel_parts(6)
340
0
102
{BLKREFS
331
BA
102
}
 70
     0
280
     1
281
     0
  0
BLOCK_RECORD
  5
BD
330
1
100
AcDbSymbolTableRecord
100
AcDbBlockTableRecord
  2
$AttrValue elphel_parts(7)
340
0
102
{BLKREFS
331
BF
102
}
 70
     0
280
     1
281
     0
  0
BLOCK_RECORD
  5
C2
330
1
100
AcDbSymbolTableRecord
100
AcDbBlockTableRecord
  2
$AttrValue elphel_parts(8)
340
0
102
{BLKREFS
331
C4
102
}
 70
     0
280
     1
281
     0
  0
BLOCK_RECORD
  5
C7
330
1
100
AcDbSymbolTableRecord
100
AcDbBlockTableRecord
  2
*D10
340
0
 70
     0
280
     1
281
     0
  0
BLOCK_RECORD
  5
D6
330
1
100
AcDbSymbolTableRecord
100
AcDbBlockTableRecord
  2
*D11
340
0
 70
     0
280
     1
281
     0
  0
BLOCK_RECORD
  5
E3
330
1
100
AcDbSymbolTableRecord
100
AcDbBlockTableRecord
  2
*D12
340
0
 70
     0
280
     1
281
     0
  0
BLOCK_RECORD
  5
453
330
1
100
AcDbSymbolTableRecord
100
AcDbBlockTableRecord
  2
$TitleBlock elphel_parts
340
0
102
{BLKREFS
331
481
102
}
 70
     0
280
     1
281
     0
  0
BLOCK_RECORD
  5
484
330
1
100
AcDbSymbolTableRecord
100
AcDbBlockTableRecord
  2
Sheet Border
340
0
102
{BLKREFS
331
487
102
}
 70
     0
280
     1
281
     0
  0
ENDTAB
  0
ENDSEC
  0
SECTION
  2
BLOCKS
  0
BLOCK
  5
20
330
1F
100
AcDbEntity
  8
0
100
AcDbBlockBegin
  2
*Model_Space
 70
     0
 10
0.0
 20
0.0
 30
0.0
  3
*Model_Space
  1

  0
ENDBLK
  5
21
330
1F
100
AcDbEntity
  8
0
100
AcDbBlockEnd
  0
BLOCK
  5
1C
330
1B
100
AcDbEntity
 67
     1
  8
0
100
AcDbBlockBegin
  2
*Paper_Space
 70
     0
 10
0.0
 20
0.0
 30
0.0
  3
*Paper_Space
  1

  0
ENDBLK
  5
1D
330
1B
100
AcDbEntity
 67
     1
  8
0
100
AcDbBlockEnd
  0
BLOCK
  5
24
330
23
100
AcDbEntity
  8
0
100
AcDbBlockBegin
  2
*Paper_Space0
 70
     0
 10
0.0
 20
0.0
 30
0.0
  3
*Paper_Space0
  1

  0
ENDBLK
  5
25
330
23
100
AcDbEntity
  8
0
100
AcDbBlockEnd
  0
BLOCK
  5
9D
330
9A
100
AcDbEntity
  8
0
100
AcDbBlockBegin
  2
$AttrValue elphel_parts
 70
     0
 10
0.0
 20
0.0
 30
0.0
  3
$AttrValue elphel_parts
  1

  0
TEXT
  5
9B
330
9A
100
AcDbEntity
  8
0
 62
     2
100
AcDbText
 10
0.0
 20
0.0
 30
0.0
 40
3.0
  1
1:1
  7
VCDSTYLE22
100
AcDbText
  0
ENDBLK
  5
9E
330
9A
100
AcDbEntity
  8
0
100
AcDbBlockEnd
  0
BLOCK
  5
A2
330
9F
100
AcDbEntity
  8
0
100
AcDbBlockBegin
  2
$AttrValue elphel_parts(1)
 70
     0
 10
0.0
 20
0.0
 30
0.0
  3
$AttrValue elphel_parts(1)
  1

  0
TEXT
  5
A0
330
9F
100
AcDbEntity
  8
0
 62
     2
100
AcDbText
 10
0.0
 20
0.0
 30
0.0
 40
2.0
  1
04/15/2016
  7
VCDSTYLE03
100
AcDbText
  0
ENDBLK
  5
A3
330
9F
100
AcDbEntity
  8
0
100
AcDbBlockEnd
  0
BLOCK
  5
A7
330
A4
100
AcDbEntity
  8
0
100
AcDbBlockBegin
  2
$AttrValue elphel_parts(2)
 70
     0
 10
0.0
 20
0.0
 30
0.0
  3
$AttrValue elphel_parts(2)
  1

  0
TEXT
  5
A5
330
A4
100
AcDbEntity
  8
0
 62
     2
100
AcDbText
 10
0.0
 20
0.0
 30
0.0
 40
2.0
  1
Anodize/Chromate Conversion
  7
VCDSTYLE04
100
AcDbText
  0
ENDBLK
  5
A8
330
A4
100
AcDbEntity
  8
0
100
AcDbBlockEnd
  0
BLOCK
  5
AC
330
A9
100
AcDbEntity
  8
0
100
AcDbBlockBegin
  2
$AttrValue elphel_parts(3)
 70
     0
 10
0.0
 20
0.0
 30
0.0
  3
$AttrValue elphel_parts(3)
  1

  0
TEXT
  5
AA
330
A9
100
AcDbEntity
  8
0
 62
     2
100
AcDbText
 10
0.0
 20
0.0
 30
0.0
 40
2.0
  1
Aluminum 6061-T6
  7
VCDSTYLE04
100
AcDbText
  0
ENDBLK
  5
AD
330
A9
100
AcDbEntity
  8
0
100
AcDbBlockEnd
  0
BLOCK
  5
B1
330
AE
100
AcDbEntity
  8
0
100
AcDbBlockBegin
  2
$AttrValue elphel_parts(4)
 70
     0
 10
0.0
 20
0.0
 30
0.0
  3
$AttrValue elphel_parts(4)
  1

  0
TEXT
  5
AF
330
AE
100
AcDbEntity
  8
0
 62
     2
100
AcDbText
 10
0.0
 20
0.0
 30
0.0
 40
2.0
  1
9.71
  7
VCDSTYLE04
100
AcDbText
  0
ENDBLK
  5
B2
330
AE
100
AcDbEntity
  8
0
100
AcDbBlockEnd
  0
BLOCK
  5
B6
330
B3
100
AcDbEntity
  8
0
100
AcDbBlockBegin
  2
$AttrValue elphel_parts(5)
 70
     0
 10
0.0
 20
0.0
 30
0.0
  3
$AttrValue elphel_parts(5)
  1

  0
TEXT
  5
B4
330
B3
100
AcDbEntity
  8
0
100
AcDbText
 10
0.0
 20
0.0
 30
0.0
 40
1.5
  1
2015
  7
VCDSTYLE10
100
AcDbText
  0
ENDBLK
  5
B7
330
B3
100
AcDbEntity
  8
0
100
AcDbBlockEnd
  0
BLOCK
  5
BB
330
B8
100
AcDbEntity
  8
0
100
AcDbBlockBegin
  2
$AttrValue elphel_parts(6)
 70
     0
 10
0.0
 20
0.0
 30
0.0
  3
$AttrValue elphel_parts(6)
  1

  0
TEXT
  5
B9
330
B8
100
AcDbEntity
  8
0
 62
     2
100
AcDbText
 10
0.0
 20
0.0
 30
0.0
 40
3.0
  1
Back Panel
  7
VCDSTYLE04
100
AcDbText
  0
ENDBLK
  5
BC
330
B8
100
AcDbEntity
  8
0
100
AcDbBlockEnd
  0
BLOCK
  5
C0
330
BD
100
AcDbEntity
  8
0
100
AcDbBlockBegin
  2
$AttrValue elphel_parts(7)
 70
     0
 10
0.0
 20
0.0
 30
0.0
  3
$AttrValue elphel_parts(7)
  1

  0
TEXT
  5
BE
330
BD
100
AcDbEntity
  8
Auxiliary
  6
Continuous
100
AcDbText
 10
0.0
 20
0.0
 30
0.0
 40
8.0
  1
A
  7
VCDSTYLE22
100
AcDbText
  0
ENDBLK
  5
C1
330
BD
100
AcDbEntity
  8
0
100
AcDbBlockEnd
  0
BLOCK
  5
C5
330
C2
100
AcDbEntity
  8
0
100
AcDbBlockBegin
  2
$AttrValue elphel_parts(8)
 70
     0
 10
0.0
 20
0.0
 30
0.0
  3
$AttrValue elphel_parts(8)
  1

  0
TEXT
  5
C3
330
C2
100
AcDbEntity
  8
0
 62
     2
100
AcDbText
 10
0.0
 20
0.0
 30
0.0
 40
6.0
  1
0393-13-01
  7
VCDSTYLE22
100
AcDbText
  0
ENDBLK
  5
C6
330
C2
100
AcDbEntity
  8
0
100
AcDbBlockEnd
  0
BLOCK
  5
D4
330
C7
100
AcDbEntity
  8
0
100
AcDbBlockBegin
  2
*D10
 70
     1
 10
0.0
 20
0.0
 30
0.0
  3
*D10
  1

  0
LINE
  5
C8
330
C7
100
AcDbEntity
  8
Dimension
 62
     0
370
    -2
100
AcDbLine
 10
59.81019878074497
 20
238.6850566129424
 30
0.0
 11
59.81019878074497
 21
247.6671209963999
 31
0.0
  0
LINE
  5
C9
330
C7
100
AcDbEntity
  8
Dimension
 62
     0
370
    -2
100
AcDbLine
 10
100.3101987807406
 20
238.685056749904
 30
0.0
 11
100.3101987807406
 21
247.6671209963999
 31
0.0
  0
LINE
  5
CA
330
C7
100
AcDbEntity
  8
Dimension
 62
     0
370
    -2
100
AcDbLine
 10
64.81019878074497
 20
246.6671209963999
 30
0.0
 11
95.31019878074065
 21
246.6671209963999
 31
0.0
  0
SOLID
  5
CB
330
C7
100
AcDbEntity
  8
Dimension
 62
     0
100
AcDbTrace
 10
64.81019878074497
 20
247.5004543297332
 30
0.0
 11
64.81019878074497
 21
245.8337876630665
 31
0.0
 12
59.81019878074497
 22
246.6671209963999
 32
0.0
 13
59.81019878074497
 23
246.6671209963999
 33
0.0
  0
SOLID
  5
CC
330
C7
100
AcDbEntity
  8
Dimension
 62
     0
100
AcDbTrace
 10
95.31019878074065
 20
245.8337876630665
 30
0.0
 11
95.31019878074065
 21
247.5004543297332
 31
0.0
 12
100.3101987807406
 22
246.6671209963999
 32
0.0
 13
100.3101987807406
 23
246.6671209963999
 33
0.0
  0
MTEXT
  5
CD
330
C7
100
AcDbEntity
  8
Dimension
 62
     0
100
AcDbMText
 10
79.48981525921604
 20
249.6671209963999
 30
0.0
 40
4.0
 41
0.0
 46
0.0
 71
     5
 72
     1
  1
\A1;40.5
  7
VCDSTYLE02
 73
     1
 44
1.0
  0
POINT
  5
D1
330
C7
100
AcDbEntity
  8
Defpoints
 62
     0
100
AcDbPoint
 10
59.81019878074497
 20
238.6850566129424
 30
0.0
  0
POINT
  5
D2
330
C7
100
AcDbEntity
  8
Defpoints
 62
     0
100
AcDbPoint
 10
100.3101987807406
 20
238.685056749904
 30
0.0
  0
POINT
  5
D3
330
C7
100
AcDbEntity
  8
Defpoints
 62
     0
100
AcDbPoint
 10
100.3101987807406
 20
246.6671209963999
 30
0.0
  0
ENDBLK
  5
D5
330
C7
100
AcDbEntity
  8
0
100
AcDbBlockEnd
  0
BLOCK
  5
E1
330
D6
100
AcDbEntity
  8
0
100
AcDbBlockBegin
  2
*D11
 70
     1
 10
0.0
 20
0.0
 30
0.0
  3
*D11
  1

  0
LINE
  5
D7
330
D6
100
AcDbEntity
  8
Dimension
 62
     0
370
    -2
100
AcDbLine
 10
62.06019878074497
 20
240.9350564759839
 30
0.0
 11
53.35332008538083
 21
240.9350564759839
 31
0.0
  0
LINE
  5
D8
330
D6
100
AcDbEntity
  8
Dimension
 62
     0
370
    -2
100
AcDbLine
 10
62.06019891769998
 20
200.4350638717814
 30
0.0
 11
53.35332008538083
 21
200.4350638717814
 31
0.0
  0
LINE
  5
D9
330
D6
100
AcDbEntity
  8
Dimension
 62
     0
370
    -2
100
AcDbLine
 10
54.35332008538083
 20
235.9350564759839
 30
0.0
 11
54.35332008538083
 21
205.4350638717814
 31
0.0
  0
SOLID
  5
DA
330
D6
100
AcDbEntity
  8
Dimension
 62
     0
100
AcDbTrace
 10
55.18665341871417
 20
235.9350564759839
 30
0.0
 11
53.51998675204749
 21
235.9350564759839
 31
0.0
 12
54.35332008538083
 22
240.9350564759839
 32
0.0
 13
54.35332008538083
 23
240.9350564759839
 33
0.0
  0
SOLID
  5
DB
330
D6
100
AcDbEntity
  8
Dimension
 62
     0
100
AcDbTrace
 10
53.51998675204749
 20
205.4350638717814
 30
0.0
 11
55.18665341871417
 21
205.4350638717814
 31
0.0
 12
54.35332008538083
 22
200.4350638717814
 32
0.0
 13
54.35332008538083
 23
200.4350638717814
 33
0.0
  0
MTEXT
  5
DC
330
D6
100
AcDbEntity
  8
Dimension
 62
     0
100
AcDbMText
 10
51.35332008538083
 20
222.0725406482569
 30
0.0
 40
4.0
 41
0.0
 46
0.0
 71
     5
 72
     1
  1
\A1;40.5
  7
VCDSTYLE02
 11
0.0
 21
1.0
 31
0.0
 73
     1
 44
1.0
  0
POINT
  5
DE
330
D6
100
AcDbEntity
  8
Defpoints
 62
     0
100
AcDbPoint
 10
62.06019878074497
 20
240.9350564759839
 30
0.0
  0
POINT
  5
DF
330
D6
100
AcDbEntity
  8
Defpoints
 62
     0
100
AcDbPoint
 10
62.06019891769998
 20
200.4350638717814
 30
0.0
  0
POINT
  5
E0
330
D6
100
AcDbEntity
  8
Defpoints
 62
     0
100
AcDbPoint
 10
54.35332008538083
 20
200.4350638717814
 30
0.0
  0
ENDBLK
  5
E2
330
D6
100
AcDbEntity
  8
0
100
AcDbBlockEnd
  0
BLOCK
  5
EE
330
E3
100
AcDbEntity
  8
0
100
AcDbBlockBegin
  2
*D12
 70
     1
 10
0.0
 20
0.0
 30
0.0
  3
*D12
  1

  0
LINE
  5
E4
330
E3
100
AcDbEntity
  8
Dimension
 62
     0
370
    -2
100
AcDbLine
 10
61.11019886949148
 20
168.4350559799395
 30
0.0
 11
53.8751824946556
 21
168.4350559799395
 31
0.0
  0
LINE
  5
E5
330
E3
100
AcDbEntity
  8
Dimension
 62
     0
370
    -2
100
AcDbLine
 10
60.31019899378819
 20
162.4350559799398
 30
0.0
 11
53.8751824946556
 21
162.4350559799398
 31
0.0
  0
LINE
  5
E6
330
E3
100
AcDbEntity
  8
Dimension
 62
     0
370
    -2
100
AcDbLine
 10
54.8751824946556
 20
163.4350559799395
 30
0.0
 11
54.8751824946556
 21
167.4350559799398
 31
0.0
  0
SOLID
  5
E7
330
E3
100
AcDbEntity
  8
Dimension
 62
     0
100
AcDbTrace
 10
55.70851582798894
 20
163.4350559799395
 30
0.0
 11
54.04184916132227
 21
163.4350559799395
 31
0.0
 12
54.8751824946556
 22
168.4350559799395
 32
0.0
 13
54.8751824946556
 23
168.4350559799395
 33
0.0
  0
SOLID
  5
E8
330
E3
100
AcDbEntity
  8
Dimension
 62
     0
100
AcDbTrace
 10
54.04184916132227
 20
167.4350559799398
 30
0.0
 11
55.70851582798894
 21
167.4350559799398
 31
0.0
 12
54.8751824946556
 22
162.4350559799398
 32
0.0
 13
54.8751824946556
 23
162.4350559799398
 33
0.0
  0
MTEXT
  5
E9
330
E3
100
AcDbEntity
  8
Dimension
 62
     0
100
AcDbMText
 10
51.8751824946556
 20
165.5577060403957
 30
0.0
 40
4.0
 41
0.0
 46
0.0
 71
     5
 72
     1
  1
\A1;6
  7
VCDSTYLE02
 11
0.0
 21
1.0
 31
0.0
 73
     1
 44
1.0
  0
POINT
  5
EA
330
E3
100
AcDbEntity
  8
Defpoints
 62
     0
100
AcDbPoint
 10
61.11019886949148
 20
168.4350559799395
 30
0.0
  0
POINT
  5
EB
330
E3
100
AcDbEntity
  8
Defpoints
 62
     0
100
AcDbPoint
 10
60.31019899378819
 20
162.4350559799398
 30
0.0
  0
POINT
  5
ED
330
E3
100
AcDbEntity
  8
Defpoints
 62
     0
100
AcDbPoint
 10
54.8751824946556
 20
162.4350559799398
 30
0.0
  0
ENDBLK
  5
EF
330
E3
100
AcDbEntity
  8
0
100
AcDbBlockEnd
  0
BLOCK
  5
482
330
453
100
AcDbEntity
  8
0
100
AcDbBlockBegin
  2
$TitleBlock elphel_parts
 70
     0
 10
0.0
 20
0.0
 30
0.0
  3
$TitleBlock elphel_parts
  1

  0
TEXT
  5
454
330
453
100
AcDbEntity
  8
Outline
 62
     2
100
AcDbText
 10
-168.3495635986328
 20
16.18584442138672
 30
0.0
 40
1.841060042381287
  1
Surface
  7
VCDSTYLE02
100
AcDbText
  0
LWPOLYLINE
  5
455
330
453
100
AcDbEntity
  8
Outline
 62
     2
100
AcDbPolyline
 90
        5
 70
     0
 43
0.0
 10
-0.4602650136366151
 20
0.4602650136366293
 10
-82.38743744095697
 20
0.4602650136366293
 10
-82.38743744095697
 20
15.18874545000888
 10
-0.4602650136366151
 20
15.18874545000888
 10
-0.4602650136366151
 20
0.0
  0
LINE
  5
456
330
453
100
AcDbEntity
  8
Outline
 62
     2
100
AcDbLine
 10
0.0000000000000568
 20
15.64901046364552
 30
0.0
 11
0.0000000000000568
 21
0.0
 31
0.0
  0
LINE
  5
457
330
453
100
AcDbEntity
  8
Outline
 62
     2
100
AcDbLine
 10
-97.57618289096607
 20
15.64901046364552
 30
0.0
 11
-97.57618289096607
 21
19.56126307955689
 31
0.0
  0
LINE
  5
458
330
453
100
AcDbEntity
  8
Outline
 62
     2
100
AcDbLine
 10
-170.298055045554
 20
15.64901046364552
 30
0.0
 11
-82.84770245459381
 21
15.64901046364552
 31
0.0
  0
LINE
  5
459
330
453
100
AcDbEntity
  8
Outline
 62
     2
100
AcDbLine
 10
-170.298055045554
 20
0.0
 30
0.0
 11
-82.84770245459381
 21
0.0
 31
0.0
  0
LINE
  5
45A
330
453
100
AcDbEntity
  8
Outline
 62
     2
100
AcDbLine
 10
-82.84770245459381
 20
0.0
 30
0.0
 11
-82.84770245459381
 21
15.64901046364552
 31
0.0
  0
LINE
  5
45B
330
453
100
AcDbEntity
  8
Outline
 62
     2
100
AcDbLine
 10
-170.298055045554
 20
19.56126307955689
 30
0.0
 11
0.0000000000000568
 21
19.56126307955689
 31
0.0
  0
LINE
  5
45C
330
453
100
AcDbEntity
  8
Outline
 62
     2
100
AcDbLine
 10
0.0000000000000568
 20
0.0
 30
0.0
 11
-82.84770245459381
 21
0.0
 31
0.0
  0
LINE
  5
45D
330
453
100
AcDbEntity
  8
Outline
 62
     2
100
AcDbLine
 10
-82.84770245459381
 20
15.64901046364552
 30
0.0
 11
0.0000000000000568
 21
15.64901046364552
 31
0.0
  0
TEXT
  5
45E
330
453
100
AcDbEntity
  8
Outline
 62
     2
100
AcDbText
 10
-81.25203704833984
 20
44.91454315185547
 30
0.0
 40
0.9205300211906433
  1
Description
  7
VCDSTYLE02
100
AcDbText
  0
LINE
  5
45F
330
453
100
AcDbEntity
  8
Outline
 62
     2
100
AcDbLine
 10
-170.298055045554
 20
27.38576831137964
 30
0.0
 11
0.0000000000000568
 21
27.38576831137964
 31
0.0
  0
LINE
  5
460
330
453
100
AcDbEntity
  8
Outline
 62
     2
100
AcDbLine
 10
0.0000000000000568
 20
46.94703139093654
 30
0.0
 11
-170.298055045554
 21
46.94703139093654
 31
0.0
  0
LINE
  5
461
330
453
100
AcDbEntity
  8
Outline
 62
     2
100
AcDbLine
 10
-170.298055045554
 20
27.38576831137964
 30
0.0
 11
-82.84770245459381
 21
27.38576831137964
 31
0.0
  0
LINE
  5
462
330
453
100
AcDbEntity
  8
Outline
 62
     2
100
AcDbLine
 10
-170.298055045554
 20
31.29802092729101
 30
0.0
 11
-170.298055045554
 21
46.94703139093654
 31
0.0
  0
LINE
  5
463
330
453
100
AcDbEntity
  8
Outline
 62
     2
100
AcDbLine
 10
-82.84770245459381
 20
46.94703139093654
 30
0.0
 11
-82.84770245459381
 21
31.29802092729101
 31
0.0
  0
LINE
  5
464
330
453
100
AcDbEntity
  8
Outline
 62
     2
100
AcDbLine
 10
0.0000000000000568
 20
31.29802092729101
 30
0.0
 11
0.0000000000000568
 21
46.94703139093654
 31
0.0
  0
LINE
  5
465
330
453
100
AcDbEntity
  8
Outline
 62
     2
100
AcDbLine
 10
-157.0483207857146
 20
46.94703139093654
 30
0.0
 11
-157.0483207857146
 21
31.29802092729101
 31
0.0
  0
TEXT
  5
466
330
453
100
AcDbEntity
  8
Outline
 62
     2
100
AcDbText
 10
-168.3495635986328
 20
28.04717826843262
 30
0.0
 40
1.841060042381287
  1
Material
  7
VCDSTYLE02
100
AcDbText
  0
LINE
  5
467
330
453
100
AcDbEntity
  8
Outline
 62
     2
100
AcDbLine
 10
-170.298055045554
 20
0.0
 30
0.0
 11
-170.298055045554
 21
31.29802092729101
 31
0.0
  0
LINE
  5
468
330
453
100
AcDbEntity
  8
Outline
 62
     2
100
AcDbLine
 10
-150.9056121242796
 20
15.64901046364552
 30
0.0
 11
-150.9056121242796
 21
31.29802092729101
 31
0.0
  0
LINE
  5
469
330
453
100
AcDbEntity
  8
Outline
 62
     2
100
AcDbLine
 10
-82.84770245459381
 20
31.29802092729101
 30
0.0
 11
-82.84770245459381
 21
15.64901046364552
 31
0.0
  0
LINE
  5
46A
330
453
100
AcDbEntity
  8
Outline
100
AcDbLine
 10
-170.298055045554
 20
23.47351569546827
 30
0.0
 11
-82.84770245459381
 21
23.47351569546827
 31
0.0
  0
LINE
  5
46B
330
453
100
AcDbEntity
  8
Outline
 62
     2
100
AcDbLine
 10
-170.298055045554
 20
23.47351569546827
 30
0.0
 11
0.0000000000000568
 21
23.47351569546827
 31
0.0
  0
TEXT
  5
46C
330
453
100
AcDbEntity
  8
Outline
 62
     2
100
AcDbText
 10
-168.3495635986328
 20
24.13492584228516
 30
0.0
 40
1.841060042381287
  1
Finish
  7
VCDSTYLE02
100
AcDbText
  0
LINE
  5
46D
330
453
100
AcDbEntity
  8
Outline
 62
     2
100
AcDbLine
 10
0.0000000000000568
 20
15.64901046364552
 30
0.0
 11
0.0000000000000568
 21
31.29802092729101
 31
0.0
  0
TEXT
  5
46E
330
453
100
AcDbEntity
  8
Outline
 62
     2
100
AcDbText
 10
-81.25203704833984
 20
12.55433559417725
 30
0.0
 40
0.9205300211906433
  1
Notes
  7
VCDSTYLE02
100
AcDbText
  0
LINE
  5
46F
330
453
100
AcDbEntity
  8
Outline
 62
     2
100
AcDbLine
 10
-170.298055045554
 20
31.29802092729101
 30
0.0
 11
-82.84770245459381
 21
31.29802092729101
 31
0.0
  0
TEXT
  5
470
330
453
100
AcDbEntity
  8
Outline
 62
     2
100
AcDbText
 10
-168.3495635986328
 20
20.20714569091797
 30
0.0
 40
1.841060042381287
  1
Weight(g)
  7
VCDSTYLE02
100
AcDbText
  0
TEXT
  5
471
330
453
100
AcDbEntity
  8
Outline
 62
     2
100
AcDbText
 10
-156.5416564941406
 20
45.10939788818359
 30
0.0
 40
0.9205300211906433
  1
Part #
  7
VCDSTYLE02
100
AcDbText
  0
TEXT
  5
472
330
453
100
AcDbEntity
  8
Outline
 62
     2
100
AcDbText
 10
-169.0979461669922
 20
45.19255065917969
 30
0.0
 40
0.9205300211906433
  1
Revision
  7
VCDSTYLE02
100
AcDbText
  0
LINE
  5
473
330
453
100
AcDbEntity
  8
Outline
 62
     2
100
AcDbLine
 10
-59.83011277766059
 20
27.38576831137964
 30
0.0
 11
-59.83011277766059
 21
15.64901046364552
 31
0.0
  0
TEXT
  5
474
330
453
100
AcDbEntity
  8
Outline
 62
     2
100
AcDbText
 10
-82.25203704833984
 20
24.13492584228516
 30
0.0
 40
1.841060042381287
  1
Serial No.
  7
VCDSTYLE02
100
AcDbText
  0
TEXT
  5
475
330
453
100
AcDbEntity
  8
Outline
 62
     2
100
AcDbText
 10
-82.25203704833984
 20
16.18584442138672
 30
0.0
 40
1.841060042381287
  1
Date
  7
VCDSTYLE02
100
AcDbText
  0
TEXT
  5
476
330
453
100
AcDbEntity
  8
Outline
 62
     2
100
AcDbText
 10
-82.25203704833984
 20
20.20714569091797
 30
0.0
 40
1.841060042381287
  1
Assembly No.
  7
VCDSTYLE02
100
AcDbText
  0
LINE
  5
477
330
453
100
AcDbEntity
  8
Outline
 62
     2
100
AcDbLine
 10
-14.79493342379411
 20
19.56126307955689
 30
0.0
 11
-14.79493342379411
 21
15.64901046364552
 31
0.0
  0
LINE
  5
478
330
453
100
AcDbEntity
  8
Outline
 62
     2
100
AcDbLine
 10
-26.81252310072733
 20
19.56126307955689
 30
0.0
 11
-26.81252310072733
 21
15.64901046364552
 31
0.0
  0
TEXT
  5
479
330
453
100
AcDbEntity
  8
Outline
 62
     2
100
AcDbText
 10
-25.21685791015625
 20
16.18584442138672
 30
0.0
 40
1.841060042381287
  1
Scale
  7
VCDSTYLE02
100
AcDbText
  0
TEXT
  5
47A
330
453
100
AcDbEntity
  8
Outline
100
AcDbText
 10
-167.9451904296875
 20
7.327913532257082
 30
0.0
 40
1.2
  1
Permission is also granted to copy, distribute and/or modify this document under the terms of the
 50
360.0
  7
VCDSTYLE12
100
AcDbText
  0
TEXT
  5
47B
330
453
100
AcDbEntity
  8
Outline
100
AcDbText
 10
-167.9451904296875
 20
5.407913532257083
 30
0.0
 40
1.2
  1
GNU Free Documentation License, Version 1.3 or any later version published by the Free Software
 50
360.0
  7
VCDSTYLE12
100
AcDbText
  0
TEXT
  5
47C
330
453
100
AcDbEntity
  8
Outline
100
AcDbText
 10
-167.9451904296875
 20
3.487913532257082
 30
0.0
 40
1.2
  1
Foundation; with no Invariant Sections, no Front-Cover Texts, and no Back-Cover Texts.  A copy of
 50
360.0
  7
VCDSTYLE12
100
AcDbText
  0
TEXT
  5
47D
330
453
100
AcDbEntity
  8
Outline
100
AcDbText
 10
-167.9451904296875
 20
1.56791353225708
 30
0.0
 40
1.2
  1
the license is included in the section entitled "GNU Free Documentation License".
 50
360.0
  7
VCDSTYLE12
100
AcDbText
  0
TEXT
  5
47E
330
453
100
AcDbEntity
  8
Outline
100
AcDbText
 10
-168.0283508300781
 20
12.77079420089722
 30
0.0
 40
1.5
  1
Copyright (c)                 Elphel, Inc.
 50
360.0
  7
VCDSTYLE12
100
AcDbText
  0
TEXT
  5
47F
330
453
100
AcDbEntity
  8
Outline
100
AcDbText
 10
-168.0283508300781
 20
10.37079420089722
 30
0.0
 40
1.5
  1
Licensed under CERN OHL v.1.1 or later - see http://ohwr.org/cernohl
 50
360.0
  7
VCDSTYLE12
100
AcDbText
  0
TEXT
  5
480
330
453
100
AcDbEntity
  8
Outline
100
AcDbText
 10
-168.0283508300781
 20
7.97079420089722
 30
0.0
 40
1.5
  1
 
 50
360.0
  7
VCDSTYLE12
100
AcDbText
  0
ENDBLK
  5
483
330
453
100
AcDbEntity
  8
0
100
AcDbBlockEnd
  0
BLOCK
  5
488
330
484
100
AcDbEntity
  8
0
100
AcDbBlockBegin
  2
Sheet Border
 70
     0
 10
0.0
 20
0.0
 30
0.0
  3
Sheet Border
  1

  0
LWPOLYLINE
  5
485
330
484
100
AcDbEntity
  8
Outline
 62
     2
100
AcDbPolyline
 90
        5
 70
     0
 43
0.0
 10
4.999999999999716
 20
5.000000000000568
 10
204.9999999999713
 20
5.000000000000455
 10
204.9999999999957
 20
292.0000000000331
 10
5.000000000024301
 20
292.0000000000332
 10
4.999999999999716
 20
5.000000000000568
  0
LWPOLYLINE
  5
486
330
484
100
AcDbEntity
  8
Outline
 62
     2
100
AcDbPolyline
 90
        5
 70
     0
 43
0.0
 10
0.0
 20
0.0
 10
209.9999999999701
 20
-0.0000000000001137
 10
209.9999999999955
 20
297.0000000000337
 10
0.0000000000252101
 20
297.0000000000335
 10
0.0
 20
0.0
  0
ENDBLK
  5
489
330
484
100
AcDbEntity
  8
0
100
AcDbBlockEnd
  0
ENDSEC
  0
SECTION
  2
ENTITIES
  0
INSERT
  5
9C
330
1F
100
AcDbEntity
  8
Dimension
100
AcDbBlockReference
  2
$AttrValue elphel_parts
 10
188.2343
 20
26.0346
 30
0.0
  0
INSERT
  5
A1
330
1F
100
AcDbEntity
  8
Dimension
100
AcDbBlockReference
  2
$AttrValue elphel_parts(1)
 10
145.3357000000001
 20
26.4917
 30
0.0
  0
INSERT
  5
A6
330
1F
100
AcDbEntity
  8
Dimension
100
AcDbBlockReference
  2
$AttrValue elphel_parts(2)
 10
50.43000000000006
 20
34.4112
 30
0.0
  0
INSERT
  5
AB
330
1F
100
AcDbEntity
  8
Dimension
100
AcDbBlockReference
  2
$AttrValue elphel_parts(3)
 10
50.43000000000006
 20
38.1451
 30
0.0
  0
INSERT
  5
B0
330
1F
100
AcDbEntity
  8
Dimension
100
AcDbBlockReference
  2
$AttrValue elphel_parts(4)
 10
50.43000000000006
 20
30.3694
 30
0.0
  0
INSERT
  5
B5
330
1F
100
AcDbEntity
  8
Dimension
100
AcDbBlockReference
  2
$AttrValue elphel_parts(5)
 10
47.37900000000005
 20
22.801
 30
0.0
  0
INSERT
  5
BA
330
1F
100
AcDbEntity
  8
Dimension
100
AcDbBlockReference
  2
$AttrValue elphel_parts(6)
 10
119.3813000000001
 20
49.8706
 30
0.0
  0
INSERT
  5
BF
330
1F
100
AcDbEntity
  8
Dimension
100
AcDbBlockReference
  2
$AttrValue elphel_parts(7)
 10
32.70900000000006
 20
44.4461
 30
0.0
  0
INSERT
  5
C4
330
1F
100
AcDbEntity
  8
Dimension
100
AcDbBlockReference
  2
$AttrValue elphel_parts(8)
 10
44.76700000000005
 20
44.7335
 30
0.0
  0
DIMENSION
  5
CF
330
1F
100
AcDbEntity
  8
Dimension
100
AcDbDimension
280
     0
  2
*D10
 10
100.3101987807406
 20
246.6671209963999
 30
0.0
 11
79.48981525921604
 21
246.6671209963999
 31
0.0
 70
   160
 71
     5
 42
40.49999999999568
 73
     0
 74
     0
 75
     0
  3
VCDDIMSTYLE01
100
AcDbAlignedDimension
 13
59.81019878074497
 23
238.6850566129424
 33
0.0
 14
100.3101987807406
 24
238.685056749904
 34
0.0
100
AcDbRotatedDimension
1001
ACAD
1000
DSTYLE
1002
{
1070
   271
1070
     4
1002
}
  0
DIMENSION
  5
DD
330
1F
100
AcDbEntity
  8
Dimension
100
AcDbDimension
280
     0
  2
*D11
 10
54.35332008538083
 20
200.4350638717814
 30
0.0
 11
54.35332008538083
 21
222.0725406482569
 31
0.0
 70
   160
 71
     5
 42
40.49999260420259
 73
     0
 74
     0
 75
     0
  3
VCDDIMSTYLE01
100
AcDbAlignedDimension
 13
62.06019878074497
 23
240.9350564759839
 33
0.0
 14
62.06019891769998
 24
200.4350638717814
 34
0.0
 50
90.0
100
AcDbRotatedDimension
1001
ACAD
1000
DSTYLE
1002
{
1070
   271
1070
     4
1002
}
  0
DIMENSION
  5
EC
330
1F
100
AcDbEntity
  8
Dimension
100
AcDbDimension
280
     0
  2
*D12
 10
54.8751824946556
 20
162.4350559799398
 30
0.0
 11
54.8751824946556
 21
165.5577060403957
 31
0.0
 70
   160
 71
     5
 42
5.999999999999659
 73
     0
 74
     0
 75
     0
  3
VCDDIMSTYLE01
100
AcDbAlignedDimension
 13
61.11019886949148
 23
168.4350559799395
 33
0.0
 14
60.31019899378819
 24
162.4350559799398
 34
0.0
 50
90.0
100
AcDbRotatedDimension
  0
LINE
  5
F0
330
1F
100
AcDbEntity
  8
0
 62
     2
100
AcDbLine
 10
168.5137287947407
 20
168.2350559799456
 30
0.0
 11
168.5137288069527
 21
166.4350559799457
 31
0.0
  0
LINE
  5
F1
330
1F
100
AcDbEntity
  8
0
 62
     2
100
AcDbLine
 10
136.6257789080795
 20
168.2350559799438
 30
0.0
 11
136.6257788958502
 21
166.4350559799439
 31
0.0
  0
LINE
  5
F2
330
1F
100
AcDbEntity
  8
0
 62
     2
100
AcDbLine
 10
155.3101954992713
 20
168.2350559799449
 30
0.0
 11
155.5101954992713
 21
168.4350559799448
 31
0.0
  0
LINE
  5
F3
330
1F
100
AcDbEntity
  8
0
 62
     2
100
AcDbLine
 10
168.5137288069529
 20
168.2350559799457
 30
0.0
 11
168.3137288069528
 21
168.4350559799456
 31
0.0
  0
LINE
  5
F4
330
1F
100
AcDbEntity
  8
0
 62
     2
100
AcDbLine
 10
166.2548248282934
 20
168.2350559799454
 30
0.0
 11
166.4548248282934
 21
168.4350559799455
 31
0.0
  0
LINE
  5
F5
330
1F
100
AcDbEntity
  8
0
 62
     2
100
AcDbLine
 10
166.2548248282983
 20
168.2350559799455
 30
0.0
 11
166.4548248282981
 21
168.4350559799455
 31
0.0
  0
LINE
  5
F6
330
1F
100
AcDbEntity
  8
0
 62
     2
100
AcDbLine
 10
171.7101957997558
 20
168.2350559799459
 30
0.0
 11
171.5101957997557
 21
168.4350559799458
 31
0.0
  0
LINE
  5
F7
330
1F
100
AcDbEntity
  8
0
 62
     2
100
AcDbLine
 10
133.4102031955431
 20
168.2350559799437
 30
0.0
 11
133.6102031955431
 21
168.4350559799436
 31
0.0
  0
LINE
  5
F8
330
1F
100
AcDbEntity
  8
0
 62
     2
100
AcDbLine
 10
136.6257788958503
 20
168.2350559799438
 30
0.0
 11
136.8257788958503
 21
168.4350559799438
 31
0.0
  0
LINE
  5
F9
330
1F
100
AcDbEntity
  8
0
 62
     2
100
AcDbLine
 10
149.7548247474059
 20
168.2350559799446
 30
0.0
 11
149.554824747406
 21
168.4350559799445
 31
0.0
  0
LINE
  5
FA
330
1F
100
AcDbEntity
  8
0
 62
     2
100
AcDbLine
 10
163.4548247215133
 20
168.2350559799454
 30
0.0
 11
163.6548247215133
 21
168.4350559799453
 31
0.0
  0
LINE
  5
FB
330
1F
100
AcDbEntity
  8
0
 62
     2
100
AcDbLine
 10
163.4548247215186
 20
168.2350559799454
 30
0.0
 11
163.6548247215186
 21
168.4350559799453
 31
0.0
  0
LWPOLYLINE
  5
FC
330
1F
100
AcDbEntity
  8
0
 62
     2
100
AcDbPolyline
 90
        5
 70
     0
 43
0.0
 10
171.6101952114586
 20
168.4350552322236
 10
171.5967688564615
 20
168.4179417533243
 10
171.592108668323
 20
168.4123440763065
 10
171.5725526503848
 20
168.3905286892807
 10
171.5637514362291
 20
168.3815003434725
  0
LWPOLYLINE
  5
FD
330
1F
100
AcDbEntity
  8
0
 62
     2
100
AcDbPolyline
 90
        9
 70
     0
 43
0.0
 10
171.7101957997557
 20
168.2640494428918
 10
171.7077897522944
 20
168.3130436629659
 10
171.7068484110984
 20
168.3218107928425
 10
171.7026629985418
 20
168.3505142359426
 10
171.7005881765011
 20
168.361596118719
 10
171.6968013374974
 20
168.3790062580577
 10
171.6892616881261
 20
168.4072144626145
 10
171.6886848246988
 20
168.4091308910633
 10
171.68004244663
 20
168.4350601257077
  0
LINE
  5
FE
330
1F
100
AcDbEntity
  8
0
 62
     2
100
AcDbLine
 10
156.0101988535964
 20
168.4350559799449
 30
0.0
 11
156.2101988571135
 21
168.2350559799449
 31
0.0
  0
LINE
  5
FF
330
1F
100
AcDbEntity
  8
0
 62
     2
100
AcDbLine
 10
156.5101988316564
 20
167.9350560116941
 30
0.0
 11
157.010198851888
 21
167.4350559947784
 31
0.0
  0
LINE
  5
100
330
1F
100
AcDbEntity
  8
0
 62
     2
100
AcDbLine
 10
159.3101954670385
 20
166.6350559799451
 30
0.0
 11
158.8101954922597
 21
166.6350559799451
 31
0.0
  0
LINE
  5
101
330
1F
100
AcDbEntity
  8
0
 62
     2
100
AcDbLine
 10
171.6101957997556
 20
168.4350559799458
 30
0.0
 11
171.6800434049801
 21
168.4350559799458
 31
0.0
  0
LINE
  5
102
330
1F
100
AcDbEntity
  8
0
 62
     2
100
AcDbLine
 10
134.560198852165
 20
162.4350559799441
 30
0.0
 11
132.8101988694955
 21
162.4350559799439
 31
0.0
  0
LINE
  5
103
330
1F
100
AcDbEntity
  8
0
 62
     2
100
AcDbLine
 10
136.8108319849204
 20
162.4350559799442
 30
0.0
 11
137.3101988568105
 21
162.4350559799442
 31
0.0
  0
LINE
  5
104
330
1F
100
AcDbEntity
  8
0
 62
     2
100
AcDbLine
 10
134.560198852165
 20
162.4350559799441
 30
0.0
 11
136.8108319849204
 21
162.4350559799442
 31
0.0
  0
LINE
  5
105
330
1F
100
AcDbEntity
  8
0
 62
     2
100
AcDbLine
 10
167.8101989751731
 20
162.4350559799459
 30
0.0
 11
137.310198850892
 21
162.4350559799442
 31
0.0
  0
LINE
  5
106
330
1F
100
AcDbEntity
  8
0
 62
     2
100
AcDbLine
 10
168.3101989734822
 20
162.9350559799459
 30
0.0
 11
136.810198849201
 21
162.9350559799441
 31
0.0
  0
LINE
  5
107
330
1F
100
AcDbEntity
  8
0
 62
     2
100
AcDbLine
 10
168.9799613560663
 20
162.435055979946
 30
0.0
 11
170.5601988521582
 21
162.4350559799461
 31
0.0
  0
LINE
  5
108
330
1F
100
AcDbEntity
  8
0
 62
     2
100
AcDbLine
 10
167.8101988568033
 20
162.4350559799458
 30
0.0
 11
168.9799613560663
 21
162.435055979946
 31
0.0
  0
LINE
  5
109
330
1F
100
AcDbEntity
  8
0
 62
     2
100
AcDbLine
 10
172.3101952197805
 20
162.4350559799461
 30
0.0
 11
170.560198852155
 21
162.4350559799461
 31
0.0
  0
LINE
  5
10A
330
1F
100
AcDbEntity
  8
0
 62
     2
100
AcDbLine
 10
156.2101988571135
 20
168.2350559799449
 30
0.0
 11
156.5101988546108
 21
167.9350559887379
 31
0.0
  0
LINE
  5
10B
330
1F
100
AcDbEntity
  8
0
 62
     2
100
AcDbLine
 10
157.01019885292
 20
166.6350559799451
 30
0.0
 11
158.8101954922597
 21
166.6350559799451
 31
0.0
  0
LINE
  5
10C
330
1F
100
AcDbEntity
  8
0
 62
     2
100
AcDbLine
 10
172.8101952197797
 20
165.435055979946
 30
0.0
 11
172.8101952197796
 21
162.9350559799462
 31
0.0
  0
LINE
  5
10D
330
1F
100
AcDbEntity
  8
0
 62
     2
100
AcDbLine
 10
168.3101988568046
 20
162.9350559799459
 30
0.0
 11
168.3101988568047
 21
165.4350559799458
 31
0.0
  0
LINE
  5
10E
330
1F
100
AcDbEntity
  8
0
 62
     2
100
AcDbLine
 10
136.8101988492003
 20
165.435055979944
 30
0.0
 11
136.8101988492001
 21
162.9350559799441
 31
0.0
  0
LINE
  5
10F
330
1F
100
AcDbEntity
  8
0
 62
     2
100
AcDbLine
 10
132.3102026155771
 20
162.9350559799439
 30
0.0
 11
132.3102026155773
 21
165.4350559799437
 31
0.0
  0
LINE
  5
110
330
1F
100
AcDbEntity
  8
0
 62
     2
100
AcDbLine
 10
136.8101988492012
 20
165.4350559799439
 30
0.0
 11
134.5602023416625
 21
165.4350559799438
 31
0.0
  0
LINE
  5
111
330
1F
100
AcDbEntity
  8
0
 62
     2
100
AcDbLine
 10
132.3102026155774
 20
165.4350559799437
 30
0.0
 11
134.5602026155773
 21
165.4350559799439
 31
0.0
  0
LINE
  5
112
330
1F
100
AcDbEntity
  8
0
 62
     2
100
AcDbLine
 10
170.5601953567382
 20
165.4350559799459
 30
0.0
 11
168.3101988491958
 21
165.4350559799458
 31
0.0
  0
LINE
  5
113
330
1F
100
AcDbEntity
  8
0
 62
     2
100
AcDbLine
 10
170.5601953567382
 20
165.4350559799459
 30
0.0
 11
172.81019521978
 21
165.4350559799461
 31
0.0
  0
LINE
  5
114
330
1F
100
AcDbEntity
  8
0
 62
     2
100
AcDbLine
 10
132.3102026155774
 20
166.4350559799437
 30
0.0
 11
134.5602026155773
 21
166.4350559799438
 31
0.0
  0
LINE
  5
115
330
1F
100
AcDbEntity
  8
0
 62
     2
100
AcDbLine
 10
170.5601953567383
 20
166.4350559799459
 30
0.0
 11
134.5602023416626
 21
166.4350559799438
 31
0.0
  0
LINE
  5
116
330
1F
100
AcDbEntity
  8
0
 62
     2
100
AcDbLine
 10
170.5601953567383
 20
166.4350559799459
 30
0.0
 11
172.81019521978
 21
166.435055979946
 31
0.0
  0
LINE
  5
117
330
1F
100
AcDbEntity
  8
0
 62
     2
100
AcDbLine
 10
132.3102026155774
 20
166.4350559799437
 30
0.0
 11
132.3102026155773
 21
165.4350559799437
 31
0.0
  0
LINE
  5
118
330
1F
100
AcDbEntity
  8
0
 62
     2
100
AcDbLine
 10
134.5602026155773
 20
166.4350559799438
 30
0.0
 11
134.5602026155773
 21
165.4350559799439
 31
0.0
  0
LINE
  5
119
330
1F
100
AcDbEntity
  8
0
 62
     2
100
AcDbLine
 10
170.5601953567383
 20
166.4350559799459
 30
0.0
 11
170.5601953567382
 21
165.4350559799459
 31
0.0
  0
LINE
  5
11A
330
1F
100
AcDbEntity
  8
0
 62
     2
100
AcDbLine
 10
172.81019521978
 20
166.435055979946
 30
0.0
 11
172.81019521978
 21
165.4350559799461
 31
0.0
  0
LINE
  5
11B
330
1F
100
AcDbEntity
  8
0
 62
     2
100
AcDbLine
 10
134.5601988530097
 20
162.935055979944
 30
0.0
 11
132.3101988694955
 21
162.9350559799438
 31
0.0
  0
LINE
  5
11C
330
1F
100
AcDbEntity
  8
0
 62
     2
100
AcDbLine
 10
134.5601988530097
 20
162.935055979944
 30
0.0
 11
136.8101988568105
 21
162.9350559799441
 31
0.0
  0
LINE
  5
11D
330
1F
100
AcDbEntity
  8
0
 62
     2
100
AcDbLine
 10
168.3101988568033
 20
162.9350559799458
 30
0.0
 11
170.5601988530027
 21
162.935055979946
 31
0.0
  0
LINE
  5
11E
330
1F
100
AcDbEntity
  8
0
 62
     2
100
AcDbLine
 10
172.8101952197805
 20
162.9350559799461
 30
0.0
 11
170.5601988530004
 21
162.935055979946
 31
0.0
  0
LINE
  5
11F
330
1F
100
AcDbEntity
  8
0
 62
     2
100
AcDbLine
 10
134.5601988530099
 20
165.4350559799438
 30
0.0
 11
134.5601988530097
 21
162.935055979944
 31
0.0
  0
LINE
  5
120
330
1F
100
AcDbEntity
  8
0
 62
     2
100
AcDbLine
 10
170.5601988530006
 20
165.435055979946
 30
0.0
 11
170.5601988530005
 21
162.9350559799461
 31
0.0
  0
LINE
  5
121
330
1F
100
AcDbEntity
  8
0
 62
     2
100
AcDbLine
 10
166.2548248282934
 20
168.2350559799455
 30
0.0
 11
165.3101956306462
 21
168.2350559799454
 31
0.0
  0
LINE
  5
122
330
1F
100
AcDbEntity
  8
0
 62
     2
100
AcDbLine
 10
165.3101956306462
 20
168.2350559799454
 30
0.0
 11
163.9548247215186
 21
168.2350559799454
 31
0.0
  0
LINE
  5
123
330
1F
100
AcDbEntity
  8
0
 62
     2
100
AcDbLine
 10
163.4548247215186
 20
168.2350559799454
 30
0.0
 11
163.9548247215186
 21
168.2350559799454
 31
0.0
  0
LINE
  5
124
330
1F
100
AcDbEntity
  8
0
 62
     2
100
AcDbLine
 10
149.7548247474059
 20
166.4350559799446
 30
0.0
 11
149.7548247474059
 21
168.2350559799446
 31
0.0
  0
LINE
  5
125
330
1F
100
AcDbEntity
  8
0
 62
     2
100
AcDbLine
 10
155.3101954992713
 20
168.2350559799449
 30
0.0
 11
155.3101954992712
 21
166.435055979945
 31
0.0
  0
LINE
  5
126
330
1F
100
AcDbEntity
  8
0
 62
     2
100
AcDbLine
 10
159.3101954670385
 20
166.4350559799452
 30
0.0
 11
159.3101954670385
 21
166.6350559799451
 31
0.0
  0
LINE
  5
127
330
1F
100
AcDbEntity
  8
0
 62
     2
100
AcDbLine
 10
166.2548248282934
 20
168.2350559799454
 30
0.0
 11
166.2548248282933
 21
166.4350559799456
 31
0.0
  0
LINE
  5
128
330
1F
100
AcDbEntity
  8
0
 62
     2
100
AcDbLine
 10
163.4548247215148
 20
168.2350559799454
 30
0.0
 11
163.4548247215148
 21
166.4350559799455
 31
0.0
  0
LINE
  5
129
330
1F
100
AcDbEntity
  8
0
 62
     2
100
AcDbLine
 10
163.9548247215186
 20
168.2350559799454
 30
0.0
 11
163.9548247215185
 21
166.4350559799455
 31
0.0
  0
LINE
  5
12A
330
1F
100
AcDbEntity
  8
0
 62
     2
100
AcDbLine
 10
165.3101956306462
 20
168.2350559799454
 30
0.0
 11
165.3101956306461
 21
166.4350559799455
 31
0.0
  0
LINE
  5
12B
330
1F
100
AcDbEntity
  8
0
 62
     2
100
AcDbLine
 10
137.2257788958501
 20
168.2350559799439
 30
0.0
 11
149.2548247474083
 21
168.2350559799446
 31
0.0
  0
LINE
  5
12C
330
1F
100
AcDbEntity
  8
0
 62
     2
100
AcDbLine
 10
136.6257789080795
 20
168.2350559799438
 30
0.0
 11
137.2257788958501
 21
168.2350559799439
 31
0.0
  0
LINE
  5
12D
330
1F
100
AcDbEntity
  8
0
 62
     2
100
AcDbLine
 10
136.6257789080795
 20
168.2350559799438
 30
0.0
 11
135.5535347723428
 21
168.2350559799438
 31
0.0
  0
LINE
  5
12E
330
1F
100
AcDbEntity
  8
0
 62
     2
100
AcDbLine
 10
135.5535347723427
 20
168.2350559799438
 30
0.0
 11
135.1492828886126
 21
168.2350559799437
 31
0.0
  0
LINE
  5
12F
330
1F
100
AcDbEntity
  8
0
 62
     2
100
AcDbLine
 10
134.2785776555964
 20
168.2350559799437
 30
0.0
 11
135.1492828886127
 21
168.2350559799437
 31
0.0
  0
LINE
  5
130
330
1F
100
AcDbEntity
  8
0
 62
     2
100
AcDbLine
 10
133.4102031955431
 20
168.2350559799437
 30
0.0
 11
134.2785776555964
 21
168.2350559799437
 31
0.0
  0
LINE
  5
131
330
1F
100
AcDbEntity
  8
0
 62
     2
100
AcDbLine
 10
169.5933620589372
 20
168.2350559799457
 30
0.0
 11
168.5137287947407
 21
168.2350559799456
 31
0.0
  0
LINE
  5
132
330
1F
100
AcDbEntity
  8
0
 62
     2
100
AcDbLine
 10
169.9927953406617
 20
168.2350559799457
 30
0.0
 11
169.5933620589372
 21
168.2350559799457
 31
0.0
  0
LINE
  5
133
330
1F
100
AcDbEntity
  8
0
 62
     2
100
AcDbLine
 10
169.9927953406616
 20
168.2350559799457
 30
0.0
 11
170.8418212417067
 21
168.2350559799459
 31
0.0
  0
LINE
  5
134
330
1F
100
AcDbEntity
  8
0
 62
     2
100
AcDbLine
 10
170.8418212417067
 20
168.2350559799459
 30
0.0
 11
171.7101957997558
 21
168.2350559799459
 31
0.0
  0
LINE
  5
135
330
1F
100
AcDbEntity
  8
0
 62
     2
100
AcDbLine
 10
166.7548248282946
 20
168.2350559799455
 30
0.0
 11
167.9137288069528
 21
168.2350559799456
 31
0.0
  0
LINE
  5
136
330
1F
100
AcDbEntity
  8
0
 62
     2
100
AcDbLine
 10
167.9137288069528
 20
168.2350559799456
 30
0.0
 11
168.5137287947407
 21
168.2350559799456
 31
0.0
  0
LINE
  5
137
330
1F
100
AcDbEntity
  8
0
 62
     2
100
AcDbLine
 10
155.8101954922655
 20
168.2350559799449
 30
0.0
 11
156.2101988571135
 21
168.2350559799449
 31
0.0
  0
LINE
  5
138
330
1F
100
AcDbEntity
  8
0
 62
     2
100
AcDbLine
 10
149.2548247474083
 20
166.4350559799446
 30
0.0
 11
149.2548247474083
 21
168.2350559799446
 31
0.0
  0
LINE
  5
139
330
1F
100
AcDbEntity
  8
0
 62
     2
100
AcDbLine
 10
155.8101954922655
 20
168.2350559799449
 30
0.0
 11
155.8101954922654
 21
166.435055979945
 31
0.0
  0
LINE
  5
13A
330
1F
100
AcDbEntity
  8
0
 62
     2
100
AcDbLine
 10
156.5101988546108
 20
166.635055979945
 30
0.0
 11
156.5101988546108
 21
167.9350560116942
 31
0.0
  0
LINE
  5
13B
330
1F
100
AcDbEntity
  8
0
 62
     2
100
AcDbLine
 10
157.01019885292
 20
166.6350559799451
 30
0.0
 11
156.5101988546108
 21
166.635055979945
 31
0.0
  0
LINE
  5
13C
330
1F
100
AcDbEntity
  8
0
 62
     2
100
AcDbLine
 10
158.8101954922597
 20
166.4350559799452
 30
0.0
 11
158.8101954922597
 21
166.6350559799451
 31
0.0
  0
LINE
  5
13D
330
1F
100
AcDbEntity
  8
0
 62
     2
100
AcDbLine
 10
166.7548248282946
 20
168.2350559799455
 30
0.0
 11
166.7548248282945
 21
166.4350559799456
 31
0.0
  0
LINE
  5
13E
330
1F
100
AcDbEntity
  8
0
 62
     2
100
AcDbLine
 10
171.7101957997558
 20
168.264049465793
 30
0.0
 11
171.7101957997557
 21
166.4350559799459
 31
0.0
  0
LINE
  5
13F
330
1F
100
AcDbEntity
  8
0
 62
     2
100
AcDbLine
 10
171.7101957997557
 20
168.2350559799458
 30
0.0
 11
171.7101957997557
 21
166.4350559799459
 31
0.0
  0
LINE
  5
140
330
1F
100
AcDbEntity
  8
0
 62
     2
100
AcDbLine
 10
170.8418212417067
 20
168.2350559799459
 30
0.0
 11
170.8418212417066
 21
166.4350559799459
 31
0.0
  0
LINE
  5
141
330
1F
100
AcDbEntity
  8
0
 62
     2
100
AcDbLine
 10
169.9927953406616
 20
168.2350559799457
 30
0.0
 11
169.9927953406615
 21
166.4350559799458
 31
0.0
  0
LINE
  5
142
330
1F
100
AcDbEntity
  8
0
 62
     2
100
AcDbLine
 10
169.5933620589372
 20
168.2350559799457
 30
0.0
 11
169.5933620589371
 21
166.4350559799458
 31
0.0
  0
LINE
  5
143
330
1F
100
AcDbEntity
  8
0
 62
     2
100
AcDbLine
 10
167.9137288069528
 20
168.2350559799456
 30
0.0
 11
167.9137288069527
 21
166.4350559799457
 31
0.0
  0
LINE
  5
144
330
1F
100
AcDbEntity
  8
0
 62
     2
100
AcDbLine
 10
137.2257788958503
 20
168.2350559799438
 30
0.0
 11
137.2257788958503
 21
166.4350559799439
 31
0.0
  0
LINE
  5
145
330
1F
100
AcDbEntity
  8
0
 62
     2
100
AcDbLine
 10
135.5535347723428
 20
168.2350559799438
 30
0.0
 11
135.5535347723427
 21
166.4350559799438
 31
0.0
  0
LINE
  5
146
330
1F
100
AcDbEntity
  8
0
 62
     2
100
AcDbLine
 10
135.1492828886126
 20
168.2350559799437
 30
0.0
 11
135.1492828886126
 21
166.4350559799438
 31
0.0
  0
LINE
  5
147
330
1F
100
AcDbEntity
  8
0
 62
     2
100
AcDbLine
 10
134.2785776555964
 20
168.2350559799437
 30
0.0
 11
134.2785776555963
 21
166.4350559799438
 31
0.0
  0
LINE
  5
148
330
1F
100
AcDbEntity
  8
0
 62
     2
100
AcDbLine
 10
133.4102031955431
 20
168.2350559799437
 30
0.0
 11
133.4102031955431
 21
166.4350559799437
 31
0.0
  0
LINE
  5
149
330
1F
100
AcDbEntity
  8
0
 62
     2
100
AcDbLine
 10
171.6101952205786
 20
168.4350559799458
 30
0.0
 11
171.5083200277555
 21
168.4350559799458
 31
0.0
  0
LINE
  5
14A
330
1F
100
AcDbEntity
  8
0
 62
     2
100
AcDbLine
 10
166.4548248282934
 20
168.4350559799455
 30
0.0
 11
165.3101956306403
 21
168.4350559799454
 31
0.0
  0
LINE
  5
14B
330
1F
100
AcDbEntity
  8
0
 62
     2
100
AcDbLine
 10
165.3101956306455
 20
168.4350559799454
 30
0.0
 11
163.9548247215186
 21
168.4350559799454
 31
0.0
  0
LINE
  5
14C
330
1F
100
AcDbEntity
  8
0
 62
     2
100
AcDbLine
 10
163.6548247215186
 20
168.4350559799453
 30
0.0
 11
163.9548247215186
 21
168.4350559799453
 31
0.0
  0
LINE
  5
14D
330
1F
100
AcDbEntity
  8
0
 62
     2
100
AcDbLine
 10
149.2548247474062
 20
168.4350559799445
 30
0.0
 11
149.5548247474061
 21
168.4350559799445
 31
0.0
  0
LINE
  5
14E
330
1F
100
AcDbEntity
  8
0
 62
     2
100
AcDbLine
 10
137.2257788958502
 20
168.4350559799439
 30
0.0
 11
149.2548247474084
 21
168.4350559799445
 31
0.0
  0
LINE
  5
14F
330
1F
100
AcDbEntity
  8
0
 62
     2
100
AcDbLine
 10
136.8257789040032
 20
168.4350559799438
 30
0.0
 11
137.2257788958502
 21
168.4350559799438
 31
0.0
  0
LINE
  5
150
330
1F
100
AcDbEntity
  8
0
 62
     2
100
AcDbLine
 10
136.8276546678506
 20
168.4350559799438
 30
0.0
 11
135.6257773724837
 21
168.4350559799437
 31
0.0
  0
LINE
  5
151
330
1F
100
AcDbEntity
  8
0
 62
     2
100
AcDbLine
 10
135.6257773724837
 20
168.4350559799437
 30
0.0
 11
135.0598247352616
 21
168.4350559799437
 31
0.0
  0
LINE
  5
152
330
1F
100
AcDbEntity
  8
0
 62
     2
100
AcDbLine
 10
134.1891195022453
 20
168.4350559799437
 30
0.0
 11
135.0598247352616
 21
168.4350559799437
 31
0.0
  0
LINE
  5
153
330
1F
100
AcDbEntity
  8
0
 62
     2
100
AcDbLine
 10
133.6102031955431
 20
168.4350559799436
 30
0.0
 11
134.1891195022453
 21
168.4350559799437
 31
0.0
  0
LINE
  5
154
330
1F
100
AcDbEntity
  8
0
 62
     2
100
AcDbLine
 10
169.5230469322638
 20
168.4350559799456
 30
0.0
 11
168.3137288069528
 21
168.4350559799456
 31
0.0
  0
LINE
  5
155
330
1F
100
AcDbEntity
  8
0
 62
     2
100
AcDbLine
 10
170.0822535266781
 20
168.4350559799457
 30
0.0
 11
169.5230469322638
 21
168.4350559799456
 31
0.0
  0
LINE
  5
156
330
1F
100
AcDbEntity
  8
0
 62
     2
100
AcDbLine
 10
170.082253526678
 20
168.4350559799457
 30
0.0
 11
170.9312794277231
 21
168.4350559799458
 31
0.0
  0
LINE
  5
157
330
1F
100
AcDbEntity
  8
0
 62
     2
100
AcDbLine
 10
170.9312794277231
 20
168.4350559799458
 30
0.0
 11
171.5101957997557
 21
168.4350559799458
 31
0.0
  0
LINE
  5
158
330
1F
100
AcDbEntity
  8
0
 62
     2
100
AcDbLine
 10
166.4548248282934
 20
168.4350559799455
 30
0.0
 11
166.7548248282942
 21
168.4350559799455
 31
0.0
  0
LINE
  5
159
330
1F
100
AcDbEntity
  8
0
 62
     2
100
AcDbLine
 10
166.7548248282947
 20
168.4350559799455
 30
0.0
 11
167.9137288069528
 21
168.4350559799456
 31
0.0
  0
LINE
  5
15A
330
1F
100
AcDbEntity
  8
0
 62
     2
100
AcDbLine
 10
167.9137288069528
 20
168.4350559799456
 30
0.0
 11
168.3137287988114
 21
168.4350559799456
 31
0.0
  0
LINE
  5
15B
330
1F
100
AcDbEntity
  8
0
 62
     2
100
AcDbLine
 10
155.5101954992713
 20
168.4350559799448
 30
0.0
 11
155.8101954943673
 21
168.4350559799448
 31
0.0
  0
LINE
  5
15C
330
1F
100
AcDbEntity
  8
0
 62
     2
100
AcDbLine
 10
155.8101954922655
 20
168.4350559799448
 30
0.0
 11
156.0101988535964
 21
168.4350559799449
 31
0.0
  0
LINE
  5
15D
330
1F
100
AcDbEntity
  8
0
 62
     2
100
AcDbLine
 10
157.01019885292
 20
166.6350559799451
 30
0.0
 11
157.0101988529199
 21
167.4350559947784
 31
0.0
  0
LINE
  5
15E
330
1F
100
AcDbEntity
  8
0
 62
     2
100
AcDbLine
 10
172.3101952197795
 20
162.4350559799461
 30
0.0
 11
172.8101952197795
 21
162.9350559799462
 31
0.0
  0
LINE
  5
15F
330
1F
100
AcDbEntity
  8
0
 62
     2
100
AcDbLine
 10
170.560198852155
 20
162.4350559799461
 30
0.0
 11
170.5601988530004
 21
162.935055979946
 31
0.0
  0
LINE
  5
160
330
1F
100
AcDbEntity
  8
0
 62
     2
100
AcDbLine
 10
167.8101988508865
 20
162.4350559799459
 30
0.0
 11
168.3101988473462
 21
162.9350559894042
 31
0.0
  0
LINE
  5
161
330
1F
100
AcDbEntity
  8
0
 62
     2
100
AcDbLine
 10
137.310198850892
 20
162.4350559799442
 30
0.0
 11
136.810198849201
 21
162.9350559799442
 31
0.0
  0
LINE
  5
162
330
1F
100
AcDbEntity
  8
0
 62
     2
100
AcDbLine
 10
134.560198852165
 20
162.4350559799441
 30
0.0
 11
134.5601988530097
 21
162.935055979944
 31
0.0
  0
LINE
  5
163
330
1F
100
AcDbEntity
  8
0
 62
     2
100
AcDbLine
 10
132.8101988694955
 20
162.4350559799439
 30
0.0
 11
132.3101988694955
 21
162.9350559799438
 31
0.0
  0
LINE
  5
164
330
1F
100
AcDbEntity
  8
0
 62
     2
100
AcDbLine
 10
166.2548248282934
 20
168.2350559799454
 30
0.0
 11
166.7548248282946
 21
168.2350559799455
 31
0.0
  0
LINE
  5
165
330
1F
100
AcDbEntity
  8
0
 62
     2
100
AcDbLine
 10
155.3101954992713
 20
168.2350559799449
 30
0.0
 11
155.8101954922655
 21
168.2350559799449
 31
0.0
  0
LINE
  5
166
330
1F
100
AcDbEntity
  8
0
 62
     2
100
AcDbLine
 10
149.2548247474083
 20
168.2350559799446
 30
0.0
 11
149.7548247474059
 21
168.2350559799446
 31
0.0
  0
LINE
  5
167
330
1F
100
AcDbEntity
  8
0
 62
     2
100
AcDbLine
 10
155.8101954922655
 20
168.2350559799449
 30
0.0
 11
155.8101954922655
 21
168.4350559799448
 31
0.0
  0
LINE
  5
168
330
1F
100
AcDbEntity
  8
0
 62
     2
100
AcDbLine
 10
155.3101954992713
 20
168.2350559799449
 30
0.0
 11
155.5101954992713
 21
168.4350559799448
 31
0.0
  0
LINE
  5
169
330
1F
100
AcDbEntity
  8
0
 62
     2
100
AcDbLine
 10
167.9137288069528
 20
168.2350559799456
 30
0.0
 11
167.9137288069528
 21
168.4350559799456
 31
0.0
  0
LINE
  5
16A
330
1F
100
AcDbEntity
  8
0
 62
     2
100
AcDbLine
 10
166.7548248282946
 20
168.2350559799455
 30
0.0
 11
166.7548248282947
 21
168.4350559799455
 31
0.0
  0
LINE
  5
16B
330
1F
100
AcDbEntity
  8
0
 62
     2
100
AcDbLine
 10
166.2548248282934
 20
168.2350559799454
 30
0.0
 11
166.4548248282934
 21
168.4350559799455
 31
0.0
  0
LINE
  5
16C
330
1F
100
AcDbEntity
  8
0
 62
     2
100
AcDbLine
 10
166.254824828294
 20
168.2350559799455
 30
0.0
 11
166.4548248282948
 21
168.4350559799499
 31
0.0
  0
LINE
  5
16D
330
1F
100
AcDbEntity
  8
0
 62
     2
100
AcDbLine
 10
171.7101957997538
 20
168.2350559799439
 30
0.0
 11
171.5101957997557
 21
168.4350559799458
 31
0.0
  0
LINE
  5
16E
330
1F
100
AcDbEntity
  8
0
 62
     2
100
AcDbLine
 10
170.8418212417067
 20
168.2350559799459
 30
0.0
 11
170.9312794277231
 21
168.4350559799458
 31
0.0
  0
LINE
  5
16F
330
1F
100
AcDbEntity
  8
0
 62
     2
100
AcDbLine
 10
169.9927953406616
 20
168.2350559799457
 30
0.0
 11
170.082253526678
 21
168.4350559799457
 31
0.0
  0
LINE
  5
170
330
1F
100
AcDbEntity
  8
0
 62
     2
100
AcDbLine
 10
169.5230469322638
 20
168.4350559799456
 30
0.0
 11
169.5933620589372
 21
168.2350559799457
 31
0.0
  0
LINE
  5
171
330
1F
100
AcDbEntity
  8
0
 62
     2
100
AcDbLine
 10
133.6102031955431
 20
168.4350559799436
 30
0.0
 11
133.4102031955426
 21
168.2350559799423
 31
0.0
  0
LINE
  5
172
330
1F
100
AcDbEntity
  8
0
 62
     2
100
AcDbLine
 10
134.2785776555964
 20
168.2350559799437
 30
0.0
 11
134.1891195022453
 21
168.4350559799437
 31
0.0
  0
LINE
  5
173
330
1F
100
AcDbEntity
  8
0
 62
     2
100
AcDbLine
 10
135.0598247352616
 20
168.4350559799437
 30
0.0
 11
135.1492828886127
 21
168.2350559799437
 31
0.0
  0
LINE
  5
174
330
1F
100
AcDbEntity
  8
0
 62
     2
100
AcDbLine
 10
135.6257773724837
 20
168.4350559799437
 30
0.0
 11
135.5535347723428
 21
168.2350559799438
 31
0.0
  0
LINE
  5
175
330
1F
100
AcDbEntity
  8
0
 62
     2
100
AcDbLine
 10
137.2257788958501
 20
168.2350559799439
 30
0.0
 11
137.2257788958502
 21
168.4350559799438
 31
0.0
  0
LINE
  5
176
330
1F
100
AcDbEntity
  8
0
 62
     2
100
AcDbLine
 10
149.2548247474084
 20
168.4350559799445
 30
0.0
 11
149.2548247474083
 21
168.2350559799446
 31
0.0
  0
LINE
  5
177
330
1F
100
AcDbEntity
  8
0
 62
     2
100
AcDbLine
 10
149.7548247474059
 20
168.2350559799446
 30
0.0
 11
149.5548247474061
 21
168.4350559799445
 31
0.0
  0
LINE
  5
178
330
1F
100
AcDbEntity
  8
0
 62
     2
100
AcDbLine
 10
163.4548247215134
 20
168.2350559799454
 30
0.0
 11
163.6548247215133
 21
168.4350559799453
 31
0.0
  0
LINE
  5
179
330
1F
100
AcDbEntity
  8
0
 62
     2
100
AcDbLine
 10
163.6548247215156
 20
168.4350559799446
 30
0.0
 11
163.4548247215148
 21
168.2350559799454
 31
0.0
  0
LINE
  5
17A
330
1F
100
AcDbEntity
  8
0
 62
     2
100
AcDbLine
 10
163.9548247215186
 20
168.2350559799454
 30
0.0
 11
163.9548247215186
 21
168.4350559799453
 31
0.0
  0
LINE
  5
17B
330
1F
100
AcDbEntity
  8
0
 62
     2
100
AcDbLine
 10
165.3101956306455
 20
168.4350559799454
 30
0.0
 11
165.3101956306462
 21
168.2350559799454
 31
0.0
  0
LINE
  5
17C
330
1F
100
AcDbEntity
  8
0
 62
     2
100
AcDbLine
 10
85.91019893983193
 20
91.03506279577007
 30
0.0
 11
86.11019894017502
 21
91.23506279577148
 31
0.0
  0
ARC
  5
17D
330
1F
100
AcDbEntity
  8
0
 62
     2
100
AcDbCircle
 10
74.18120545398838
 20
91.53506279576703
 30
0.0
 40
0.5
100
AcDbArc
 50
180.0
 51
233.1299899981036
  0
LINE
  5
17E
330
1F
100
AcDbEntity
  8
0
 62
     2
100
AcDbLine
 10
86.11019900426274
 20
129.1350553999788
 30
0.0
 11
85.91019900460017
 21
129.3350553999786
 31
0.0
  0
LINE
  5
17F
330
1F
100
AcDbEntity
  8
0
 62
     2
100
AcDbLine
 10
74.21019900460195
 20
129.3350553999775
 30
0.0
 11
74.01019900426283
 21
129.1350553999773
 31
0.0
  0
ARC
  5
180
330
1F
100
AcDbEntity
  8
0
 62
     2
100
AcDbCircle
 10
96.9101988694812
 20
106.2350596239009
 30
0.0
 40
0.4999999999999435
100
AcDbArc
 50
179.9999977411273
 51
269.9963188891548
  0
ARC
  5
181
330
1F
100
AcDbEntity
  8
0
 62
     2
100
AcDbCircle
 10
63.21019886949639
 20
106.2350597425991
 30
0.0
 40
0.499999999999966
100
AcDbArc
 50
270.0036807459723
 51
0.0000017390222652
  0
ARC
  5
182
330
1F
100
AcDbEntity
  8
0
 62
     2
100
AcDbCircle
 10
74.51019894068153
 20
91.53506279576715
 30
0.0
 40
0.4999999999999721
100
AcDbArc
 50
269.999997369633
 51
359.9963189639228
  0
ARC
  5
183
330
1F
100
AcDbEntity
  8
0
 62
     2
100
AcDbCircle
 10
85.61019894068207
 20
91.53506279577128
 30
0.0
 40
0.4999999999999063
100
AcDbArc
 50
180.0036808422711
 51
270.0000026303412
  0
ARC
  5
184
330
1F
100
AcDbEntity
  8
0
 62
     2
100
AcDbCircle
 10
81.61019894068201
 20
91.53506279576979
 30
0.0
 40
0.4999999999999721
100
AcDbArc
 50
269.9999973696265
 51
359.9963189639529
  0
ARC
  5
185
330
1F
100
AcDbEntity
  8
0
 62
     2
100
AcDbCircle
 10
78.5101989406825
 20
91.53506279576867
 30
0.0
 40
0.5000000000000768
100
AcDbArc
 50
180.0036808423701
 51
270.0000026304232
  0
LINE
  5
186
330
1F
100
AcDbEntity
  8
0
 62
     2
100
AcDbLine
 10
81.310198939841
 20
91.03506279576905
 30
0.0
 11
81.11019894017474
 21
91.2350627957696
 31
0.0
  0
LINE
  5
187
330
1F
100
AcDbEntity
  8
0
 62
     2
100
AcDbLine
 10
85.61019894068207
 20
91.03506279577131
 30
0.0
 11
85.91019893983722
 21
91.03506279577144
 31
0.0
  0
LINE
  5
188
330
1F
100
AcDbEntity
  8
0
 62
     2
100
AcDbLine
 10
81.31019893983651
 20
91.0350627957697
 30
0.0
 11
81.61019894068207
 21
91.0350627957698
 31
0.0
  0
ARC
  5
189
330
1F
100
AcDbEntity
  8
0
 62
     2
100
AcDbCircle
 10
74.18120545398838
 20
91.53506279576703
 30
0.0
 40
0.5
100
AcDbArc
 50
250.0001127361703
 51
270.0000026240849
  0
LINE
  5
18A
330
1F
100
AcDbEntity
  8
0
 62
     2
100
AcDbLine
 10
79.01019894017557
 20
91.23506279576884
 30
0.0
 11
78.81019893983367
 21
91.03506279576854
 31
0.0
  0
LINE
  5
18B
330
1F
100
AcDbEntity
  8
0
 62
     2
100
AcDbLine
 10
78.5101989406825
 20
91.0350627957687
 30
0.0
 11
78.81019893983782
 21
91.03506279576872
 31
0.0
  0
LINE
  5
18C
330
1F
100
AcDbEntity
  8
0
 62
     2
100
AcDbLine
 10
74.18120545398844
 20
91.03506279576706
 30
0.0
 11
74.51019894068165
 21
91.03506279576717
 31
0.0
  0
LINE
  5
18D
330
1F
100
AcDbEntity
  8
0
 62
     2
100
AcDbLine
 10
76.36030114513548
 20
103.8804338740071
 30
0.0
 11
75.40019909367717
 21
103.8804338740071
 31
0.0
  0
LINE
  5
18E
330
1F
100
AcDbEntity
  8
0
 62
     2
100
AcDbLine
 10
88.84009704224886
 20
98.50043387400694
 30
0.0
 11
89.80019909368409
 21
98.50043387400696
 31
0.0
  0
ARC
  5
18F
330
1F
100
AcDbEntity
  8
0
 62
     2
100
AcDbCircle
 10
76.8501990936895
 20
98.60043387400681
 30
0.0
 40
0.4999999999999369
100
AcDbArc
 50
191.5369590329155
 51
269.9999999981235
  0
ARC
  5
190
330
1F
100
AcDbEntity
  8
0
 62
     2
100
AcDbCircle
 10
76.85019909369177
 20
103.7804338740059
 30
0.0
 40
0.4999999999999432
100
AcDbArc
 50
89.99999999998046
 51
168.4630409670179
  0
ARC
  5
191
330
1F
100
AcDbEntity
  8
0
 62
     2
100
AcDbCircle
 10
88.35019909368887
 20
103.7804338740071
 30
0.0
 40
0.499999999999963
100
AcDbArc
 50
11.53695903285961
 51
89.99999999999797
  0
ARC
  5
192
330
1F
100
AcDbEntity
  8
0
 62
     2
100
AcDbCircle
 10
88.35019909369228
 20
98.60043387400688
 30
0.0
 40
0.4999999999999432
100
AcDbArc
 50
270.0000000010618
 51
348.4630409671736
  0
LINE
  5
193
330
1F
100
AcDbEntity
  8
0
 62
     2
100
AcDbLine
 10
88.8400970422455
 20
103.8804338740075
 30
0.0
 11
76.36030114513548
 21
103.8804338740071
 31
0.0
  0
LINE
  5
194
330
1F
100
AcDbEntity
  8
0
 62
     2
100
AcDbLine
 10
76.36030114513326
 20
98.500433874006
 30
0.0
 11
88.84009704224886
 21
98.50043387400694
 31
0.0
  0
LINE
  5
195
330
1F
100
AcDbEntity
  8
0
 62
     2
100
AcDbLine
 10
96.61019886948102
 20
106.7350596218717
 30
0.0
 11
96.4101988694812
 21
106.5350596183548
 31
0.0
  0
LINE
  5
196
330
1F
100
AcDbEntity
  8
0
 62
     2
100
AcDbLine
 10
99.21019886949196
 20
106.535059608886
 30
0.0
 11
99.01019886949197
 21
106.7350596137557
 31
0.0
  0
LINE
  5
197
330
1F
100
AcDbEntity
  8
0
 62
     2
100
AcDbLine
 10
63.71019886949662
 20
106.5350597289366
 30
0.0
 11
63.51019886949686
 21
106.7350597338064
 31
0.0
  0
LINE
  5
198
330
1F
100
AcDbEntity
  8
0
 62
     2
100
AcDbLine
 10
61.11019886949154
 20
106.7350597419226
 30
0.0
 11
60.9101988694915
 21
106.5350597384056
 31
0.0
  0
ARC
  5
199
330
1F
100
AcDbEntity
  8
0
 62
     2
100
AcDbCircle
 10
98.71019886949179
 20
106.2350596239009
 30
0.0
 40
0.5000000000000013
100
AcDbArc
 50
270.0036807583029
 51
0.0000015840703229
  0
ARC
  5
19A
330
1F
100
AcDbEntity
  8
0
 62
     2
100
AcDbCircle
 10
85.61019900375558
 20
128.8350553999787
 30
0.0
 40
0.4999999999999716
100
AcDbArc
 50
90.00000000000651
 51
179.9963189639925
  0
ARC
  5
19B
330
1F
100
AcDbEntity
  8
0
 62
     2
100
AcDbCircle
 10
81.6101990037557
 20
128.8350553999782
 30
0.0
 40
0.5000000000000199
100
AcDbArc
 50
0.00368084207312
 51
89.99999999985248
  0
ARC
  5
19C
330
1F
100
AcDbEntity
  8
0
 62
     2
100
AcDbCircle
 10
78.51019900375579
 20
128.8350553999778
 30
0.0
 40
0.5
100
AcDbArc
 50
90.0
 51
179.9963189639534
  0
ARC
  5
19D
330
1F
100
AcDbEntity
  8
0
 62
     2
100
AcDbCircle
 10
74.51019900375567
 20
128.8350553999774
 30
0.0
 40
0.4999999999999063
100
AcDbArc
 50
0.0036808422711533
 51
89.99999999999352
  0
ARC
  5
19E
330
1F
100
AcDbEntity
  8
0
 62
     2
100
AcDbCircle
 10
61.41019886949121
 20
106.2350597425991
 30
0.0
 40
0.5000000000000004
100
AcDbArc
 50
179.9999975851635
 51
269.9963188859626
  0
ARC
  5
19F
330
1F
100
AcDbEntity
  8
0
 62
     2
100
AcDbCircle
 10
61.41019886949047
 20
103.9350631284805
 30
0.0
 40
0.5000000000000006
100
AcDbArc
 50
180.0000026998693
 51
270.0000035027061
  0
ARC
  5
1A0
330
1F
100
AcDbEntity
  8
0
 62
     2
100
AcDbCircle
 10
74.18120545398838
 20
91.53506279576703
 30
0.0
 40
0.5000000000000568
100
AcDbArc
 50
233.1301023542345
 51
250.000433829132
  0
ARC
  5
1A1
330
1F
100
AcDbEntity
  8
0
 62
     2
100
AcDbCircle
 10
98.71019886949139
 20
103.935063620801
 30
0.0
 40
0.4999999999999717
100
AcDbArc
 50
270.0000013763608
 51
0.0000005734779268
  0
LINE
  5
1A2
330
1F
100
AcDbEntity
  8
0
 62
     2
100
AcDbLine
 10
81.31019900460237
 20
129.3350553999782
 30
0.0
 11
81.11019900426314
 21
129.1350553999781
 31
0.0
  0
LINE
  5
1A3
330
1F
100
AcDbEntity
  8
0
 62
     2
100
AcDbLine
 10
79.01019900426311
 20
129.1350553999779
 30
0.0
 11
78.81019900460038
 21
129.335055399978
 31
0.0
  0
LINE
  5
1A4
330
1F
100
AcDbEntity
  8
0
 62
     2
100
AcDbLine
 10
81.6101990037557
 20
129.3350553999782
 30
0.0
 11
81.31019900460146
 21
129.3350553999782
 31
0.0
  0
LINE
  5
1A5
330
1F
100
AcDbEntity
  8
0
 62
     2
100
AcDbLine
 10
85.91019900460086
 20
129.3350553999788
 30
0.0
 11
85.61019900375553
 21
129.3350553999787
 31
0.0
  0
LINE
  5
1A6
330
1F
100
AcDbEntity
  8
0
 62
     2
100
AcDbLine
 10
74.51019900375562
 20
129.3350553999774
 30
0.0
 11
74.21019900460081
 21
129.3350553999773
 31
0.0
  0
LINE
  5
1A7
330
1F
100
AcDbEntity
  8
0
 62
     2
100
AcDbLine
 10
78.81019900460123
 20
129.3350553999779
 30
0.0
 11
78.51019900375567
 21
129.3350553999778
 31
0.0
  0
LINE
  5
1A8
330
1F
100
AcDbEntity
  8
0
 62
     2
100
AcDbLine
 10
99.21019886949185
 20
106.2350596147702
 30
0.0
 11
99.21019886949196
 21
106.535059608886
 31
0.0
  0
LINE
  5
1A9
330
1F
100
AcDbEntity
  8
0
 62
     2
100
AcDbLine
 10
96.41019886948132
 20
106.2350596208569
 30
0.0
 11
96.4101988694812
 21
106.5350596183548
 31
0.0
  0
LINE
  5
1AA
330
1F
100
AcDbEntity
  8
0
 62
     2
100
AcDbLine
 10
60.9101988694915
 20
106.5350597384056
 30
0.0
 11
60.91019886949132
 21
106.2350597409082
 31
0.0
  0
LINE
  5
1AB
330
1F
100
AcDbEntity
  8
0
 62
     2
100
AcDbLine
 10
63.71019886949662
 20
106.5350597289366
 30
0.0
 11
63.71019886949628
 21
106.2350597348207
 31
0.0
  0
LINE
  5
1AC
330
1F
100
AcDbEntity
  8
0
 62
     2
100
AcDbLine
 10
85.11019900460096
 20
129.3350553999786
 30
0.0
 11
82.11019900460244
 21
129.3350553999782
 31
0.0
  0
LINE
  5
1AD
330
1F
100
AcDbEntity
  8
0
 62
     2
100
AcDbLine
 10
78.01019900460128
 20
129.3350553999778
 30
0.0
 11
75.0101990046002
 21
129.3350553999774
 31
0.0
  0
LINE
  5
1AE
330
1F
100
AcDbEntity
  8
0
 62
     2
100
AcDbLine
 10
60.9101988694911
 20
105.7350597425991
 30
0.0
 11
60.91019886949047
 21
103.9350631032593
 31
0.0
  0
LINE
  5
1AF
330
1F
100
AcDbEntity
  8
0
 62
     2
100
AcDbLine
 10
75.01019893983565
 20
91.03506279576736
 30
0.0
 11
78.01019893983656
 21
91.03506279576848
 31
0.0
  0
LINE
  5
1B0
330
1F
100
AcDbEntity
  8
0
 62
     2
100
AcDbLine
 10
82.11019893983635
 20
91.03506279577002
 30
0.0
 11
85.11019893983658
 21
91.03506279577113
 31
0.0
  0
LINE
  5
1B1
330
1F
100
AcDbEntity
  8
0
 62
     2
100
AcDbLine
 10
99.21019886949139
 20
103.9350636258056
 30
0.0
 11
99.21019886949179
 21
105.7350596130799
 31
0.0
  0
ARC
  5
1B2
330
1F
100
AcDbEntity
  8
0
 62
     2
100
AcDbCircle
 10
96.91019886948791
 20
103.9350636005889
 30
0.0
 40
0.5
100
AcDbArc
 50
180.0
 51
270.0000008014745
  0
LINE
  5
1B3
330
1F
100
AcDbEntity
  8
0
 62
     2
100
AcDbLine
 10
96.41019886948263
 20
103.9350636005791
 30
0.0
 11
96.4101988694816
 21
105.7350596225482
 31
0.0
  0
LINE
  5
1B4
330
1F
100
AcDbEntity
  8
0
 62
     2
100
AcDbLine
 10
63.710198869496
 20
105.7350597331301
 30
0.0
 11
63.7101988694948
 21
103.9350631284842
 31
0.0
  0
ARC
  5
1B5
330
1F
100
AcDbEntity
  8
0
 62
     2
100
AcDbCircle
 10
63.21019886949406
 20
103.9350631284786
 30
0.0
 40
0.5
100
AcDbArc
 50
270.0000008029922
 51
0.0000000006448638
  0
LINE
  5
1B6
330
1F
100
AcDbEntity
  8
0
 62
     2
100
AcDbLine
 10
63.21019887650138
 20
103.4350631284806
 30
0.0
 11
61.41019887649642
 21
103.4350631032592
 31
0.0
  0
LINE
  5
1B7
330
1F
100
AcDbEntity
  8
0
 62
     2
100
AcDbLine
 10
98.71019887649786
 20
103.4350636258057
 30
0.0
 11
96.9101988764821
 21
103.4350636005825
 31
0.0
  0
CIRCLE
  5
1B8
330
1F
100
AcDbEntity
  8
0
 62
     2
100
AcDbCircle
 10
90.98219880999093
 20
117.4904338481121
 30
0.0
 40
3.999999999999773
  0
ARC
  5
1B9
330
1F
100
AcDbEntity
  8
0
 62
     2
100
AcDbCircle
 10
86.28219880999157
 20
112.7904338481136
 30
0.0
 40
0.5
100
AcDbArc
 50
180.0
 51
269.9999999984465
  0
LINE
  5
1BA
330
1F
100
AcDbEntity
  8
0
 62
     2
100
AcDbLine
 10
95.68219880996358
 20
112.2904338481147
 30
0.0
 11
86.28219880997798
 21
112.2904338481142
 31
0.0
  0
ARC
  5
1BB
330
1F
100
AcDbEntity
  8
0
 62
     2
100
AcDbCircle
 10
95.6821988099899
 20
112.790433848113
 30
0.0
 40
0.5
100
AcDbArc
 50
269.9999999969841
 51
0.0000000018107279
  0
LINE
  5
1BC
330
1F
100
AcDbEntity
  8
0
 62
     2
100
AcDbLine
 10
96.18219880998842
 20
121.190433848092
 30
0.0
 11
96.18219880999234
 21
112.7904338481289
 31
0.0
  0
ARC
  5
1BD
330
1F
100
AcDbEntity
  8
0
 62
     2
100
AcDbCircle
 10
95.68219880999024
 20
121.1904338481112
 30
0.0
 40
0.5
100
AcDbArc
 50
0.0
 51
90.00000000221469
  0
LINE
  5
1BE
330
1F
100
AcDbEntity
  8
0
 62
     2
100
AcDbLine
 10
86.28219880999225
 20
121.6904338481114
 30
0.0
 11
95.68219880999325
 21
121.6904338481119
 31
0.0
  0
ARC
  5
1BF
330
1F
100
AcDbEntity
  8
0
 62
     2
100
AcDbCircle
 10
86.28219880999208
 20
121.1904338481104
 30
0.0
 40
0.5
100
AcDbArc
 50
89.99999999998697
 51
179.9999999999868
  0
LINE
  5
1C0
330
1F
100
AcDbEntity
  8
0
 62
     2
100
AcDbLine
 10
85.78219880999242
 20
112.7904338480977
 30
0.0
 11
85.78219880999083
 21
121.1904338481104
 31
0.0
  0
CIRCLE
  5
1C1
330
1F
100
AcDbEntity
  8
0
 62
     2
100
AcDbCircle
 10
69.48120545398277
 20
94.4604339071517
 30
0.0
 40
2.599999999999881
  0
ARC
  5
1C2
330
1F
100
AcDbEntity
  8
0
 62
     2
100
AcDbCircle
 10
63.24819909369742
 20
99.94043387400313
 30
0.0
 40
0.5
100
AcDbArc
 50
180.0
 51
270.0000000000256
  0
LINE
  5
1C3
330
1F
100
AcDbEntity
  8
0
 62
     2
100
AcDbLine
 10
62.74819909368622
 20
101.1904338740021
 30
0.0
 11
62.74819909369742
 21
99.94043387399859
 31
0.0
  0
ARC
  5
1C4
330
1F
100
AcDbEntity
  8
0
 62
     2
100
AcDbCircle
 10
63.24819909368634
 20
101.1904338740022
 30
0.0
 40
0.4999999999999716
100
AcDbArc
 50
90.0000000000391
 51
180.0000000000041
  0
LINE
  5
1C5
330
1F
100
AcDbEntity
  8
0
 62
     2
100
AcDbLine
 10
69.94819909368633
 20
101.6904338740067
 30
0.0
 11
63.248199093686
 21
101.6904338740021
 31
0.0
  0
ARC
  5
1C6
330
1F
100
AcDbEntity
  8
0
 62
     2
100
AcDbCircle
 10
69.94819909368672
 20
101.1904338740067
 30
0.0
 40
0.4999999999999432
100
AcDbArc
 50
0.0
 51
90.00000000007404
  0
LINE
  5
1C7
330
1F
100
AcDbEntity
  8
0
 62
     2
100
AcDbLine
 10
70.44819909368496
 20
99.94043387400603
 30
0.0
 11
70.44819909368667
 21
101.1904338740061
 31
0.0
  0
ARC
  5
1C8
330
1F
100
AcDbEntity
  8
0
 62
     2
100
AcDbCircle
 10
69.9481990936849
 20
99.94043387400663
 30
0.0
 40
0.4999999999999147
100
AcDbArc
 50
270.0000000000391
 51
359.9999999999355
  0
LINE
  5
1C9
330
1F
100
AcDbEntity
  8
0
 62
     2
100
AcDbLine
 10
63.24819909369765
 20
99.44043387400316
 30
0.0
 11
69.94819909368525
 21
99.44043387400671
 31
0.0
  0
LINE
  5
1CA
330
1F
100
AcDbEntity
  8
0
 62
     2
100
AcDbLine
 10
62.39819909369609
 20
99.44043387400585
 30
0.0
 11
62.39819909368973
 21
101.6904338740224
 31
0.0
  0
ARC
  5
1CB
330
1F
100
AcDbEntity
  8
0
 62
     2
100
AcDbCircle
 10
62.99819909369288
 20
99.44043387400589
 30
0.0
 40
0.5999999999999659
100
AcDbArc
 50
180.0
 51
270.0000000029571
  0
LINE
  5
1CC
330
1F
100
AcDbEntity
  8
0
 62
     2
100
AcDbLine
 10
70.19819909366876
 20
98.8404338740045
 30
0.0
 11
62.99819909371868
 21
98.8404338740041
 31
0.0
  0
ARC
  5
1CD
330
1F
100
AcDbEntity
  8
0
 62
     2
100
AcDbCircle
 10
70.19819909368655
 20
99.44043387400322
 30
0.0
 40
0.5999999999999659
100
AcDbArc
 50
269.999999998301
 51
359.9999999974931
  0
LINE
  5
1CE
330
1F
100
AcDbEntity
  8
0
 62
     2
100
AcDbLine
 10
70.79819909368749
 20
101.6904338739912
 30
0.0
 11
70.79819909368857
 21
99.4404338739815
 31
0.0
  0
ARC
  5
1CF
330
1F
100
AcDbEntity
  8
0
 62
     2
100
AcDbCircle
 10
70.19819909368758
 20
101.690433874008
 30
0.0
 40
0.5999999999999659
100
AcDbArc
 50
0.0
 51
90.0000000016025
  0
LINE
  5
1D0
330
1F
100
AcDbEntity
  8
0
 62
     2
100
AcDbLine
 10
62.99819909368782
 20
102.2904338740047
 30
0.0
 11
70.19819909367195
 21
102.2904338740051
 31
0.0
  0
ARC
  5
1D1
330
1F
100
AcDbEntity
  8
0
 62
     2
100
AcDbCircle
 10
62.99819909368975
 20
101.6904338740077
 30
0.0
 40
0.5999999999999943
100
AcDbArc
 50
90.00000000018456
 51
179.999999999999
  0
LINE
  5
1D2
330
1F
100
AcDbEntity
  8
0
 62
     2
100
AcDbLine
 10
66.60521458769082
 20
111.4404338740086
 30
0.0
 11
66.60521458769122
 21
124.2904338740058
 31
0.0
  0
ARC
  5
1D3
330
1F
100
AcDbEntity
  8
0
 62
     2
100
AcDbCircle
 10
67.10521458769088
 20
111.4404338740086
 30
0.0
 40
0.5
100
AcDbArc
 50
180.0
 51
270.000000000013
  0
LINE
  5
1D4
330
1F
100
AcDbEntity
  8
0
 62
     2
100
AcDbLine
 10
67.9801990937082
 20
110.9404338740021
 30
0.0
 11
67.10521458769094
 21
110.9404338740021
 31
0.0
  0
ARC
  5
1D5
330
1F
100
AcDbEntity
  8
0
 62
     2
100
AcDbCircle
 10
67.98019909369984
 20
110.4404338740031
 30
0.0
 40
0.5
100
AcDbArc
 50
0.0
 51
90.00000000278789
  0
LINE
  5
1D6
330
1F
100
AcDbEntity
  8
0
 62
     2
100
AcDbLine
 10
68.48019909367858
 20
109.6904338740033
 30
0.0
 11
68.4801990936999
 21
110.4404338739789
 31
0.0
  0
ARC
  5
1D7
330
1F
100
AcDbEntity
  8
0
 62
     2
100
AcDbCircle
 10
68.98019909367864
 20
109.6904338740034
 30
0.0
 40
0.4999999999999432
100
AcDbArc
 50
180.0
 51
269.9999999992998
  0
LINE
  5
1D8
330
1F
100
AcDbEntity
  8
0
 62
     2
100
AcDbLine
 10
80.98019909369472
 20
109.1904338740054
 30
0.0
 11
68.98019909367244
 21
109.1904338740048
 31
0.0
  0
ARC
  5
1D9
330
1F
100
AcDbEntity
  8
0
 62
     2
100
AcDbCircle
 10
80.98019909369472
 20
109.6904338740054
 30
0.0
 40
0.4999999999999716
100
AcDbArc
 50
269.9999999981045
 51
0.0000000000911929
  0
LINE
  5
1DA
330
1F
100
AcDbEntity
  8
0
 62
     2
100
AcDbLine
 10
81.48019909368432
 20
110.4404338740282
 30
0.0
 11
81.48019909369472
 21
109.6904338740062
 31
0.0
  0
ARC
  5
1DB
330
1F
100
AcDbEntity
  8
0
 62
     2
100
AcDbCircle
 10
81.98019909368443
 20
110.4404338740281
 30
0.0
 40
0.5
100
AcDbArc
 50
90.0
 51
180.0
  0
LINE
  5
1DC
330
1F
100
AcDbEntity
  8
0
 62
     2
100
AcDbLine
 10
82.85518359967202
 20
110.9404338740137
 30
0.0
 11
81.98019909369995
 21
110.9404338740137
 31
0.0
  0
ARC
  5
1DD
330
1F
100
AcDbEntity
  8
0
 62
     2
100
AcDbCircle
 10
82.85518359969146
 20
111.4404338740118
 30
0.0
 40
0.5
100
AcDbArc
 50
269.9999999977658
 51
0.0000000012897276
  0
LINE
  5
1DE
330
1F
100
AcDbEntity
  8
0
 62
     2
100
AcDbLine
 10
83.35518359969032
 20
124.2904338740052
 30
0.0
 11
83.35518359969134
 21
111.4404338740232
 31
0.0
  0
ARC
  5
1DF
330
1F
100
AcDbEntity
  8
0
 62
     2
100
AcDbCircle
 10
82.85518359969026
 20
124.2904338740052
 30
0.0
 40
0.5
100
AcDbArc
 50
0.0
 51
90.00000000001303
  0
LINE
  5
1E0
330
1F
100
AcDbEntity
  8
0
 62
     2
100
AcDbLine
 10
67.10521458770776
 20
124.790433874005
 30
0.0
 11
82.85518359970192
 21
124.790433874006
 31
0.0
  0
ARC
  5
1E1
330
1F
100
AcDbEntity
  8
0
 62
     2
100
AcDbCircle
 10
67.10521458769122
 20
124.2904338740059
 30
0.0
 40
0.4999999999999716
100
AcDbArc
 50
89.99999999999349
 51
179.9999999999935
  0
ARC
  5
1E2
330
1F
100
AcDbEntity
  8
0
 62
     2
100
AcDbCircle
 10
71.63019909369879
 20
106.1404338740039
 30
0.0
 40
0.4999999999999432
100
AcDbArc
 50
180.0
 51
270.0000000000273
  0
LINE
  5
1E3
330
1F
100
AcDbEntity
  8
0
 62
     2
100
AcDbLine
 10
71.13019909368771
 20
107.390433874003
 30
0.0
 11
71.13019909369879
 21
106.1404338739994
 31
0.0
  0
ARC
  5
1E4
330
1F
100
AcDbEntity
  8
0
 62
     2
100
AcDbCircle
 10
71.63019909368754
 20
107.390433874003
 30
0.0
 40
0.4999999999999716
100
AcDbArc
 50
90.00000000001954
 51
179.9999999999843
  0
LINE
  5
1E5
330
1F
100
AcDbEntity
  8
0
 62
     2
100
AcDbLine
 10
78.33019909368775
 20
107.8904338740075
 30
0.0
 11
71.63019909368737
 21
107.890433874003
 31
0.0
  0
ARC
  5
1E6
330
1F
100
AcDbEntity
  8
0
 62
     2
100
AcDbCircle
 10
78.33019909368804
 20
107.3904338740076
 30
0.0
 40
0.4999999999999432
100
AcDbArc
 50
0.0
 51
90.0000000000745
  0
LINE
  5
1E7
330
1F
100
AcDbEntity
  8
0
 62
     2
100
AcDbLine
 10
78.83019909368628
 20
106.1404338740069
 30
0.0
 11
78.83019909368804
 21
107.3904338740068
 31
0.0
  0
ARC
  5
1E8
330
1F
100
AcDbEntity
  8
0
 62
     2
100
AcDbCircle
 10
78.33019909368639
 20
106.1404338740075
 30
0.0
 40
0.4999999999999716
100
AcDbArc
 50
270.0000000000196
 51
359.9999999999182
  0
LINE
  5
1E9
330
1F
100
AcDbEntity
  8
0
 62
     2
100
AcDbLine
 10
71.63019909369896
 20
105.640433874004
 30
0.0
 11
78.33019909368656
 21
105.6404338740075
 31
0.0
  0
ARC
  5
1EA
330
1F
100
AcDbEntity
  8
0
 62
     2
100
AcDbCircle
 10
71.3801990936943
 20
105.6404338740067
 30
0.0
 40
0.6000000000000227
100
AcDbArc
 50
180.0
 51
270.0000000029572
  0
LINE
  5
1EB
330
1F
100
AcDbEntity
  8
0
 62
     2
100
AcDbLine
 10
78.58019909367314
 20
105.040433874007
 30
0.0
 11
71.38019909372517
 21
105.0404338740066
 31
0.0
  0
ARC
  5
1EC
330
1F
100
AcDbEntity
  8
0
 62
     2
100
AcDbCircle
 10
78.58019909368787
 20
105.640433874004
 30
0.0
 40
0.599999999999909
100
AcDbArc
 50
269.999999998301
 51
359.9999999974932
  0
LINE
  5
1ED
330
1F
100
AcDbEntity
  8
0
 62
     2
100
AcDbLine
 10
79.18019909368891
 20
107.8904338739949
 30
0.0
 11
79.18019909369005
 21
105.6404338739779
 31
0.0
  0
ARC
  5
1EE
330
1F
100
AcDbEntity
  8
0
 62
     2
100
AcDbCircle
 10
78.58019909368895
 20
107.8904338740088
 30
0.0
 40
0.5999999999999659
100
AcDbArc
 50
0.0
 51
90.00000000160254
  0
LINE
  5
1EF
330
1F
100
AcDbEntity
  8
0
 62
     2
100
AcDbLine
 10
71.38019909368964
 20
108.4904338740065
 30
0.0
 11
78.58019909367019
 21
108.4904338740069
 31
0.0
  0
ARC
  5
1F0
330
1F
100
AcDbEntity
  8
0
 62
     2
100
AcDbCircle
 10
71.38019909369112
 20
107.8904338740086
 30
0.0
 40
0.5999999999999659
100
AcDbArc
 50
90.00000000017914
 51
179.9999999999935
  0
LINE
  5
1F1
330
1F
100
AcDbEntity
  8
0
 62
     2
100
AcDbLine
 10
70.78019909369735
 20
105.6404338740233
 30
0.0
 11
70.7801990936911
 21
107.8904338740085
 31
0.0
  0
ARC
  5
1F2
330
1F
100
AcDbEntity
  8
0
 62
     2
100
AcDbCircle
 10
75.40019909369144
 20
99.00043387400521
 30
0.0
 40
0.5000000000000568
100
AcDbArc
 50
180.0
 51
269.9999999999283
  0
LINE
  5
1F3
330
1F
100
AcDbEntity
  8
0
 62
     2
100
AcDbLine
 10
74.90019909368746
 20
103.3804338740077
 30
0.0
 11
74.90019909368985
 21
99.00043387398722
 31
0.0
  0
ARC
  5
1F4
330
1F
100
AcDbEntity
  8
0
 62
     2
100
AcDbCircle
 10
75.4001990936878
 20
103.3804338740077
 30
0.0
 40
0.4999999999999716
100
AcDbArc
 50
90.00000000121808
 51
179.9999999999967
  0
LINE
  5
1F5
330
1F
100
AcDbEntity
  8
0
 62
     2
100
AcDbLine
 10
89.80019909368437
 20
103.8804338740075
 30
0.0
 11
88.8400970422455
 21
103.8804338740075
 31
0.0
  0
ARC
  5
1F6
330
1F
100
AcDbEntity
  8
0
 62
     2
100
AcDbCircle
 10
89.80019909368835
 20
103.3804338740082
 30
0.0
 40
0.5
100
AcDbArc
 50
0.0
 51
89.99999999791558
  0
LINE
  5
1F7
330
1F
100
AcDbEntity
  8
0
 62
     2
100
AcDbLine
 10
90.30019909368693
 20
99.00043387402195
 30
0.0
 11
90.3001990936888
 21
103.3804338740264
 31
0.0
  0
ARC
  5
1F8
330
1F
100
AcDbEntity
  8
0
 62
     2
100
AcDbCircle
 10
89.8001990936825
 20
99.0004338740058
 30
0.0
 40
0.4999999999999716
100
AcDbArc
 50
270.0000000001824
 51
0.0000000018564262
  0
LINE
  5
1F9
330
1F
100
AcDbEntity
  8
0
 62
     2
100
AcDbLine
 10
75.4001990936907
 20
98.50043387400592
 30
0.0
 11
76.36030114513315
 21
98.50043387400598
 31
0.0
  0
ARC
  5
1FA
330
1F
100
AcDbEntity
  8
0
 62
     2
100
AcDbCircle
 10
73.35019909368978
 20
98.6004338740066
 30
0.0
 40
0.5
100
AcDbArc
 50
180.0
 51
269.9999999981175
  0
LINE
  5
1FB
330
1F
100
AcDbEntity
  8
0
 62
     2
100
AcDbLine
 10
91.85019909370138
 20
98.10043387400708
 30
0.0
 11
73.35019909367335
 21
98.10043387400603
 31
0.0
  0
ARC
  5
1FC
330
1F
100
AcDbEntity
  8
0
 62
     2
100
AcDbCircle
 10
91.85019909369211
 20
98.60043387400705
 30
0.0
 40
0.4999999999999716
100
AcDbArc
 50
270.0000000010618
 51
359.9999999990555
  0
LINE
  5
1FD
330
1F
100
AcDbEntity
  8
0
 62
     2
100
AcDbLine
 10
92.35019909368813
 20
103.7804338740208
 30
0.0
 11
92.35019909369024
 21
98.60043387399892
 31
0.0
  0
ARC
  5
1FE
330
1F
100
AcDbEntity
  8
0
 62
     2
100
AcDbCircle
 10
91.85019909368864
 20
103.7804338740073
 30
0.0
 40
0.5000000000001137
100
AcDbArc
 50
0.0
 51
89.99999999846295
  0
LINE
  5
1FF
330
1F
100
AcDbEntity
  8
0
 62
     2
100
AcDbLine
 10
73.3501990936958
 20
104.2804338740056
 30
0.0
 11
91.85019909370178
 21
104.2804338740066
 31
0.0
  0
ARC
  5
200
330
1F
100
AcDbEntity
  8
0
 62
     2
100
AcDbCircle
 10
73.350199093692
 20
103.7804338740057
 30
0.0
 40
0.4999999999999432
100
AcDbArc
 50
90.0
 51
180.0
  0
LINE
  5
201
330
1F
100
AcDbEntity
  8
0
 62
     2
100
AcDbLine
 10
72.85019909368904
 20
98.60043387402315
 30
0.0
 11
72.8501990936879
 21
103.7804338740057
 31
0.0
  0
ARC
  5
202
330
1F
100
AcDbEntity
  8
0
 62
     2
100
AcDbCircle
 10
61.8101988694946
 20
108.4350631088565
 30
0.0
 40
0.9999999999999432
100
AcDbArc
 50
180.0
 51
270.0000008030232
  0
LINE
  5
203
330
1F
100
AcDbEntity
  8
0
 62
     2
100
AcDbLine
 10
60.81019886949392
 20
111.9904338481078
 30
0.0
 11
60.81019886949341
 21
108.4350631088565
 31
0.0
  0
ARC
  5
204
330
1F
100
AcDbEntity
  8
0
 62
     2
100
AcDbCircle
 10
61.81019886949306
 20
111.9904338481112
 30
0.0
 40
0.9999999999999147
100
AcDbArc
 50
90.00000000006513
 51
179.9999999999967
  0
ARC
  5
205
330
1F
100
AcDbEntity
  8
0
 62
     2
100
AcDbCircle
 10
61.81019886949437
 20
97.49043376722291
 30
0.0
 40
0.9999999999998863
100
AcDbArc
 50
180.0
 51
270.0000000000358
  0
LINE
  5
206
330
1F
100
AcDbEntity
  8
0
 62
     2
100
AcDbLine
 10
60.81019886949341
 20
102.4350631088634
 30
0.0
 11
60.81019886949431
 21
97.49043376722287
 31
0.0
  0
ARC
  5
207
330
1F
100
AcDbEntity
  8
0
 62
     2
100
AcDbCircle
 10
61.81019886949528
 20
102.4350631088641
 30
0.0
 40
0.9999999999999148
100
AcDbArc
 50
90.00000080294339
 51
179.9999999999976
  0
ARC
  5
208
330
1F
100
AcDbEntity
  8
0
 62
     2
100
AcDbCircle
 10
72.68120545399009
 20
91.93506296486554
 30
0.0
 40
0.9999999999999432
100
AcDbArc
 50
270.0000000002573
 51
359.9999999991736
  0
LINE
  5
209
330
1F
100
AcDbEntity
  8
0
 62
     2
100
AcDbLine
 10
66.28120545397942
 20
90.93506296486576
 30
0.0
 11
72.68120545399458
 21
90.93506296486615
 31
0.0
  0
ARC
  5
20A
330
1F
100
AcDbEntity
  8
0
 62
     2
100
AcDbCircle
 10
66.28120545398272
 20
91.9350629648672
 30
0.0
 40
0.9999999999999432
100
AcDbArc
 50
180.0
 51
269.9999999998102
  0
ARC
  5
20B
330
1F
100
AcDbEntity
  8
0
 62
     2
100
AcDbCircle
 10
98.31019886948471
 20
102.4350636202016
 30
0.0
 40
0.9999999999998863
100
AcDbArc
 50
0.0
 51
90.00000000057322
  0
LINE
  5
20C
330
1F
100
AcDbEntity
  8
0
 62
     2
100
AcDbLine
 10
99.31019886947965
 20
100.2904338740056
 30
0.0
 11
99.31019886948272
 21
102.4350636201917
 31
0.0
  0
ARC
  5
20D
330
1F
100
AcDbEntity
  8
0
 62
     2
100
AcDbCircle
 10
98.31019886948079
 20
100.2904338740051
 30
0.0
 40
0.9999999999999716
100
AcDbArc
 50
270.0000000003615
 51
0.0000000000196431
  0
ARC
  5
20E
330
1F
100
AcDbEntity
  8
0
 62
     2
100
AcDbCircle
 10
98.31019886948732
 20
111.9904338481181
 30
0.0
 40
0.9999999999999432
100
AcDbArc
 50
0.0
 51
90.00000000038513
  0
LINE
  5
20F
330
1F
100
AcDbEntity
  8
0
 62
     2
100
AcDbLine
 10
99.31019886948732
 20
108.435063620199
 30
0.0
 11
99.31019886948732
 21
111.9904338481115
 31
0.0
  0
ARC
  5
210
330
1F
100
AcDbEntity
  8
0
 62
     2
100
AcDbCircle
 10
98.31019886948619
 20
108.4350636201935
 30
0.0
 40
0.9999999999999717
100
AcDbArc
 50
270.0000008030964
 51
0.0000000003060966
  0
CIRCLE
  5
211
330
1F
100
AcDbEntity
  8
0
 62
     2
100
AcDbCircle
 10
98.06019900265792
 20
128.1850597387156
 30
0.0
 40
1.349999999999966
  0
CIRCLE
  5
212
330
1F
100
AcDbEntity
  8
0
 62
     2
100
AcDbCircle
 10
62.06019900265986
 20
128.1850597387136
 30
0.0
 40
1.349999999999909
  0
CIRCLE
  5
213
330
1F
100
AcDbEntity
  8
0
 62
     2
100
AcDbCircle
 10
62.06019900265781
 20
92.18505973871567
 30
0.0
 40
1.349999999999937
  0
CIRCLE
  5
214
330
1F
100
AcDbEntity
  8
0
 62
     2
100
AcDbCircle
 10
98.06019900265593
 20
92.18505973871764
 30
0.0
 40
1.349999999999937
  0
LINE
  5
215
330
1F
100
AcDbEntity
  8
0
 62
     2
100
AcDbLine
 10
98.06019886950222
 20
89.93506337574135
 30
0.0
 11
62.06019914341519
 21
89.93506337573932
 31
0.0
  0
ARC
  5
216
330
1F
100
AcDbEntity
  8
0
 62
     2
100
AcDbCircle
 10
98.06019886949335
 20
92.185063375741
 30
0.0
 40
2.249999999999915
100
AcDbArc
 50
269.9999999999942
 51
359.999993024736
  0
LINE
  5
217
330
1F
100
AcDbEntity
  8
0
 62
     2
100
AcDbLine
 10
100.3101988694952
 20
128.1850561168958
 30
0.0
 11
100.3101988694932
 21
92.1850631018232
 31
0.0
  0
ARC
  5
218
330
1F
100
AcDbEntity
  8
0
 62
     2
100
AcDbCircle
 10
98.06019886949545
 20
128.1850559799438
 30
0.0
 40
2.249999999999947
100
AcDbArc
 50
0.000003415094585
 51
89.99999992764285
  0
LINE
  5
219
330
1F
100
AcDbEntity
  8
0
 62
     2
100
AcDbLine
 10
62.0601990064566
 20
130.4350559799418
 30
0.0
 11
98.06019886950068
 21
130.4350559799438
 31
0.0
  0
ARC
  5
21A
330
1F
100
AcDbEntity
  8
0
 62
     2
100
AcDbCircle
 10
62.06019886949943
 20
128.1850559799417
 30
0.0
 40
2.249999999999858
100
AcDbArc
 50
89.99999999999567
 51
179.9999999999957
  0
LINE
  5
21B
330
1F
100
AcDbEntity
  8
0
 62
     2
100
AcDbLine
 10
59.8101988694975
 20
92.18506323878057
 30
0.0
 11
59.81019886949949
 21
128.1850562538564
 31
0.0
  0
ARC
  5
21C
330
1F
100
AcDbEntity
  8
0
 62
     2
100
AcDbCircle
 10
62.06019886949733
 20
92.18506337573889
 30
0.0
 40
2.24999999999989
100
AcDbArc
 50
180.0000034150946
 51
269.9999999274829
  0
LINE
  5
21D
330
1F
100
AcDbEntity
  8
0
 62
     2
100
AcDbLine
 10
73.68120545398833
 20
91.53506279576847
 30
0.0
 11
73.68120545399543
 21
93.93506296485727
 31
0.0
  0
ARC
  5
21E
330
1F
100
AcDbEntity
  8
0
 62
     2
100
AcDbCircle
 10
74.1812054539952
 20
93.93506296485731
 30
0.0
 40
0.4999999999999716
100
AcDbArc
 50
90.0
 51
180.0
  0
LINE
  5
21F
330
1F
100
AcDbEntity
  8
0
 62
     2
100
AcDbLine
 10
74.18120545399424
 20
94.43506296485798
 30
0.0
 11
93.31019886949045
 21
94.43506296485901
 31
0.0
  0
ARC
  5
220
330
1F
100
AcDbEntity
  8
0
 62
     2
100
AcDbCircle
 10
93.31019886949005
 20
97.43506296486103
 30
0.0
 40
2.999999999999829
100
AcDbArc
 50
270.0000000000098
 51
0.0000000002600422
  0
LINE
  5
221
330
1F
100
AcDbEntity
  8
0
 62
     2
100
AcDbLine
 10
96.31019886949312
 20
97.43506296487485
 30
0.0
 11
96.31019886948806
 21
98.79043387400245
 31
0.0
  0
ARC
  5
222
330
1F
100
AcDbEntity
  8
0
 62
     2
100
AcDbCircle
 10
96.81019886948789
 20
98.7904338740025
 30
0.0
 40
0.4999999999999716
100
AcDbArc
 50
90.00000000001303
 51
180.000000000013
  0
LINE
  5
223
330
1F
100
AcDbEntity
  8
0
 62
     2
100
AcDbLine
 10
96.81019886947715
 20
99.29043387400623
 30
0.0
 11
98.71019886949014
 21
99.29043387400637
 31
0.0
  0
LINE
  5
224
330
1F
100
AcDbEntity
  8
0
 62
     2
100
AcDbLine
 10
98.71019886949401
 20
112.9904338481153
 30
0.0
 11
96.81019886950705
 21
112.9904338481151
 31
0.0
  0
ARC
  5
225
330
1F
100
AcDbEntity
  8
0
 62
     2
100
AcDbCircle
 10
96.81019886949323
 20
113.4904338481075
 30
0.0
 40
0.4999999999999432
100
AcDbArc
 50
180.0
 51
270.0000000014722
  0
LINE
  5
226
330
1F
100
AcDbEntity
  8
0
 62
     2
100
AcDbLine
 10
96.31019886949198
 20
113.4904338481096
 30
0.0
 11
96.31019886949437
 21
122.9350555690677
 31
0.0
  0
ARC
  5
227
330
1F
100
AcDbEntity
  8
0
 62
     2
100
AcDbCircle
 10
93.31019886949471
 20
122.9350555690674
 30
0.0
 40
2.999999999999829
100
AcDbArc
 50
0.0
 51
89.99999999999797
  0
LINE
  5
228
330
1F
100
AcDbEntity
  8
0
 62
     2
100
AcDbLine
 10
93.3101988694934
 20
125.935055569067
 30
0.0
 11
66.81019886950102
 21
125.9350555690655
 31
0.0
  0
ARC
  5
229
330
1F
100
AcDbEntity
  8
0
 62
     2
100
AcDbCircle
 10
66.81019886949738
 20
122.9350555690663
 30
0.0
 40
2.999999999999829
100
AcDbArc
 50
89.99999999999459
 51
179.9999999999946
  0
LINE
  5
22A
330
1F
100
AcDbEntity
  8
0
 62
     2
100
AcDbLine
 10
63.81019886949755
 20
122.9350555690696
 30
0.0
 11
63.81019886949562
 21
113.4904338481046
 31
0.0
  0
ARC
  5
22B
330
1F
100
AcDbEntity
  8
0
 62
     2
100
AcDbCircle
 10
63.31019886949403
 20
113.4904338481058
 30
0.0
 40
0.4999999999999147
100
AcDbArc
 50
269.9999999998957
 51
359.9999999998547
  0
LINE
  5
22C
330
1F
100
AcDbEntity
  8
0
 62
     2
100
AcDbLine
 10
63.31019886949773
 20
112.9904338481132
 30
0.0
 11
61.41019886949707
 21
112.9904338481131
 31
0.0
  0
LINE
  5
22D
330
1F
100
AcDbEntity
  8
0
 62
     2
100
AcDbLine
 10
65.28120545398255
 20
95.49043376722106
 30
0.0
 11
65.28120545398329
 21
91.53506279576364
 31
0.0
  0
ARC
  5
22E
330
1F
100
AcDbEntity
  8
0
 62
     2
100
AcDbCircle
 10
64.2812054539801
 20
95.4904337672211
 30
0.0
 40
0.9999999999998863
100
AcDbArc
 50
0.0
 51
90.00000000000671
  0
LINE
  5
22F
330
1F
100
AcDbEntity
  8
0
 62
     2
100
AcDbLine
 10
61.41019886948712
 20
96.4904337672251
 30
0.0
 11
64.28120545398346
 21
96.49043376722526
 31
0.0
  0
LINE
  5
230
330
1F
100
AcDbEntity
  8
0
 62
     2
100
AcDbLine
 10
96.41019886948132
 20
106.2350596208569
 30
0.0
 11
96.4101988694816
 21
105.7350596225482
 31
0.0
  0
LINE
  5
231
330
1F
100
AcDbEntity
  8
0
 62
     2
100
AcDbLine
 10
63.710198869496
 20
105.7350597331301
 30
0.0
 11
63.71019886949628
 21
106.2350597348207
 31
0.0
  0
LINE
  5
232
330
1F
100
AcDbEntity
  8
0
 62
     2
100
AcDbLine
 10
96.4101988694812
 20
106.5350596183548
 30
0.0
 11
96.41019886948092
 21
106.9350636005882
 31
0.0
  0
ARC
  5
233
330
1F
100
AcDbEntity
  8
0
 62
     2
100
AcDbCircle
 10
96.91019886948098
 20
106.9350636005882
 30
0.0
 40
0.5
100
AcDbArc
 50
90.0000008011684
 51
179.9999999999845
  0
LINE
  5
234
330
1F
100
AcDbEntity
  8
0
 62
     2
100
AcDbLine
 10
96.91019886245365
 20
107.4350636005865
 30
0.0
 11
98.71019881926637
 21
107.4350636005867
 31
0.0
  0
LINE
  5
235
330
1F
100
AcDbEntity
  8
0
 62
     2
100
AcDbLine
 10
63.71019886949685
 20
106.935063128469
 30
0.0
 11
63.71019886949662
 21
106.5350597289366
 31
0.0
  0
ARC
  5
236
330
1F
100
AcDbEntity
  8
0
 62
     2
100
AcDbCircle
 10
63.21019886949941
 20
106.9350631284742
 30
0.0
 40
0.4999999999999432
100
AcDbArc
 50
0.0
 51
90.00000000059921
  0
LINE
  5
237
330
1F
100
AcDbEntity
  8
0
 62
     2
100
AcDbLine
 10
61.41019886949167
 20
107.4350630962478
 30
0.0
 11
63.21019886249107
 21
107.4350630962479
 31
0.0
  0
LINE
  5
238
330
1F
100
AcDbEntity
  8
0
 62
     2
100
AcDbLine
 10
99.21019886948974
 20
94.8506397587559
 30
0.0
 11
99.21019886949043
 21
98.79043387400785
 31
0.0
  0
ARC
  5
239
330
1F
100
AcDbEntity
  8
0
 62
     2
100
AcDbCircle
 10
98.61019886948978
 20
94.85063975875593
 30
0.0
 40
0.5999999999999944
100
AcDbArc
 50
243.429994768538
 51
359.9999999999915
  0
LINE
  5
23A
330
1F
100
AcDbEntity
  8
0
 62
     2
100
AcDbLine
 10
97.49279539519839
 20
94.73861287276662
 30
0.0
 11
98.34182431144072
 21
94.31400664703813
 31
0.0
  0
ARC
  5
23B
330
1F
100
AcDbEntity
  8
0
 62
     2
100
AcDbCircle
 10
97.2691499301574
 20
94.29141861300184
 30
0.0
 40
0.4999999999999742
100
AcDbArc
 50
63.42999476853559
 51
110.5837182095668
  0
ARC
  5
23C
330
1F
100
AcDbEntity
  8
0
 62
     2
100
AcDbCircle
 10
98.06019510523319
 20
92.18505978056419
 30
0.0
 40
2.749999999999656
100
AcDbArc
 50
110.5837182095665
 51
158.8252907525722
  0
ARC
  5
23D
330
1F
100
AcDbEntity
  8
0
 62
     2
100
AcDbCircle
 10
95.96210760381277
 20
92.99778903214909
 30
0.0
 40
0.4999999999999359
100
AcDbArc
 50
158.8252907525824
 51
206.5699947685496
  0
LINE
  5
23E
330
1F
100
AcDbEntity
  8
0
 62
     2
100
AcDbLine
 10
95.95036041153534
 20
91.9034372558283
 30
0.0
 11
95.51491330320752
 21
92.77414364877139
 31
0.0
  0
ARC
  5
23F
330
1F
100
AcDbEntity
  8
0
 62
     2
100
AcDbCircle
 10
95.4137272508091
 20
91.63506279577493
 30
0.0
 40
0.5999999999999375
100
AcDbArc
 50
270.0000000000054
 51
26.56999476853539
  0
LINE
  5
240
330
1F
100
AcDbEntity
  8
0
 62
     2
100
AcDbLine
 10
85.91019893983193
 20
91.03506279576473
 30
0.0
 11
95.41372725080927
 21
91.03506279576528
 31
0.0
  0
LINE
  5
241
330
1F
100
AcDbEntity
  8
0
 62
     2
100
AcDbLine
 10
95.39461680328648
 20
129.3350553999799
 30
0.0
 11
85.91019900460012
 21
129.3350553999794
 31
0.0
  0
ARC
  5
242
330
1F
100
AcDbEntity
  8
0
 62
     2
100
AcDbCircle
 10
95.39461680328654
 20
128.73505539998
 30
0.0
 40
0.5999999999999182
100
AcDbArc
 50
333.4299947685404
 51
89.9999999999975
  0
LINE
  5
243
330
1F
100
AcDbEntity
  8
0
 62
     2
100
AcDbLine
 10
95.50664577729296
 20
127.6176561008203
 30
0.0
 11
95.93124991500437
 21
128.466680841931
 31
0.0
  0
ARC
  5
244
330
1F
100
AcDbEntity
  8
0
 62
     2
100
AcDbCircle
 10
95.95384003705786
 20
127.3940106357795
 30
0.0
 40
0.4999999999999361
100
AcDbArc
 50
153.4299947685603
 51
200.5837182095804
  0
ARC
  5
245
330
1F
100
AcDbEntity
  8
0
 62
     2
100
AcDbCircle
 10
98.06019886949545
 20
128.1850558108557
 30
0.0
 40
2.749999999999865
100
AcDbArc
 50
200.5837182095736
 51
248.8252907525793
  0
ARC
  5
246
330
1F
100
AcDbEntity
  8
0
 62
     2
100
AcDbCircle
 10
97.2474696179103
 20
126.086968309435
 30
0.0
 40
0.4999999999999667
100
AcDbArc
 50
248.8252907525734
 51
296.5699947685458
  0
LINE
  5
247
330
1F
100
AcDbEntity
  8
0
 62
     2
100
AcDbLine
 10
98.34182440944218
 20
126.0752226250885
 30
0.0
 11
97.4711150012881
 21
125.6397740088298
 31
0.0
  0
ARC
  5
248
330
1F
100
AcDbEntity
  8
0
 62
     2
100
AcDbCircle
 10
98.61019886949552
 20
125.5385894643622
 30
0.0
 40
0.6000000000000227
100
AcDbArc
 50
0.0
 51
116.5699947685536
  0
LINE
  5
249
330
1F
100
AcDbEntity
  8
0
 62
     2
100
AcDbLine
 10
99.21019886949327
 20
113.4904338481144
 30
0.0
 11
99.21019886949554
 21
125.5385894643622
 31
0.0
  0
LINE
  5
24A
330
1F
100
AcDbEntity
  8
0
 62
     2
100
AcDbLine
 10
60.91019886949826
 20
125.519479699669
 30
0.0
 11
60.91019886949388
 21
113.4904338481108
 31
0.0
  0
ARC
  5
24B
330
1F
100
AcDbEntity
  8
0
 62
     2
100
AcDbCircle
 10
61.51019886949828
 20
125.5194796996688
 30
0.0
 40
0.599999999999969
100
AcDbArc
 50
63.42999476853619
 51
179.9999999999841
  0
LINE
  5
24C
330
1F
100
AcDbEntity
  8
0
 62
     2
100
AcDbLine
 10
62.62760254923907
 20
125.6315064829112
 30
0.0
 11
61.77857342754712
 21
126.0561128113867
 31
0.0
  0
ARC
  5
24D
330
1F
100
AcDbEntity
  8
0
 62
     2
100
AcDbCircle
 10
62.85124801427995
 20
126.0787007426761
 30
0.0
 40
0.500000000000025
100
AcDbArc
 50
243.429994768553
 51
290.5837182095764
  0
ARC
  5
24E
330
1F
100
AcDbEntity
  8
0
 62
     2
100
AcDbCircle
 10
62.06020283920398
 20
128.1850595751137
 30
0.0
 40
2.749999999999749
100
AcDbArc
 50
290.5837182095694
 51
338.8252907525749
  0
ARC
  5
24F
330
1F
100
AcDbEntity
  8
0
 62
     2
100
AcDbCircle
 10
64.15829034062457
 20
127.3723303235288
 30
0.0
 40
0.4999999999999035
100
AcDbArc
 50
338.825290752574
 51
26.56999476854526
  0
LINE
  5
250
330
1F
100
AcDbEntity
  8
0
 62
     2
100
AcDbLine
 10
64.17003811299057
 20
128.4666809399229
 30
0.0
 11
64.60548464122971
 21
127.5959757069065
 31
0.0
  0
ARC
  5
251
330
1F
100
AcDbEntity
  8
0
 62
     2
100
AcDbCircle
 10
64.70667127371681
 20
128.7350553999761
 30
0.0
 40
0.6000000000000227
100
AcDbArc
 50
90.00000000001629
 51
206.5699947685584
  0
LINE
  5
252
330
1F
100
AcDbEntity
  8
0
 62
     2
100
AcDbLine
 10
74.21019900460195
 20
129.3350553999787
 30
0.0
 11
64.7066712737167
 21
129.3350553999781
 31
0.0
  0
ARC
  5
253
330
1F
100
AcDbEntity
  8
0
 62
     2
100
AcDbCircle
 10
62.06019907494183
 20
92.18506354482227
 30
0.0
 40
2.749999999999909
100
AcDbArc
 50
20.58371820957172
 51
68.82529075257811
  0
ARC
  5
254
330
1F
100
AcDbEntity
  8
0
 62
     2
100
AcDbCircle
 10
64.16655790737954
 20
92.97610871989845
 30
0.0
 40
0.4999999999999488
100
AcDbArc
 50
333.4299947685428
 51
20.58371820957223
  0
LINE
  5
255
330
1F
100
AcDbEntity
  8
0
 62
     2
100
AcDbLine
 10
64.61375216714438
 20
92.75246325485763
 30
0.0
 11
64.18914744934042
 21
91.90343735381252
 31
0.0
  0
ARC
  5
256
330
1F
100
AcDbEntity
  8
0
 62
     2
100
AcDbCircle
 10
64.72578056105803
 20
91.63506279576349
 30
0.0
 40
0.5999999999999436
100
AcDbArc
 50
153.4299947685465
 51
270.0000000000194
  0
LINE
  5
257
330
1F
100
AcDbEntity
  8
0
 62
     2
100
AcDbLine
 10
64.72578056105826
 20
91.03506279576354
 30
0.0
 11
64.78120545398323
 21
91.03506279576355
 31
0.0
  0
LINE
  5
258
330
1F
100
AcDbEntity
  8
0
 62
     2
100
AcDbLine
 10
60.91019886948757
 20
95.99043376722449
 30
0.0
 11
60.91019886948717
 21
94.83152978856619
 31
0.0
  0
ARC
  5
259
330
1F
100
AcDbEntity
  8
0
 62
     2
100
AcDbCircle
 10
61.5101988694872
 20
94.8315297885662
 30
0.0
 40
0.6000000000000227
100
AcDbArc
 50
180.0
 51
296.5699947685413
  0
LINE
  5
25A
330
1F
100
AcDbEntity
  8
0
 62
     2
100
AcDbLine
 10
61.77857332954036
 20
94.29489662783996
 30
0.0
 11
62.64928294314925
 21
94.73034534684808
 31
0.0
  0
ARC
  5
25B
330
1F
100
AcDbEntity
  8
0
 62
     2
100
AcDbCircle
 10
62.87292832652699
 20
94.28315104624292
 30
0.0
 40
0.4999999999999873
100
AcDbArc
 50
68.82529075257393
 51
116.5699947685433
  0
LINE
  5
25C
330
1F
100
AcDbEntity
  8
0
 62
     2
100
AcDbLine
 10
75.01019893983565
 20
91.03506279576735
 30
0.0
 11
74.51019894068165
 21
91.03506279576717
 31
0.0
  0
LINE
  5
25D
330
1F
100
AcDbEntity
  8
0
 62
     2
100
AcDbLine
 10
85.61019894068207
 20
91.03506279577131
 30
0.0
 11
85.11019893983732
 21
91.03506279577113
 31
0.0
  0
LINE
  5
25E
330
1F
100
AcDbEntity
  8
0
 62
     2
100
AcDbLine
 10
82.11019893983635
 20
91.03506279577002
 30
0.0
 11
81.61019894068207
 21
91.0350627957698
 31
0.0
  0
LINE
  5
25F
330
1F
100
AcDbEntity
  8
0
 62
     2
100
AcDbLine
 10
78.5101989406825
 20
91.0350627957687
 30
0.0
 11
78.01019893983786
 21
91.03506279576847
 31
0.0
  0
LINE
  5
260
330
1F
100
AcDbEntity
  8
0
 62
     2
100
AcDbLine
 10
99.21019886949196
 20
106.535059608886
 30
0.0
 11
99.21019886949196
 21
106.9350636257995
 31
0.0
  0
LINE
  5
261
330
1F
100
AcDbEntity
  8
0
 62
     2
100
AcDbLine
 10
60.91019886949161
 20
106.9350631032535
 30
0.0
 11
60.9101988694915
 21
106.5350597384056
 31
0.0
  0
LINE
  5
262
330
1F
100
AcDbEntity
  8
0
 62
     2
100
AcDbLine
 10
99.21019886949185
 20
106.2350596147702
 30
0.0
 11
99.21019886949185
 21
105.7350596130794
 31
0.0
  0
LINE
  5
263
330
1F
100
AcDbEntity
  8
0
 62
     2
100
AcDbLine
 10
85.11019900460096
 20
129.3350553999787
 30
0.0
 11
85.61019900375553
 21
129.3350553999787
 31
0.0
  0
LINE
  5
264
330
1F
100
AcDbEntity
  8
0
 62
     2
100
AcDbLine
 10
81.6101990037557
 20
129.3350553999782
 30
0.0
 11
82.11019900460147
 21
129.3350553999783
 31
0.0
  0
LINE
  5
265
330
1F
100
AcDbEntity
  8
0
 62
     2
100
AcDbLine
 10
78.01019900460128
 20
129.3350553999778
 30
0.0
 11
78.51019900375567
 21
129.3350553999778
 31
0.0
  0
LINE
  5
266
330
1F
100
AcDbEntity
  8
0
 62
     2
100
AcDbLine
 10
74.51019900375562
 20
129.3350553999774
 30
0.0
 11
75.01019900460082
 21
129.3350553999774
 31
0.0
  0
LINE
  5
267
330
1F
100
AcDbEntity
  8
0
 62
     2
100
AcDbLine
 10
60.9101988694911
 20
105.735059742599
 30
0.0
 11
60.91019886949132
 21
106.2350597409082
 31
0.0
  0
LINE
  5
268
330
1F
100
AcDbEntity
  8
0
 62
     2
100
AcDbLine
 10
81.31019900460231
 20
129.3350553999791
 30
0.0
 11
78.81019900460032
 21
129.3350553999789
 31
0.0
  0
LINE
  5
269
330
1F
100
AcDbEntity
  8
0
 62
     2
100
AcDbLine
 10
78.81019893983782
 20
91.03506279576433
 30
0.0
 11
81.31019893983651
 21
91.03506279576445
 31
0.0
  0
LINE
  5
26A
330
1F
100
AcDbEntity
  8
0
 62
     2
100
AcDbLine
 10
73.88120545398712
 20
91.13506337494123
 30
0.0
 11
73.88120545399536
 21
93.93506296485731
 31
0.0
  0
ARC
  5
26B
330
1F
100
AcDbEntity
  8
0
 62
     2
100
AcDbCircle
 10
74.1812054539952
 20
93.93506296485731
 30
0.0
 40
0.2999999999999829
100
AcDbArc
 50
90.00000000001087
 51
180.0000000000109
  0
LINE
  5
26C
330
1F
100
AcDbEntity
  8
0
 62
     2
100
AcDbLine
 10
84.11019894186413
 20
94.23506296485863
 30
0.0
 11
93.31019886949045
 21
94.2350629648596
 31
0.0
  0
LINE
  5
26D
330
1F
100
AcDbEntity
  8
0
 62
     2
100
AcDbLine
 10
77.0101989418661
 20
94.23506296485786
 30
0.0
 11
83.11019894187083
 21
94.23506296485851
 31
0.0
  0
LINE
  5
26E
330
1F
100
AcDbEntity
  8
0
 62
     2
100
AcDbLine
 10
74.18120545399435
 20
94.23506296485755
 30
0.0
 11
76.01019894186479
 21
94.23506296485779
 31
0.0
  0
ARC
  5
26F
330
1F
100
AcDbEntity
  8
0
 62
     2
100
AcDbCircle
 10
93.31019886949005
 20
97.43506296486103
 30
0.0
 40
3.199999999999847
100
AcDbArc
 50
270.0000000000061
 51
0.0000000003474183
  0
LINE
  5
270
330
1F
100
AcDbEntity
  8
0
 62
     2
100
AcDbLine
 10
96.51019886949311
 20
97.43506296487558
 30
0.0
 11
96.51019886948805
 21
98.79043387400247
 31
0.0
  0
ARC
  5
271
330
1F
100
AcDbEntity
  8
0
 62
     2
100
AcDbCircle
 10
96.81019886948789
 20
98.7904338740025
 30
0.0
 40
0.2999999999999545
100
AcDbArc
 50
90.00000000001087
 51
180.0000000000109
  0
LINE
  5
272
330
1F
100
AcDbEntity
  8
0
 62
     2
100
AcDbLine
 10
96.81019886947726
 20
99.09043387400546
 30
0.0
 11
98.71019886949031
 21
99.09043387400638
 31
0.0
  0
ARC
  5
273
330
1F
100
AcDbEntity
  8
0
 62
     2
100
AcDbCircle
 10
98.71019886949037
 20
98.7904338740079
 30
0.0
 40
0.3000000000000114
100
AcDbArc
 50
0.0
 51
90.00000000000645
  0
LINE
  5
274
330
1F
100
AcDbEntity
  8
0
 62
     2
100
AcDbLine
 10
99.01019886948976
 20
94.85063975875595
 30
0.0
 11
99.01019886949044
 21
98.79043387400783
 31
0.0
  0
ARC
  5
275
330
1F
100
AcDbEntity
  8
0
 62
     2
100
AcDbCircle
 10
98.61019886948978
 20
94.85063975875593
 30
0.0
 40
0.3999999999999539
100
AcDbArc
 50
243.4299947685401
 51
359.9999999999939
  0
LINE
  5
276
330
1F
100
AcDbEntity
  8
0
 62
     2
100
AcDbLine
 10
97.58225358121476
 20
94.91749057667255
 30
0.0
 11
98.43128249745703
 21
94.49288435094405
 31
0.0
  0
ARC
  5
277
330
1F
100
AcDbEntity
  8
0
 62
     2
100
AcDbCircle
 10
97.2691499301574
 20
94.29141861300184
 30
0.0
 40
0.6999999999999893
100
AcDbArc
 50
63.42999476853765
 51
110.583718209571
  0
ARC
  5
278
330
1F
100
AcDbEntity
  8
0
 62
     2
100
AcDbCircle
 10
98.06019510523319
 20
92.18505978056419
 30
0.0
 40
2.949999999999675
100
AcDbArc
 50
110.5837182095659
 51
158.8252907525752
  0
ARC
  5
279
330
1F
100
AcDbEntity
  8
0
 62
     2
100
AcDbCircle
 10
95.96210760381277
 20
92.99778903214909
 30
0.0
 40
0.7000000000000146
100
AcDbArc
 50
158.8252907525888
 51
206.5699947685512
  0
LINE
  5
27A
330
1F
100
AcDbEntity
  8
0
 62
     2
100
AcDbLine
 10
95.77148269129319
 20
91.81397910247716
 30
0.0
 11
95.33603558296542
 21
92.68468549542024
 31
0.0
  0
ARC
  5
27B
330
1F
100
AcDbEntity
  8
0
 62
     2
100
AcDbCircle
 10
95.4137272508091
 20
91.63506279577493
 30
0.0
 40
0.3999999999999773
100
AcDbArc
 50
270.0000000000081
 51
26.5699947685385
  0
LINE
  5
27C
330
1F
100
AcDbEntity
  8
0
 62
     2
100
AcDbLine
 10
86.11019894017502
 20
91.23506279577148
 30
0.0
 11
95.41372725080927
 21
91.23506279577495
 31
0.0
  0
LINE
  5
27D
330
1F
100
AcDbEntity
  8
0
 62
     2
100
AcDbLine
 10
95.39461680328654
 20
129.1350553999799
 30
0.0
 11
86.11019900426274
 21
129.1350553999788
 31
0.0
  0
ARC
  5
27E
330
1F
100
AcDbEntity
  8
0
 62
     2
100
AcDbCircle
 10
95.39461680328654
 20
128.73505539998
 30
0.0
 40
0.3999999999999158
100
AcDbArc
 50
333.4299947685465
 51
90.00000000000296
  0
LINE
  5
27F
330
1F
100
AcDbEntity
  8
0
 62
     2
100
AcDbLine
 10
95.32776807338703
 20
127.7071142868366
 30
0.0
 11
95.75237221109833
 21
128.5561390279473
 31
0.0
  0
ARC
  5
280
330
1F
100
AcDbEntity
  8
0
 62
     2
100
AcDbCircle
 10
95.95384003705786
 20
127.3940106357795
 30
0.0
 40
0.6999999999999639
100
AcDbArc
 50
153.4299947685585
 51
200.5837182095781
  0
ARC
  5
281
330
1F
100
AcDbEntity
  8
0
 62
     2
100
AcDbCircle
 10
98.06019886949545
 20
128.1850558108557
 30
0.0
 40
2.949999999999878
100
AcDbArc
 50
200.5837182095736
 51
248.8252907525791
  0
ARC
  5
282
330
1F
100
AcDbEntity
  8
0
 62
     2
100
AcDbCircle
 10
97.2474696179103
 20
126.086968309435
 30
0.0
 40
0.699999999999954
100
AcDbArc
 50
248.8252907525698
 51
296.5699947685422
  0
LINE
  5
283
330
1F
100
AcDbEntity
  8
0
 62
     2
100
AcDbLine
 10
98.43128256279326
 20
125.8963449048464
 30
0.0
 11
97.56057315463917
 21
125.4608962885877
 31
0.0
  0
ARC
  5
284
330
1F
100
AcDbEntity
  8
0
 62
     2
100
AcDbCircle
 10
98.61019886949552
 20
125.5385894643622
 30
0.0
 40
0.3999999999999773
100
AcDbArc
 50
0.0
 51
116.569994768553
  0
LINE
  5
285
330
1F
100
AcDbEntity
  8
0
 62
     2
100
AcDbLine
 10
99.01019886949322
 20
113.4904338481144
 30
0.0
 11
99.0101988694955
 21
125.5385894643622
 31
0.0
  0
ARC
  5
286
330
1F
100
AcDbEntity
  8
0
 62
     2
100
AcDbCircle
 10
98.71019886949327
 20
113.4904338481138
 30
0.0
 40
0.3000000000000114
100
AcDbArc
 50
270.0000000001194
 51
359.9999999999823
  0
LINE
  5
287
330
1F
100
AcDbEntity
  8
0
 62
     2
100
AcDbLine
 10
98.71019886949367
 20
113.1904338481164
 30
0.0
 11
96.81019886950142
 21
113.1904338481147
 31
0.0
  0
ARC
  5
288
330
1F
100
AcDbEntity
  8
0
 62
     2
100
AcDbCircle
 10
96.81019886949323
 20
113.4904338481075
 30
0.0
 40
0.2999999999998977
100
AcDbArc
 50
180.0
 51
270.0000000014722
  0
LINE
  5
289
330
1F
100
AcDbEntity
  8
0
 62
     2
100
AcDbLine
 10
96.51019886949203
 20
113.4904338481096
 30
0.0
 11
96.5101988694943
 21
122.9350555690677
 31
0.0
  0
ARC
  5
28A
330
1F
100
AcDbEntity
  8
0
 62
     2
100
AcDbCircle
 10
93.31019886949471
 20
122.9350555690674
 30
0.0
 40
3.199999999999875
100
AcDbArc
 50
0.0
 51
89.99999999999827
  0
LINE
  5
28B
330
1F
100
AcDbEntity
  8
0
 62
     2
100
AcDbLine
 10
76.01019900257009
 20
126.1350555690661
 30
0.0
 11
66.81019886950119
 21
126.1350555690656
 31
0.0
  0
LINE
  5
28C
330
1F
100
AcDbEntity
  8
0
 62
     2
100
AcDbLine
 10
83.11019900257227
 20
126.1350555690664
 30
0.0
 11
77.01019900257452
 21
126.1350555690661
 31
0.0
  0
LINE
  5
28D
330
1F
100
AcDbEntity
  8
0
 62
     2
100
AcDbLine
 10
93.3101988694934
 20
126.1350555690669
 30
0.0
 11
84.11019900257068
 21
126.1350555690665
 31
0.0
  0
ARC
  5
28E
330
1F
100
AcDbEntity
  8
0
 62
     2
100
AcDbCircle
 10
66.81019886949738
 20
122.9350555690663
 30
0.0
 40
3.19999999999979
100
AcDbArc
 50
89.99999999999594
 51
179.9999999998121
  0
LINE
  5
28F
330
1F
100
AcDbEntity
  8
0
 62
     2
100
AcDbLine
 10
63.61019886949757
 20
122.9350555690696
 30
0.0
 11
63.61019886949563
 21
113.4904338481051
 31
0.0
  0
ARC
  5
290
330
1F
100
AcDbEntity
  8
0
 62
     2
100
AcDbCircle
 10
63.31019886949403
 20
113.4904338481058
 30
0.0
 40
0.2999999999999545
100
AcDbArc
 50
269.9999999998698
 51
359.9999999998289
  0
LINE
  5
291
330
1F
100
AcDbEntity
  8
0
 62
     2
100
AcDbLine
 10
63.31019886949744
 20
113.1904338481145
 30
0.0
 11
61.41019886949678
 21
113.1904338481131
 31
0.0
  0
ARC
  5
292
330
1F
100
AcDbEntity
  8
0
 62
     2
100
AcDbCircle
 10
61.410198869494
 20
113.4904338481131
 30
0.0
 40
0.3000000000000114
100
AcDbArc
 50
180.0
 51
270.0000000000931
  0
LINE
  5
293
330
1F
100
AcDbEntity
  8
0
 62
     2
100
AcDbLine
 10
61.11019886949825
 20
125.5194796996689
 30
0.0
 11
61.11019886949393
 21
113.4904338481107
 31
0.0
  0
ARC
  5
294
330
1F
100
AcDbEntity
  8
0
 62
     2
100
AcDbCircle
 10
61.51019886949828
 20
125.5194796996688
 30
0.0
 40
0.3999999999999285
100
AcDbArc
 50
63.42999476854649
 51
179.9999999999942
  0
LINE
  5
295
330
1F
100
AcDbEntity
  8
0
 62
     2
100
AcDbLine
 10
62.5381443632227
 20
125.4526287790054
 30
0.0
 11
61.6891152415308
 21
125.8772351074808
 31
0.0
  0
ARC
  5
296
330
1F
100
AcDbEntity
  8
0
 62
     2
100
AcDbCircle
 10
62.85124801427995
 20
126.0787007426761
 30
0.0
 40
0.6999999999999384
100
AcDbArc
 50
243.4299947685475
 51
290.5837182095707
  0
ARC
  5
297
330
1F
100
AcDbEntity
  8
0
 62
     2
100
AcDbCircle
 10
62.06020283920398
 20
128.1850595751138
 30
0.0
 40
2.949999999999688
100
AcDbArc
 50
290.583718209568
 51
338.8252907525734
  0
ARC
  5
298
330
1F
100
AcDbEntity
  8
0
 62
     2
100
AcDbCircle
 10
64.15829034062457
 20
127.3723303235288
 30
0.0
 40
0.6999999999998864
100
AcDbArc
 50
338.8252907525778
 51
26.5699947685443
  0
LINE
  5
299
330
1F
100
AcDbEntity
  8
0
 62
     2
100
AcDbLine
 10
64.34891583323267
 20
128.556139093274
 30
0.0
 11
64.78436236147186
 21
127.6854338602576
 31
0.0
  0
ARC
  5
29A
330
1F
100
AcDbEntity
  8
0
 62
     2
100
AcDbCircle
 10
64.70667127371681
 20
128.7350553999761
 30
0.0
 40
0.4000000000000057
100
AcDbArc
 50
90.00000000001629
 51
206.5699947685584
  0
LINE
  5
29B
330
1F
100
AcDbEntity
  8
0
 62
     2
100
AcDbLine
 10
74.01019900426283
 20
129.1350553999773
 30
0.0
 11
64.70667127371675
 21
129.1350553999761
 31
0.0
  0
ARC
  5
29C
330
1F
100
AcDbEntity
  8
0
 62
     2
100
AcDbCircle
 10
62.06019907494183
 20
92.18506354482227
 30
0.0
 40
2.949999999999858
100
AcDbArc
 50
20.58371820957251
 51
68.82529075257966
  0
ARC
  5
29D
330
1F
100
AcDbEntity
  8
0
 62
     2
100
AcDbCircle
 10
64.16655790737954
 20
92.97610871989842
 30
0.0
 40
0.6999999999999893
100
AcDbArc
 50
333.4299947685439
 51
20.58371820957381
  0
LINE
  5
29E
330
1F
100
AcDbEntity
  8
0
 62
     2
100
AcDbLine
 10
64.79262987105031
 20
92.66300506884124
 30
0.0
 11
64.36802515324635
 21
91.8139791677962
 31
0.0
  0
ARC
  5
29F
330
1F
100
AcDbEntity
  8
0
 62
     2
100
AcDbCircle
 10
64.72578056105803
 20
91.63506279576349
 30
0.0
 40
0.3999999999999285
100
AcDbArc
 50
153.4299947685356
 51
270.0000000000093
  0
LINE
  5
2A0
330
1F
100
AcDbEntity
  8
0
 62
     2
100
AcDbLine
 10
64.7257805610582
 20
91.2350627957635
 30
0.0
 11
64.78120545398329
 21
91.23506279576351
 31
0.0
  0
ARC
  5
2A1
330
1F
100
AcDbEntity
  8
0
 62
     2
100
AcDbCircle
 10
64.78120545398323
 20
91.53506279576354
 30
0.0
 40
0.3000000000000682
100
AcDbArc
 50
270.0000000000109
 51
0.0000000000037149
  0
LINE
  5
2A2
330
1F
100
AcDbEntity
  8
0
 62
     2
100
AcDbLine
 10
65.08120545398262
 20
95.49043376722108
 30
0.0
 11
65.08120545398319
 21
91.53506279576361
 31
0.0
  0
ARC
  5
2A3
330
1F
100
AcDbEntity
  8
0
 62
     2
100
AcDbCircle
 10
64.2812054539801
 20
95.4904337672211
 30
0.0
 40
0.7999999999998977
100
AcDbArc
 50
0.0
 51
90.00000000000688
  0
LINE
  5
2A4
330
1F
100
AcDbEntity
  8
0
 62
     2
100
AcDbLine
 10
61.41019886948666
 20
96.29043376722653
 30
0.0
 11
64.281205453983
 21
96.29043376722439
 31
0.0
  0
ARC
  5
2A5
330
1F
100
AcDbEntity
  8
0
 62
     2
100
AcDbCircle
 10
61.41019886948757
 20
95.99043376722571
 30
0.0
 40
0.3000000000000114
100
AcDbArc
 50
90.00000000008686
 51
180.0000000001598
  0
LINE
  5
2A6
330
1F
100
AcDbEntity
  8
0
 62
     2
100
AcDbLine
 10
61.11019886948756
 20
95.99043376722443
 30
0.0
 11
61.11019886948716
 21
94.8315297885662
 31
0.0
  0
ARC
  5
2A7
330
1F
100
AcDbEntity
  8
0
 62
     2
100
AcDbCircle
 10
61.5101988694872
 20
94.8315297885662
 30
0.0
 40
0.4000000000000341
100
AcDbArc
 50
180.0
 51
296.5699947685432
  0
LINE
  5
2A8
330
1F
100
AcDbEntity
  8
0
 62
     2
100
AcDbLine
 10
61.68911517618935
 20
94.47377434808207
 30
0.0
 11
62.55982478979823
 21
94.9092230670902
 31
0.0
  0
ARC
  5
2A9
330
1F
100
AcDbEntity
  8
0
 62
     2
100
AcDbCircle
 10
62.87292832652699
 20
94.28315104624292
 30
0.0
 40
0.7000000000000071
100
AcDbArc
 50
68.82529075257106
 51
116.5699947685401
  0
LINE
  5
2AA
330
1F
100
AcDbEntity
  8
0
 62
     2
100
AcDbLine
 10
86.11019894186452
 20
92.2350627923909
 30
0.0
 11
86.11019894017502
 21
91.23506279577148
 31
0.0
  0
ARC
  5
2AB
330
1F
100
AcDbEntity
  8
0
 62
     2
100
AcDbCircle
 10
84.11019894186583
 20
92.23506279576635
 30
0.0
 40
2.000000000000002
100
AcDbArc
 50
59.88655567418314
 51
90.00000000000034
  0
ARC
  5
2AC
330
1F
100
AcDbEntity
  8
0
 62
     2
100
AcDbCircle
 10
84.11019894186583
 20
92.23506279576635
 30
0.0
 40
1.999999999999829
100
AcDbArc
 50
0.0
 51
59.88655577088654
  0
ARC
  5
2AD
330
1F
100
AcDbEntity
  8
0
 62
     2
100
AcDbCircle
 10
83.11019894186748
 20
92.23506279576915
 30
0.0
 40
1.999999999999781
100
AcDbArc
 50
149.8865557710298
 51
179.999999903135
  0
ARC
  5
2AE
330
1F
100
AcDbEntity
  8
0
 62
     2
100
AcDbCircle
 10
83.11019894186748
 20
92.23506279576915
 30
0.0
 40
1.999999999999858
100
AcDbArc
 50
89.99999999999511
 51
149.8865557710236
  0
LINE
  5
2AF
330
1F
100
AcDbEntity
  8
0
 62
     2
100
AcDbLine
 10
81.11019894017474
 20
91.2350627957696
 30
0.0
 11
81.11019894186566
 21
92.23506279915055
 31
0.0
  0
LINE
  5
2B0
330
1F
100
AcDbEntity
  8
0
 62
     2
100
AcDbLine
 10
79.0101989418649
 20
92.2350627923899
 30
0.0
 11
79.01019894017557
 21
91.23506279576884
 31
0.0
  0
ARC
  5
2B1
330
1F
100
AcDbEntity
  8
0
 62
     2
100
AcDbCircle
 10
77.01019894186587
 20
92.23506279577404
 30
0.0
 40
2.000000000000011
100
AcDbArc
 50
59.88655567419204
 51
90.00000000000114
  0
ARC
  5
2B2
330
1F
100
AcDbEntity
  8
0
 62
     2
100
AcDbCircle
 10
77.01019894186587
 20
92.23506279577404
 30
0.0
 40
1.999999999999886
100
AcDbArc
 50
0.0
 51
59.88655577114154
  0
ARC
  5
2B3
330
1F
100
AcDbEntity
  8
0
 62
     2
100
AcDbCircle
 10
76.01019894186467
 20
92.23506279577421
 30
0.0
 40
1.999999999999813
100
AcDbArc
 50
149.8865557709495
 51
179.999999903168
  0
ARC
  5
2B4
330
1F
100
AcDbEntity
  8
0
 62
     2
100
AcDbCircle
 10
76.01019894186467
 20
92.23506279577421
 30
0.0
 40
1.999999999999886
100
AcDbArc
 50
89.99999999999675
 51
149.8865557709443
  0
LINE
  5
2B5
330
1F
100
AcDbEntity
  8
0
 62
     2
100
AcDbLine
 10
74.0101989398868
 20
91.06521623873932
 30
0.0
 11
74.01019894186564
 21
92.23506279915573
 31
0.0
  0
LINE
  5
2B6
330
1F
100
AcDbEntity
  8
0
 62
     2
100
AcDbLine
 10
96.61019886948102
 20
106.7350596218717
 30
0.0
 11
96.61019886948085
 21
106.9350636005881
 31
0.0
  0
ARC
  5
2B7
330
1F
100
AcDbEntity
  8
0
 62
     2
100
AcDbCircle
 10
96.91019886948098
 20
106.9350636005882
 30
0.0
 40
0.3000000000000398
100
AcDbArc
 50
90.00000080117275
 51
179.9999999999884
  0
LINE
  5
2B8
330
1F
100
AcDbEntity
  8
0
 62
     2
100
AcDbLine
 10
96.91019886525501
 20
107.2350635875424
 30
0.0
 11
98.71019882206772
 21
107.2350636001489
 31
0.0
  0
ARC
  5
2B9
330
1F
100
AcDbEntity
  8
0
 62
     2
100
AcDbCircle
 10
98.71019886949202
 20
106.9350635825775
 30
0.0
 40
0.2999999999999545
100
AcDbArc
 50
0.0
 51
89.99999938965766
  0
LINE
  5
2BA
330
1F
100
AcDbEntity
  8
0
 62
     2
100
AcDbLine
 10
99.01019886949197
 20
106.7350596137557
 30
0.0
 11
99.01019886949203
 21
106.9350636257996
 31
0.0
  0
LINE
  5
2BB
330
1F
100
AcDbEntity
  8
0
 62
     2
100
AcDbLine
 10
63.51019886949686
 20
106.9350631284711
 30
0.0
 11
63.51019886949686
 21
106.7350597338064
 31
0.0
  0
ARC
  5
2BC
330
1F
100
AcDbEntity
  8
0
 62
     2
100
AcDbCircle
 10
63.21019886949941
 20
106.9350631284742
 30
0.0
 40
0.3000000000000114
100
AcDbArc
 50
0.0
 51
90.0000000005987
  0
LINE
  5
2BD
330
1F
100
AcDbEntity
  8
0
 62
     2
100
AcDbLine
 10
61.41019887229371
 20
107.2350630867027
 30
0.0
 11
63.21019886529328
 21
107.2350630993128
 31
0.0
  0
ARC
  5
2BE
330
1F
100
AcDbEntity
  8
0
 62
     2
100
AcDbCircle
 10
61.41019886949155
 20
106.9350630962478
 30
0.0
 40
0.3000000000000114
100
AcDbArc
 50
89.99999999998914
 51
179.9999990633916
  0
LINE
  5
2BF
330
1F
100
AcDbEntity
  8
0
 62
     2
100
AcDbLine
 10
61.11019886949148
 20
106.9350631032536
 30
0.0
 11
61.11019886949154
 21
106.7350597419226
 31
0.0
  0
LINE
  5
2C0
330
1F
100
AcDbEntity
  8
0
 62
     2
100
AcDbLine
 10
81.11019900426314
 20
129.1350553999781
 30
0.0
 11
79.01019900426311
 21
129.1350553999779
 31
0.0
  0
LINE
  5
2C1
330
1F
100
AcDbEntity
  8
0
 62
     2
100
AcDbLine
 10
79.01019894017557
 20
91.23506279576884
 30
0.0
 11
81.11019894017474
 21
91.2350627957696
 31
0.0
  0
LINE
  5
2C2
330
1F
100
AcDbEntity
  8
0
 62
     2
100
AcDbLine
 10
81.11019900257176
 20
128.1350553999628
 30
0.0
 11
81.11019900426314
 21
129.1350553999781
 31
0.0
  0
ARC
  5
2C3
330
1F
100
AcDbEntity
  8
0
 62
     2
100
AcDbCircle
 10
83.11019900257068
 20
128.1350553999628
 30
0.0
 40
1.999999999999952
100
AcDbArc
 50
239.8865556740767
 51
270.000000000136
  0
ARC
  5
2C4
330
1F
100
AcDbEntity
  8
0
 62
     2
100
AcDbCircle
 10
83.11019900257068
 20
128.1350553999628
 30
0.0
 40
1.999999999999943
100
AcDbArc
 50
180.0
 51
239.8865556740773
  0
ARC
  5
2C5
330
1F
100
AcDbEntity
  8
0
 62
     2
100
AcDbCircle
 10
84.11019900257358
 20
128.1350553999619
 30
0.0
 40
1.9999999999998
100
AcDbArc
 50
329.8865557710086
 51
359.9999999033505
  0
ARC
  5
2C6
330
1F
100
AcDbEntity
  8
0
 62
     2
100
AcDbCircle
 10
84.11019900257358
 20
128.1350553999619
 30
0.0
 40
1.999999999999886
100
AcDbArc
 50
269.999999999917
 51
329.8865557710051
  0
LINE
  5
2C7
330
1F
100
AcDbEntity
  8
0
 62
     2
100
AcDbLine
 10
86.11019900426274
 20
129.1350553999788
 30
0.0
 11
86.11019900257222
 21
128.1350553965846
 31
0.0
  0
LINE
  5
2C8
330
1F
100
AcDbEntity
  8
0
 62
     2
100
AcDbLine
 10
74.01019900257236
 20
128.1350553999688
 30
0.0
 11
74.01019900426283
 21
129.1350553999773
 31
0.0
  0
ARC
  5
2C9
330
1F
100
AcDbEntity
  8
0
 62
     2
100
AcDbCircle
 10
76.01019900257151
 20
128.1350553999689
 30
0.0
 40
1.999999999999912
100
AcDbArc
 50
239.8865556741278
 51
270.0000000000067
  0
ARC
  5
2CA
330
1F
100
AcDbEntity
  8
0
 62
     2
100
AcDbCircle
 10
76.01019900257151
 20
128.1350553999689
 30
0.0
 40
1.999999999999886
100
AcDbArc
 50
180.0
 51
239.8865556741296
  0
ARC
  5
2CB
330
1F
100
AcDbEntity
  8
0
 62
     2
100
AcDbCircle
 10
77.01019900257253
 20
128.1350553999669
 30
0.0
 40
1.999999999999781
100
AcDbArc
 50
329.8865557709358
 51
359.9999999030706
  0
ARC
  5
2CC
330
1F
100
AcDbEntity
  8
0
 62
     2
100
AcDbCircle
 10
77.01019900257253
 20
128.1350553999669
 30
0.0
 40
1.999999999999886
100
AcDbArc
 50
270.0000000000603
 51
329.8865557709337
  0
LINE
  5
2CD
330
1F
100
AcDbEntity
  8
0
 62
     2
100
AcDbLine
 10
79.01019900426311
 20
129.1350553999779
 30
0.0
 11
79.01019900257191
 21
128.1350553965841
 31
0.0
  0
LINE
  5
2CE
330
1F
100
AcDbEntity
  8
0
 62
     2
100
AcDbLine
 10
96.61019886948102
 20
106.7350596218717
 30
0.0
 11
99.01019886949197
 21
106.7350596137557
 31
0.0
  0
LINE
  5
2CF
330
1F
100
AcDbEntity
  8
0
 62
     2
100
AcDbLine
 10
61.11019886949154
 20
106.7350597419226
 30
0.0
 11
63.51019886949686
 21
106.7350597338064
 31
0.0
  0
LINE
  5
2D0
330
1F
100
AcDbEntity
  8
0
 62
     2
100
AcDbLine
 10
85.11019894186475
 20
92.2350627940786
 30
0.0
 11
85.11019894068201
 21
91.53506279661602
 31
0.0
  0
ARC
  5
2D1
330
1F
100
AcDbEntity
  8
0
 62
     2
100
AcDbCircle
 10
84.11019894186583
 20
92.23506279576635
 30
0.0
 40
0.9999999999999432
100
AcDbArc
 50
0.0
 51
90.00000009670373
  0
LINE
  5
2D2
330
1F
100
AcDbEntity
  8
0
 62
     2
100
AcDbLine
 10
83.11019894186907
 20
93.23506279576918
 30
0.0
 11
84.1101989418652
 21
93.23506279576931
 31
0.0
  0
ARC
  5
2D3
330
1F
100
AcDbEntity
  8
0
 62
     2
100
AcDbCircle
 10
83.11019894186748
 20
92.23506279576915
 30
0.0
 40
0.9999999999999432
100
AcDbArc
 50
89.99999999999675
 51
179.9999999999967
  0
LINE
  5
2D4
330
1F
100
AcDbEntity
  8
0
 62
     2
100
AcDbLine
 10
82.1101989406819
 20
91.53506279492439
 30
0.0
 11
82.11019894186549
 21
92.23506279745973
 31
0.0
  0
LINE
  5
2D5
330
1F
100
AcDbEntity
  8
0
 62
     2
100
AcDbLine
 10
78.0101989418649
 20
92.235062794082
 30
0.0
 11
78.01019894068256
 21
91.53506279661325
 31
0.0
  0
ARC
  5
2D6
330
1F
100
AcDbEntity
  8
0
 62
     2
100
AcDbCircle
 10
77.01019894186587
 20
92.23506279577404
 30
0.0
 40
0.9999999999998863
100
AcDbArc
 50
0.0
 51
90.00000009695063
  0
LINE
  5
2D7
330
1F
100
AcDbEntity
  8
0
 62
     2
100
AcDbLine
 10
76.01019894186479
 20
93.23506279577416
 30
0.0
 11
77.01019894186592
 21
93.23506279577421
 31
0.0
  0
ARC
  5
2D8
330
1F
100
AcDbEntity
  8
0
 62
     2
100
AcDbCircle
 10
76.01019894186467
 20
92.23506279577421
 30
0.0
 40
0.9999999999999432
100
AcDbArc
 50
90.0
 51
179.9999999999998
  0
LINE
  5
2D9
330
1F
100
AcDbEntity
  8
0
 62
     2
100
AcDbLine
 10
75.01019894068148
 20
91.53506279492139
 30
0.0
 11
75.01019894186564
 21
92.2350627974642
 31
0.0
  0
LINE
  5
2DA
330
1F
100
AcDbEntity
  8
0
 62
     2
100
AcDbLine
 10
82.11019900257165
 20
128.1350553999628
 30
0.0
 11
82.11019900375564
 21
128.8350553991325
 31
0.0
  0
ARC
  5
2DB
330
1F
100
AcDbEntity
  8
0
 62
     2
100
AcDbCircle
 10
83.11019900257068
 20
128.1350553999628
 30
0.0
 40
0.9999999999999432
100
AcDbArc
 50
180.0
 51
270.0000000001366
  0
LINE
  5
2DC
330
1F
100
AcDbEntity
  8
0
 62
     2
100
AcDbLine
 10
84.1101990025721
 20
127.1350553999642
 30
0.0
 11
83.11019900257307
 21
127.1350553999642
 31
0.0
  0
ARC
  5
2DD
330
1F
100
AcDbEntity
  8
0
 62
     2
100
AcDbCircle
 10
84.11019900257358
 20
128.1350553999619
 30
0.0
 40
0.9999999999999432
100
AcDbArc
 50
269.9999999999186
 51
359.9999999033482
  0
LINE
  5
2DE
330
1F
100
AcDbEntity
  8
0
 62
     2
100
AcDbLine
 10
85.1101990037557
 20
128.8350554008239
 30
0.0
 11
85.11019900257227
 21
128.1350553982751
 31
0.0
  0
LINE
  5
2DF
330
1F
100
AcDbEntity
  8
0
 62
     2
100
AcDbLine
 10
75.01019900257225
 20
128.1350553999688
 30
0.0
 11
75.01019900375562
 21
128.8350553991322
 31
0.0
  0
ARC
  5
2E0
330
1F
100
AcDbEntity
  8
0
 62
     2
100
AcDbCircle
 10
76.01019900257151
 20
128.1350553999689
 30
0.0
 40
0.9999999999999432
100
AcDbArc
 50
180.0
 51
270.0000000000085
  0
LINE
  5
2E1
330
1F
100
AcDbEntity
  8
0
 62
     2
100
AcDbLine
 10
77.01019900257356
 20
127.1350553999681
 30
0.0
 11
76.01019900257157
 21
127.1350553999681
 31
0.0
  0
ARC
  5
2E2
330
1F
100
AcDbEntity
  8
0
 62
     2
100
AcDbCircle
 10
77.01019900257253
 20
128.1350553999669
 30
0.0
 40
0.9999999999999432
100
AcDbArc
 50
270.0000000000554
 51
359.9999999030636
  0
LINE
  5
2E3
330
1F
100
AcDbEntity
  8
0
 62
     2
100
AcDbLine
 10
78.01019900375579
 20
128.8350554008234
 30
0.0
 11
78.01019900257197
 21
128.1350553982751
 31
0.0
  0
LINE
  5
2E4
330
1F
100
AcDbEntity
  8
0
 62
     2
100
AcDbLine
 10
96.9101988677904
 20
105.7350596239009
 30
0.0
 11
98.71019886780093
 21
105.735059623901
 31
0.0
  0
LINE
  5
2E5
330
1F
100
AcDbEntity
  8
0
 62
     2
100
AcDbLine
 10
61.4101988678004
 20
105.7350597425991
 30
0.0
 11
63.21019886780547
 21
105.7350597425991
 31
0.0
  0
LINE
  5
2E6
330
1F
100
AcDbEntity
  8
0
 62
     2
100
AcDbLine
 10
77.01019900257458
 20
126.1350553999682
 30
0.0
 11
76.01019900257009
 21
126.1350553999695
 31
0.0
  0
LINE
  5
2E7
330
1F
100
AcDbEntity
  8
0
 62
     2
100
AcDbLine
 10
79.01019900257191
 20
128.1350553965841
 30
0.0
 11
78.01019900257197
 21
128.1350553982751
 31
0.0
  0
LINE
  5
2E8
330
1F
100
AcDbEntity
  8
0
 62
     2
100
AcDbLine
 10
77.01019900257464
 20
126.1350553999669
 30
0.0
 11
77.0101990025735
 21
127.1350553999669
 31
0.0
  0
LINE
  5
2E9
330
1F
100
AcDbEntity
  8
0
 62
     2
100
AcDbLine
 10
76.01019900257009
 20
126.1350553999695
 30
0.0
 11
76.01019900257157
 21
127.1350553999724
 31
0.0
  0
LINE
  5
2EA
330
1F
100
AcDbEntity
  8
0
 62
     2
100
AcDbLine
 10
74.01019900257157
 20
128.1350553999688
 30
0.0
 11
75.01019900257151
 21
128.1350553999688
 31
0.0
  0
LINE
  5
2EB
330
1F
100
AcDbEntity
  8
0
 62
     2
100
AcDbLine
 10
84.11019900257068
 20
126.1350553999643
 30
0.0
 11
83.11019900257227
 21
126.1350553999649
 31
0.0
  0
LINE
  5
2EC
330
1F
100
AcDbEntity
  8
0
 62
     2
100
AcDbLine
 10
86.11019900257222
 20
128.1350553965846
 30
0.0
 11
85.11019900257227
 21
128.1350553982751
 31
0.0
  0
LINE
  5
2ED
330
1F
100
AcDbEntity
  8
0
 62
     2
100
AcDbLine
 10
84.11019900257068
 20
126.135055399962
 30
0.0
 11
84.11019900257216
 21
127.1350553999619
 31
0.0
  0
LINE
  5
2EE
330
1F
100
AcDbEntity
  8
0
 62
     2
100
AcDbLine
 10
83.11019900257227
 20
126.1350553999649
 30
0.0
 11
83.11019900257301
 21
127.1350553999663
 31
0.0
  0
LINE
  5
2EF
330
1F
100
AcDbEntity
  8
0
 62
     2
100
AcDbLine
 10
81.1101990025708
 20
128.1350553999627
 30
0.0
 11
82.1101990025708
 21
128.1350553999628
 31
0.0
  0
ARC
  5
2F0
330
1F
100
AcDbEntity
  8
0
 62
     2
100
AcDbCircle
 10
98.71019886949202
 20
106.9350635825775
 30
0.0
 40
0.499999999999945
100
AcDbArc
 50
0.0000049045561969
 51
89.99999995167767
  0
ARC
  5
2F1
330
1F
100
AcDbEntity
  8
0
 62
     2
100
AcDbCircle
 10
98.71019886949327
 20
113.4904338481138
 30
0.0
 40
0.4999999999999716
100
AcDbArc
 50
270.0000000000847
 51
0.0000000000488533
  0
ARC
  5
2F2
330
1F
100
AcDbEntity
  8
0
 62
     2
100
AcDbCircle
 10
98.71019886949037
 20
98.7904338740079
 30
0.0
 40
0.5
100
AcDbArc
 50
0.0
 51
90.00000000000773
  0
ARC
  5
2F3
330
1F
100
AcDbEntity
  8
0
 62
     2
100
AcDbCircle
 10
64.78120545398323
 20
91.53506279576354
 30
0.0
 40
0.4999999999999716
100
AcDbArc
 50
270.0
 51
359.9999999999951
  0
ARC
  5
2F4
330
1F
100
AcDbEntity
  8
0
 62
     2
100
AcDbCircle
 10
61.41019886948757
 20
95.99043376722571
 30
0.0
 40
0.4999999999999716
100
AcDbArc
 50
89.99999999998046
 51
180.0000000001187
  0
ARC
  5
2F5
330
1F
100
AcDbEntity
  8
0
 62
     2
100
AcDbCircle
 10
61.41019886949155
 20
106.9350630962478
 30
0.0
 40
0.4999999999999716
100
AcDbArc
 50
90.00000040138538
 51
179.9999991971926
  0
ARC
  5
2F6
330
1F
100
AcDbEntity
  8
0
 62
     2
100
AcDbCircle
 10
61.410198869494
 20
113.4904338481131
 30
0.0
 40
0.5
100
AcDbArc
 50
180.0
 51
269.9999999996604
  0
LINE
  5
2F7
330
1F
100
AcDbEntity
  8
0
 62
     2
100
AcDbLine
 10
60.91019886949161
 20
106.9350631032535
 30
0.0
 11
61.11019886949148
 21
106.9350631032536
 31
0.0
  0
LINE
  5
2F8
330
1F
100
AcDbEntity
  8
0
 62
     2
100
AcDbLine
 10
61.41019886248594
 20
107.4350630962478
 30
0.0
 11
61.41019887089274
 21
107.2350630962478
 31
0.0
  0
LINE
  5
2F9
330
1F
100
AcDbEntity
  8
0
 62
     2
100
AcDbLine
 10
63.21019886249107
 20
107.4350630962479
 30
0.0
 11
63.21019886529328
 21
107.2350630993128
 31
0.0
  0
LINE
  5
2FA
330
1F
100
AcDbEntity
  8
0
 62
     2
100
AcDbLine
 10
63.71019886949935
 20
106.9350631284689
 30
0.0
 11
63.51019886949948
 21
106.9350631284711
 31
0.0
  0
LINE
  5
2FB
330
1F
100
AcDbEntity
  8
0
 62
     2
100
AcDbLine
 10
99.01019886949203
 20
106.9350636257996
 30
0.0
 11
99.21019886949196
 21
106.9350636257995
 31
0.0
  0
LINE
  5
2FC
330
1F
100
AcDbEntity
  8
0
 62
     2
100
AcDbLine
 10
98.71019886248845
 20
107.4350635825774
 30
0.0
 11
98.71019883296506
 21
107.2350635814079
 31
0.0
  0
LINE
  5
2FD
330
1F
100
AcDbEntity
  8
0
 62
     2
100
AcDbLine
 10
96.91019886525501
 20
107.2350635875424
 30
0.0
 11
96.91019886245365
 21
107.4350636005865
 31
0.0
  0
LINE
  5
2FE
330
1F
100
AcDbEntity
  8
0
 62
     2
100
AcDbLine
 10
96.41019886948104
 20
106.9350636005882
 30
0.0
 11
96.61019886948097
 21
106.9350636005882
 31
0.0
  0
LINE
  5
2FF
330
1F
100
AcDbEntity
  8
0
 62
     2
100
AcDbLine
 10
76.01019894186479
 20
94.23506279577411
 30
0.0
 11
77.0101989418661
 21
94.23506279577394
 31
0.0
  0
LINE
  5
300
330
1F
100
AcDbEntity
  8
0
 62
     2
100
AcDbLine
 10
74.01019894186558
 20
92.23506279575572
 30
0.0
 11
75.01019894186553
 21
92.23506279575577
 31
0.0
  0
LINE
  5
301
330
1F
100
AcDbEntity
  8
0
 62
     2
100
AcDbLine
 10
76.01019894186479
 20
94.23506279577411
 30
0.0
 11
76.01019894186479
 21
93.23506279577416
 31
0.0
  0
LINE
  5
302
330
1F
100
AcDbEntity
  8
0
 62
     2
100
AcDbLine
 10
77.0101989418661
 20
94.23506279577394
 30
0.0
 11
77.01019894186581
 21
93.23506279577347
 31
0.0
  0
LINE
  5
303
330
1F
100
AcDbEntity
  8
0
 62
     2
100
AcDbLine
 10
79.01019894186575
 20
92.23506279238993
 30
0.0
 11
78.01019894186575
 21
92.23506279408201
 31
0.0
  0
LINE
  5
304
330
1F
100
AcDbEntity
  8
0
 62
     2
100
AcDbLine
 10
83.11019894187083
 20
94.23506279576912
 30
0.0
 11
84.11019894186407
 21
94.23506279577046
 31
0.0
  0
LINE
  5
305
330
1F
100
AcDbEntity
  8
0
 62
     2
100
AcDbLine
 10
81.11019894186555
 20
92.23506279575187
 30
0.0
 11
82.11019894186549
 21
92.23506279575194
 31
0.0
  0
LINE
  5
306
330
1F
100
AcDbEntity
  8
0
 62
     2
100
AcDbLine
 10
83.11019894187083
 20
94.23506279576901
 30
0.0
 11
83.11019894186913
 21
93.2350627957691
 31
0.0
  0
LINE
  5
307
330
1F
100
AcDbEntity
  8
0
 62
     2
100
AcDbLine
 10
84.11019894186407
 20
94.23506279577046
 30
0.0
 11
84.11019894186532
 21
93.23506279577325
 31
0.0
  0
LINE
  5
308
330
1F
100
AcDbEntity
  8
0
 62
     2
100
AcDbLine
 10
86.1101989418656
 20
92.2350627923909
 30
0.0
 11
85.11019894186572
 21
92.23506279407867
 31
0.0
  0
LINE
  5
309
330
1F
100
AcDbEntity
  8
0
 62
     2
100
AcDbLine
 10
62.55982478979811
 20
94.9092230670902
 30
0.0
 11
62.64928294314925
 21
94.73034534684808
 31
0.0
  0
LINE
  5
30A
330
1F
100
AcDbEntity
  8
0
 62
     2
100
AcDbLine
 10
61.77857332954036
 20
94.29489662783996
 30
0.0
 11
61.68911517618935
 21
94.47377434808207
 31
0.0
  0
LINE
  5
30B
330
1F
100
AcDbEntity
  8
0
 62
     2
100
AcDbLine
 10
60.91019886948717
 20
94.83152978856619
 30
0.0
 11
61.11019886948716
 21
94.8315297885662
 31
0.0
  0
LINE
  5
30C
330
1F
100
AcDbEntity
  8
0
 62
     2
100
AcDbLine
 10
60.91019886948757
 20
95.99043376722449
 30
0.0
 11
61.11019886948756
 21
95.99043376722443
 31
0.0
  0
LINE
  5
30D
330
1F
100
AcDbEntity
  8
0
 62
     2
100
AcDbLine
 10
61.41019886948837
 20
96.49043376722565
 30
0.0
 11
61.41019886948712
 21
96.2904337672257
 31
0.0
  0
LINE
  5
30E
330
1F
100
AcDbEntity
  8
0
 62
     2
100
AcDbLine
 10
64.28120545398346
 20
96.49043376722526
 30
0.0
 11
64.281205453983
 21
96.29043376722439
 31
0.0
  0
LINE
  5
30F
330
1F
100
AcDbEntity
  8
0
 62
     2
100
AcDbLine
 10
65.28120545398005
 20
95.49043376722103
 30
0.0
 11
65.08120545398006
 21
95.49043376722108
 31
0.0
  0
LINE
  5
310
330
1F
100
AcDbEntity
  8
0
 62
     2
100
AcDbLine
 10
65.28120545398329
 20
91.53506279576364
 30
0.0
 11
65.08120545398319
 21
91.53506279576361
 31
0.0
  0
LINE
  5
311
330
1F
100
AcDbEntity
  8
0
 62
     2
100
AcDbLine
 10
64.78120545398318
 20
91.03506279576352
 30
0.0
 11
64.78120545398329
 21
91.23506279576345
 31
0.0
  0
LINE
  5
312
330
1F
100
AcDbEntity
  8
0
 62
     2
100
AcDbLine
 10
64.7257805610582
 20
91.03506279576551
 30
0.0
 11
64.7257805610582
 21
91.2350627957635
 31
0.0
  0
LINE
  5
313
330
1F
100
AcDbEntity
  8
0
 62
     2
100
AcDbLine
 10
64.18914744934031
 20
91.90343735381254
 30
0.0
 11
64.36802515324635
 21
91.8139791677962
 31
0.0
  0
LINE
  5
314
330
1F
100
AcDbEntity
  8
0
 62
     2
100
AcDbLine
 10
64.61375216714438
 20
92.75246325485763
 30
0.0
 11
64.79262987105031
 21
92.66300506884124
 31
0.0
  0
LINE
  5
315
330
1F
100
AcDbEntity
  8
0
 62
     2
100
AcDbLine
 10
63.12577742702021
 20
94.93588938001824
 30
0.0
 11
63.05353482687926
 21
94.74939271322528
 31
0.0
  0
LINE
  5
316
330
1F
100
AcDbEntity
  8
0
 62
     2
100
AcDbLine
 10
64.82186954413785
 20
93.22221166325545
 30
0.0
 11
64.63463764792132
 21
93.15189653658203
 31
0.0
  0
LINE
  5
317
330
1F
100
AcDbEntity
  8
0
 62
     2
100
AcDbLine
 10
64.70667127371675
 20
129.1350553999761
 30
0.0
 11
64.70667127371664
 21
129.3350553999768
 31
0.0
  0
LINE
  5
318
330
1F
100
AcDbEntity
  8
0
 62
     2
100
AcDbLine
 10
64.17003811299057
 20
128.4666809399228
 30
0.0
 11
64.34891583323255
 21
128.5561390932739
 31
0.0
  0
LINE
  5
319
330
1F
100
AcDbEntity
  8
0
 62
     2
100
AcDbLine
 10
64.78436236147186
 20
127.6854338602576
 30
0.0
 11
64.60548464122971
 21
127.5959757069065
 31
0.0
  0
LINE
  5
31A
330
1F
100
AcDbEntity
  8
0
 62
     2
100
AcDbLine
 10
64.81102867439986
 20
127.1194812230356
 30
0.0
 11
64.62453200760686
 21
127.1917238231765
 31
0.0
  0
LINE
  5
31B
330
1F
100
AcDbEntity
  8
0
 62
     2
100
AcDbLine
 10
63.09735095763696
 20
125.4233891059177
 30
0.0
 11
63.02703583096357
 21
125.6106210021344
 31
0.0
  0
LINE
  5
31C
330
1F
100
AcDbEntity
  8
0
 62
     2
100
AcDbLine
 10
62.5381443632227
 20
125.4526287790054
 30
0.0
 11
62.62760254923907
 21
125.6315064829112
 31
0.0
  0
LINE
  5
31D
330
1F
100
AcDbEntity
  8
0
 62
     2
100
AcDbLine
 10
61.6891152415308
 20
125.8772351074808
 30
0.0
 11
61.77857342754712
 21
126.0561128113867
 31
0.0
  0
LINE
  5
31E
330
1F
100
AcDbEntity
  8
0
 62
     2
100
AcDbLine
 10
60.91019886949826
 20
125.519479699669
 30
0.0
 11
61.11019886949825
 21
125.5194796996689
 31
0.0
  0
LINE
  5
31F
330
1F
100
AcDbEntity
  8
0
 62
     2
100
AcDbLine
 10
61.11019886949393
 20
113.4904338481107
 30
0.0
 11
60.91019886949388
 21
113.4904338481108
 31
0.0
  0
LINE
  5
320
330
1F
100
AcDbEntity
  8
0
 62
     2
100
AcDbLine
 10
61.41019886949456
 20
112.9904338481132
 30
0.0
 11
61.41019886949627
 21
113.1904338481131
 31
0.0
  0
LINE
  5
321
330
1F
100
AcDbEntity
  8
0
 62
     2
100
AcDbLine
 10
63.31019886949744
 20
113.1904338481145
 30
0.0
 11
63.31019886949773
 21
112.9904338481132
 31
0.0
  0
LINE
  5
322
330
1F
100
AcDbEntity
  8
0
 62
     2
100
AcDbLine
 10
63.81019886949392
 20
113.4904338481046
 30
0.0
 11
63.61019886949387
 21
113.4904338481051
 31
0.0
  0
LINE
  5
323
330
1F
100
AcDbEntity
  8
0
 62
     2
100
AcDbLine
 10
63.61019886949757
 20
122.9350555690696
 30
0.0
 11
63.81019886949755
 21
122.9350555690696
 31
0.0
  0
LINE
  5
324
330
1F
100
AcDbEntity
  8
0
 62
     2
100
AcDbLine
 10
66.81019886950125
 20
126.135055569066
 30
0.0
 11
66.81019886950102
 21
125.9350555690661
 31
0.0
  0
LINE
  5
325
330
1F
100
AcDbEntity
  8
0
 62
     2
100
AcDbLine
 10
93.3101988694934
 20
126.1350555690669
 30
0.0
 11
93.3101988694934
 21
125.935055569067
 31
0.0
  0
LINE
  5
326
330
1F
100
AcDbEntity
  8
0
 62
     2
100
AcDbLine
 10
96.51019886949453
 20
122.9350555690677
 30
0.0
 11
96.31019886949454
 21
122.9350555690677
 31
0.0
  0
LINE
  5
327
330
1F
100
AcDbEntity
  8
0
 62
     2
100
AcDbLine
 10
96.51019886949203
 20
113.4904338481096
 30
0.0
 11
96.31019886949198
 21
113.4904338481096
 31
0.0
  0
LINE
  5
328
330
1F
100
AcDbEntity
  8
0
 62
     2
100
AcDbLine
 10
96.81019886950699
 20
112.9904338481075
 30
0.0
 11
96.81019886950148
 21
113.1904338481075
 31
0.0
  0
LINE
  5
329
330
1F
100
AcDbEntity
  8
0
 62
     2
100
AcDbLine
 10
98.71019886949367
 20
113.1904338481164
 30
0.0
 11
98.71019886949401
 21
112.9904338481153
 31
0.0
  0
LINE
  5
32A
330
1F
100
AcDbEntity
  8
0
 62
     2
100
AcDbLine
 10
99.21019886949327
 20
113.4904338481139
 30
0.0
 11
99.01019886949328
 21
113.4904338481142
 31
0.0
  0
LINE
  5
32B
330
1F
100
AcDbEntity
  8
0
 62
     2
100
AcDbLine
 10
99.0101988694955
 20
125.5385894643622
 30
0.0
 11
99.21019886949554
 21
125.5385894643622
 31
0.0
  0
LINE
  5
32C
330
1F
100
AcDbEntity
  8
0
 62
     2
100
AcDbLine
 10
98.34182440944213
 20
126.0752226250885
 30
0.0
 11
98.43128256279331
 21
125.8963449048464
 31
0.0
  0
LINE
  5
32D
330
1F
100
AcDbEntity
  8
0
 62
     2
100
AcDbLine
 10
97.56057315463917
 20
125.4608962885877
 30
0.0
 11
97.4711150012881
 21
125.6397740088298
 31
0.0
  0
LINE
  5
32E
330
1F
100
AcDbEntity
  8
0
 62
     2
100
AcDbLine
 10
96.99462051741708
 20
125.4342299756597
 30
0.0
 11
97.06686311755803
 21
125.6207266424526
 31
0.0
  0
LINE
  5
32F
330
1F
100
AcDbEntity
  8
0
 62
     2
100
AcDbLine
 10
95.29852840029938
 20
127.1479076924224
 30
0.0
 11
95.48576029651608
 21
127.2182228190958
 31
0.0
  0
LINE
  5
330
330
1F
100
AcDbEntity
  8
0
 62
     2
100
AcDbLine
 10
95.32776807338703
 20
127.7071142868366
 30
0.0
 11
95.50664577729302
 21
127.6176561008202
 31
0.0
  0
LINE
  5
331
330
1F
100
AcDbEntity
  8
0
 62
     2
100
AcDbLine
 10
95.75237221109833
 20
128.5561390279473
 30
0.0
 11
95.93124991500437
 21
128.466680841931
 31
0.0
  0
LINE
  5
332
330
1F
100
AcDbEntity
  8
0
 62
     2
100
AcDbLine
 10
95.39461680328648
 20
129.3350553999799
 30
0.0
 11
95.39461680328654
 21
129.1350553999799
 31
0.0
  0
LINE
  5
333
330
1F
100
AcDbEntity
  8
0
 62
     2
100
AcDbLine
 10
95.41372725080927
 20
91.23506279577495
 30
0.0
 11
95.41372725080922
 21
91.03506279577212
 31
0.0
  0
LINE
  5
334
330
1F
100
AcDbEntity
  8
0
 62
     2
100
AcDbLine
 10
95.95036041153534
 20
91.9034372558283
 30
0.0
 11
95.77148269129319
 21
91.81397910247716
 31
0.0
  0
LINE
  5
335
330
1F
100
AcDbEntity
  8
0
 62
     2
100
AcDbLine
 10
95.33603558296537
 20
92.68468549542027
 30
0.0
 11
95.51491330320752
 21
92.77414364877139
 31
0.0
  0
LINE
  5
336
330
1F
100
AcDbEntity
  8
0
 62
     2
100
AcDbLine
 10
95.30936927003737
 20
93.25063813264211
 30
0.0
 11
95.49586593683043
 21
93.17839553250127
 31
0.0
  0
LINE
  5
337
330
1F
100
AcDbEntity
  8
0
 62
     2
100
AcDbLine
 10
97.02304698680038
 20
94.9467302497602
 30
0.0
 11
97.09336211347377
 21
94.75949835354349
 31
0.0
  0
LINE
  5
338
330
1F
100
AcDbEntity
  8
0
 62
     2
100
AcDbLine
 10
97.58225358121476
 20
94.91749057667255
 30
0.0
 11
97.49279539519839
 21
94.73861287276662
 31
0.0
  0
LINE
  5
339
330
1F
100
AcDbEntity
  8
0
 62
     2
100
AcDbLine
 10
98.43128249745703
 20
94.49288435094405
 30
0.0
 11
98.34182431144072
 21
94.31400664703813
 31
0.0
  0
LINE
  5
33A
330
1F
100
AcDbEntity
  8
0
 62
     2
100
AcDbLine
 10
99.21019886948974
 20
94.8506397587559
 30
0.0
 11
99.01019886948976
 21
94.85063975875595
 31
0.0
  0
LINE
  5
33B
330
1F
100
AcDbEntity
  8
0
 62
     2
100
AcDbLine
 10
99.01019886949044
 20
98.79043387400783
 30
0.0
 11
99.21019886949043
 21
98.79043387400785
 31
0.0
  0
LINE
  5
33C
330
1F
100
AcDbEntity
  8
0
 62
     2
100
AcDbLine
 10
98.71019886949009
 20
99.29043387400785
 30
0.0
 11
98.7101988694902
 21
99.09043387400786
 31
0.0
  0
LINE
  5
33D
330
1F
100
AcDbEntity
  8
0
 62
     2
100
AcDbLine
 10
96.81019886947726
 20
99.09043387400546
 30
0.0
 11
96.81019886947715
 21
99.29043387400623
 31
0.0
  0
LINE
  5
33E
330
1F
100
AcDbEntity
  8
0
 62
     2
100
AcDbLine
 10
96.31019886948783
 20
98.79043387400247
 30
0.0
 11
96.51019886948782
 21
98.79043387400247
 31
0.0
  0
LINE
  5
33F
330
1F
100
AcDbEntity
  8
0
 62
     2
100
AcDbLine
 10
96.51019886949311
 20
97.43506296487558
 30
0.0
 11
96.31019886949312
 21
97.43506296487485
 31
0.0
  0
LINE
  5
340
330
1F
100
AcDbEntity
  8
0
 62
     2
100
AcDbLine
 10
93.31019886949039
 20
94.23506296486119
 30
0.0
 11
93.31019886949056
 21
94.43506296486122
 31
0.0
  0
LINE
  5
341
330
1F
100
AcDbEntity
  8
0
 62
     2
100
AcDbLine
 10
74.18120545399435
 20
94.23506296485755
 30
0.0
 11
74.18120545399424
 21
94.43506296485798
 31
0.0
  0
LINE
  5
342
330
1F
100
AcDbEntity
  8
0
 62
     2
100
AcDbLine
 10
73.6812054539952
 20
93.93506296485725
 30
0.0
 11
73.8812054539952
 21
93.93506296485731
 31
0.0
  0
ARC
  5
343
330
1F
100
AcDbEntity
  8
0
 62
     2
100
AcDbCircle
 10
98.06019891389829
 20
238.6850602347535
 30
0.0
 40
2.749999999999994
100
AcDbArc
 50
234.9261479972945
 51
270.000000193163
  0
ARC
  5
344
330
1F
100
AcDbEntity
  8
0
 62
     2
100
AcDbCircle
 10
98.06019891389829
 20
238.6850602347535
 30
0.0
 40
2.749999999999829
100
AcDbArc
 50
180.0
 51
234.9261480944094
  0
LINE
  5
345
330
1F
100
AcDbEntity
  8
0
 62
     2
100
AcDbLine
 10
99.81019878073377
 20
235.9350602406694
 30
0.0
 11
98.06019892318531
 21
235.9350602347534
 31
0.0
  0
LINE
  5
346
330
1F
100
AcDbEntity
  8
0
 62
     2
100
AcDbLine
 10
99.81019878073877
 20
205.4350603218329
 30
0.0
 11
99.81019878074048
 21
235.9350602406761
 31
0.0
  0
LINE
  5
347
330
1F
100
AcDbEntity
  8
0
 62
     2
100
AcDbLine
 10
100.3101987807387
 20
204.9350603235233
 30
0.0
 11
100.3101987807405
 21
236.4350602423663
 31
0.0
  0
LINE
  5
348
330
1F
100
AcDbEntity
  8
0
 62
     2
100
AcDbLine
 10
98.06019884371355
 20
205.4350602347621
 30
0.0
 11
99.81019886189333
 21
205.4350602406783
 31
0.0
  0
ARC
  5
349
330
1F
100
AcDbEntity
  8
0
 62
     2
100
AcDbCircle
 10
98.06019885302342
 20
202.6850602347593
 30
0.0
 40
2.749999999999738
100
AcDbArc
 50
144.926147706751
 51
179.999999902769
  0
ARC
  5
34A
330
1F
100
AcDbEntity
  8
0
 62
     2
100
AcDbCircle
 10
98.06019885302342
 20
202.6850602347593
 30
0.0
 40
2.749999999999829
100
AcDbArc
 50
90.00000019396958
 51
144.9261477067447
  0
LINE
  5
34B
330
1F
100
AcDbEntity
  8
0
 62
     2
100
AcDbLine
 10
95.31019885006523
 20
200.9350638717815
 30
0.0
 11
95.31019885302348
 21
202.6850602394142
 31
0.0
  0
LINE
  5
34C
330
1F
100
AcDbEntity
  8
0
 62
     2
100
AcDbLine
 10
64.81020259615107
 20
200.9350638717814
 30
0.0
 11
95.31019885006364
 21
200.9350638717831
 31
0.0
  0
LINE
  5
34D
330
1F
100
AcDbEntity
  8
0
 62
     2
100
AcDbLine
 10
64.3102025953057
 20
200.4350638717814
 30
0.0
 11
95.81019884921844
 21
200.4350638717832
 31
0.0
  0
LINE
  5
34E
330
1F
100
AcDbEntity
  8
0
 62
     2
100
AcDbLine
 10
64.81019885302848
 20
202.6850601083692
 30
0.0
 11
64.81019885006944
 21
200.9350601256998
 31
0.0
  0
ARC
  5
34F
330
1F
100
AcDbEntity
  8
0
 62
     2
100
AcDbCircle
 10
62.06019885302985
 20
202.6850601130148
 30
0.0
 40
2.749999999999963
100
AcDbArc
 50
54.92614799733459
 51
89.99999999999962
  0
ARC
  5
350
330
1F
100
AcDbEntity
  8
0
 62
     2
100
AcDbCircle
 10
62.06019885302985
 20
202.6850601130148
 30
0.0
 40
2.749999999999829
100
AcDbArc
 50
0.0
 51
54.92614809412689
  0
LINE
  5
351
330
1F
100
AcDbEntity
  8
0
 62
     2
100
AcDbLine
 10
60.31019878074224
 20
205.4350601070951
 30
0.0
 11
62.06019884373191
 21
205.4350601130137
 31
0.0
  0
LINE
  5
352
330
1F
100
AcDbEntity
  8
0
 62
     2
100
AcDbLine
 10
60.3101987807448
 20
235.9350602313771
 30
0.0
 11
60.31019878074309
 21
205.435060107096
 31
0.0
  0
LINE
  5
353
330
1F
100
AcDbEntity
  8
0
 62
     2
100
AcDbLine
 10
59.81019878074486
 20
236.4350602296862
 30
0.0
 11
59.81019878074304
 21
204.935060105405
 31
0.0
  0
LINE
  5
354
330
1F
100
AcDbEntity
  8
0
 62
     2
100
AcDbLine
 10
62.06019892321089
 20
235.9350601130087
 30
0.0
 11
60.31019890503134
 21
235.9350601070905
 31
0.0
  0
ARC
  5
355
330
1F
100
AcDbEntity
  8
0
 62
     2
100
AcDbCircle
 10
62.0601989139054
 20
238.6850601130073
 30
0.0
 40
2.749999999999685
100
AcDbArc
 50
324.926147706701
 51
359.9999999032229
  0
ARC
  5
356
330
1F
100
AcDbEntity
  8
0
 62
     2
100
AcDbCircle
 10
62.0601989139054
 20
238.6850601130073
 30
0.0
 40
2.749999999999886
100
AcDbArc
 50
270.0000001938783
 51
324.9261477066971
  0
LINE
  5
357
330
1F
100
AcDbEntity
  8
0
 62
     2
100
AcDbLine
 10
64.81019891686415
 20
240.4350564759849
 30
0.0
 11
64.81019891390494
 21
238.6850601083592
 31
0.0
  0
LINE
  5
358
330
1F
100
AcDbEntity
  8
0
 62
     2
100
AcDbLine
 10
95.31019517077587
 20
240.4350564759856
 30
0.0
 11
64.81019891686512
 21
240.4350564759839
 31
0.0
  0
LINE
  5
359
330
1F
100
AcDbEntity
  8
0
 62
     2
100
AcDbLine
 10
95.81019517162113
 20
240.9350564759856
 30
0.0
 11
64.31019891771066
 21
240.9350564759838
 31
0.0
  0
LINE
  5
35A
330
1F
100
AcDbEntity
  8
0
 62
     2
100
AcDbLine
 10
95.31019891389869
 20
238.6850602393979
 30
0.0
 11
95.31019891685727
 21
240.4350602220669
 31
0.0
  0
CIRCLE
  5
35B
330
1F
100
AcDbEntity
  8
0
 62
     2
100
AcDbCircle
 10
90.9821987212355
 20
213.3796860036142
 30
0.0
 40
3.999999999999773
  0
CIRCLE
  5
35C
330
1F
100
AcDbEntity
  8
0
 62
     2
100
AcDbCircle
 10
69.48120536522995
 20
236.4096859445721
 30
0.0
 40
2.599999999999852
  0
ARC
  5
35D
330
1F
100
AcDbEntity
  8
0
 62
     2
100
AcDbCircle
 10
63.24819900494398
 20
230.92968597772
 30
0.0
 40
0.4999999999999432
100
AcDbArc
 50
89.99999999999349
 51
179.9999999999935
  0
LINE
  5
35E
330
1F
100
AcDbEntity
  8
0
 62
     2
100
AcDbLine
 10
62.74819900494398
 20
230.9296859777245
 30
0.0
 11
62.74819900493267
 21
229.6796859777254
 31
0.0
  0
ARC
  5
35F
330
1F
100
AcDbEntity
  8
0
 62
     2
100
AcDbCircle
 10
63.24819900493273
 20
229.6796859777209
 30
0.0
 40
0.5
100
AcDbArc
 50
180.0
 51
269.999999999965
  0
LINE
  5
360
330
1F
100
AcDbEntity
  8
0
 62
     2
100
AcDbLine
 10
63.24819900493233
 20
229.1796859777209
 30
0.0
 11
69.94819900493272
 21
229.1796859777213
 31
0.0
  0
ARC
  5
361
330
1F
100
AcDbEntity
  8
0
 62
     2
100
AcDbCircle
 10
69.94819900493312
 20
229.6796859777172
 30
0.0
 40
0.5
100
AcDbArc
 50
269.9999999999544
 51
0.0000000000639164
  0
LINE
  5
362
330
1F
100
AcDbEntity
  8
0
 62
     2
100
AcDbLine
 10
70.44819900493312
 20
229.6796859777178
 30
0.0
 11
70.44819900493152
 21
230.9296859777179
 31
0.0
  0
ARC
  5
363
330
1F
100
AcDbEntity
  8
0
 62
     2
100
AcDbCircle
 10
69.94819900493152
 20
230.9296859777171
 30
0.0
 40
0.5
100
AcDbArc
 50
0.0
 51
89.9999999999249
  0
LINE
  5
364
330
1F
100
AcDbEntity
  8
0
 62
     2
100
AcDbLine
 10
69.94819900493187
 20
231.4296859777171
 30
0.0
 11
63.24819900494427
 21
231.4296859777167
 31
0.0
  0
LINE
  5
365
330
1F
100
AcDbEntity
  8
0
 62
     2
100
AcDbLine
 10
66.60521449893614
 20
219.4296859777149
 30
0.0
 11
66.605214498935
 21
206.5796859777176
 31
0.0
  0
ARC
  5
366
330
1F
100
AcDbEntity
  8
0
 62
     2
100
AcDbCircle
 10
67.105214498935
 20
206.5796859777177
 30
0.0
 40
0.5
100
AcDbArc
 50
180.0
 51
270.0000000018923
  0
LINE
  5
367
330
1F
100
AcDbEntity
  8
0
 62
     2
100
AcDbLine
 10
67.10521449895143
 20
206.0796859777185
 30
0.0
 11
82.85518351094558
 21
206.0796859777194
 31
0.0
  0
ARC
  5
368
330
1F
100
AcDbEntity
  8
0
 62
     2
100
AcDbCircle
 10
82.85518351093415
 20
206.5796859777202
 30
0.0
 40
0.4999999999999432
100
AcDbArc
 50
270.0000000013093
 51
0.0000000000065138
  0
LINE
  5
369
330
1F
100
AcDbEntity
  8
0
 62
     2
100
AcDbLine
 10
83.35518351093415
 20
206.5796859777202
 30
0.0
 11
83.35518351093666
 21
219.4296859777135
 31
0.0
  0
ARC
  5
36A
330
1F
100
AcDbEntity
  8
0
 62
     2
100
AcDbCircle
 10
82.85518351093666
 20
219.4296859777135
 30
0.0
 40
0.5
100
AcDbArc
 50
0.0
 51
90.00000000130275
  0
LINE
  5
36B
330
1F
100
AcDbEntity
  8
0
 62
     2
100
AcDbLine
 10
82.85518351091727
 20
219.9296859777116
 30
0.0
 11
81.9801990049452
 21
219.9296859777115
 31
0.0
  0
ARC
  5
36C
330
1F
100
AcDbEntity
  8
0
 62
     2
100
AcDbCircle
 10
81.98019900492969
 20
220.4296859776971
 30
0.0
 40
0.4999999999999432
100
AcDbArc
 50
180.0
 51
270.0000000017848
  0
LINE
  5
36D
330
1F
100
AcDbEntity
  8
0
 62
     2
100
AcDbLine
 10
81.48019900492974
 20
220.4296859776971
 30
0.0
 11
81.4801990049402
 21
221.1796859777197
 31
0.0
  0
ARC
  5
36E
330
1F
100
AcDbEntity
  8
0
 62
     2
100
AcDbCircle
 10
80.9801990049402
 20
221.1796859777197
 30
0.0
 40
0.5
100
AcDbArc
 50
0.0
 51
90.00000000009119
  0
LINE
  5
36F
330
1F
100
AcDbEntity
  8
0
 62
     2
100
AcDbLine
 10
80.98019900494026
 20
221.6796859777197
 30
0.0
 11
68.98019900492406
 21
221.679685977719
 31
0.0
  0
ARC
  5
370
330
1F
100
AcDbEntity
  8
0
 62
     2
100
AcDbCircle
 10
68.980199004924
 20
221.1796859777204
 30
0.0
 40
0.5
100
AcDbArc
 50
90.00000000069046
 51
179.9999999999903
  0
LINE
  5
371
330
1F
100
AcDbEntity
  8
0
 62
     2
100
AcDbLine
 10
68.48019900492406
 20
221.1796859777204
 30
0.0
 11
68.48019900494526
 21
220.4296859777205
 31
0.0
  0
ARC
  5
372
330
1F
100
AcDbEntity
  8
0
 62
     2
100
AcDbCircle
 10
67.98019900494526
 20
220.4296859777205
 30
0.0
 40
0.5
100
AcDbArc
 50
270.000000000938
 51
0.0000000027813823
  0
LINE
  5
373
330
1F
100
AcDbEntity
  8
0
 62
     2
100
AcDbLine
 10
67.98019900495345
 20
219.9296859777215
 30
0.0
 11
67.10521449893625
 21
219.9296859777215
 31
0.0
  0
ARC
  5
374
330
1F
100
AcDbEntity
  8
0
 62
     2
100
AcDbCircle
 10
67.10521449893614
 20
219.4296859777149
 30
0.0
 40
0.5
100
AcDbArc
 50
90.0
 51
180.0
  0
ARC
  5
375
330
1F
100
AcDbEntity
  8
0
 62
     2
100
AcDbCircle
 10
71.63019900494461
 20
224.72968597772
 30
0.0
 40
0.4999999999999432
100
AcDbArc
 50
90.0
 51
180.0
  0
LINE
  5
376
330
1F
100
AcDbEntity
  8
0
 62
     2
100
AcDbLine
 10
71.13019900494467
 20
224.7296859777245
 30
0.0
 11
71.13019900493342
 21
223.4796859777254
 31
0.0
  0
ARC
  5
377
330
1F
100
AcDbEntity
  8
0
 62
     2
100
AcDbCircle
 10
71.6301990049333
 20
223.479685977721
 30
0.0
 40
0.4999999999999432
100
AcDbArc
 50
180.0
 51
269.9999999999648
  0
LINE
  5
378
330
1F
100
AcDbEntity
  8
0
 62
     2
100
AcDbLine
 10
71.63019900493296
 20
222.9796859777211
 30
0.0
 11
78.3301990049334
 21
222.9796859777215
 31
0.0
  0
ARC
  5
379
330
1F
100
AcDbEntity
  8
0
 62
     2
100
AcDbCircle
 10
78.3301990049338
 20
223.4796859777173
 30
0.0
 40
0.4999999999999432
100
AcDbArc
 50
269.9999999999544
 51
0.0000000000640182
  0
LINE
  5
37A
330
1F
100
AcDbEntity
  8
0
 62
     2
100
AcDbLine
 10
78.83019900493375
 20
223.4796859777179
 30
0.0
 11
78.83019900493215
 21
224.7296859777179
 31
0.0
  0
ARC
  5
37B
330
1F
100
AcDbEntity
  8
0
 62
     2
100
AcDbCircle
 10
78.33019900493221
 20
224.7296859777173
 30
0.0
 40
0.4999999999999432
100
AcDbArc
 50
0.0
 51
89.9999999999256
  0
LINE
  5
37C
330
1F
100
AcDbEntity
  8
0
 62
     2
100
AcDbLine
 10
78.33019900493244
 20
225.2296859777172
 30
0.0
 11
71.63019900494484
 21
225.2296859777168
 31
0.0
  0
ARC
  5
37D
330
1F
100
AcDbEntity
  8
0
 62
     2
100
AcDbCircle
 10
75.40019900493806
 20
231.8696859777193
 30
0.0
 40
0.4999999999999432
100
AcDbArc
 50
90.00000000006513
 51
179.9999999999934
  0
LINE
  5
37E
330
1F
100
AcDbEntity
  8
0
 62
     2
100
AcDbLine
 10
74.90019900493658
 20
231.8696859777372
 30
0.0
 11
74.90019900493357
 21
227.4896859777279
 31
0.0
  0
ARC
  5
37F
330
1F
100
AcDbEntity
  8
0
 62
     2
100
AcDbCircle
 10
75.40019900493397
 20
227.4896859777168
 30
0.0
 40
0.5
100
AcDbArc
 50
180.0
 51
269.9999999987787
  0
LINE
  5
380
330
1F
100
AcDbEntity
  8
0
 62
     2
100
AcDbLine
 10
75.40019900492328
 20
226.9896859777174
 30
0.0
 11
89.80019900493048
 21
226.9896859777182
 31
0.0
  0
ARC
  5
381
330
1F
100
AcDbEntity
  8
0
 62
     2
100
AcDbCircle
 10
89.80019900493451
 20
227.4896859777178
 30
0.0
 40
0.4999999999999432
100
AcDbArc
 50
269.9999999995375
 51
359.9999999979091
  0
LINE
  5
382
330
1F
100
AcDbEntity
  8
0
 62
     2
100
AcDbLine
 10
90.30019900493497
 20
227.4896859776997
 30
0.0
 11
90.30019900493366
 21
231.8696859777042
 31
0.0
  0
ARC
  5
383
330
1F
100
AcDbEntity
  8
0
 62
     2
100
AcDbCircle
 10
89.80019900492923
 20
231.8696859777203
 30
0.0
 40
0.5
100
AcDbArc
 50
0.0
 51
90.00000000184993
  0
LINE
  5
384
330
1F
100
AcDbEntity
  8
0
 62
     2
100
AcDbLine
 10
89.80019900493082
 20
232.3696859777192
 30
0.0
 11
75.40019900493749
 21
232.3696859777183
 31
0.0
  0
CIRCLE
  5
385
330
1F
100
AcDbEntity
  8
0
 62
     2
100
AcDbCircle
 10
98.06019891390125
 20
202.6850601130114
 30
0.0
 40
1.349999999999909
  0
CIRCLE
  5
386
330
1F
100
AcDbEntity
  8
0
 62
     2
100
AcDbCircle
 10
62.06019891390329
 20
202.6850601130094
 30
0.0
 40
1.349999999999909
  0
CIRCLE
  5
387
330
1F
100
AcDbEntity
  8
0
 62
     2
100
AcDbCircle
 10
62.06019891390534
 20
238.6850601130073
 30
0.0
 40
1.349999999999909
  0
CIRCLE
  5
388
330
1F
100
AcDbEntity
  8
0
 62
     2
100
AcDbCircle
 10
98.06019891390329
 20
238.6850601130094
 30
0.0
 40
1.349999999999909
  0
LINE
  5
389
330
1F
100
AcDbEntity
  8
0
 62
     2
100
AcDbLine
 10
95.81019884921838
 20
200.4350638717832
 30
0.0
 11
98.06019878074372
 21
200.4350638717833
 31
0.0
  0
LINE
  5
38A
330
1F
100
AcDbEntity
  8
0
 62
     2
100
AcDbLine
 10
100.3101987807386
 20
202.6850637348315
 30
0.0
 11
100.3101987807387
 21
204.9350602423687
 31
0.0
  0
ARC
  5
38B
330
1F
100
AcDbEntity
  8
0
 62
     2
100
AcDbCircle
 10
98.06019878073883
 20
202.6850638717833
 30
0.0
 40
2.249999999999886
100
AcDbArc
 50
270.0000000001245
 51
359.9999965125453
  0
LINE
  5
38C
330
1F
100
AcDbEntity
  8
0
 62
     2
100
AcDbLine
 10
59.81019878074304
 20
204.935060105405
 30
0.0
 11
59.81019878074292
 21
202.6850635978663
 31
0.0
  0
LINE
  5
38D
330
1F
100
AcDbEntity
  8
0
 62
     2
100
AcDbLine
 10
62.06019891769975
 20
200.4350638717813
 30
0.0
 11
64.31019884922412
 21
200.4350638717814
 31
0.0
  0
ARC
  5
38E
330
1F
100
AcDbEntity
  8
0
 62
     2
100
AcDbCircle
 10
62.06019878074281
 20
202.6850638717812
 30
0.0
 40
2.249999999999886
100
AcDbArc
 50
180.0
 51
270.0000034875813
  0
LINE
  5
38F
330
1F
100
AcDbEntity
  8
0
 62
     2
100
AcDbLine
 10
59.81019878074497
 20
238.6850566129421
 30
0.0
 11
59.81019878074486
 21
236.4350601053996
 31
0.0
  0
LINE
  5
390
330
1F
100
AcDbEntity
  8
0
 62
     2
100
AcDbLine
 10
64.31019891771066
 20
240.9350564759838
 30
0.0
 11
62.06019905466295
 21
240.9350564759837
 31
0.0
  0
ARC
  5
391
330
1F
100
AcDbEntity
  8
0
 62
     2
100
AcDbCircle
 10
62.06019878074486
 20
238.6850564759841
 30
0.0
 40
2.249999999999886
100
AcDbArc
 50
89.99999999999712
 51
179.9999965123854
  0
LINE
  5
392
330
1F
100
AcDbEntity
  8
0
 62
     2
100
AcDbLine
 10
100.3101987807405
 20
236.4350602423663
 30
0.0
 11
100.3101987807406
 21
238.6850567499041
 31
0.0
  0
LINE
  5
393
330
1F
100
AcDbEntity
  8
0
 62
     2
100
AcDbLine
 10
98.06019878074986
 20
240.9350564759858
 30
0.0
 11
95.81019891770248
 21
240.9350564759856
 31
0.0
  0
ARC
  5
394
330
1F
100
AcDbEntity
  8
0
 62
     2
100
AcDbCircle
 10
98.06019878074076
 20
238.6850564759861
 30
0.0
 40
2.249999999999903
100
AcDbArc
 50
0.000006936089891
 51
89.9999999608317
  0
ARC
  5
395
330
1F
100
AcDbEntity
  8
0
 62
     2
100
AcDbCircle
 10
98.06019891389829
 20
238.6850602347535
 30
0.0
 40
2.249999999999886
100
AcDbArc
 50
180.0
 51
270.0000001931638
  0
LINE
  5
396
330
1F
100
AcDbEntity
  8
0
 62
     2
100
AcDbLine
 10
100.3101987807338
 20
236.4350602423596
 30
0.0
 11
98.06019892149513
 21
236.4350602423595
 31
0.0
  0
LINE
  5
397
330
1F
100
AcDbEntity
  8
0
 62
     2
100
AcDbLine
 10
98.06019884540623
 20
204.9350602347622
 30
0.0
 11
100.3101988694997
 21
204.9350602347623
 31
0.0
  0
ARC
  5
398
330
1F
100
AcDbEntity
  8
0
 62
     2
100
AcDbCircle
 10
98.06019885302342
 20
202.6850602347593
 30
0.0
 40
2.249999999999886
100
AcDbArc
 50
90.00000019397012
 51
179.9999999027632
  0
LINE
  5
399
330
1F
100
AcDbEntity
  8
0
 62
     2
100
AcDbLine
 10
95.81019884921997
 20
200.4350638717816
 30
0.0
 11
95.81019885302342
 21
202.6850602385692
 31
0.0
  0
LINE
  5
39A
330
1F
100
AcDbEntity
  8
0
 62
     2
100
AcDbLine
 10
64.31019885302854
 20
202.6850601092139
 30
0.0
 11
64.31019884922412
 21
200.4350601256998
 31
0.0
  0
ARC
  5
39B
330
1F
100
AcDbEntity
  8
0
 62
     2
100
AcDbCircle
 10
62.06019885302985
 20
202.6850601130148
 30
0.0
 40
2.249999999999886
100
AcDbArc
 50
0.0
 51
90.00000009679181
  0
LINE
  5
39C
330
1F
100
AcDbEntity
  8
0
 62
     2
100
AcDbLine
 10
59.81019878074213
 20
204.9350601054041
 30
0.0
 11
62.06019884542283
 21
204.9350601054043
 31
0.0
  0
LINE
  5
39D
330
1F
100
AcDbEntity
  8
0
 62
     2
100
AcDbLine
 10
62.060198921519
 20
236.4350601130087
 30
0.0
 11
59.81019889742245
 21
236.4350601130086
 31
0.0
  0
ARC
  5
39E
330
1F
100
AcDbEntity
  8
0
 62
     2
100
AcDbCircle
 10
62.0601989139054
 20
238.6850601130073
 30
0.0
 40
2.249999999999886
100
AcDbArc
 50
270.0000001938789
 51
359.9999999032194
  0
LINE
  5
39F
330
1F
100
AcDbEntity
  8
0
 62
     2
100
AcDbLine
 10
64.3101989177097
 20
240.9350564759847
 30
0.0
 11
64.31019891390505
 21
238.6850601092047
 31
0.0
  0
LINE
  5
3A0
330
1F
100
AcDbEntity
  8
0
 62
     2
100
AcDbLine
 10
95.81019891389863
 20
238.6850602385527
 30
0.0
 11
95.81019891770248
 21
240.9350602220669
 31
0.0
  0
LINE
  5
3A1
330
1F
100
AcDbEntity
  8
0
 62
     2
100
AcDbLine
 10
95.31019891685727
 20
240.4350602220669
 30
0.0
 11
95.81019891770248
 21
240.9350602220669
 31
0.0
  0
LINE
  5
3A2
330
1F
100
AcDbEntity
  8
0
 62
     2
100
AcDbLine
 10
64.81019891686512
 20
240.4350564759839
 30
0.0
 11
64.31019891771066
 21
240.9350564759838
 31
0.0
  0
LINE
  5
3A3
330
1F
100
AcDbEntity
  8
0
 62
     2
100
AcDbLine
 10
64.81019891390494
 20
238.6850601083592
 30
0.0
 11
64.310198913905
 21
238.6850601092047
 31
0.0
  0
LINE
  5
3A4
330
1F
100
AcDbEntity
  8
0
 62
     2
100
AcDbLine
 10
62.06019892321089
 20
235.9350601130074
 30
0.0
 11
62.060198921519
 21
236.4350601130074
 31
0.0
  0
LINE
  5
3A5
330
1F
100
AcDbEntity
  8
0
 62
     2
100
AcDbLine
 10
60.31019890503134
 20
235.9350601070905
 30
0.0
 11
59.8101989068808
 21
236.4350601035502
 31
0.0
  0
LINE
  5
3A6
330
1F
100
AcDbEntity
  8
0
 62
     2
100
AcDbLine
 10
60.31019878074309
 20
205.435060107096
 30
0.0
 11
59.81019878074304
 21
204.935060105405
 31
0.0
  0
LINE
  5
3A7
330
1F
100
AcDbEntity
  8
0
 62
     2
100
AcDbLine
 10
62.06019884373191
 20
205.4350601130137
 30
0.0
 11
62.06019884542283
 21
204.9350601148631
 31
0.0
  0
LINE
  5
3A8
330
1F
100
AcDbEntity
  8
0
 62
     2
100
AcDbLine
 10
64.81019885302968
 20
202.6850601083692
 30
0.0
 11
64.31019885302973
 21
202.6850601092139
 31
0.0
  0
LINE
  5
3A9
330
1F
100
AcDbEntity
  8
0
 62
     2
100
AcDbLine
 10
64.81019885006944
 20
200.9350601256998
 30
0.0
 11
64.31019884922407
 21
200.4350601256998
 31
0.0
  0
LINE
  5
3AA
330
1F
100
AcDbEntity
  8
0
 62
     2
100
AcDbLine
 10
95.31019885006364
 20
200.9350638717831
 30
0.0
 11
95.81019884921838
 21
200.4350638717832
 31
0.0
  0
LINE
  5
3AB
330
1F
100
AcDbEntity
  8
0
 62
     2
100
AcDbLine
 10
95.31019885302348
 20
202.6850602394142
 30
0.0
 11
95.81019885302342
 21
202.6850602385692
 31
0.0
  0
LINE
  5
3AC
330
1F
100
AcDbEntity
  8
0
 62
     2
100
AcDbLine
 10
98.06019884371355
 20
205.4350602347592
 30
0.0
 11
98.06019884540623
 21
204.9350602347592
 31
0.0
  0
LINE
  5
3AD
330
1F
100
AcDbEntity
  8
0
 62
     2
100
AcDbLine
 10
99.81019886189333
 20
205.4350602406783
 30
0.0
 11
100.3101988600445
 21
204.9350602442175
 31
0.0
  0
LINE
  5
3AE
330
1F
100
AcDbEntity
  8
0
 62
     2
100
AcDbLine
 10
99.81019878074048
 20
235.9350602406761
 30
0.0
 11
100.3101987807405
 21
236.4350602423663
 31
0.0
  0
LINE
  5
3AF
330
1F
100
AcDbEntity
  8
0
 62
     2
100
AcDbLine
 10
98.06019892318531
 20
235.9350602347534
 30
0.0
 11
98.06019892149513
 21
236.4350602329048
 31
0.0
  0
LINE
  5
3B0
330
1F
100
AcDbEntity
  8
0
 62
     2
100
AcDbLine
 10
95.81019891389863
 20
238.6850602385527
 30
0.0
 11
95.31019891389869
 21
238.6850602393979
 31
0.0
  0
LINE
  5
3B1
330
1F
100
AcDbEntity
  8
0
 62
     2
100
AcDbLine
 10
96.01372723860138
 20
168.2350559799415
 30
0.0
 11
96.01372725081345
 21
166.4350559799416
 31
0.0
  0
LINE
  5
3B2
330
1F
100
AcDbEntity
  8
0
 62
     2
100
AcDbLine
 10
64.12578057329179
 20
168.2350559799397
 30
0.0
 11
64.12578056106256
 21
166.4350559799397
 31
0.0
  0
LINE
  5
3B3
330
1F
100
AcDbEntity
  8
0
 62
     2
100
AcDbLine
 10
60.91019886949144
 20
168.2350559799395
 30
0.0
 11
61.11019886949148
 21
168.4350559799395
 31
0.0
  0
LINE
  5
3B4
330
1F
100
AcDbEntity
  8
0
 62
     2
100
AcDbLine
 10
65.28120545398767
 20
168.2350559799397
 30
0.0
 11
65.08120545398774
 21
168.4350559799397
 31
0.0
  0
LINE
  5
3B5
330
1F
100
AcDbEntity
  8
0
 62
     2
100
AcDbLine
 10
64.12578056106256
 20
168.2350559799397
 30
0.0
 11
64.32578056106266
 21
168.4350559799397
 31
0.0
  0
LINE
  5
3B6
330
1F
100
AcDbEntity
  8
0
 62
     2
100
AcDbLine
 10
96.0137272508135
 20
168.2350559799415
 30
0.0
 11
95.81372725081351
 21
168.4350559799414
 31
0.0
  0
LINE
  5
3B7
330
1F
100
AcDbEntity
  8
0
 62
     2
100
AcDbLine
 10
99.21019886949401
 20
168.2350559799417
 30
0.0
 11
99.01019886949408
 21
168.4350559799417
 31
0.0
  0
LINE
  5
3B8
330
1F
100
AcDbEntity
  8
0
 62
     2
100
AcDbLine
 10
73.7176505887696
 20
168.2715011147103
 30
0.0
 11
73.71927031319026
 21
168.273120839131
 31
0.0
  0
LINE
  5
3B9
330
1F
100
AcDbEntity
  8
0
 62
     2
100
AcDbLine
 10
85.91019893983636
 20
168.2350559799356
 30
0.0
 11
86.11019894017963
 21
168.435055979941
 31
0.0
  0
LINE
  5
3BA
330
1F
100
AcDbEntity
  8
0
 62
     2
100
AcDbLine
 10
73.88120466959728
 20
168.435055232218
 30
0.0
 11
73.6812054539898
 21
168.2350559799373
 31
0.0
  0
LINE
  5
3BB
330
1F
100
AcDbEntity
  8
0
 62
     2
100
AcDbLine
 10
74.51019891773174
 20
167.9350560020507
 30
0.0
 11
75.0101989396571
 21
167.4350559721128
 31
0.0
  0
LINE
  5
3BC
330
1F
100
AcDbEntity
  8
0
 62
     2
100
AcDbLine
 10
85.61019896364101
 20
167.9350560037421
 30
0.0
 11
85.11019894171167
 21
167.4350559721099
 31
0.0
  0
LINE
  5
3BD
330
1F
100
AcDbEntity
  8
0
 62
     2
100
AcDbLine
 10
81.6101989177321
 20
167.9350560020514
 30
0.0
 11
82.1101989396598
 21
167.435055972111
 31
0.0
  0
LINE
  5
3BE
330
1F
100
AcDbEntity
  8
0
 62
     2
100
AcDbLine
 10
78.51019896364156
 20
167.9350560037416
 30
0.0
 11
78.01019894171438
 21
167.4350559721118
 31
0.0
  0
LINE
  5
3BF
330
1F
100
AcDbEntity
  8
0
 62
     2
100
AcDbLine
 10
81.31019893984555
 20
168.235055979936
 30
0.0
 11
81.11019894017923
 21
168.4350559799406
 31
0.0
  0
LINE
  5
3C0
330
1F
100
AcDbEntity
  8
0
 62
     2
100
AcDbLine
 10
85.61019894068662
 20
167.9350559807858
 30
0.0
 11
85.9101989398417
 21
168.2350559799409
 31
0.0
  0
LINE
  5
3C1
330
1F
100
AcDbEntity
  8
0
 62
     2
100
AcDbLine
 10
81.31019893984094
 20
168.2350559799407
 30
0.0
 11
81.6101989406865
 21
167.9350559790951
 31
0.0
  0
LINE
  5
3C2
330
1F
100
AcDbEntity
  8
0
 62
     2
100
AcDbLine
 10
74.1812054768923
 20
168.2640494428863
 30
0.0
 11
74.01019630680716
 21
168.4350601257021
 31
0.0
  0
LINE
  5
3C3
330
1F
100
AcDbEntity
  8
0
 62
     2
100
AcDbLine
 10
79.01019894018023
 20
168.4350559799405
 30
0.0
 11
78.8101989398381
 21
168.2350559799363
 31
0.0
  0
LINE
  5
3C4
330
1F
100
AcDbEntity
  8
0
 62
     2
100
AcDbLine
 10
78.5101989406871
 20
167.9350559807853
 30
0.0
 11
78.81019893984231
 21
168.2350559799405
 31
0.0
  0
LINE
  5
3C5
330
1F
100
AcDbEntity
  8
0
 62
     2
100
AcDbLine
 10
74.18120545399299
 20
168.2640494657875
 30
0.0
 11
74.51019894068614
 21
167.9350559790944
 31
0.0
  0
LINE
  5
3C6
330
1F
100
AcDbEntity
  8
0
 62
     2
100
AcDbLine
 10
98.90154523019314
 20
167.4731228533678
 30
0.0
 11
98.90053055339794
 21
167.4727116279947
 31
0.0
  0
LINE
  5
3C7
330
1F
100
AcDbEntity
  8
0
 62
     2
100
AcDbLine
 10
99.20059559164818
 20
167.8375311976166
 30
0.0
 11
99.19859418590957
 21
167.8279578553879
 31
0.0
  0
LINE
  5
3C8
330
1F
100
AcDbEntity
  8
0
 62
     2
100
AcDbLine
 10
73.88120545399173
 20
168.4350559799402
 30
0.0
 11
74.0101989398913
 21
168.4350559799402
 31
0.0
  0
LINE
  5
3C9
330
1F
100
AcDbEntity
  8
0
 62
     2
100
AcDbLine
 10
98.90154059515609
 20
166.635055979017
 30
0.0
 11
98.90053055339789
 21
166.6350559790163
 31
0.0
  0
LINE
  5
3CA
330
1F
100
AcDbEntity
  8
0
 62
     2
100
AcDbLine
 10
96.479961513333
 20
162.4350559799419
 30
0.0
 11
98.06019901192619
 21
162.4350559799419
 31
0.0
  0
LINE
  5
3CB
330
1F
100
AcDbEntity
  8
0
 62
     2
100
AcDbLine
 10
95.31019900265514
 20
162.4350559799418
 30
0.0
 11
96.479961513333
 21
162.4350559799419
 31
0.0
  0
LINE
  5
3CC
330
1F
100
AcDbEntity
  8
0
 62
     2
100
AcDbLine
 10
99.81019886949062
 20
162.435055979942
 30
0.0
 11
98.06019901194216
 21
162.4350559799419
 31
0.0
  0
LINE
  5
3CD
330
1F
100
AcDbEntity
  8
0
 62
     2
100
AcDbLine
 10
62.06019901196774
 20
162.4350559799399
 30
0.0
 11
60.31019899378819
 21
162.4350559799398
 31
0.0
  0
LINE
  5
3CE
330
1F
100
AcDbEntity
  8
0
 62
     2
100
AcDbLine
 10
64.31083212275601
 20
162.43505597994
 30
0.0
 11
64.8101990026619
 21
162.4350559799401
 31
0.0
  0
LINE
  5
3CF
330
1F
100
AcDbEntity
  8
0
 62
     2
100
AcDbLine
 10
62.06019901196774
 20
162.4350559799399
 30
0.0
 11
64.31083212275601
 21
162.43505597994
 31
0.0
  0
LINE
  5
3D0
330
1F
100
AcDbEntity
  8
0
 62
     2
100
AcDbLine
 10
95.31019525953243
 20
162.4350559799418
 30
0.0
 11
64.81019900562168
 21
162.4350559799401
 31
0.0
  0
LINE
  5
3D1
330
1F
100
AcDbEntity
  8
0
 62
     2
100
AcDbLine
 10
95.8101952603777
 20
162.9350559799418
 30
0.0
 11
64.31019900646723
 21
162.93505597994
 31
0.0
  0
LINE
  5
3D2
330
1F
100
AcDbEntity
  8
0
 62
     2
100
AcDbLine
 10
75.01019893984008
 20
166.6350559799403
 30
0.0
 11
78.01019893984105
 21
166.6350559799406
 31
0.0
  0
LINE
  5
3D3
330
1F
100
AcDbEntity
  8
0
 62
     2
100
AcDbLine
 10
82.11019893984084
 20
166.6350559799408
 30
0.0
 11
85.11019893984096
 21
166.6350559799409
 31
0.0
  0
LINE
  5
3D4
330
1F
100
AcDbEntity
  8
0
 62
     2
100
AcDbLine
 10
100.3101988694975
 20
165.4350559799419
 30
0.0
 11
100.3101988694973
 21
162.935055979942
 31
0.0
  0
LINE
  5
3D5
330
1F
100
AcDbEntity
  8
0
 62
     2
100
AcDbLine
 10
95.81019900645904
 20
162.9350559799418
 30
0.0
 11
95.81019900645921
 21
165.4350559799417
 31
0.0
  0
LINE
  5
3D6
330
1F
100
AcDbEntity
  8
0
 62
     2
100
AcDbLine
 10
64.31019900646643
 20
165.4350559799398
 30
0.0
 11
64.31019900646632
 21
162.9350559799399
 31
0.0
  0
LINE
  5
3D7
330
1F
100
AcDbEntity
  8
0
 62
     2
100
AcDbLine
 10
59.81019886950165
 20
162.9350559799397
 30
0.0
 11
59.81019886950176
 21
165.4350559799396
 31
0.0
  0
LINE
  5
3D8
330
1F
100
AcDbEntity
  8
0
 62
     2
100
AcDbLine
 10
64.3101990064674
 20
165.4350559799398
 30
0.0
 11
62.06019914341968
 21
165.4350559799397
 31
0.0
  0
LINE
  5
3D9
330
1F
100
AcDbEntity
  8
0
 62
     2
100
AcDbLine
 10
59.81019886950176
 20
165.4350559799396
 30
0.0
 11
62.0601988695017
 21
165.4350559799397
 31
0.0
  0
LINE
  5
3DA
330
1F
100
AcDbEntity
  8
0
 62
     2
100
AcDbLine
 10
98.06019886950659
 20
165.4350559799418
 30
0.0
 11
95.81019900645921
 21
165.4350559799417
 31
0.0
  0
LINE
  5
3DB
330
1F
100
AcDbEntity
  8
0
 62
     2
100
AcDbLine
 10
98.06019886949761
 20
165.4350559799418
 30
0.0
 11
100.3101988694975
 21
165.4350559799419
 31
0.0
  0
LINE
  5
3DC
330
1F
100
AcDbEntity
  8
0
 62
     2
100
AcDbLine
 10
98.06019886950665
 20
166.4350559799417
 30
0.0
 11
62.06019914341974
 21
166.4350559799397
 31
0.0
  0
LINE
  5
3DD
330
1F
100
AcDbEntity
  8
0
 62
     2
100
AcDbLine
 10
98.06019886949767
 20
166.4350559799417
 30
0.0
 11
100.3101988694976
 21
166.4350559799418
 31
0.0
  0
LINE
  5
3DE
330
1F
100
AcDbEntity
  8
0
 62
     2
100
AcDbLine
 10
59.81019886950187
 20
166.4350559799395
 30
0.0
 11
62.06019886950176
 21
166.4350559799397
 31
0.0
  0
LINE
  5
3DF
330
1F
100
AcDbEntity
  8
0
 62
     2
100
AcDbLine
 10
98.06019886950665
 20
166.4350559799417
 30
0.0
 11
98.06019886950659
 21
165.4350559799418
 31
0.0
  0
LINE
  5
3E0
330
1F
100
AcDbEntity
  8
0
 62
     2
100
AcDbLine
 10
100.3101988694976
 20
166.4350559799418
 30
0.0
 11
100.3101988694975
 21
165.4350559799419
 31
0.0
  0
LINE
  5
3E1
330
1F
100
AcDbEntity
  8
0
 62
     2
100
AcDbLine
 10
59.81019886950187
 20
166.4350559799395
 30
0.0
 11
59.81019886950176
 21
165.4350559799396
 31
0.0
  0
LINE
  5
3E2
330
1F
100
AcDbEntity
  8
0
 62
     2
100
AcDbLine
 10
62.06019886950176
 20
166.4350559799397
 30
0.0
 11
62.0601988695017
 21
165.4350559799397
 31
0.0
  0
LINE
  5
3E3
330
1F
100
AcDbEntity
  8
0
 62
     2
100
AcDbLine
 10
95.81019900265508
 20
162.9350559799418
 30
0.0
 11
98.06019901024055
 21
162.9350559799419
 31
0.0
  0
LINE
  5
3E4
330
1F
100
AcDbEntity
  8
0
 62
     2
100
AcDbLine
 10
100.3101988694906
 20
162.935055979942
 30
0.0
 11
98.06019901025192
 21
162.9350559799419
 31
0.0
  0
LINE
  5
3E5
330
1F
100
AcDbEntity
  8
0
 62
     2
100
AcDbLine
 10
62.0601990102758
 20
162.9350559799398
 30
0.0
 11
59.81019898617924
 21
162.9350559799398
 31
0.0
  0
LINE
  5
3E6
330
1F
100
AcDbEntity
  8
0
 62
     2
100
AcDbLine
 10
62.0601990102758
 20
162.9350559799398
 30
0.0
 11
64.3101990026619
 21
162.93505597994
 31
0.0
  0
LINE
  5
3E7
330
1F
100
AcDbEntity
  8
0
 62
     2
100
AcDbLine
 10
62.06019901027597
 20
165.4350559799397
 30
0.0
 11
62.0601990102758
 21
162.9350559799398
 31
0.0
  0
LINE
  5
3E8
330
1F
100
AcDbEntity
  8
0
 62
     2
100
AcDbLine
 10
98.06019901025209
 20
165.4350559799418
 30
0.0
 11
98.06019901025192
 21
162.9350559799419
 31
0.0
  0
LINE
  5
3E9
330
1F
100
AcDbEntity
  8
0
 62
     2
100
AcDbLine
 10
73.6812054539898
 20
168.2350559799403
 30
0.0
 11
66.81019886950352
 21
168.2350559799398
 31
0.0
  0
LINE
  5
3EA
330
1F
100
AcDbEntity
  8
0
 62
     2
100
AcDbLine
 10
77.87499487085293
 20
168.2350559799405
 30
0.0
 11
77.87318578175766
 21
168.2350559799405
 31
0.0
  0
LINE
  5
3EB
330
1F
100
AcDbEntity
  8
0
 62
     2
100
AcDbLine
 10
84.97499487085801
 20
168.2350559799409
 30
0.0
 11
84.973185781762
 21
168.2350559799409
 31
0.0
  0
LINE
  5
3EC
330
1F
100
AcDbEntity
  8
0
 62
     2
100
AcDbLine
 10
66.81019886950352
 20
168.2350559799398
 30
0.0
 11
65.28120545398767
 21
168.2350559799397
 31
0.0
  0
LINE
  5
3ED
330
1F
100
AcDbEntity
  8
0
 62
     2
100
AcDbLine
 10
65.28120545398761
 20
166.4350559799398
 30
0.0
 11
65.28120545398767
 21
168.2350559799397
 31
0.0
  0
LINE
  5
3EE
330
1F
100
AcDbEntity
  8
0
 62
     2
100
AcDbLine
 10
73.6812054539898
 20
168.2350559799403
 30
0.0
 11
73.68120545398975
 21
166.4350559799403
 31
0.0
  0
LINE
  5
3EF
330
1F
100
AcDbEntity
  8
0
 62
     2
100
AcDbLine
 10
66.81019886950352
 20
168.2350559799398
 30
0.0
 11
66.81019886950347
 21
166.43505597994
 31
0.0
  0
LINE
  5
3F0
330
1F
100
AcDbEntity
  8
0
 62
     2
100
AcDbLine
 10
98.34182431144492
 20
168.2350559799416
 30
0.0
 11
99.21019886949401
 21
168.2350559799417
 31
0.0
  0
LINE
  5
3F1
330
1F
100
AcDbEntity
  8
0
 62
     2
100
AcDbLine
 10
97.49279539520265
 20
168.2350559799416
 30
0.0
 11
98.34182431144492
 21
168.2350559799416
 31
0.0
  0
LINE
  5
3F2
330
1F
100
AcDbEntity
  8
0
 62
     2
100
AcDbLine
 10
97.49279539520265
 20
168.2350559799416
 30
0.0
 11
97.0933621134781
 21
168.2350559799416
 31
0.0
  0
LINE
  5
3F3
330
1F
100
AcDbEntity
  8
0
 62
     2
100
AcDbLine
 10
97.0933621134781
 20
168.2350559799416
 30
0.0
 11
96.01372723860138
 21
168.2350559799415
 31
0.0
  0
LINE
  5
3F4
330
1F
100
AcDbEntity
  8
0
 62
     2
100
AcDbLine
 10
95.41372725081371
 20
168.2350559799415
 30
0.0
 11
96.01372723860138
 21
168.2350559799415
 31
0.0
  0
LINE
  5
3F5
330
1F
100
AcDbEntity
  8
0
 62
     2
100
AcDbLine
 10
85.91019893983636
 20
168.2350559799409
 30
0.0
 11
95.41372725081382
 21
168.2350559799415
 31
0.0
  0
LINE
  5
3F6
330
1F
100
AcDbEntity
  8
0
 62
     2
100
AcDbLine
 10
64.12578057329179
 20
168.2350559799397
 30
0.0
 11
63.05353482688363
 21
168.2350559799396
 31
0.0
  0
LINE
  5
3F7
330
1F
100
AcDbEntity
  8
0
 62
     2
100
AcDbLine
 10
64.12578057329179
 20
168.2350559799397
 30
0.0
 11
64.72578056106275
 21
168.2350559799397
 31
0.0
  0
LINE
  5
3F8
330
1F
100
AcDbEntity
  8
0
 62
     2
100
AcDbLine
 10
64.72578056106275
 20
168.2350559799397
 30
0.0
 11
64.78120545398778
 21
168.2350559799397
 31
0.0
  0
LINE
  5
3F9
330
1F
100
AcDbEntity
  8
0
 62
     2
100
AcDbLine
 10
60.91019886949144
 20
168.2350559799395
 30
0.0
 11
61.77857332954468
 21
168.2350559799395
 31
0.0
  0
LINE
  5
3FA
330
1F
100
AcDbEntity
  8
0
 62
     2
100
AcDbLine
 10
61.77857332954468
 20
168.2350559799395
 30
0.0
 11
62.64928294315351
 21
168.2350559799396
 31
0.0
  0
LINE
  5
3FB
330
1F
100
AcDbEntity
  8
0
 62
     2
100
AcDbLine
 10
63.05353482688358
 20
168.2350559799396
 30
0.0
 11
62.64928294315351
 21
168.2350559799396
 31
0.0
  0
LINE
  5
3FC
330
1F
100
AcDbEntity
  8
0
 62
     2
100
AcDbLine
 10
74.51019894068608
 20
166.6350559799403
 30
0.0
 11
74.51019894068614
 21
167.9350560020507
 31
0.0
  0
LINE
  5
3FD
330
1F
100
AcDbEntity
  8
0
 62
     2
100
AcDbLine
 10
75.01019893984014
 20
166.6350559799403
 30
0.0
 11
74.51019894068608
 21
166.6350559799403
 31
0.0
  0
LINE
  5
3FE
330
1F
100
AcDbEntity
  8
0
 62
     2
100
AcDbLine
 10
85.61019894068662
 20
167.9350560037421
 30
0.0
 11
85.61019894068656
 21
166.635055979941
 31
0.0
  0
LINE
  5
3FF
330
1F
100
AcDbEntity
  8
0
 62
     2
100
AcDbLine
 10
85.61019894068656
 20
166.635055979941
 30
0.0
 11
85.1101989398417
 21
166.6350559799409
 31
0.0
  0
LINE
  5
400
330
1F
100
AcDbEntity
  8
0
 62
     2
100
AcDbLine
 10
81.61019894068639
 20
166.6350559799407
 30
0.0
 11
81.6101989406865
 21
167.9350560020514
 31
0.0
  0
LINE
  5
401
330
1F
100
AcDbEntity
  8
0
 62
     2
100
AcDbLine
 10
82.11019893984084
 20
166.6350559799408
 30
0.0
 11
81.61019894068639
 21
166.6350559799407
 31
0.0
  0
LINE
  5
402
330
1F
100
AcDbEntity
  8
0
 62
     2
100
AcDbLine
 10
78.5101989406871
 20
167.9350560037416
 30
0.0
 11
78.51019894068705
 21
166.6350559799406
 31
0.0
  0
LINE
  5
403
330
1F
100
AcDbEntity
  8
0
 62
     2
100
AcDbLine
 10
78.51019894068705
 20
166.6350559799406
 30
0.0
 11
78.0101989398423
 21
166.6350559799406
 31
0.0
  0
LINE
  5
404
330
1F
100
AcDbEntity
  8
0
 62
     2
100
AcDbLine
 10
64.78120545398772
 20
166.4350559799398
 30
0.0
 11
64.78120545398778
 21
168.2350559799397
 31
0.0
  0
LINE
  5
405
330
1F
100
AcDbEntity
  8
0
 62
     2
100
AcDbLine
 10
74.18120545399299
 20
168.2640494657875
 30
0.0
 11
74.18120545399293
 21
166.4350559799404
 31
0.0
  0
LINE
  5
406
330
1F
100
AcDbEntity
  8
0
 62
     2
100
AcDbLine
 10
78.81019893984231
 20
168.2350559799405
 30
0.0
 11
81.31019893984094
 21
168.2350559799407
 31
0.0
  0
LINE
  5
407
330
1F
100
AcDbEntity
  8
0
 62
     2
100
AcDbLine
 10
99.21019886949401
 20
168.2350559799417
 30
0.0
 11
99.21019886949395
 21
166.4350559799418
 31
0.0
  0
LINE
  5
408
330
1F
100
AcDbEntity
  8
0
 62
     2
100
AcDbLine
 10
98.34182431144492
 20
168.2350559799416
 30
0.0
 11
98.34182431144492
 21
166.4350559799418
 31
0.0
  0
LINE
  5
409
330
1F
100
AcDbEntity
  8
0
 62
     2
100
AcDbLine
 10
97.49279539520253
 20
168.2350559799416
 30
0.0
 11
97.49279539520248
 21
166.4350559799417
 31
0.0
  0
LINE
  5
40A
330
1F
100
AcDbEntity
  8
0
 62
     2
100
AcDbLine
 10
97.0933621134781
 20
168.2350559799416
 30
0.0
 11
97.09336211347804
 21
166.4350559799417
 31
0.0
  0
LINE
  5
40B
330
1F
100
AcDbEntity
  8
0
 62
     2
100
AcDbLine
 10
95.41372725081382
 20
168.2350559799415
 30
0.0
 11
95.41372725081371
 21
166.4350559799416
 31
0.0
  0
LINE
  5
40C
330
1F
100
AcDbEntity
  8
0
 62
     2
100
AcDbLine
 10
64.72578056106275
 20
168.2350559799397
 30
0.0
 11
64.72578056106269
 21
166.4350559799398
 31
0.0
  0
LINE
  5
40D
330
1F
100
AcDbEntity
  8
0
 62
     2
100
AcDbLine
 10
63.05353482688363
 20
168.2350559799396
 30
0.0
 11
63.05353482688358
 21
166.4350559799397
 31
0.0
  0
LINE
  5
40E
330
1F
100
AcDbEntity
  8
0
 62
     2
100
AcDbLine
 10
62.64928294315351
 20
168.2350559799396
 30
0.0
 11
62.64928294315345
 21
166.4350559799397
 31
0.0
  0
LINE
  5
40F
330
1F
100
AcDbEntity
  8
0
 62
     2
100
AcDbLine
 10
61.77857332954468
 20
168.2350559799395
 30
0.0
 11
61.77857332954463
 21
166.4350559799396
 31
0.0
  0
LINE
  5
410
330
1F
100
AcDbEntity
  8
0
 62
     2
100
AcDbLine
 10
60.91019886949144
 20
168.2350559799395
 30
0.0
 11
60.91019886949138
 21
166.4350559799396
 31
0.0
  0
LINE
  5
411
330
1F
100
AcDbEntity
  8
0
 62
     2
100
AcDbLine
 10
98.43128249746135
 20
168.4350559799417
 30
0.0
 11
99.01019886949408
 21
168.4350559799417
 31
0.0
  0
LINE
  5
412
330
1F
100
AcDbEntity
  8
0
 62
     2
100
AcDbLine
 10
97.58225358121908
 20
168.4350559799416
 30
0.0
 11
98.43128249746135
 21
168.4350559799417
 31
0.0
  0
LINE
  5
413
330
1F
100
AcDbEntity
  8
0
 62
     2
100
AcDbLine
 10
97.58225358121908
 20
168.4350559799416
 30
0.0
 11
97.0230469868047
 21
168.4350559799416
 31
0.0
  0
LINE
  5
414
330
1F
100
AcDbEntity
  8
0
 62
     2
100
AcDbLine
 10
97.0230469868047
 20
168.4350559799416
 30
0.0
 11
95.81372725081351
 21
168.4350559799414
 31
0.0
  0
LINE
  5
415
330
1F
100
AcDbEntity
  8
0
 62
     2
100
AcDbLine
 10
95.41372725081371
 20
168.4350559799414
 30
0.0
 11
95.81372724267212
 21
168.4350559799414
 31
0.0
  0
LINE
  5
416
330
1F
100
AcDbEntity
  8
0
 62
     2
100
AcDbLine
 10
86.11019894017963
 20
168.435055979941
 30
0.0
 11
95.41372725081376
 21
168.4350559799414
 31
0.0
  0
LINE
  5
417
330
1F
100
AcDbEntity
  8
0
 62
     2
100
AcDbLine
 10
73.88120545399173
 20
168.4350559799405
 30
0.0
 11
66.81019886950381
 21
168.4350559799402
 31
0.0
  0
LINE
  5
418
330
1F
100
AcDbEntity
  8
0
 62
     2
100
AcDbLine
 10
74.01019894186933
 20
168.4350559799405
 30
0.0
 11
73.98989851422132
 21
168.4350559799405
 31
0.0
  0
LINE
  5
419
330
1F
100
AcDbEntity
  8
0
 62
     2
100
AcDbLine
 10
66.81019886950381
 20
168.4350559799398
 30
0.0
 11
65.08120545398774
 21
168.4350559799397
 31
0.0
  0
LINE
  5
41A
330
1F
100
AcDbEntity
  8
0
 62
     2
100
AcDbLine
 10
64.32765633306289
 20
168.4350559799397
 30
0.0
 11
63.12577742702453
 21
168.4350559799396
 31
0.0
  0
LINE
  5
41B
330
1F
100
AcDbEntity
  8
0
 62
     2
100
AcDbLine
 10
64.32578056921542
 20
168.4350559799396
 30
0.0
 11
64.72578056106275
 21
168.4350559799397
 31
0.0
  0
LINE
  5
41C
330
1F
100
AcDbEntity
  8
0
 62
     2
100
AcDbLine
 10
64.72578056106275
 20
168.4350559799397
 30
0.0
 11
64.78120545398778
 21
168.4350559799397
 31
0.0
  0
LINE
  5
41D
330
1F
100
AcDbEntity
  8
0
 62
     2
100
AcDbLine
 10
64.78120545398778
 20
168.4350559799397
 30
0.0
 11
65.08120545398774
 21
168.4350559799397
 31
0.0
  0
LINE
  5
41E
330
1F
100
AcDbEntity
  8
0
 62
     2
100
AcDbLine
 10
61.11019886949148
 20
168.4350559799395
 30
0.0
 11
61.68911517619367
 21
168.4350559799395
 31
0.0
  0
LINE
  5
41F
330
1F
100
AcDbEntity
  8
0
 62
     2
100
AcDbLine
 10
61.68911517619367
 20
168.4350559799395
 30
0.0
 11
62.55982478980255
 21
168.4350559799396
 31
0.0
  0
LINE
  5
420
330
1F
100
AcDbEntity
  8
0
 62
     2
100
AcDbLine
 10
63.12577742702453
 20
168.4350559799396
 30
0.0
 11
62.55982478980249
 21
168.4350559799396
 31
0.0
  0
LINE
  5
421
330
1F
100
AcDbEntity
  8
0
 62
     2
100
AcDbLine
 10
85.11362640024308
 20
168.4350559799409
 30
0.0
 11
84.11019894186913
 21
168.4350559799408
 31
0.0
  0
LINE
  5
422
330
1F
100
AcDbEntity
  8
0
 62
     2
100
AcDbLine
 10
86.11019894187021
 20
168.4350559799409
 30
0.0
 11
85.11362640024308
 21
168.4350559799409
 31
0.0
  0
LINE
  5
423
330
1F
100
AcDbEntity
  8
0
 62
     2
100
AcDbLine
 10
81.38013150340268
 20
168.4350559799406
 30
0.0
 11
81.11019894187208
 21
168.4350559799406
 31
0.0
  0
LINE
  5
424
330
1F
100
AcDbEntity
  8
0
 62
     2
100
AcDbLine
 10
83.11019894187515
 20
168.4350559799408
 30
0.0
 11
81.38013150340268
 21
168.4350559799406
 31
0.0
  0
LINE
  5
425
330
1F
100
AcDbEntity
  8
0
 62
     2
100
AcDbLine
 10
78.01362640024277
 20
168.4350559799405
 30
0.0
 11
77.0101989418703
 21
168.4350559799404
 31
0.0
  0
LINE
  5
426
330
1F
100
AcDbEntity
  8
0
 62
     2
100
AcDbLine
 10
79.01019894187019
 20
168.4350559799405
 30
0.0
 11
78.01362640024277
 21
168.4350559799405
 31
0.0
  0
LINE
  5
427
330
1F
100
AcDbEntity
  8
0
 62
     2
100
AcDbLine
 10
74.2801315034013
 20
168.4350559799402
 30
0.0
 11
74.01019894186928
 21
168.4350559799402
 31
0.0
  0
LINE
  5
428
330
1F
100
AcDbEntity
  8
0
 62
     2
100
AcDbLine
 10
76.01019894186922
 20
168.4350559799404
 30
0.0
 11
74.2801315034013
 21
168.4350559799402
 31
0.0
  0
LINE
  5
429
330
1F
100
AcDbEntity
  8
0
 62
     2
100
AcDbLine
 10
79.01019894018023
 20
168.4350559799405
 30
0.0
 11
81.11019894017923
 21
168.4350559799406
 31
0.0
  0
LINE
  5
42A
330
1F
100
AcDbEntity
  8
0
 62
     2
100
AcDbLine
 10
75.01019894068585
 20
166.6350559799404
 30
0.0
 11
75.01019894068585
 21
167.4350559721128
 31
0.0
  0
LINE
  5
42B
330
1F
100
AcDbEntity
  8
0
 62
     2
100
AcDbLine
 10
85.1101989406865
 20
167.43505597211
 30
0.0
 11
85.11019894068639
 21
166.6350559799409
 31
0.0
  0
LINE
  5
42C
330
1F
100
AcDbEntity
  8
0
 62
     2
100
AcDbLine
 10
82.11019894068627
 20
166.6350559799408
 30
0.0
 11
82.11019894068627
 21
167.435055972111
 31
0.0
  0
LINE
  5
42D
330
1F
100
AcDbEntity
  8
0
 62
     2
100
AcDbLine
 10
78.01019894068699
 20
167.4350559721118
 30
0.0
 11
78.01019894068688
 21
166.6350559799406
 31
0.0
  0
LINE
  5
42E
330
1F
100
AcDbEntity
  8
0
 62
     2
100
AcDbLine
 10
85.11019894187021
 20
167.4350559799409
 30
0.0
 11
84.1101989418697
 21
167.4350559799409
 31
0.0
  0
LINE
  5
42F
330
1F
100
AcDbEntity
  8
0
 62
     2
100
AcDbLine
 10
83.1101989418735
 20
167.4350559799408
 30
0.0
 11
84.1101989418697
 21
167.4350559799409
 31
0.0
  0
LINE
  5
430
330
1F
100
AcDbEntity
  8
0
 62
     2
100
AcDbLine
 10
83.1101989418735
 20
167.4350559799408
 30
0.0
 11
82.11019894187197
 21
167.4350559799408
 31
0.0
  0
LINE
  5
431
330
1F
100
AcDbEntity
  8
0
 62
     2
100
AcDbLine
 10
78.01019894187013
 20
167.4350559799405
 30
0.0
 11
77.01019894186928
 21
167.4350559799405
 31
0.0
  0
LINE
  5
432
330
1F
100
AcDbEntity
  8
0
 62
     2
100
AcDbLine
 10
76.01019894186916
 20
167.4350559799404
 30
0.0
 11
77.01019894187019
 21
167.4350559799405
 31
0.0
  0
LINE
  5
433
330
1F
100
AcDbEntity
  8
0
 62
     2
100
AcDbLine
 10
76.01019894186916
 20
167.4350559799404
 30
0.0
 11
75.01019894186916
 21
167.4350559799404
 31
0.0
  0
LINE
  5
434
330
1F
100
AcDbEntity
  8
0
 62
     2
100
AcDbLine
 10
77.01019894186928
 20
167.4350559799405
 30
0.0
 11
77.01019894186922
 21
166.6350559799405
 31
0.0
  0
LINE
  5
435
330
1F
100
AcDbEntity
  8
0
 62
     2
100
AcDbLine
 10
76.01019894186905
 20
167.4350559799404
 30
0.0
 11
76.01019894186905
 21
166.6350559799405
 31
0.0
  0
LINE
  5
436
330
1F
100
AcDbEntity
  8
0
 62
     2
100
AcDbLine
 10
84.1101989418697
 20
167.4350559799409
 30
0.0
 11
84.11019894186964
 21
166.6350559799409
 31
0.0
  0
LINE
  5
437
330
1F
100
AcDbEntity
  8
0
 62
     2
100
AcDbLine
 10
83.1101989418735
 20
167.4350559799408
 30
0.0
 11
83.11019894187339
 21
166.6350559799408
 31
0.0
  0
LINE
  5
438
330
1F
100
AcDbEntity
  8
0
 62
     2
100
AcDbLine
 10
95.31019900561384
 20
162.4350559799418
 30
0.0
 11
95.81019900645904
 21
162.9350559799418
 31
0.0
  0
LINE
  5
439
330
1F
100
AcDbEntity
  8
0
 62
     2
100
AcDbLine
 10
64.81019900562168
 20
162.4350559799401
 30
0.0
 11
64.31019900646723
 21
162.9350559799401
 31
0.0
  0
LINE
  5
43A
330
1F
100
AcDbEntity
  8
0
 62
     2
100
AcDbLine
 10
62.06019901196774
 20
162.4350559799399
 30
0.0
 11
62.0601990102758
 21
162.9350559799398
 31
0.0
  0
LINE
  5
43B
330
1F
100
AcDbEntity
  8
0
 62
     2
100
AcDbLine
 10
60.31019899378819
 20
162.4350559799398
 30
0.0
 11
59.81019899563759
 21
162.9350559893981
 31
0.0
  0
LINE
  5
43C
330
1F
100
AcDbEntity
  8
0
 62
     2
100
AcDbLine
 10
99.81019886949738
 20
162.435055979942
 30
0.0
 11
100.3101988694973
 21
162.935055979942
 31
0.0
  0
LINE
  5
43D
330
1F
100
AcDbEntity
  8
0
 62
     2
100
AcDbLine
 10
98.06019901194216
 20
162.4350559799419
 30
0.0
 11
98.06019901025198
 21
162.9350559893968
 31
0.0
  0
LINE
  5
43E
330
1F
100
AcDbEntity
  8
0
 62
     2
100
AcDbLine
 10
64.78120545398778
 20
168.2350559799397
 30
0.0
 11
65.28120545398767
 21
168.2350559799397
 31
0.0
  0
LINE
  5
43F
330
1F
100
AcDbEntity
  8
0
 62
     2
100
AcDbLine
 10
76.01019894186922
 20
168.4350559799404
 30
0.0
 11
77.01019894187047
 21
168.4350559799404
 31
0.0
  0
LINE
  5
440
330
1F
100
AcDbEntity
  8
0
 62
     2
100
AcDbLine
 10
76.01019894186922
 20
168.4350559799404
 30
0.0
 11
76.01019894186916
 21
167.4350559799404
 31
0.0
  0
LINE
  5
441
330
1F
100
AcDbEntity
  8
0
 62
     2
100
AcDbLine
 10
77.01019894187047
 20
168.4350559799404
 30
0.0
 11
77.01019894187019
 21
167.4350559799412
 31
0.0
  0
LINE
  5
442
330
1F
100
AcDbEntity
  8
0
 62
     2
100
AcDbLine
 10
83.11019894187515
 20
168.4350559799408
 30
0.0
 11
84.1101989418685
 21
168.4350559799408
 31
0.0
  0
LINE
  5
443
330
1F
100
AcDbEntity
  8
0
 62
     2
100
AcDbLine
 10
83.11019894187515
 20
168.4350559799408
 30
0.0
 11
83.1101989418735
 21
167.4350559799408
 31
0.0
  0
LINE
  5
444
330
1F
100
AcDbEntity
  8
0
 62
     2
100
AcDbLine
 10
84.1101989418685
 20
168.4350559799408
 30
0.0
 11
84.1101989418697
 21
167.4350559799369
 31
0.0
  0
LINE
  5
445
330
1F
100
AcDbEntity
  8
0
 62
     2
100
AcDbLine
 10
62.55982478980249
 20
168.4350559799396
 30
0.0
 11
62.64928294315351
 21
168.2350559799396
 31
0.0
  0
LINE
  5
446
330
1F
100
AcDbEntity
  8
0
 62
     2
100
AcDbLine
 10
61.77857332954468
 20
168.2350559799395
 30
0.0
 11
61.68911517619367
 21
168.4350559799395
 31
0.0
  0
LINE
  5
447
330
1F
100
AcDbEntity
  8
0
 62
     2
100
AcDbLine
 10
60.91019886949144
 20
168.2350559799395
 30
0.0
 11
61.11019886949148
 21
168.4350559799395
 31
0.0
  0
LINE
  5
448
330
1F
100
AcDbEntity
  8
0
 62
     2
100
AcDbLine
 10
65.28120545398767
 20
168.2350559799397
 30
0.0
 11
65.08120545398768
 21
168.4350559799397
 31
0.0
  0
LINE
  5
449
330
1F
100
AcDbEntity
  8
0
 62
     2
100
AcDbLine
 10
64.78120545398778
 20
168.2350559799397
 30
0.0
 11
64.78120545398778
 21
168.4350559799397
 31
0.0
  0
LINE
  5
44A
330
1F
100
AcDbEntity
  8
0
 62
     2
100
AcDbLine
 10
64.72578056106275
 20
168.2350559799377
 30
0.0
 11
64.72578056106275
 21
168.4350559799397
 31
0.0
  0
LINE
  5
44B
330
1F
100
AcDbEntity
  8
0
 62
     2
100
AcDbLine
 10
63.12577742702453
 20
168.4350559799396
 30
0.0
 11
63.05353482688358
 21
168.2350559799396
 31
0.0
  0
LINE
  5
44C
330
1F
100
AcDbEntity
  8
0
 62
     2
100
AcDbLine
 10
66.81019886950381
 20
168.4350559799398
 30
0.0
 11
66.81019886950352
 21
168.2350559799398
 31
0.0
  0
LINE
  5
44D
330
1F
100
AcDbEntity
  8
0
 62
     2
100
AcDbLine
 10
95.41372725081376
 20
168.4350559799414
 30
0.0
 11
95.41372725081376
 21
168.2350559799347
 31
0.0
  0
LINE
  5
44E
330
1F
100
AcDbEntity
  8
0
 62
     2
100
AcDbLine
 10
97.0230469868047
 20
168.4350559799416
 30
0.0
 11
97.09336211347804
 21
168.2350559799416
 31
0.0
  0
LINE
  5
44F
330
1F
100
AcDbEntity
  8
0
 62
     2
100
AcDbLine
 10
97.58225358121908
 20
168.4350559799416
 30
0.0
 11
97.49279539520265
 21
168.2350559799416
 31
0.0
  0
LINE
  5
450
330
1F
100
AcDbEntity
  8
0
 62
     2
100
AcDbLine
 10
98.43128249746135
 20
168.4350559799417
 30
0.0
 11
98.34182431144492
 21
168.2350559799416
 31
0.0
  0
LINE
  5
451
330
1F
100
AcDbEntity
  8
0
 62
     2
100
AcDbLine
 10
99.21019886949401
 20
168.2350559799417
 30
0.0
 11
99.01019886949408
 21
168.4350559799417
 31
0.0
  0
LINE
  5
452
330
1F
100
AcDbEntity
  8
0
 62
     2
100
AcDbLine
 10
73.7176505887696
 20
168.2715011147103
 30
0.0
 11
73.71927031319026
 21
168.273120839131
 31
0.0
  0
INSERT
  5
481
330
1F
100
AcDbEntity
  8
Dimension
100
AcDbBlockReference
  2
$TitleBlock elphel_parts
 10
200.0
 20
10.0
 30
0.0
  0
INSERT
  5
487
330
1F
100
AcDbEntity
  8
Outline
100
AcDbBlockReference
  2
Sheet Border
 10
-0.0000000000127898
 20
-0.0000000000534328
 30
0.0
  0
ENDSEC
  0
SECTION
  2
OBJECTS
  0
DICTIONARY
  5
C
330
0
100
AcDbDictionary
281
     1
  3
ACAD_DETAILVIEWSTYLE
350
491
  3
ACAD_GROUP
350
D
  3
ACAD_LAYOUT
350
1A
  3
ACAD_MATERIAL
350
43
  3
ACAD_MLEADERSTYLE
350
6B
  3
ACAD_MLINESTYLE
350
17
  3
ACAD_PLOTSETTINGS
350
19
  3
ACAD_PLOTSTYLENAME
350
E
  3
ACAD_SCALELIST
350
47
  3
ACAD_SECTIONVIEWSTYLE
350
492
  3
ACAD_TABLESTYLE
350
69
  3
ACAD_VISUALSTYLE
350
2A
  3
ACDB_RECOMPOSE_DATA
350
48E
  3
AcDbVariableDictionary
350
48A
  0
SUN
  5
6D
330
29
100
AcDbSun
 90
        1
290
     0
 63
     7
421
 16777215
 40
1.0
291
     1
 91
  2455826
 92
 54000000
292
     0
 70
     2
 71
   256
280
     1
  0
DICTIONARY
  5
491
102
{ACAD_REACTORS
330
C
102
}
330
C
100
AcDbDictionary
281
     1
  0
DICTIONARY
  5
D
102
{ACAD_REACTORS
330
C
102
}
330
C
100
AcDbDictionary
281
     1
  0
DICTIONARY
  5
1A
102
{ACAD_REACTORS
330
C
102
}
330
C
100
AcDbDictionary
281
     1
  3
Layout1
350
1E
  3
Layout2
350
26
  3
Model
350
22
  0
DICTIONARY
  5
43
102
{ACAD_REACTORS
330
C
102
}
330
C
100
AcDbDictionary
281
     1
  3
ByBlock
350
45
  3
ByLayer
350
44
  3
Global
350
46
  0
DICTIONARY
  5
6B
102
{ACAD_REACTORS
330
C
102
}
330
C
100
AcDbDictionary
281
     1
  3
Standard
350
6C
  0
DICTIONARY
  5
17
102
{ACAD_REACTORS
330
C
102
}
330
C
100
AcDbDictionary
281
     1
  3
Standard
350
18
  0
DICTIONARY
  5
19
102
{ACAD_REACTORS
330
C
102
}
330
C
100
AcDbDictionary
281
     1
  0
ACDBDICTIONARYWDFLT
  5
E
102
{ACAD_REACTORS
330
C
102
}
330
C
100
AcDbDictionary
281
     1
  3
Normal
350
F
100
AcDbDictionaryWithDefault
340
F
  0
DICTIONARY
  5
47
102
{ACAD_REACTORS
330
C
102
}
330
C
100
AcDbDictionary
281
     1
  3
A0
350
48
  3
A1
350
49
  3
A2
350
4A
  3
A3
350
4B
  3
A4
350
4C
  3
A5
350
4D
  3
A6
350
4E
  3
A7
350
4F
  3
A8
350
50
  3
A9
350
51
  3
B0
350
52
  3
B1
350
53
  3
B2
350
54
  3
B3
350
55
  3
B4
350
56
  3
B5
350
57
  3
B6
350
58
  3
B7
350
59
  3
B8
350
5A
  3
B9
350
5B
  3
C0
350
5C
  3
C1
350
5D
  3
C2
350
5E
  3
C3
350
5F
  3
C4
350
60
  3
C5
350
61
  3
C6
350
62
  3
C7
350
63
  3
C8
350
64
  3
C9
350
65
  3
D0
350
66
  3
D1
350
67
  3
D2
350
68
  0
DICTIONARY
  5
492
102
{ACAD_REACTORS
330
C
102
}
330
C
100
AcDbDictionary
281
     1
  0
DICTIONARY
  5
69
102
{ACAD_REACTORS
330
C
102
}
330
C
100
AcDbDictionary
281
     1
  3
Standard
350
6A
  0
DICTIONARY
  5
2A
102
{ACAD_REACTORS
330
C
102
}
330
C
100
AcDbDictionary
281
     1
  3
2dWireframe
350
2F
  3
Basic
350
32
  3
Brighten
350
36
  3
ColorChange
350
3A
  3
Conceptual
350
34
  3
Dim
350
35
  3
EdgeColorOff
350
3D
  3
Facepattern
350
39
  3
Flat
350
2B
  3
FlatWithEdges
350
2C
  3
Gouraud
350
2D
  3
GouraudWithEdges
350
2E
  3
Hidden
350
31
  3
JitterOff
350
3B
  3
Linepattern
350
38
  3
OverhangOff
350
3C
  3
Realistic
350
33
  3
Shaded
350
42
  3
Shaded with edges
350
41
  3
Shades of Gray
350
3E
  3
Sketchy
350
3F
  3
Thicken
350
37
  3
Wireframe
350
30
  3
X-Ray
350
40
  0
XRECORD
  5
48E
102
{ACAD_REACTORS
330
C
102
}
330
C
100
AcDbXrecord
280
     1
 90
        1
330
6A
  0
DICTIONARY
  5
48A
102
{ACAD_REACTORS
330
C
102
}
330
C
100
AcDbDictionary
281
     1
  3
CANNOSCALE
350
48B
  3
CMLEADERSTYLE
350
490
  3
CTABLESTYLE
350
48F
  0
LAYOUT
  5
1E
102
{ACAD_REACTORS
330
1A
102
}
330
1A
100
AcDbPlotSettings
  1

  2
none_device
  4

  6

 40
0.0
 41
0.0
 42
0.0
 43
0.0
 44
0.0
 45
0.0
 46
0.0
 47
0.0
 48
0.0
 49
0.0
140
0.0
141
0.0
142
1.0
143
1.0
 70
   688
 72
     1
 73
     0
 74
     5
  7

 75
    16
 76
     0
 77
     2
 78
   300
147
1.0
148
0.0
149
0.0
100
AcDbLayout
  1
Layout1
 70
     1
 71
     1
 10
0.0
 20
0.0
 11
420.0
 21
297.0
 12
0.0
 22
0.0
 32
0.0
 14
1.000000000000000E+20
 24
1.000000000000000E+20
 34
1.000000000000000E+20
 15
-1.000000000000000E+20
 25
-1.000000000000000E+20
 35
-1.000000000000000E+20
146
0.0
 13
0.0
 23
0.0
 33
0.0
 16
1.0
 26
0.0
 36
0.0
 17
0.0
 27
1.0
 37
0.0
 76
     0
330
1B
  0
LAYOUT
  5
26
102
{ACAD_REACTORS
330
1A
102
}
330
1A
100
AcDbPlotSettings
  1

  2
none_device
  4

  6

 40
0.0
 41
0.0
 42
0.0
 43
0.0
 44
0.0
 45
0.0
 46
0.0
 47
0.0
 48
0.0
 49
0.0
140
0.0
141
0.0
142
1.0
143
1.0
 70
   688
 72
     1
 73
     0
 74
     5
  7

 75
    16
 76
     0
 77
     2
 78
   300
147
1.0
148
0.0
149
0.0
100
AcDbLayout
  1
Layout2
 70
     1
 71
     2
 10
0.0
 20
0.0
 11
0.0
 21
0.0
 12
0.0
 22
0.0
 32
0.0
 14
0.0
 24
0.0
 34
0.0
 15
0.0
 25
0.0
 35
0.0
146
0.0
 13
0.0
 23
0.0
 33
0.0
 16
1.0
 26
0.0
 36
0.0
 17
0.0
 27
1.0
 37
0.0
 76
     0
330
23
  0
LAYOUT
  5
22
102
{ACAD_REACTORS
330
1A
102
}
330
1A
100
AcDbPlotSettings
  1

  2
none_device
  4
Letter_(8.50_x_11.00_Inches)
  6

 40
6.35
 41
6.35
 42
6.35000508
 43
6.35000508
 44
215.9
 45
279.4
 46
0.0
 47
0.0
 48
0.0
 49
0.0
140
0.0
141
0.0
142
1.0
143
1.0
 70
  1712
 72
     1
 73
     0
 74
     0
  7

 75
     0
 76
     0
 77
     2
 78
   300
147
1.0
148
0.0
149
0.0
100
AcDbLayout
  1
Model
 70
     1
 71
     0
 10
0.0
 20
0.0
 11
210.0
 21
297.0
 12
0.0
 22
0.0
 32
0.0
 14
-0.0000000000127898
 24
-0.0000000000535465
 34
0.0
 15
209.9999999999827
 25
296.9999999999802
 35
0.0
146
0.0
 13
0.0
 23
0.0
 33
0.0
 16
1.0
 26
0.0
 36
0.0
 17
0.0
 27
1.0
 37
0.0
 76
     0
330
1F
331
29
  0
MATERIAL
  5
45
102
{ACAD_REACTORS
330
43
102
}
330
43
100
AcDbMaterial
  1
ByBlock
 72
     1
 94
      127
  0
MATERIAL
  5
44
102
{ACAD_REACTORS
330
43
102
}
330
43
100
AcDbMaterial
  1
ByLayer
 72
     1
 94
      127
  0
MATERIAL
  5
46
102
{ACAD_REACTORS
330
43
102
}
330
43
100
AcDbMaterial
  1
Global
 72
     1
 94
      127
  0
MLEADERSTYLE
  5
6C
102
{ACAD_REACTORS
330
6B
102
}
330
6B
100
AcDbMLeaderStyle
179
     2
170
     2
171
     1
172
     0
 90
        2
 40
0.0
 41
0.0
173
     1
 91
-1056964608
340
14
 92
       -2
290
     1
 42
2.0
291
     1
 43
8.0
  3
Standard
341
0
 44
4.0
300

342
11
174
     1
178
     6
175
     1
176
     0
 93
-1056964608
 45
4.0
292
     0
297
     0
 46
4.0
343
0
 94
-1056964608
 47
1.0
 49
1.0
140
1.0
293
     1
141
0.0
294
     1
177
     0
142
1.0
295
     0
296
     0
143
3.75
271
     0
272
     9
273
     9
298
     0
  0
MLINESTYLE
  5
18
102
{ACAD_REACTORS
330
17
102
}
330
17
100
AcDbMlineStyle
  2
Standard
 70
     0
  3

 62
   256
 51
90.0
 52
90.0
 71
     2
 49
0.5
 62
   256
  6
BYLAYER
 49
-0.5
 62
   256
  6
BYLAYER
  0
ACDBPLACEHOLDER
  5
F
102
{ACAD_REACTORS
330
E
102
}
330
E
  0
SCALE
  5
48
102
{ACAD_REACTORS
330
47
102
}
330
47
100
AcDbScale
 70
     0
300
1:1
140
1.0
141
1.0
290
     1
  0
SCALE
  5
49
102
{ACAD_REACTORS
330
47
102
}
330
47
100
AcDbScale
 70
     0
300
1:2
140
1.0
141
2.0
290
     0
  0
SCALE
  5
4A
102
{ACAD_REACTORS
330
47
102
}
330
47
100
AcDbScale
 70
     0
300
1:4
140
1.0
141
4.0
290
     0
  0
SCALE
  5
4B
102
{ACAD_REACTORS
330
47
102
}
330
47
100
AcDbScale
 70
     0
300
1:5
140
1.0
141
5.0
290
     0
  0
SCALE
  5
4C
102
{ACAD_REACTORS
330
47
102
}
330
47
100
AcDbScale
 70
     0
300
1:8
140
1.0
141
8.0
290
     0
  0
SCALE
  5
4D
102
{ACAD_REACTORS
330
47
102
}
330
47
100
AcDbScale
 70
     0
300
1:10
140
1.0
141
10.0
290
     0
  0
SCALE
  5
4E
102
{ACAD_REACTORS
330
47
102
}
330
47
100
AcDbScale
 70
     0
300
1:16
140
1.0
141
16.0
290
     0
  0
SCALE
  5
4F
102
{ACAD_REACTORS
330
47
102
}
330
47
100
AcDbScale
 70
     0
300
1:20
140
1.0
141
20.0
290
     0
  0
SCALE
  5
50
102
{ACAD_REACTORS
330
47
102
}
330
47
100
AcDbScale
 70
     0
300
1:30
140
1.0
141
30.0
290
     0
  0
SCALE
  5
51
102
{ACAD_REACTORS
330
47
102
}
330
47
100
AcDbScale
 70
     0
300
1:40
140
1.0
141
40.0
290
     0
  0
SCALE
  5
52
102
{ACAD_REACTORS
330
47
102
}
330
47
100
AcDbScale
 70
     0
300
1:50
140
1.0
141
50.0
290
     0
  0
SCALE
  5
53
102
{ACAD_REACTORS
330
47
102
}
330
47
100
AcDbScale
 70
     0
300
1:100
140
1.0
141
100.0
290
     0
  0
SCALE
  5
54
102
{ACAD_REACTORS
330
47
102
}
330
47
100
AcDbScale
 70
     0
300
2:1
140
2.0
141
1.0
290
     0
  0
SCALE
  5
55
102
{ACAD_REACTORS
330
47
102
}
330
47
100
AcDbScale
 70
     0
300
4:1
140
4.0
141
1.0
290
     0
  0
SCALE
  5
56
102
{ACAD_REACTORS
330
47
102
}
330
47
100
AcDbScale
 70
     0
300
8:1
140
8.0
141
1.0
290
     0
  0
SCALE
  5
57
102
{ACAD_REACTORS
330
47
102
}
330
47
100
AcDbScale
 70
     0
300
10:1
140
10.0
141
1.0
290
     0
  0
SCALE
  5
58
102
{ACAD_REACTORS
330
47
102
}
330
47
100
AcDbScale
 70
     0
300
100:1
140
100.0
141
1.0
290
     0
  0
SCALE
  5
59
102
{ACAD_REACTORS
330
47
102
}
330
47
100
AcDbScale
 70
     0
300
1/128" = 1'-0"
140
0.0078125
141
12.0
290
     0
  0
SCALE
  5
5A
102
{ACAD_REACTORS
330
47
102
}
330
47
100
AcDbScale
 70
     0
300
1/64" = 1'-0"
140
0.015625
141
12.0
290
     0
  0
SCALE
  5
5B
102
{ACAD_REACTORS
330
47
102
}
330
47
100
AcDbScale
 70
     0
300
1/32" = 1'-0"
140
0.03125
141
12.0
290
     0
  0
SCALE
  5
5C
102
{ACAD_REACTORS
330
47
102
}
330
47
100
AcDbScale
 70
     0
300
1/16" = 1'-0"
140
0.0625
141
12.0
290
     0
  0
SCALE
  5
5D
102
{ACAD_REACTORS
330
47
102
}
330
47
100
AcDbScale
 70
     0
300
3/32" = 1'-0"
140
0.09375
141
12.0
290
     0
  0
SCALE
  5
5E
102
{ACAD_REACTORS
330
47
102
}
330
47
100
AcDbScale
 70
     0
300
1/8" = 1'-0"
140
0.125
141
12.0
290
     0
  0
SCALE
  5
5F
102
{ACAD_REACTORS
330
47
102
}
330
47
100
AcDbScale
 70
     0
300
3/16" = 1'-0"
140
0.1875
141
12.0
290
     0
  0
SCALE
  5
60
102
{ACAD_REACTORS
330
47
102
}
330
47
100
AcDbScale
 70
     0
300
1/4" = 1'-0"
140
0.25
141
12.0
290
     0
  0
SCALE
  5
61
102
{ACAD_REACTORS
330
47
102
}
330
47
100
AcDbScale
 70
     0
300
3/8" = 1'-0"
140
0.375
141
12.0
290
     0
  0
SCALE
  5
62
102
{ACAD_REACTORS
330
47
102
}
330
47
100
AcDbScale
 70
     0
300
1/2" = 1'-0"
140
0.5
141
12.0
290
     0
  0
SCALE
  5
63
102
{ACAD_REACTORS
330
47
102
}
330
47
100
AcDbScale
 70
     0
300
3/4" = 1'-0"
140
0.75
141
12.0
290
     0
  0
SCALE
  5
64
102
{ACAD_REACTORS
330
47
102
}
330
47
100
AcDbScale
 70
     0
300
1" = 1'-0"
140
1.0
141
12.0
290
     0
  0
SCALE
  5
65
102
{ACAD_REACTORS
330
47
102
}
330
47
100
AcDbScale
 70
     0
300
1-1/2" = 1'-0"
140
1.5
141
12.0
290
     0
  0
SCALE
  5
66
102
{ACAD_REACTORS
330
47
102
}
330
47
100
AcDbScale
 70
     0
300
3" = 1'-0"
140
3.0
141
12.0
290
     0
  0
SCALE
  5
67
102
{ACAD_REACTORS
330
47
102
}
330
47
100
AcDbScale
 70
     0
300
6" = 1'-0"
140
6.0
141
12.0
290
     0
  0
SCALE
  5
68
102
{ACAD_REACTORS
330
47
102
}
330
47
100
AcDbScale
 70
     0
300
1'-0" = 1'-0"
140
12.0
141
12.0
290
     0
  0
TABLESTYLE
  5
6A
102
{ACAD_REACTORS
330
69
102
}
102
{ACAD_XDICTIONARY
360
48C
102
}
330
69
100
AcDbTableStyle
  3
Standard
 70
     0
 71
     0
 40
0.06
 41
0.06
280
     0
281
     0
  7
Standard
140
4.5
170
     2
 62
     0
 63
   257
283
     0
 90
        4
 91
        0
  1

274
    -2
284
     1
 64
     0
275
    -2
285
     1
 65
     0
276
    -2
286
     1
 66
     0
277
    -2
287
     1
 67
     0
278
    -2
288
     1
 68
     0
279
    -2
289
     1
 69
     0
  7
Standard
140
6.0
170
     5
 62
     0
 63
   257
283
     0
 90
        4
 91
        0
  1

274
    -2
284
     1
 64
     0
275
    -2
285
     1
 65
     0
276
    -2
286
     1
 66
     0
277
    -2
287
     1
 67
     0
278
    -2
288
     1
 68
     0
279
    -2
289
     1
 69
     0
  7
Standard
140
4.5
170
     5
 62
     0
 63
   257
283
     0
 90
        4
 91
        0
  1

274
    -2
284
     1
 64
     0
275
    -2
285
     1
 65
     0
276
    -2
286
     1
 66
     0
277
    -2
287
     1
 67
     0
278
    -2
288
     1
 68
     0
279
    -2
289
     1
 69
     0
  0
VISUALSTYLE
  5
2F
102
{ACAD_REACTORS
330
2A
102
}
330
2A
100
AcDbVisualStyle
  2
2dWireframe
 70
     4
177
     3
291
     0
 70
    58
 90
        0
176
     1
 90
        2
176
     1
 90
        0
176
     1
 90
        0
176
     1
 40
0.6
176
     1
 40
30.0
176
     1
 62
     7
420
 16777215
176
     1
 90
        1
176
     1
 90
        4
176
     1
 62
     7
176
     1
 62
   257
176
     1
 90
        1
176
     1
 90
        1
176
     1
 40
1.0
176
     1
 90
        0
176
     1
 62
   257
176
     1
 40
1.0
176
     1
 90
        1
176
     1
 90
        6
176
     1
 90
        2
176
     1
 62
     7
176
     1
 90
        5
176
     1
 90
        0
176
     1
 90
        0
176
     1
290
     0
176
     1
 90
        1
176
     1
 40
0.0
176
     1
 90
        0
176
     1
290
     1
176
     1
290
     1
176
     1
290
     0
176
     1
290
     0
176
     1
290
     0
176
     1
290
     0
176
     1
290
     0
176
     1
290
     0
176
     1
290
     0
176
     1
 90
       50
176
     1
 40
0.0
176
     1
 40
1.0
176
     1
 90
        0
176
     1
 62
   178
420
        0
176
     1
 90
       50
176
     1
 90
        3
176
     1
 62
     5
420
      255
176
     1
290
     0
176
     1
 90
       50
176
     1
 90
       50
176
     1
 90
       50
176
     1
290
     0
176
     1
 90
       50
176
     1
 62
   256
176
     0
 40
1.0
176
     0
 90
        2
176
     1
  1
strokes_ogs.tif
176
     1
290
     0
176
     1
 40
1.0
176
     1
 40
1.0
176
     1
  0
VISUALSTYLE
  5
32
102
{ACAD_REACTORS
330
2A
102
}
330
2A
100
AcDbVisualStyle
  2
Basic
 70
     7
177
     3
291
     1
 70
    58
 90
        1
176
     1
 90
        0
176
     1
 90
        1
176
     1
 90
        0
176
     1
 40
0.6
176
     1
 40
30.0
176
     1
 62
     7
420
 16777215
176
     1
 90
        0
176
     1
 90
        4
176
     1
 62
     7
176
     1
 62
   257
176
     1
 90
        1
176
     1
 90
        1
176
     1
 40
1.0
176
     1
 90
        8
176
     1
 62
     7
176
     1
 40
1.0
176
     1
 90
        1
176
     1
 90
        6
176
     1
 90
        2
176
     1
 62
     7
176
     1
 90
        5
176
     1
 90
        0
176
     1
 90
        0
176
     1
290
     0
176
     1
 90
        1
176
     1
 40
0.0
176
     1
 90
        0
176
     1
290
     0
176
     1
290
     1
176
     1
290
     1
176
     1
290
     0
176
     1
290
     0
176
     1
290
     0
176
     1
290
     0
176
     1
290
     0
176
     1
290
     0
176
     1
 90
       50
176
     1
 40
0.0
176
     1
 40
1.0
176
     1
 90
        0
176
     1
 62
   178
420
        0
176
     1
 90
       50
176
     1
 90
        3
176
     1
 62
     5
420
      255
176
     1
290
     0
176
     1
 90
       50
176
     1
 90
       50
176
     1
 90
       50
176
     1
290
     0
176
     1
 90
       50
176
     1
 62
   256
176
     0
 40
1.0
176
     0
 90
        2
176
     1
  1
strokes_ogs.tif
176
     1
290
     0
176
     1
 40
1.0
176
     1
 40
1.0
176
     1
  0
VISUALSTYLE
  5
36
102
{ACAD_REACTORS
330
2A
102
}
330
2A
100
AcDbVisualStyle
  2
Brighten
 70
    12
177
     3
291
     1
 70
    58
 90
        2
176
     1
 90
        2
176
     1
 90
        0
176
     1
 90
        0
176
     1
 40
0.6
176
     1
 40
30.0
176
     1
 62
     7
420
 16777215
176
     1
 90
        1
176
     1
 90
        4
176
     1
 62
     7
176
     1
 62
   257
176
     1
 90
        1
176
     1
 90
        1
176
     1
 40
1.0
176
     1
 90
        8
176
     1
 62
     7
176
     1
 40
1.0
176
     1
 90
        1
176
     1
 90
        6
176
     1
 90
        2
176
     1
 62
     7
176
     1
 90
        5
176
     1
 90
        0
176
     1
 90
        0
176
     1
290
     0
176
     1
 90
        1
176
     1
 40
50.0
176
     1
 90
        0
176
     1
290
     0
176
     1
290
     1
176
     1
290
     1
176
     1
290
     0
176
     1
290
     0
176
     1
290
     0
176
     1
290
     0
176
     1
290
     0
176
     1
290
     0
176
     1
 90
       50
176
     1
 40
0.0
176
     1
 40
1.0
176
     1
 90
        0
176
     1
 62
   178
420
        0
176
     1
 90
       50
176
     1
 90
        3
176
     1
 62
     5
420
      255
176
     1
290
     0
176
     1
 90
       50
176
     1
 90
       50
176
     1
 90
       50
176
     1
290
     0
176
     1
 90
       50
176
     1
 62
   256
176
     0
 40
1.0
176
     0
 90
        2
176
     1
  1
strokes_ogs.tif
176
     1
290
     0
176
     1
 40
1.0
176
     1
 40
1.0
176
     1
  0
VISUALSTYLE
  5
3A
102
{ACAD_REACTORS
330
2A
102
}
330
2A
100
AcDbVisualStyle
  2
ColorChange
 70
    16
177
     3
291
     1
 70
    58
 90
        2
176
     1
 90
        2
176
     1
 90
        3
176
     1
 90
        0
176
     1
 40
0.6
176
     1
 40
30.0
176
     1
 62
     8
420
  8421504
176
     1
 90
        1
176
     1
 90
        4
176
     1
 62
     7
176
     1
 62
   257
176
     1
 90
        1
176
     1
 90
        1
176
     1
 40
1.0
176
     1
 90
        8
176
     1
 62
     8
420
  8421504
176
     1
 40
1.0
176
     1
 90
        1
176
     1
 90
        6
176
     1
 90
        2
176
     1
 62
     7
176
     1
 90
        5
176
     1
 90
        0
176
     1
 90
        0
176
     1
290
     0
176
     1
 90
        1
176
     1
 40
0.0
176
     1
 90
        0
176
     1
290
     0
176
     1
290
     1
176
     1
290
     1
176
     1
290
     0
176
     1
290
     0
176
     1
290
     0
176
     1
290
     0
176
     1
290
     0
176
     1
290
     0
176
     1
 90
       50
176
     1
 40
0.0
176
     1
 40
1.0
176
     1
 90
        0
176
     1
 62
   178
420
        0
176
     1
 90
       50
176
     1
 90
        3
176
     1
 62
     5
420
      255
176
     1
290
     0
176
     1
 90
       50
176
     1
 90
       50
176
     1
 90
       50
176
     1
290
     0
176
     1
 90
       50
176
     1
 62
   256
176
     0
 40
1.0
176
     0
 90
        2
176
     1
  1
strokes_ogs.tif
176
     1
290
     0
176
     1
 40
1.0
176
     1
 40
1.0
176
     1
  0
VISUALSTYLE
  5
34
102
{ACAD_REACTORS
330
2A
102
}
330
2A
100
AcDbVisualStyle
  2
Conceptual
 70
     9
177
     3
291
     0
 70
    58
 90
        3
176
     1
 90
        2
176
     1
 90
        0
176
     1
 90
        0
176
     1
 40
0.6
176
     1
 40
30.0
176
     1
 62
     7
420
 16777215
176
     1
 90
        2
176
     1
 90
        2
176
     1
 62
     7
176
     1
 62
   257
176
     1
 90
        1
176
     1
 90
        1
176
     1
 40
179.0
176
     1
 90
        8
176
     1
 62
     7
176
     1
 40
1.0
176
     1
 90
        1
176
     1
 90
        6
176
     1
 90
        2
176
     1
 62
     7
176
     1
 90
        3
176
     1
 90
        0
176
     1
 90
        0
176
     1
290
     0
176
     1
 90
        1
176
     1
 40
0.0
176
     1
 90
        0
176
     1
290
     0
176
     1
290
     1
176
     1
290
     1
176
     1
290
     0
176
     1
290
     0
176
     1
290
     0
176
     1
290
     0
176
     1
290
     0
176
     1
290
     0
176
     1
 90
       50
176
     1
 40
0.0
176
     1
 40
1.0
176
     1
 90
        0
176
     1
 62
   178
420
        0
176
     1
 90
       50
176
     1
 90
        3
176
     1
 62
     5
420
      255
176
     1
290
     0
176
     1
 90
       50
176
     1
 90
       50
176
     1
 90
       50
176
     1
290
     0
176
     1
 90
       50
176
     1
 62
   256
176
     0
 40
1.0
176
     0
 90
        2
176
     1
  1
strokes_ogs.tif
176
     1
290
     0
176
     1
 40
1.0
176
     1
 40
1.0
176
     1
  0
VISUALSTYLE
  5
35
102
{ACAD_REACTORS
330
2A
102
}
330
2A
100
AcDbVisualStyle
  2
Dim
 70
    11
177
     3
291
     1
 70
    58
 90
        2
176
     1
 90
        2
176
     1
 90
        0
176
     1
 90
        0
176
     1
 40
0.6
176
     1
 40
30.0
176
     1
 62
     7
420
 16777215
176
     1
 90
        1
176
     1
 90
        4
176
     1
 62
     7
176
     1
 62
   257
176
     1
 90
        1
176
     1
 90
        1
176
     1
 40
1.0
176
     1
 90
        8
176
     1
 62
     7
176
     1
 40
1.0
176
     1
 90
        1
176
     1
 90
        6
176
     1
 90
        2
176
     1
 62
     7
176
     1
 90
        5
176
     1
 90
        0
176
     1
 90
        0
176
     1
290
     0
176
     1
 90
        1
176
     1
 40
-50.0
176
     1
 90
        0
176
     1
290
     0
176
     1
290
     1
176
     1
290
     1
176
     1
290
     0
176
     1
290
     0
176
     1
290
     0
176
     1
290
     0
176
     1
290
     0
176
     1
290
     0
176
     1
 90
       50
176
     1
 40
0.0
176
     1
 40
1.0
176
     1
 90
        0
176
     1
 62
   178
420
        0
176
     1
 90
       50
176
     1
 90
        3
176
     1
 62
     5
420
      255
176
     1
290
     0
176
     1
 90
       50
176
     1
 90
       50
176
     1
 90
       50
176
     1
290
     0
176
     1
 90
       50
176
     1
 62
   256
176
     0
 40
1.0
176
     0
 90
        2
176
     1
  1
strokes_ogs.tif
176
     1
290
     0
176
     1
 40
1.0
176
     1
 40
1.0
176
     1
  0
VISUALSTYLE
  5
3D
102
{ACAD_REACTORS
330
2A
102
}
330
2A
100
AcDbVisualStyle
  2
EdgeColorOff
 70
    22
177
     3
291
     1
 70
    58
 90
        2
176
     0
 90
        2
176
     0
 90
        0
176
     0
 90
        0
176
     0
 40
0.6
176
     0
 40
30.0
176
     0
 62
     7
420
 16777215
176
     0
 90
        1
176
     0
 90
        4
176
     0
 62
     7
176
     0
 62
   257
176
     0
 90
        1
176
     0
 90
        1
176
     0
 40
1.0
176
     0
 90
        8
176
     2
 62
     7
176
     0
 40
1.0
176
     0
 90
        1
176
     0
 90
        6
176
     0
 90
        2
176
     0
 62
     7
176
     0
 90
        5
176
     0
 90
        0
176
     0
 90
        0
176
     0
290
     0
176
     0
 90
        1
176
     0
 40
0.0
176
     0
 90
        0
176
     0
290
     0
176
     0
290
     1
176
     0
290
     1
176
     0
290
     0
176
     0
290
     0
176
     0
290
     0
176
     0
290
     0
176
     0
290
     0
176
     0
290
     0
176
     0
 90
       50
176
     0
 40
0.0
176
     0
 40
1.0
176
     0
 90
        0
176
     0
 62
   178
420
        0
176
     0
 90
       50
176
     0
 90
        3
176
     0
 62
     5
420
      255
176
     0
290
     0
176
     0
 90
       50
176
     0
 90
       50
176
     0
 90
       50
176
     0
290
     0
176
     0
 90
       50
176
     0
 62
   256
176
     0
 40
1.0
176
     0
 90
        2
176
     0
  1
strokes_ogs.tif
176
     0
290
     0
176
     0
 40
1.0
176
     0
 40
1.0
176
     0
  0
VISUALSTYLE
  5
39
102
{ACAD_REACTORS
330
2A
102
}
330
2A
100
AcDbVisualStyle
  2
Facepattern
 70
    15
177
     3
291
     1
 70
    58
 90
        2
176
     1
 90
        2
176
     1
 90
        0
176
     1
 90
        0
176
     1
 40
0.6
176
     1
 40
30.0
176
     1
 62
     7
420
 16777215
176
     1
 90
        1
176
     1
 90
        4
176
     1
 62
     7
176
     1
 62
   257
176
     1
 90
        1
176
     1
 90
        1
176
     1
 40
1.0
176
     1
 90
        8
176
     1
 62
     7
176
     1
 40
1.0
176
     1
 90
        1
176
     1
 90
        6
176
     1
 90
        2
176
     1
 62
     7
176
     1
 90
        5
176
     1
 90
        0
176
     1
 90
        0
176
     1
290
     0
176
     1
 90
        1
176
     1
 40
0.0
176
     1
 90
        0
176
     1
290
     0
176
     1
290
     1
176
     1
290
     1
176
     1
290
     0
176
     1
290
     0
176
     1
290
     0
176
     1
290
     0
176
     1
290
     0
176
     1
290
     0
176
     1
 90
       50
176
     1
 40
0.0
176
     1
 40
1.0
176
     1
 90
        0
176
     1
 62
   178
420
        0
176
     1
 90
       50
176
     1
 90
        3
176
     1
 62
     5
420
      255
176
     1
290
     0
176
     1
 90
       50
176
     1
 90
       50
176
     1
 90
       50
176
     1
290
     0
176
     1
 90
       50
176
     1
 62
   256
176
     0
 40
1.0
176
     0
 90
        2
176
     1
  1
strokes_ogs.tif
176
     1
290
     0
176
     1
 40
1.0
176
     1
 40
1.0
176
     1
  0
VISUALSTYLE
  5
2B
102
{ACAD_REACTORS
330
2A
102
}
330
2A
100
AcDbVisualStyle
  2
Flat
 70
     0
177
     3
291
     1
 70
    58
 90
        2
176
     1
 90
        1
176
     1
 90
        1
176
     1
 90
        2
176
     1
 40
0.6
176
     1
 40
30.0
176
     1
 62
     7
420
 16777215
176
     1
 90
        0
176
     1
 90
        0
176
     1
 62
     7
176
     1
 62
   257
176
     1
 90
        1
176
     1
 90
        1
176
     1
 40
1.0
176
     1
 90
        8
176
     1
 62
     7
176
     1
 40
1.0
176
     1
 90
        1
176
     1
 90
        6
176
     1
 90
        2
176
     1
 62
     7
176
     1
 90
        5
176
     1
 90
        0
176
     1
 90
        0
176
     1
290
     0
176
     1
 90
       13
176
     1
 40
0.0
176
     1
 90
        0
176
     1
290
     0
176
     1
290
     1
176
     1
290
     1
176
     1
290
     0
176
     1
290
     0
176
     1
290
     0
176
     1
290
     0
176
     1
290
     0
176
     1
290
     0
176
     1
 90
       50
176
     1
 40
0.0
176
     1
 40
1.0
176
     1
 90
        0
176
     1
 62
   178
420
        0
176
     1
 90
       50
176
     1
 90
        3
176
     1
 62
     5
420
      255
176
     1
290
     0
176
     1
 90
       50
176
     1
 90
       50
176
     1
 90
       50
176
     1
290
     0
176
     1
 90
       50
176
     1
 62
   256
176
     0
 40
1.0
176
     0
 90
        2
176
     1
  1
strokes_ogs.tif
176
     1
290
     0
176
     1
 40
1.0
176
     1
 40
1.0
176
     1
  0
VISUALSTYLE
  5
2C
102
{ACAD_REACTORS
330
2A
102
}
330
2A
100
AcDbVisualStyle
  2
FlatWithEdges
 70
     1
177
     3
291
     1
 70
    58
 90
        2
176
     1
 90
        1
176
     1
 90
        1
176
     1
 90
        2
176
     1
 40
0.6
176
     1
 40
30.0
176
     1
 62
     7
420
 16777215
176
     1
 90
        1
176
     1
 90
        0
176
     1
 62
     7
176
     1
 62
   257
176
     1
 90
        1
176
     1
 90
        1
176
     1
 40
1.0
176
     1
 90
        0
176
     1
 62
   257
176
     1
 40
1.0
176
     1
 90
        1
176
     1
 90
        6
176
     1
 90
        2
176
     1
 62
     7
176
     1
 90
        5
176
     1
 90
        0
176
     1
 90
        0
176
     1
290
     0
176
     1
 90
       13
176
     1
 40
0.0
176
     1
 90
        0
176
     1
290
     0
176
     1
290
     1
176
     1
290
     1
176
     1
290
     0
176
     1
290
     0
176
     1
290
     0
176
     1
290
     0
176
     1
290
     0
176
     1
290
     0
176
     1
 90
       50
176
     1
 40
0.0
176
     1
 40
1.0
176
     1
 90
        0
176
     1
 62
   178
420
        0
176
     1
 90
       50
176
     1
 90
        3
176
     1
 62
     5
420
      255
176
     1
290
     0
176
     1
 90
       50
176
     1
 90
       50
176
     1
 90
       50
176
     1
290
     0
176
     1
 90
       50
176
     1
 62
   256
176
     0
 40
1.0
176
     0
 90
        2
176
     1
  1
strokes_ogs.tif
176
     1
290
     0
176
     1
 40
1.0
176
     1
 40
1.0
176
     1
  0
VISUALSTYLE
  5
2D
102
{ACAD_REACTORS
330
2A
102
}
330
2A
100
AcDbVisualStyle
  2
Gouraud
 70
     2
177
     3
291
     1
 70
    58
 90
        2
176
     1
 90
        2
176
     1
 90
        1
176
     1
 90
        2
176
     1
 40
0.6
176
     1
 40
30.0
176
     1
 62
     7
420
 16777215
176
     1
 90
        0
176
     1
 90
        0
176
     1
 62
     7
176
     1
 62
   257
176
     1
 90
        1
176
     1
 90
        1
176
     1
 40
1.0
176
     1
 90
        0
176
     1
 62
     7
176
     1
 40
1.0
176
     1
 90
        1
176
     1
 90
        6
176
     1
 90
        2
176
     1
 62
     7
176
     1
 90
        5
176
     1
 90
        0
176
     1
 90
        0
176
     1
290
     0
176
     1
 90
       13
176
     1
 40
0.0
176
     1
 90
        0
176
     1
290
     0
176
     1
290
     1
176
     1
290
     1
176
     1
290
     0
176
     1
290
     0
176
     1
290
     0
176
     1
290
     0
176
     1
290
     0
176
     1
290
     0
176
     1
 90
       50
176
     1
 40
0.0
176
     1
 40
1.0
176
     1
 90
        0
176
     1
 62
   178
420
        0
176
     1
 90
       50
176
     1
 90
        3
176
     1
 62
     5
420
      255
176
     1
290
     0
176
     1
 90
       50
176
     1
 90
       50
176
     1
 90
       50
176
     1
290
     0
176
     1
 90
       50
176
     1
 62
   256
176
     0
 40
1.0
176
     0
 90
        2
176
     1
  1
strokes_ogs.tif
176
     1
290
     0
176
     1
 40
1.0
176
     1
 40
1.0
176
     1
  0
VISUALSTYLE
  5
2E
102
{ACAD_REACTORS
330
2A
102
}
330
2A
100
AcDbVisualStyle
  2
GouraudWithEdges
 70
     3
177
     3
291
     1
 70
    58
 90
        2
176
     1
 90
        2
176
     1
 90
        1
176
     1
 90
        2
176
     1
 40
0.6
176
     1
 40
30.0
176
     1
 62
     7
420
 16777215
176
     1
 90
        1
176
     1
 90
        0
176
     1
 62
     7
176
     1
 62
   257
176
     1
 90
        1
176
     1
 90
        1
176
     1
 40
1.0
176
     1
 90
        0
176
     1
 62
   257
176
     1
 40
1.0
176
     1
 90
        1
176
     1
 90
        6
176
     1
 90
        2
176
     1
 62
     7
176
     1
 90
        5
176
     1
 90
        0
176
     1
 90
        0
176
     1
290
     0
176
     1
 90
       13
176
     1
 40
0.0
176
     1
 90
        0
176
     1
290
     0
176
     1
290
     1
176
     1
290
     1
176
     1
290
     0
176
     1
290
     0
176
     1
290
     0
176
     1
290
     0
176
     1
290
     0
176
     1
290
     0
176
     1
 90
       50
176
     1
 40
0.0
176
     1
 40
1.0
176
     1
 90
        0
176
     1
 62
   178
420
        0
176
     1
 90
       50
176
     1
 90
        3
176
     1
 62
     5
420
      255
176
     1
290
     0
176
     1
 90
       50
176
     1
 90
       50
176
     1
 90
       50
176
     1
290
     0
176
     1
 90
       50
176
     1
 62
   256
176
     0
 40
1.0
176
     0
 90
        2
176
     1
  1
strokes_ogs.tif
176
     1
290
     0
176
     1
 40
1.0
176
     1
 40
1.0
176
     1
  0
VISUALSTYLE
  5
31
102
{ACAD_REACTORS
330
2A
102
}
330
2A
100
AcDbVisualStyle
  2
Hidden
 70
     6
177
     3
291
     0
 70
    58
 90
        1
176
     1
 90
        2
176
     1
 90
        2
176
     1
 90
        0
176
     1
 40
0.6
176
     1
 40
30.0
176
     1
 62
     7
420
 16777215
176
     1
 90
        2
176
     1
 90
        2
176
     1
 62
     7
176
     1
 62
   257
176
     1
 90
        2
176
     1
 90
        1
176
     1
 40
40.0
176
     1
 90
        0
176
     1
 62
   257
176
     1
 40
1.0
176
     1
 90
        1
176
     1
 90
        6
176
     1
 90
        2
176
     1
 62
     7
176
     1
 90
        3
176
     1
 90
        0
176
     1
 90
        0
176
     1
290
     0
176
     1
 90
        1
176
     1
 40
0.0
176
     1
 90
        0
176
     1
290
     0
176
     1
290
     1
176
     1
290
     1
176
     1
290
     0
176
     1
290
     0
176
     1
290
     0
176
     1
290
     0
176
     1
290
     0
176
     1
290
     0
176
     1
 90
       50
176
     1
 40
0.0
176
     1
 40
1.0
176
     1
 90
        0
176
     1
 62
   178
420
        0
176
     1
 90
       50
176
     1
 90
        3
176
     1
 62
     5
420
      255
176
     1
290
     0
176
     1
 90
       50
176
     1
 90
       50
176
     1
 90
       50
176
     1
290
     0
176
     1
 90
       50
176
     1
 62
   256
176
     0
 40
1.0
176
     0
 90
        2
176
     1
  1
strokes_ogs.tif
176
     1
290
     0
176
     1
 40
1.0
176
     1
 40
1.0
176
     1
  0
VISUALSTYLE
  5
3B
102
{ACAD_REACTORS
330
2A
102
}
330
2A
100
AcDbVisualStyle
  2
JitterOff
 70
    20
177
     3
291
     1
 70
    58
 90
        2
176
     0
 90
        2
176
     0
 90
        0
176
     0
 90
        0
176
     0
 40
0.6
176
     0
 40
30.0
176
     0
 62
     7
420
 16777215
176
     0
 90
        1
176
     0
 90
        4
176
     0
 62
     7
176
     0
 62
   257
176
     0
 90
        1
176
     0
 90
        1
176
     0
 40
1.0
176
     0
 90
       10
176
     2
 62
     7
176
     0
 40
1.0
176
     0
 90
        1
176
     0
 90
        6
176
     0
 90
        2
176
     0
 62
     7
176
     0
 90
        5
176
     0
 90
        0
176
     0
 90
        0
176
     0
290
     0
176
     0
 90
        1
176
     0
 40
0.0
176
     0
 90
        0
176
     0
290
     0
176
     0
290
     1
176
     0
290
     1
176
     0
290
     0
176
     0
290
     0
176
     0
290
     0
176
     0
290
     0
176
     0
290
     0
176
     0
290
     0
176
     0
 90
       50
176
     0
 40
0.0
176
     0
 40
1.0
176
     0
 90
        0
176
     0
 62
   178
420
        0
176
     0
 90
       50
176
     0
 90
        3
176
     0
 62
     5
420
      255
176
     0
290
     0
176
     0
 90
       50
176
     0
 90
       50
176
     0
 90
       50
176
     0
290
     0
176
     0
 90
       50
176
     0
 62
   256
176
     0
 40
1.0
176
     0
 90
        2
176
     0
  1
strokes_ogs.tif
176
     0
290
     0
176
     0
 40
1.0
176
     0
 40
1.0
176
     0
  0
VISUALSTYLE
  5
38
102
{ACAD_REACTORS
330
2A
102
}
330
2A
100
AcDbVisualStyle
  2
Linepattern
 70
    14
177
     3
291
     1
 70
    58
 90
        2
176
     1
 90
        2
176
     1
 90
        0
176
     1
 90
        0
176
     1
 40
0.6
176
     1
 40
30.0
176
     1
 62
     7
420
 16777215
176
     1
 90
        1
176
     1
 90
        4
176
     1
 62
     7
176
     1
 62
   257
176
     1
 90
        7
176
     1
 90
        7
176
     1
 40
1.0
176
     1
 90
        8
176
     1
 62
     7
176
     1
 40
1.0
176
     1
 90
        1
176
     1
 90
        6
176
     1
 90
        2
176
     1
 62
     7
176
     1
 90
        5
176
     1
 90
        0
176
     1
 90
        0
176
     1
290
     0
176
     1
 90
        1
176
     1
 40
0.0
176
     1
 90
        0
176
     1
290
     0
176
     1
290
     1
176
     1
290
     1
176
     1
290
     0
176
     1
290
     0
176
     1
290
     0
176
     1
290
     0
176
     1
290
     0
176
     1
290
     0
176
     1
 90
       50
176
     1
 40
0.0
176
     1
 40
1.0
176
     1
 90
        0
176
     1
 62
   178
420
        0
176
     1
 90
       50
176
     1
 90
        3
176
     1
 62
     5
420
      255
176
     1
290
     0
176
     1
 90
       50
176
     1
 90
       50
176
     1
 90
       50
176
     1
290
     0
176
     1
 90
       50
176
     1
 62
   256
176
     0
 40
1.0
176
     0
 90
        2
176
     1
  1
strokes_ogs.tif
176
     1
290
     0
176
     1
 40
1.0
176
     1
 40
1.0
176
     1
  0
VISUALSTYLE
  5
3C
102
{ACAD_REACTORS
330
2A
102
}
330
2A
100
AcDbVisualStyle
  2
OverhangOff
 70
    21
177
     3
291
     1
 70
    58
 90
        2
176
     0
 90
        2
176
     0
 90
        0
176
     0
 90
        0
176
     0
 40
0.6
176
     0
 40
30.0
176
     0
 62
     7
420
 16777215
176
     0
 90
        1
176
     0
 90
        4
176
     0
 62
     7
176
     0
 62
   257
176
     0
 90
        1
176
     0
 90
        1
176
     0
 40
1.0
176
     0
 90
        9
176
     2
 62
     7
176
     0
 40
1.0
176
     0
 90
        1
176
     0
 90
        6
176
     0
 90
        2
176
     0
 62
     7
176
     0
 90
        5
176
     0
 90
        0
176
     0
 90
        0
176
     0
290
     0
176
     0
 90
        1
176
     0
 40
0.0
176
     0
 90
        0
176
     0
290
     0
176
     0
290
     1
176
     0
290
     1
176
     0
290
     0
176
     0
290
     0
176
     0
290
     0
176
     0
290
     0
176
     0
290
     0
176
     0
290
     0
176
     0
 90
       50
176
     0
 40
0.0
176
     0
 40
1.0
176
     0
 90
        0
176
     0
 62
   178
420
        0
176
     0
 90
       50
176
     0
 90
        3
176
     0
 62
     5
420
      255
176
     0
290
     0
176
     0
 90
       50
176
     0
 90
       50
176
     0
 90
       50
176
     0
290
     0
176
     0
 90
       50
176
     0
 62
   256
176
     0
 40
1.0
176
     0
 90
        2
176
     0
  1
strokes_ogs.tif
176
     0
290
     0
176
     0
 40
1.0
176
     0
 40
1.0
176
     0
  0
VISUALSTYLE
  5
33
102
{ACAD_REACTORS
330
2A
102
}
330
2A
100
AcDbVisualStyle
  2
Realistic
 70
     8
177
     3
291
     0
 70
    58
 90
        2
176
     1
 90
        3
176
     1
 90
        0
176
     1
 90
        2
176
     1
 40
0.6
176
     1
 40
30.0
176
     1
 62
     7
420
 16777215
176
     1
 90
        0
176
     1
 90
        0
176
     1
 62
     7
176
     1
 62
   257
176
     1
 90
        1
176
     1
 90
        1
176
     1
 40
1.0
176
     1
 90
        8
176
     1
 62
   257
176
     1
 40
1.0
176
     1
 90
        1
176
     1
 90
        6
176
     1
 90
        2
176
     1
 62
     7
176
     1
 90
        3
176
     1
 90
        0
176
     1
 90
        0
176
     1
290
     0
176
     1
 90
       13
176
     1
 40
0.0
176
     1
 90
        0
176
     1
290
     0
176
     1
290
     1
176
     1
290
     1
176
     1
290
     0
176
     1
290
     0
176
     1
290
     0
176
     1
290
     0
176
     1
290
     0
176
     1
290
     0
176
     1
 90
       50
176
     1
 40
0.0
176
     1
 40
1.0
176
     1
 90
        0
176
     1
 62
   178
420
        0
176
     1
 90
       50
176
     1
 90
        3
176
     1
 62
     5
420
      255
176
     1
290
     0
176
     1
 90
       50
176
     1
 90
       50
176
     1
 90
       50
176
     1
290
     0
176
     1
 90
       50
176
     1
 62
   256
176
     0
 40
1.0
176
     0
 90
        2
176
     1
  1
strokes_ogs.tif
176
     1
290
     0
176
     1
 40
1.0
176
     1
 40
1.0
176
     1
  0
VISUALSTYLE
  5
42
102
{ACAD_REACTORS
330
2A
102
}
330
2A
100
AcDbVisualStyle
  2
Shaded
 70
    27
177
     3
291
     0
 70
    58
 90
        2
176
     1
 90
        2
176
     1
 90
        1
176
     1
 90
        2
176
     1
 40
0.6
176
     1
 40
30.0
176
     1
 62
     7
420
 16777215
176
     1
 90
        0
176
     1
 90
        4
176
     1
 62
     7
176
     1
 62
   257
176
     1
 90
        1
176
     1
 90
        1
176
     1
 40
1.0
176
     1
 90
        8
176
     1
 62
   257
176
     1
 40
1.0
176
     1
 90
        1
176
     1
 90
        6
176
     1
 90
        2
176
     1
 62
     8
420
  7895160
176
     1
 90
        3
176
     1
 90
        0
176
     1
 90
        0
176
     1
290
     0
176
     1
 90
        5
176
     1
 40
0.0
176
     1
 90
        0
176
     1
290
     0
176
     1
290
     1
176
     1
290
     1
176
     1
290
     0
176
     1
290
     0
176
     1
290
     0
176
     1
290
     0
176
     1
290
     0
176
     1
290
     0
176
     1
 90
       50
176
     1
 40
0.0
176
     1
 40
1.0
176
     1
 90
        0
176
     1
 62
   178
420
        0
176
     1
 90
       50
176
     1
 90
        3
176
     1
 62
     5
420
      255
176
     1
290
     0
176
     1
 90
       50
176
     1
 90
       50
176
     1
 90
       50
176
     1
290
     0
176
     1
 90
       50
176
     1
 62
   256
176
     0
 40
1.0
176
     0
 90
        2
176
     1
  1
strokes_ogs.tif
176
     1
290
     0
176
     1
 40
1.0
176
     1
 40
1.0
176
     1
  0
VISUALSTYLE
  5
41
102
{ACAD_REACTORS
330
2A
102
}
330
2A
100
AcDbVisualStyle
  2
Shaded with edges
 70
    26
177
     3
291
     0
 70
    58
 90
        2
176
     1
 90
        2
176
     1
 90
        1
176
     1
 90
        2
176
     1
 40
0.6
176
     1
 40
30.0
176
     1
 62
     7
420
 16777215
176
     1
 90
        1
176
     1
 90
       10
176
     1
 62
     7
176
     1
 62
   257
176
     1
 90
        2
176
     1
 90
        1
176
     1
 40
1.0
176
     1
 90
        8
176
     1
 62
   257
176
     1
 40
1.0
176
     1
 90
        1
176
     1
 90
        6
176
     1
 90
        2
176
     1
 62
     7
176
     1
 90
        3
176
     1
 90
        0
176
     1
 90
        0
176
     1
290
     0
176
     1
 90
        5
176
     1
 40
0.0
176
     1
 90
        0
176
     1
290
     0
176
     1
290
     1
176
     1
290
     1
176
     1
290
     0
176
     1
290
     0
176
     1
290
     0
176
     1
290
     0
176
     1
290
     0
176
     1
290
     0
176
     1
 90
       50
176
     1
 40
0.0
176
     1
 40
1.0
176
     1
 90
        0
176
     1
 62
   178
420
        0
176
     1
 90
       50
176
     1
 90
        3
176
     1
 62
     5
420
      255
176
     1
290
     0
176
     1
 90
       50
176
     1
 90
       50
176
     1
 90
       50
176
     1
290
     0
176
     1
 90
       50
176
     1
 62
   256
176
     0
 40
1.0
176
     0
 90
        2
176
     1
  1
strokes_ogs.tif
176
     1
290
     0
176
     1
 40
1.0
176
     1
 40
1.0
176
     1
  0
VISUALSTYLE
  5
3E
102
{ACAD_REACTORS
330
2A
102
}
330
2A
100
AcDbVisualStyle
  2
Shades of Gray
 70
    23
177
     3
291
     0
 70
    58
 90
        2
176
     1
 90
        2
176
     1
 90
        3
176
     1
 90
        0
176
     1
 40
0.6
176
     1
 40
30.0
176
     1
 62
     7
420
 16777215
176
     1
 90
        2
176
     1
 90
        2
176
     1
 62
     7
176
     1
 62
     7
176
     1
 90
        1
176
     1
 90
        1
176
     1
 40
40.0
176
     1
 90
        8
176
     1
 62
     7
176
     1
 40
1.0
176
     1
 90
        1
176
     1
 90
        6
176
     1
 90
        2
176
     1
 62
     7
176
     1
 90
        3
176
     1
 90
        0
176
     1
 90
        0
176
     1
290
     0
176
     1
 90
        1
176
     1
 40
0.0
176
     1
 90
        0
176
     1
290
     0
176
     1
290
     1
176
     1
290
     1
176
     1
290
     0
176
     1
290
     0
176
     1
290
     0
176
     1
290
     0
176
     1
290
     0
176
     1
290
     0
176
     1
 90
       50
176
     1
 40
0.0
176
     1
 40
1.0
176
     1
 90
        0
176
     1
 62
   178
420
        0
176
     1
 90
       50
176
     1
 90
        3
176
     1
 62
     5
420
      255
176
     1
290
     0
176
     1
 90
       50
176
     1
 90
       50
176
     1
 90
       50
176
     1
290
     0
176
     1
 90
       50
176
     1
 62
   256
176
     0
 40
1.0
176
     0
 90
        2
176
     1
  1
strokes_ogs.tif
176
     1
290
     0
176
     1
 40
1.0
176
     1
 40
1.0
176
     1
  0
VISUALSTYLE
  5
3F
102
{ACAD_REACTORS
330
2A
102
}
330
2A
100
AcDbVisualStyle
  2
Sketchy
 70
    24
177
     3
291
     0
 70
    58
 90
        1
176
     1
 90
        2
176
     1
 90
        2
176
     1
 90
        0
176
     1
 40
0.6
176
     1
 40
30.0
176
     1
 62
     7
420
 16777215
176
     1
 90
        2
176
     1
 90
        2
176
     1
 62
     7
176
     1
 62
     7
176
     1
 90
        1
176
     1
 90
        1
176
     1
 40
40.0
176
     1
 90
       11
176
     1
 62
     7
176
     1
 40
1.0
176
     1
 90
        1
176
     1
 90
        6
176
     1
 90
        2
176
     1
 62
     7
176
     1
 90
        6
176
     1
 90
        0
176
     1
 90
        0
176
     1
290
     0
176
     1
 90
        1
176
     1
 40
0.0
176
     1
 90
        0
176
     1
290
     0
176
     1
290
     1
176
     1
290
     1
176
     1
290
     0
176
     1
290
     0
176
     1
290
     0
176
     1
290
     0
176
     1
290
     0
176
     1
290
     0
176
     1
 90
       50
176
     1
 40
0.0
176
     1
 40
1.0
176
     1
 90
        0
176
     1
 62
   178
420
        0
176
     1
 90
       50
176
     1
 90
        3
176
     1
 62
     5
420
      255
176
     1
290
     0
176
     1
 90
       50
176
     1
 90
       50
176
     1
 90
       50
176
     1
290
     0
176
     1
 90
       50
176
     1
 62
   256
176
     0
 40
1.0
176
     0
 90
        2
176
     1
  1
strokes_ogs.tif
176
     1
290
     0
176
     1
 40
1.0
176
     1
 40
1.0
176
     1
  0
VISUALSTYLE
  5
37
102
{ACAD_REACTORS
330
2A
102
}
330
2A
100
AcDbVisualStyle
  2
Thicken
 70
    13
177
     3
291
     1
 70
    58
 90
        2
176
     1
 90
        2
176
     1
 90
        0
176
     1
 90
        0
176
     1
 40
0.6
176
     1
 40
30.0
176
     1
 62
     7
420
 16777215
176
     1
 90
        1
176
     1
 90
        4
176
     1
 62
     7
176
     1
 62
   257
176
     1
 90
        1
176
     1
 90
        1
176
     1
 40
1.0
176
     1
 90
       12
176
     1
 62
     7
176
     1
 40
1.0
176
     1
 90
        1
176
     1
 90
        6
176
     1
 90
        2
176
     1
 62
     7
176
     1
 90
        5
176
     1
 90
        0
176
     1
 90
        0
176
     1
290
     0
176
     1
 90
        1
176
     1
 40
0.0
176
     1
 90
        0
176
     1
290
     0
176
     1
290
     1
176
     1
290
     1
176
     1
290
     0
176
     1
290
     0
176
     1
290
     0
176
     1
290
     0
176
     1
290
     0
176
     1
290
     0
176
     1
 90
       50
176
     1
 40
0.0
176
     1
 40
1.0
176
     1
 90
        0
176
     1
 62
   178
420
        0
176
     1
 90
       50
176
     1
 90
        3
176
     1
 62
     5
420
      255
176
     1
290
     0
176
     1
 90
       50
176
     1
 90
       50
176
     1
 90
       50
176
     1
290
     0
176
     1
 90
       50
176
     1
 62
   256
176
     0
 40
1.0
176
     0
 90
        2
176
     1
  1
strokes_ogs.tif
176
     1
290
     0
176
     1
 40
1.0
176
     1
 40
1.0
176
     1
  0
VISUALSTYLE
  5
30
102
{ACAD_REACTORS
330
2A
102
}
330
2A
100
AcDbVisualStyle
  2
Wireframe
 70
     5
177
     3
291
     0
 70
    58
 90
        0
176
     1
 90
        2
176
     1
 90
        0
176
     1
 90
        0
176
     1
 40
0.6
176
     1
 40
30.0
176
     1
 62
     7
420
 16777215
176
     1
 90
        1
176
     1
 90
        4
176
     1
 62
     7
176
     1
 62
   257
176
     1
 90
        1
176
     1
 90
        1
176
     1
 40
1.0
176
     1
 90
        0
176
     1
 62
   257
176
     1
 40
1.0
176
     1
 90
        1
176
     1
 90
        6
176
     1
 90
        2
176
     1
 62
     7
176
     1
 90
        3
176
     1
 90
        0
176
     1
 90
        0
176
     1
290
     0
176
     1
 90
        1
176
     1
 40
0.0
176
     1
 90
        0
176
     1
290
     0
176
     1
290
     1
176
     1
290
     1
176
     1
290
     0
176
     1
290
     0
176
     1
290
     0
176
     1
290
     0
176
     1
290
     0
176
     1
290
     0
176
     1
 90
       50
176
     1
 40
0.0
176
     1
 40
1.0
176
     1
 90
        0
176
     1
 62
   178
420
        0
176
     1
 90
       50
176
     1
 90
        3
176
     1
 62
     5
420
      255
176
     1
290
     0
176
     1
 90
       50
176
     1
 90
       50
176
     1
 90
       50
176
     1
290
     0
176
     1
 90
       50
176
     1
 62
   256
176
     0
 40
1.0
176
     0
 90
        2
176
     1
  1
strokes_ogs.tif
176
     1
290
     0
176
     1
 40
1.0
176
     1
 40
1.0
176
     1
  0
VISUALSTYLE
  5
40
102
{ACAD_REACTORS
330
2A
102
}
330
2A
100
AcDbVisualStyle
  2
X-Ray
 70
    25
177
     3
291
     0
 70
    58
 90
        2
176
     1
 90
        2
176
     1
 90
        1
176
     1
 90
        1
176
     1
 40
0.5
176
     1
 40
30.0
176
     1
 62
     7
420
 16777215
176
     1
 90
        1
176
     1
 90
        0
176
     1
 62
     7
176
     1
 62
   257
176
     1
 90
        1
176
     1
 90
        1
176
     1
 40
1.0
176
     1
 90
        8
176
     1
 62
     7
176
     1
 40
1.0
176
     1
 90
        1
176
     1
 90
        6
176
     1
 90
        2
176
     1
 62
     7
176
     1
 90
        3
176
     1
 90
        0
176
     1
 90
        0
176
     1
290
     0
176
     1
 90
       13
176
     1
 40
0.0
176
     1
 90
        0
176
     1
290
     0
176
     1
290
     1
176
     1
290
     1
176
     1
290
     0
176
     1
290
     0
176
     1
290
     0
176
     1
290
     0
176
     1
290
     0
176
     1
290
     0
176
     1
 90
       50
176
     1
 40
0.0
176
     1
 40
1.0
176
     1
 90
        0
176
     1
 62
   178
420
        0
176
     1
 90
       50
176
     1
 90
        3
176
     1
 62
     5
420
      255
176
     1
290
     0
176
     1
 90
       50
176
     1
 90
       50
176
     1
 90
       50
176
     1
290
     0
176
     1
 90
       50
176
     1
 62
   256
176
     0
 40
1.0
176
     0
 90
        2
176
     1
  1
strokes_ogs.tif
176
     1
290
     0
176
     1
 40
1.0
176
     1
 40
1.0
176
     1
  0
DICTIONARYVAR
  5
48B
102
{ACAD_REACTORS
330
48A
102
}
330
48A
100
DictionaryVariables
280
     0
  1
1:1
  0
DICTIONARYVAR
  5
490
102
{ACAD_REACTORS
330
48A
102
}
330
48A
100
DictionaryVariables
280
     0
  1
Standard
  0
DICTIONARYVAR
  5
48F
102
{ACAD_REACTORS
330
48A
102
}
330
48A
100
DictionaryVariables
280
     0
  1
Standard
  0
DICTIONARY
  5
48C
330
6A
100
AcDbDictionary
280
     1
281
     1
  3
ACAD_ROUNDTRIP_2008_TABLESTYLE_CELLSTYLEMAP
360
48D
  0
CELLSTYLEMAP
  5
48D
102
{ACAD_REACTORS
330
48C
102
}
330
48C
100
AcDbCellStyleMap
 90
        3
300
CELLSTYLE
  1
TABLEFORMAT_BEGIN
 90
        5
170
     1
 91
        0
 92
    32768
 62
   257
 93
        1
300
CONTENTFORMAT
  1
CONTENTFORMAT_BEGIN
 90
        0
 91
        0
 92
        4
 93
        0
300

 40
0.0
140
1.0
 94
        5
 62
     0
340
11
144
6.0
309
CONTENTFORMAT_END
171
     1
301
MARGIN
  1
CELLMARGIN_BEGIN
 40
1.5
 40
1.5
 40
1.5
 40
1.5
 40
1.5
 40
1.5
309
CELLMARGIN_END
 94
        6
 95
        1
302
GRIDFORMAT
  1
GRIDFORMAT_BEGIN
 90
        0
 91
        1
 62
     0
 92
       -2
340
14
 93
        0
 40
0.045
309
GRIDFORMAT_END
 95
        2
302
GRIDFORMAT
  1
GRIDFORMAT_BEGIN
 90
        0
 91
        1
 62
     0
 92
       -2
340
14
 93
        0
 40
0.045
309
GRIDFORMAT_END
 95
        4
302
GRIDFORMAT
  1
GRIDFORMAT_BEGIN
 90
        0
 91
        1
 62
     0
 92
       -2
340
14
 93
        0
 40
0.045
309
GRIDFORMAT_END
 95
        8
302
GRIDFORMAT
  1
GRIDFORMAT_BEGIN
 90
        0
 91
        1
 62
     0
 92
       -2
340
14
 93
        0
 40
0.045
309
GRIDFORMAT_END
 95
       16
302
GRIDFORMAT
  1
GRIDFORMAT_BEGIN
 90
        0
 91
        1
 62
     0
 92
       -2
340
14
 93
        0
 40
0.045
309
GRIDFORMAT_END
 95
       32
302
GRIDFORMAT
  1
GRIDFORMAT_BEGIN
 90
        0
 91
        1
 62
     0
 92
       -2
340
14
 93
        0
 40
0.045
309
GRIDFORMAT_END
309
TABLEFORMAT_END
  1
CELLSTYLE_BEGIN
 90
        1
 91
        1
300
_TITLE
309
CELLSTYLE_END
300
CELLSTYLE
  1
TABLEFORMAT_BEGIN
 90
        5
170
     1
 91
        0
 92
        0
 62
   257
 93
        1
300
CONTENTFORMAT
  1
CONTENTFORMAT_BEGIN
 90
        0
 91
        0
 92
        4
 93
        0
300

 40
0.0
140
1.0
 94
        5
 62
     0
340
11
144
4.5
309
CONTENTFORMAT_END
171
     1
301
MARGIN
  1
CELLMARGIN_BEGIN
 40
1.5
 40
1.5
 40
1.5
 40
1.5
 40
1.5
 40
1.5
309
CELLMARGIN_END
 94
        6
 95
        1
302
GRIDFORMAT
  1
GRIDFORMAT_BEGIN
 90
        0
 91
        1
 62
     0
 92
       -2
340
14
 93
        0
 40
0.045
309
GRIDFORMAT_END
 95
        2
302
GRIDFORMAT
  1
GRIDFORMAT_BEGIN
 90
        0
 91
        1
 62
     0
 92
       -2
340
14
 93
        0
 40
0.045
309
GRIDFORMAT_END
 95
        4
302
GRIDFORMAT
  1
GRIDFORMAT_BEGIN
 90
        0
 91
        1
 62
     0
 92
       -2
340
14
 93
        0
 40
0.045
309
GRIDFORMAT_END
 95
        8
302
GRIDFORMAT
  1
GRIDFORMAT_BEGIN
 90
        0
 91
        1
 62
     0
 92
       -2
340
14
 93
        0
 40
0.045
309
GRIDFORMAT_END
 95
       16
302
GRIDFORMAT
  1
GRIDFORMAT_BEGIN
 90
        0
 91
        1
 62
     0
 92
       -2
340
14
 93
        0
 40
0.045
309
GRIDFORMAT_END
 95
       32
302
GRIDFORMAT
  1
GRIDFORMAT_BEGIN
 90
        0
 91
        1
 62
     0
 92
       -2
340
14
 93
        0
 40
0.045
309
GRIDFORMAT_END
309
TABLEFORMAT_END
  1
CELLSTYLE_BEGIN
 90
        2
 91
        1
300
_HEADER
309
CELLSTYLE_END
300
CELLSTYLE
  1
TABLEFORMAT_BEGIN
 90
        5
170
     1
 91
        0
 92
        0
 62
   257
 93
        1
300
CONTENTFORMAT
  1
CONTENTFORMAT_BEGIN
 90
        0
 91
        0
 92
        4
 93
        0
300

 40
0.0
140
1.0
 94
        2
 62
     0
340
11
144
4.5
309
CONTENTFORMAT_END
171
     1
301
MARGIN
  1
CELLMARGIN_BEGIN
 40
1.5
 40
1.5
 40
1.5
 40
1.5
 40
1.5
 40
1.5
309
CELLMARGIN_END
 94
        6
 95
        1
302
GRIDFORMAT
  1
GRIDFORMAT_BEGIN
 90
        0
 91
        1
 62
     0
 92
       -2
340
14
 93
        0
 40
0.045
309
GRIDFORMAT_END
 95
        2
302
GRIDFORMAT
  1
GRIDFORMAT_BEGIN
 90
        0
 91
        1
 62
     0
 92
       -2
340
14
 93
        0
 40
0.045
309
GRIDFORMAT_END
 95
        4
302
GRIDFORMAT
  1
GRIDFORMAT_BEGIN
 90
        0
 91
        1
 62
     0
 92
       -2
340
14
 93
        0
 40
0.045
309
GRIDFORMAT_END
 95
        8
302
GRIDFORMAT
  1
GRIDFORMAT_BEGIN
 90
        0
 91
        1
 62
     0
 92
       -2
340
14
 93
        0
 40
0.045
309
GRIDFORMAT_END
 95
       16
302
GRIDFORMAT
  1
GRIDFORMAT_BEGIN
 90
        0
 91
        1
 62
     0
 92
       -2
340
14
 93
        0
 40
0.045
309
GRIDFORMAT_END
 95
       32
302
GRIDFORMAT
  1
GRIDFORMAT_BEGIN
 90
        0
 91
        1
 62
     0
 92
       -2
340
14
 93
        0
 40
0.045
309
GRIDFORMAT_END
309
TABLEFORMAT_END
  1
CELLSTYLE_BEGIN
 90
        3
 91
        2
300
_DATA
309
CELLSTYLE_END
  0
ENDSEC
  0
EOF
