  0
SECTION
  2
HEADER
  9
$ACADVER
  1
AC1027
  9
$ACADMAINTVER
 70
     8
  9
$DWGCODEPAGE
  3
ANSI_1252
  9
$REQUIREDVERSIONS
160
                 0
  9
$INSBASE
 10
0.0
 20
0.0
 30
0.0
  9
$EXTMIN
 10
0.0
 20
0.0
 30
0.0
  9
$EXTMAX
 10
210.0
 20
297.0
 30
0.0
  9
$LIMMIN
 10
0.0
 20
0.0
  9
$LIMMAX
 10
210.0
 20
297.0
  9
$ORTHOMODE
 70
     0
  9
$REGENMODE
 70
     1
  9
$FILLMODE
 70
     1
  9
$QTEXTMODE
 70
     0
  9
$MIRRTEXT
 70
     1
  9
$LTSCALE
 40
1.0
  9
$ATTMODE
 70
     1
  9
$TEXTSIZE
 40
2.5
  9
$TRACEWID
 40
1.0
  9
$TEXTSTYLE
  7
Standard
  9
$CLAYER
  8
Dimension
  9
$CELTYPE
  6
ByLayer
  9
$CECOLOR
 62
   256
  9
$CELTSCALE
 40
1.0
  9
$DISPSILH
 70
     0
  9
$DIMSCALE
 40
1.0
  9
$DIMASZ
 40
2.5
  9
$DIMEXO
 40
0.625
  9
$DIMDLI
 40
3.75
  9
$DIMRND
 40
0.0
  9
$DIMDLE
 40
0.0
  9
$DIMEXE
 40
1.25
  9
$DIMTP
 40
0.0
  9
$DIMTM
 40
0.0
  9
$DIMTXT
 40
2.5
  9
$DIMCEN
 40
2.5
  9
$DIMTSZ
 40
0.0
  9
$DIMTOL
 70
     0
  9
$DIMLIM
 70
     0
  9
$DIMTIH
 70
     0
  9
$DIMTOH
 70
     0
  9
$DIMSE1
 70
     0
  9
$DIMSE2
 70
     0
  9
$DIMTAD
 70
     1
  9
$DIMZIN
 70
     8
  9
$DIMBLK
  1

  9
$DIMASO
 70
     1
  9
$DIMSHO
 70
     1
  9
$DIMPOST
  1

  9
$DIMAPOST
  1

  9
$DIMALT
 70
     0
  9
$DIMALTD
 70
     3
  9
$DIMALTF
 40
0.03937007874016
  9
$DIMLFAC
 40
1.0
  9
$DIMTOFL
 70
     1
  9
$DIMTVP
 40
0.0
  9
$DIMTIX
 70
     0
  9
$DIMSOXD
 70
     0
  9
$DIMSAH
 70
     0
  9
$DIMBLK1
  1

  9
$DIMBLK2
  1

  9
$DIMSTYLE
  2
ISO-25
  9
$DIMCLRD
 70
     0
  9
$DIMCLRE
 70
     0
  9
$DIMCLRT
 70
     0
  9
$DIMTFAC
 40
1.0
  9
$DIMGAP
 40
0.625
  9
$DIMJUST
 70
     0
  9
$DIMSD1
 70
     0
  9
$DIMSD2
 70
     0
  9
$DIMTOLJ
 70
     0
  9
$DIMTZIN
 70
     8
  9
$DIMALTZ
 70
     0
  9
$DIMALTTZ
 70
     0
  9
$DIMUPT
 70
     0
  9
$DIMDEC
 70
     2
  9
$DIMTDEC
 70
     2
  9
$DIMALTU
 70
     2
  9
$DIMALTTD
 70
     3
  9
$DIMTXSTY
  7
Standard
  9
$DIMAUNIT
 70
     0
  9
$DIMADEC
 70
     0
  9
$DIMALTRND
 40
0.0
  9
$DIMAZIN
 70
     0
  9
$DIMDSEP
 70
    44
  9
$DIMATFIT
 70
     3
  9
$DIMFRAC
 70
     0
  9
$DIMLDRBLK
  1

  9
$DIMLUNIT
 70
     2
  9
$DIMLWD
 70
    -2
  9
$DIMLWE
 70
    -2
  9
$DIMTMOVE
 70
     0
  9
$DIMFXL
 40
1.0
  9
$DIMFXLON
 70
     0
  9
$DIMJOGANG
 40
0.7853981633974483
  9
$DIMTFILL
 70
     0
  9
$DIMTFILLCLR
 70
     0
  9
$DIMARCSYM
 70
     0
  9
$DIMLTYPE
  6

  9
$DIMLTEX1
  6

  9
$DIMLTEX2
  6

  9
$DIMTXTDIRECTION
 70
     0
  9
$LUNITS
 70
     2
  9
$LUPREC
 70
     4
  9
$SKETCHINC
 40
1.0
  9
$FILLETRAD
 40
10.0
  9
$AUNITS
 70
     0
  9
$AUPREC
 70
     0
  9
$MENU
  1
.
  9
$ELEVATION
 40
0.0
  9
$PELEVATION
 40
0.0
  9
$THICKNESS
 40
0.0
  9
$LIMCHECK
 70
     0
  9
$CHAMFERA
 40
0.0
  9
$CHAMFERB
 40
0.0
  9
$CHAMFERC
 40
0.0
  9
$CHAMFERD
 40
0.0
  9
$SKPOLY
 70
     0
  9
$TDCREATE
 40
2457509.640740741
  9
$TDUCREATE
 40
2457509.932407408
  9
$TDUPDATE
 40
2457509.640740741
  9
$TDUUPDATE
 40
2457509.932407408
  9
$TDINDWG
 40
0.0000000116
  9
$TDUSRTIMER
 40
0.0000000116
  9
$USRTIMER
 70
     1
  9
$ANGBASE
 50
0.0
  9
$ANGDIR
 70
     0
  9
$PDMODE
 70
     0
  9
$PDSIZE
 40
0.0
  9
$PLINEWID
 40
0.0
  9
$SPLFRAME
 70
     0
  9
$SPLINETYPE
 70
     6
  9
$SPLINESEGS
 70
     8
  9
$HANDSEED
  5
453
  9
$SURFTAB1
 70
     6
  9
$SURFTAB2
 70
     6
  9
$SURFTYPE
 70
     6
  9
$SURFU
 70
     6
  9
$SURFV
 70
     6
  9
$UCSBASE
  2

  9
$UCSNAME
  2

  9
$UCSORG
 10
0.0
 20
0.0
 30
0.0
  9
$UCSXDIR
 10
1.0
 20
0.0
 30
0.0
  9
$UCSYDIR
 10
0.0
 20
1.0
 30
0.0
  9
$UCSORTHOREF
  2

  9
$UCSORTHOVIEW
 70
     0
  9
$UCSORGTOP
 10
0.0
 20
0.0
 30
0.0
  9
$UCSORGBOTTOM
 10
0.0
 20
0.0
 30
0.0
  9
$UCSORGLEFT
 10
0.0
 20
0.0
 30
0.0
  9
$UCSORGRIGHT
 10
0.0
 20
0.0
 30
0.0
  9
$UCSORGFRONT
 10
0.0
 20
0.0
 30
0.0
  9
$UCSORGBACK
 10
0.0
 20
0.0
 30
0.0
  9
$PUCSBASE
  2

  9
$PUCSNAME
  2

  9
$PUCSORG
 10
0.0
 20
0.0
 30
0.0
  9
$PUCSXDIR
 10
1.0
 20
0.0
 30
0.0
  9
$PUCSYDIR
 10
0.0
 20
1.0
 30
0.0
  9
$PUCSORTHOREF
  2

  9
$PUCSORTHOVIEW
 70
     0
  9
$PUCSORGTOP
 10
0.0
 20
0.0
 30
0.0
  9
$PUCSORGBOTTOM
 10
0.0
 20
0.0
 30
0.0
  9
$PUCSORGLEFT
 10
0.0
 20
0.0
 30
0.0
  9
$PUCSORGRIGHT
 10
0.0
 20
0.0
 30
0.0
  9
$PUCSORGFRONT
 10
0.0
 20
0.0
 30
0.0
  9
$PUCSORGBACK
 10
0.0
 20
0.0
 30
0.0
  9
$USERI1
 70
     0
  9
$USERI2
 70
     0
  9
$USERI3
 70
     0
  9
$USERI4
 70
     0
  9
$USERI5
 70
     0
  9
$USERR1
 40
0.0
  9
$USERR2
 40
0.0
  9
$USERR3
 40
0.0
  9
$USERR4
 40
0.0
  9
$USERR5
 40
0.0
  9
$WORLDVIEW
 70
     1
  9
$SHADEDGE
 70
     3
  9
$SHADEDIF
 70
    70
  9
$TILEMODE
 70
     1
  9
$MAXACTVP
 70
    64
  9
$PINSBASE
 10
0.0
 20
0.0
 30
0.0
  9
$PLIMCHECK
 70
     0
  9
$PEXTMIN
 10
1.000000000000000E+20
 20
1.000000000000000E+20
 30
1.000000000000000E+20
  9
$PEXTMAX
 10
-1.000000000000000E+20
 20
-1.000000000000000E+20
 30
-1.000000000000000E+20
  9
$PLIMMIN
 10
0.0
 20
0.0
  9
$PLIMMAX
 10
420.0
 20
297.0
  9
$UNITMODE
 70
     0
  9
$VISRETAIN
 70
     1
  9
$PLINEGEN
 70
     0
  9
$PSLTSCALE
 70
     1
  9
$TREEDEPTH
 70
  3020
  9
$CMLSTYLE
  2
Standard
  9
$CMLJUST
 70
     0
  9
$CMLSCALE
 40
20.0
  9
$PROXYGRAPHICS
 70
     1
  9
$MEASUREMENT
 70
     1
  9
$CELWEIGHT
370
    -1
  9
$ENDCAPS
280
     0
  9
$JOINSTYLE
280
     0
  9
$LWDISPLAY
290
     0
  9
$INSUNITS
 70
     4
  9
$HYPERLINKBASE
  1

  9
$STYLESHEET
  1

  9
$XEDIT
290
     1
  9
$CEPSNTYPE
380
     0
  9
$PSTYLEMODE
290
     1
  9
$FINGERPRINTGUID
  2
{d7028667-baa2-4b1b-a66e-48887713af0d}
  9
$VERSIONGUID
  2
{FAEB1C32-E019-11D5-929B-00C0DF256EC4}
  9
$EXTNAMES
290
     1
  9
$PSVPSCALE
 40
0.0
  9
$OLESTARTUP
290
     0
  9
$SORTENTS
280
   127
  9
$INDEXCTL
280
     0
  9
$HIDETEXT
280
     1
  9
$XCLIPFRAME
280
     2
  9
$HALOGAP
280
     0
  9
$OBSCOLOR
 70
   257
  9
$OBSLTYPE
280
     0
  9
$INTERSECTIONDISPLAY
280
     0
  9
$INTERSECTIONCOLOR
 70
   257
  9
$DIMASSOC
280
     2
  9
$PROJECTNAME
  1

  9
$CAMERADISPLAY
290
     0
  9
$LENSLENGTH
 40
50.0
  9
$CAMERAHEIGHT
 40
0.0
  9
$STEPSPERSEC
 40
2.0
  9
$STEPSIZE
 40
6.0
  9
$3DDWFPREC
 40
2.0
  9
$PSOLWIDTH
 40
5.0
  9
$PSOLHEIGHT
 40
80.0
  9
$LOFTANG1
 40
1.570796326794897
  9
$LOFTANG2
 40
1.570796326794897
  9
$LOFTMAG1
 40
0.0
  9
$LOFTMAG2
 40
0.0
  9
$LOFTPARAM
 70
     7
  9
$LOFTNORMALS
280
     1
  9
$LATITUDE
 40
37.795
  9
$LONGITUDE
 40
-122.394
  9
$NORTHDIRECTION
 40
0.0
  9
$TIMEZONE
 70
 -8000
  9
$LIGHTGLYPHDISPLAY
280
     1
  9
$TILEMODELIGHTSYNCH
280
     1
  9
$CMATERIAL
347
44
  9
$SOLIDHIST
280
     0
  9
$SHOWHIST
280
     1
  9
$DWFFRAME
280
     2
  9
$DGNFRAME
280
     2
  9
$REALWORLDSCALE
290
     1
  9
$INTERFERECOLOR
 62
   256
  9
$CSHADOW
280
     0
  9
$SHADOWPLANELOCATION
 40
0.0
  0
ENDSEC
  0
SECTION
  2
CLASSES
  0
CLASS
  1
ACDBDICTIONARYWDFLT
  2
AcDbDictionaryWithDefault
  3
ObjectDBX Classes
 90
        0
 91
        4
280
     0
281
     0
  0
CLASS
  1
VISUALSTYLE
  2
AcDbVisualStyle
  3
ObjectDBX Classes
 90
     4095
 91
        4
280
     0
281
     0
  0
CLASS
  1
MATERIAL
  2
AcDbMaterial
  3
ObjectDBX Classes
 90
     1153
 91
        4
280
     0
281
     0
  0
CLASS
  1
SCALE
  2
AcDbScale
  3
ObjectDBX Classes
 90
     1153
 91
        4
280
     0
281
     0
  0
CLASS
  1
TABLESTYLE
  2
AcDbTableStyle
  3
ObjectDBX Classes
 90
     4095
 91
        4
280
     0
281
     0
  0
CLASS
  1
MLEADERSTYLE
  2
AcDbMLeaderStyle
  3
ACDB_MLEADERSTYLE_CLASS
 90
     4095
 91
        4
280
     0
281
     0
  0
CLASS
  1
SUN
  2
AcDbSun
  3
SCENEOE
 90
     1153
 91
        4
280
     0
281
     0
  0
CLASS
  1
DICTIONARYVAR
  2
AcDbDictionaryVar
  3
ObjectDBX Classes
 90
        0
 91
        4
280
     0
281
     0
  0
CLASS
  1
CELLSTYLEMAP
  2
AcDbCellStyleMap
  3
ObjectDBX Classes
 90
     1152
 91
        4
280
     0
281
     0
  0
ENDSEC
  0
SECTION
  2
TABLES
  0
TABLE
  2
VPORT
  5
8
330
0
100
AcDbSymbolTable
 70
     1
  0
VPORT
  5
29
330
8
100
AcDbSymbolTableRecord
100
AcDbViewportTableRecord
  2
*Active
 70
     0
 10
0.0
 20
0.0
 11
1.0
 21
1.0
 12
122.4851788962915
 22
144.3545050791235
 13
0.0
 23
0.0
 14
10.0
 24
10.0
 15
10.0
 25
10.0
 16
0.0
 26
0.0
 36
1.0
 17
0.0
 27
0.0
 37
0.0
 40
351.8223403296908
 41
1.863590772316951
 42
50.0
 43
0.0
 44
0.0
 50
0.0
 51
0.0
 71
     0
 72
   100
 73
     1
 74
     3
 75
     0
 76
     0
 77
     0
 78
     0
281
     0
 65
     1
110
0.0
120
0.0
130
0.0
111
1.0
121
0.0
131
0.0
112
0.0
122
1.0
132
0.0
 79
     0
146
0.0
348
2F
 60
     3
 61
     5
292
     1
282
     1
141
0.0
142
0.0
 63
   250
361
6D
  0
ENDTAB
  0
TABLE
  2
LTYPE
  5
5
330
0
100
AcDbSymbolTable
 70
     7
  0
LTYPE
  5
14
330
5
100
AcDbSymbolTableRecord
100
AcDbLinetypeTableRecord
  2
ByBlock
 70
     0
  3

 72
    65
 73
     0
 40
0.0
  0
LTYPE
  5
15
330
5
100
AcDbSymbolTableRecord
100
AcDbLinetypeTableRecord
  2
ByLayer
 70
     0
  3

 72
    65
 73
     0
 40
0.0
  0
LTYPE
  5
16
330
5
100
AcDbSymbolTableRecord
100
AcDbLinetypeTableRecord
  2
Continuous
 70
     0
  3
Solid line
 72
    65
 73
     0
 40
0.0
  0
LTYPE
  5
6E
330
5
100
AcDbSymbolTableRecord
100
AcDbLinetypeTableRecord
  2
DOT
 70
     0
  3
Dot . . . . . . . . . . . . . . . . . . . . . . . .
 72
    65
 73
     2
 40
2.032
 49
1.016
 74
     0
 49
-1.016
 74
     0
  0
LTYPE
  5
6F
330
5
100
AcDbSymbolTableRecord
100
AcDbLinetypeTableRecord
  2
CENTER
 70
     0
  3
Center ____ _ ____ _ ____ _ ____ _ ____ _ ____
 72
    65
 73
     4
 40
13.208
 49
8.128
 74
     0
 49
-1.524
 74
     0
 49
2.032
 74
     0
 49
-1.524
 74
     0
  0
LTYPE
  5
70
330
5
100
AcDbSymbolTableRecord
100
AcDbLinetypeTableRecord
  2
HIDDEN2
 70
     0
  3
Hidden (.5x) _ _ _ _ _ _ _ _ _ _ _ _ _ _ _ _ _
 72
    65
 73
     2
 40
4.762499999999999
 49
3.175
 74
     0
 49
-1.5875
 74
     0
  0
LTYPE
  5
71
330
5
100
AcDbSymbolTableRecord
100
AcDbLinetypeTableRecord
  2
DASHED
 70
     0
  3
Dashed __ __ __ __ __ __ __ __ __ __ __ __ __ _
 72
    65
 73
     2
 40
9.652
 49
8.128
 74
     0
 49
-1.524
 74
     0
  0
LTYPE
  5
72
330
5
100
AcDbSymbolTableRecord
100
AcDbLinetypeTableRecord
  2
PHANTOM2
 70
     0
  3
Phantom (.5x) ___ _ _ ___ _ _ ___ _ _ ___ _ _
 72
    65
 73
     6
 40
14.732
 49
8.128
 74
     0
 49
-1.524
 74
     0
 49
1.016
 74
     0
 49
-1.524
 74
     0
 49
1.016
 74
     0
 49
-1.524
 74
     0
  0
LTYPE
  5
73
330
5
100
AcDbSymbolTableRecord
100
AcDbLinetypeTableRecord
  2
DASHDOT
 70
     0
  3
Dash dot __ . __ . __ . __ . __ . __ . __ . __
 72
    65
 73
     4
 40
11.176
 49
8.128
 74
     0
 49
-1.524
 74
     0
 49
0.0
 74
     0
 49
-1.524
 74
     0
  0
ENDTAB
  0
TABLE
  2
LAYER
  5
2
330
0
100
AcDbSymbolTable
 70
     8
  0
LAYER
  5
10
330
2
100
AcDbSymbolTableRecord
100
AcDbLayerTableRecord
  2
0
 70
     0
 62
     7
  6
Continuous
370
    -3
390
F
347
46
348
0
  0
LAYER
  5
74
330
2
100
AcDbSymbolTableRecord
100
AcDbLayerTableRecord
  2
Outline
 70
     0
 62
     7
  6
Continuous
370
    -3
390
F
347
46
348
0
  0
LAYER
  5
75
330
2
100
AcDbSymbolTableRecord
100
AcDbLayerTableRecord
  2
Axis
 70
     0
 62
     5
  6
DASHDOT
370
    -3
390
F
347
46
348
0
  0
LAYER
  5
76
330
2
100
AcDbSymbolTableRecord
100
AcDbLayerTableRecord
  2
Dimension
 70
     0
 62
     7
  6
Continuous
370
    -3
390
F
347
46
348
0
  0
LAYER
  5
77
330
2
100
AcDbSymbolTableRecord
100
AcDbLayerTableRecord
  2
Hatch
 70
     0
 62
     5
  6
Continuous
370
    -3
390
F
347
46
348
0
  0
LAYER
  5
78
330
2
100
AcDbSymbolTableRecord
100
AcDbLayerTableRecord
  2
Auxiliary
 70
     0
 62
     1
  6
DOT
370
    -3
390
F
347
46
348
0
  0
LAYER
  5
79
330
2
100
AcDbSymbolTableRecord
100
AcDbLayerTableRecord
  2
Invisible
 70
     0
 62
     6
  6
DOT
370
    -3
390
F
347
46
348
0
  0
LAYER
  5
CB
330
2
100
AcDbSymbolTableRecord
100
AcDbLayerTableRecord
  2
Defpoints
 70
     0
 62
     7
  6
Continuous
290
     0
370
    -3
390
F
347
46
348
0
  0
ENDTAB
  0
TABLE
  2
STYLE
  5
3
330
0
100
AcDbSymbolTable
 70
    33
  0
STYLE
  5
11
330
3
100
AcDbSymbolTableRecord
100
AcDbTextStyleTableRecord
  2
Standard
 70
     0
 40
0.0
 41
1.0
 50
0.0
 71
     0
 42
2.5
  3
txt
  4

  0
STYLE
  5
7A
330
3
100
AcDbSymbolTableRecord
100
AcDbTextStyleTableRecord
  2
VCDSTYLE01
 70
     0
 40
0.0
 41
1.0
 50
0.0
 71
     0
 42
2.5
  3
txt
  4

  0
STYLE
  5
7B
330
3
100
AcDbSymbolTableRecord
100
AcDbTextStyleTableRecord
  2
VCDSTYLE02
 70
     0
 40
0.0
 41
1.0
 50
0.0
 71
     0
 42
2.5
  3
txt
  4

  0
STYLE
  5
7C
330
3
100
AcDbSymbolTableRecord
100
AcDbTextStyleTableRecord
  2
VCDSTYLE03
 70
     0
 40
0.0
 41
1.0
 50
0.0
 71
     0
 42
2.5
  3
txt
  4

  0
STYLE
  5
7D
330
3
100
AcDbSymbolTableRecord
100
AcDbTextStyleTableRecord
  2
VCDSTYLE04
 70
     0
 40
0.0
 41
1.0
 50
0.0
 71
     0
 42
2.5
  3
txt
  4

  0
STYLE
  5
7E
330
3
100
AcDbSymbolTableRecord
100
AcDbTextStyleTableRecord
  2
VCDSTYLE05
 70
     0
 40
0.0
 41
1.0
 50
0.0
 71
     0
 42
2.5
  3
txt
  4

  0
STYLE
  5
7F
330
3
100
AcDbSymbolTableRecord
100
AcDbTextStyleTableRecord
  2
VCDSTYLE06
 70
     0
 40
0.0
 41
1.0
 50
0.0
 71
     0
 42
2.5
  3
txt
  4

  0
STYLE
  5
80
330
3
100
AcDbSymbolTableRecord
100
AcDbTextStyleTableRecord
  2
VCDSTYLE07
 70
     0
 40
0.0
 41
1.0
 50
0.0
 71
     0
 42
2.5
  3
txt
  4

  0
STYLE
  5
81
330
3
100
AcDbSymbolTableRecord
100
AcDbTextStyleTableRecord
  2
VCDSTYLE08
 70
     0
 40
0.0
 41
1.0
 50
0.0
 71
     0
 42
2.5
  3
txt
  4

  0
STYLE
  5
82
330
3
100
AcDbSymbolTableRecord
100
AcDbTextStyleTableRecord
  2
VCDSTYLE09
 70
     0
 40
0.0
 41
1.0
 50
0.0
 71
     0
 42
2.5
  3
txt
  4

  0
STYLE
  5
83
330
3
100
AcDbSymbolTableRecord
100
AcDbTextStyleTableRecord
  2
VCDSTYLE10
 70
     0
 40
0.0
 41
1.0
 50
0.0
 71
     0
 42
2.5
  3
Sans Serif.ttf
  4

1001
ACAD
1000
Sans Serif
1071
        0
  0
STYLE
  5
84
330
3
100
AcDbSymbolTableRecord
100
AcDbTextStyleTableRecord
  2
VCDSTYLE11
 70
     0
 40
0.0
 41
1.0
 50
0.0
 71
     0
 42
2.5
  3
Sans Serif.ttf
  4

1001
ACAD
1000
Sans Serif
1071
 16777216
  0
STYLE
  5
85
330
3
100
AcDbSymbolTableRecord
100
AcDbTextStyleTableRecord
  2
VCDSTYLE12
 70
     0
 40
0.0
 41
1.0
 50
0.0
 71
     0
 42
2.5
  3
DejaVu Sans.ttf
  4

1001
ACAD
1000
DejaVu Sans
1071
        0
  0
STYLE
  5
86
330
3
100
AcDbSymbolTableRecord
100
AcDbTextStyleTableRecord
  2
VCDSTYLE13
 70
     0
 40
0.0
 41
1.0
 50
0.0
 71
     0
 42
2.5
  3
DejaVu Sans.ttf
  4

1001
ACAD
1000
DejaVu Sans
1071
 16777216
  0
STYLE
  5
87
330
3
100
AcDbSymbolTableRecord
100
AcDbTextStyleTableRecord
  2
VCDSTYLE14
 70
     0
 40
0.0
 41
1.0
 50
0.0
 71
     0
 42
2.5
  3
DejaVu Sans Mono.ttf
  4

1001
ACAD
1000
DejaVu Sans Mono
1071
        0
  0
STYLE
  5
88
330
3
100
AcDbSymbolTableRecord
100
AcDbTextStyleTableRecord
  2
VCDSTYLE15
 70
     0
 40
0.0
 41
1.0
 50
0.0
 71
     0
 42
2.5
  3
DejaVu Sans Mono.ttf
  4

1001
ACAD
1000
DejaVu Sans Mono
1071
 16777216
  0
STYLE
  5
89
330
3
100
AcDbSymbolTableRecord
100
AcDbTextStyleTableRecord
  2
VCDSTYLE16
 70
     0
 40
0.0
 41
1.0
 50
0.0
 71
     0
 42
2.5
  3
UnDotum.ttf
  4

1001
ACAD
1000
UnDotum
1071
        0
  0
STYLE
  5
8A
330
3
100
AcDbSymbolTableRecord
100
AcDbTextStyleTableRecord
  2
VCDSTYLE17
 70
     0
 40
0.0
 41
1.0
 50
0.0
 71
     0
 42
2.5
  3
UnDotum.ttf
  4

1001
ACAD
1000
UnDotum
1071
 16777216
  0
STYLE
  5
8B
330
3
100
AcDbSymbolTableRecord
100
AcDbTextStyleTableRecord
  2
VCDSTYLE18
 70
     0
 40
0.0
 41
1.0
 50
0.0
 71
     0
 42
2.5
  3
Sans Serif.ttf
  4

1001
ACAD
1000
Sans Serif
1071
        0
  0
STYLE
  5
8C
330
3
100
AcDbSymbolTableRecord
100
AcDbTextStyleTableRecord
  2
VCDSTYLE19
 70
     0
 40
0.0
 41
1.0
 50
0.0
 71
     0
 42
2.5
  3
Sans Serif.ttf
  4

1001
ACAD
1000
Sans Serif
1071
 16777216
  0
STYLE
  5
8D
330
3
100
AcDbSymbolTableRecord
100
AcDbTextStyleTableRecord
  2
VCDSTYLE20
 70
     0
 40
0.0
 41
1.0
 50
0.0
 71
     0
 42
2.5
  3
Sans Serif.ttf
  4

1001
ACAD
1000
Sans Serif
1071
        0
  0
STYLE
  5
8E
330
3
100
AcDbSymbolTableRecord
100
AcDbTextStyleTableRecord
  2
VCDSTYLE21
 70
     0
 40
0.0
 41
1.0
 50
0.0
 71
     0
 42
2.5
  3
Sans Serif.ttf
  4

1001
ACAD
1000
Sans Serif
1071
 16777216
  0
STYLE
  5
8F
330
3
100
AcDbSymbolTableRecord
100
AcDbTextStyleTableRecord
  2
VCDSTYLE22
 70
     0
 40
0.0
 41
1.0
 50
0.0
 71
     0
 42
2.5
  3
Monospace.ttf
  4

1001
ACAD
1000
Monospace
1071
        0
  0
STYLE
  5
90
330
3
100
AcDbSymbolTableRecord
100
AcDbTextStyleTableRecord
  2
VCDSTYLE23
 70
     0
 40
0.0
 41
1.0
 50
0.0
 71
     0
 42
2.5
  3
Monospace.ttf
  4

1001
ACAD
1000
Monospace
1071
 16777216
  0
STYLE
  5
91
330
3
100
AcDbSymbolTableRecord
100
AcDbTextStyleTableRecord
  2
VCDSTYLE24
 70
     0
 40
0.0
 41
1.0
 50
0.0
 71
     0
 42
2.5
  3
URW Gothic L.ttf
  4

1001
ACAD
1000
URW Gothic L
1071
        0
  0
STYLE
  5
92
330
3
100
AcDbSymbolTableRecord
100
AcDbTextStyleTableRecord
  2
VCDSTYLE25
 70
     0
 40
0.0
 41
1.0
 50
0.0
 71
     0
 42
2.5
  3
URW Gothic L.ttf
  4

1001
ACAD
1000
URW Gothic L
1071
 16777216
  0
STYLE
  5
93
330
3
100
AcDbSymbolTableRecord
100
AcDbTextStyleTableRecord
  2
VCDSTYLE26
 70
     0
 40
0.0
 41
1.0
 50
0.0
 71
     0
 42
2.5
  3
Waree.ttf
  4

1001
ACAD
1000
Waree
1071
        0
  0
STYLE
  5
94
330
3
100
AcDbSymbolTableRecord
100
AcDbTextStyleTableRecord
  2
VCDSTYLE27
 70
     0
 40
0.0
 41
1.0
 50
0.0
 71
     0
 42
2.5
  3
Waree.ttf
  4

1001
ACAD
1000
Waree
1071
 16777216
  0
STYLE
  5
95
330
3
100
AcDbSymbolTableRecord
100
AcDbTextStyleTableRecord
  2
VCDSTYLE28
 70
     0
 40
0.0
 41
1.0
 50
0.0
 71
     0
 42
2.5
  3
Nimbus Mono L.ttf
  4

1001
ACAD
1000
Nimbus Mono L
1071
        0
  0
STYLE
  5
96
330
3
100
AcDbSymbolTableRecord
100
AcDbTextStyleTableRecord
  2
VCDSTYLE29
 70
     0
 40
0.0
 41
1.0
 50
0.0
 71
     0
 42
2.5
  3
Nimbus Sans L.ttf
  4

1001
ACAD
1000
Nimbus Sans L
1071
        0
  0
STYLE
  5
97
330
3
100
AcDbSymbolTableRecord
100
AcDbTextStyleTableRecord
  2
VCDSTYLE30
 70
     0
 40
0.0
 41
1.0
 50
0.0
 71
     0
 42
2.5
  3
Nimbus Sans L.ttf
  4

1001
ACAD
1000
Nimbus Sans L
1071
 16777216
  0
STYLE
  5
98
330
3
100
AcDbSymbolTableRecord
100
AcDbTextStyleTableRecord
  2
VCDSTYLE31
 70
     0
 40
0.0
 41
1.0
 50
0.0
 71
     0
 42
2.5
  3
Serif.ttf
  4

1001
ACAD
1000
Serif
1071
        0
  0
STYLE
  5
99
330
3
100
AcDbSymbolTableRecord
100
AcDbTextStyleTableRecord
  2
VCDSTYLE32
 70
     0
 40
0.0
 41
1.0
 50
0.0
 71
     0
 42
2.5
  3
Serif.ttf
  4

1001
ACAD
1000
Serif
1071
 16777216
  0
ENDTAB
  0
TABLE
  2
VIEW
  5
6
330
0
100
AcDbSymbolTable
 70
     0
  0
ENDTAB
  0
TABLE
  2
UCS
  5
7
330
0
100
AcDbSymbolTable
 70
     0
  0
ENDTAB
  0
TABLE
  2
APPID
  5
9
330
0
100
AcDbSymbolTable
 70
     1
  0
APPID
  5
12
330
9
100
AcDbSymbolTableRecord
100
AcDbRegAppTableRecord
  2
ACAD
 70
     0
  0
ENDTAB
  0
TABLE
  2
DIMSTYLE
  5
A
330
0
100
AcDbSymbolTable
 70
     2
100
AcDbDimStyleTable
  0
DIMSTYLE
105
27
330
A
100
AcDbSymbolTableRecord
100
AcDbDimStyleTableRecord
  2
ISO-25
 70
     0
 41
2.5
 42
0.625
 43
3.75
 44
1.25
 73
     0
 74
     0
 77
     1
 78
     8
140
2.5
141
2.5
143
0.03937007874016
147
0.625
171
     3
172
     1
178
     0
271
     2
272
     2
274
     3
278
    44
283
     0
284
     8
340
11
  0
DIMSTYLE
105
C9
102
{ACAD_REACTORS
330
CA
330
D8
330
E7
102
}
330
A
100
AcDbSymbolTableRecord
100
AcDbDimStyleTableRecord
  2
VCDDIMSTYLE01
 70
     0
 41
5.0
 42
0.0
 43
8.0
 44
1.0
 73
     0
 74
     0
 77
     1
 78
     8
 79
     2
140
4.0
147
1.0
172
     1
173
     1
178
     0
179
     3
271
     5
275
     1
288
     1
289
     0
340
7B
  0
ENDTAB
  0
TABLE
  2
BLOCK_RECORD
  5
1
330
0
100
AcDbSymbolTable
 70
    14
  0
BLOCK_RECORD
  5
1F
330
1
100
AcDbSymbolTableRecord
100
AcDbBlockTableRecord
  2
*Model_Space
340
22
 70
     0
280
     1
281
     0
  0
BLOCK_RECORD
  5
1B
330
1
100
AcDbSymbolTableRecord
100
AcDbBlockTableRecord
  2
*Paper_Space
340
1E
 70
     0
280
     1
281
     0
  0
BLOCK_RECORD
  5
23
330
1
100
AcDbSymbolTableRecord
100
AcDbBlockTableRecord
  2
*Paper_Space0
340
26
 70
     0
280
     1
281
     0
  0
BLOCK_RECORD
  5
9A
330
1
100
AcDbSymbolTableRecord
100
AcDbBlockTableRecord
  2
$AttrValue elphel_parts
340
0
102
{BLKREFS
331
9C
102
}
 70
     0
280
     1
281
     0
  0
BLOCK_RECORD
  5
9F
330
1
100
AcDbSymbolTableRecord
100
AcDbBlockTableRecord
  2
$AttrValue elphel_parts(1)
340
0
102
{BLKREFS
331
A1
102
}
 70
     0
280
     1
281
     0
  0
BLOCK_RECORD
  5
A4
330
1
100
AcDbSymbolTableRecord
100
AcDbBlockTableRecord
  2
$AttrValue elphel_parts(2)
340
0
102
{BLKREFS
331
A6
102
}
 70
     0
280
     1
281
     0
  0
BLOCK_RECORD
  5
A9
330
1
100
AcDbSymbolTableRecord
100
AcDbBlockTableRecord
  2
$AttrValue elphel_parts(3)
340
0
102
{BLKREFS
331
AB
102
}
 70
     0
280
     1
281
     0
  0
BLOCK_RECORD
  5
AE
330
1
100
AcDbSymbolTableRecord
100
AcDbBlockTableRecord
  2
$AttrValue elphel_parts(4)
340
0
102
{BLKREFS
331
B0
102
}
 70
     0
280
     1
281
     0
  0
BLOCK_RECORD
  5
B3
330
1
100
AcDbSymbolTableRecord
100
AcDbBlockTableRecord
  2
$AttrValue elphel_parts(5)
340
0
102
{BLKREFS
331
B5
102
}
 70
     0
280
     1
281
     0
  0
BLOCK_RECORD
  5
B8
330
1
100
AcDbSymbolTableRecord
100
AcDbBlockTableRecord
  2
$AttrValue elphel_parts(6)
340
0
102
{BLKREFS
331
BA
102
}
 70
     0
280
     1
281
     0
  0
BLOCK_RECORD
  5
BD
330
1
100
AcDbSymbolTableRecord
100
AcDbBlockTableRecord
  2
$AttrValue elphel_parts(7)
340
0
102
{BLKREFS
331
BF
102
}
 70
     0
280
     1
281
     0
  0
BLOCK_RECORD
  5
C2
330
1
100
AcDbSymbolTableRecord
100
AcDbBlockTableRecord
  2
*D9
340
0
 70
     0
280
     1
281
     0
  0
BLOCK_RECORD
  5
D1
330
1
100
AcDbSymbolTableRecord
100
AcDbBlockTableRecord
  2
*D10
340
0
 70
     0
280
     1
281
     0
  0
BLOCK_RECORD
  5
DE
330
1
100
AcDbSymbolTableRecord
100
AcDbBlockTableRecord
  2
*D11
340
0
 70
     0
280
     1
281
     0
  0
BLOCK_RECORD
  5
413
330
1
100
AcDbSymbolTableRecord
100
AcDbBlockTableRecord
  2
$TitleBlock elphel_parts
340
0
102
{BLKREFS
331
441
102
}
 70
     0
280
     1
281
     0
  0
BLOCK_RECORD
  5
444
330
1
100
AcDbSymbolTableRecord
100
AcDbBlockTableRecord
  2
Sheet Border
340
0
102
{BLKREFS
331
447
102
}
 70
     0
280
     1
281
     0
  0
ENDTAB
  0
ENDSEC
  0
SECTION
  2
BLOCKS
  0
BLOCK
  5
20
330
1F
100
AcDbEntity
  8
0
100
AcDbBlockBegin
  2
*Model_Space
 70
     0
 10
0.0
 20
0.0
 30
0.0
  3
*Model_Space
  1

  0
ENDBLK
  5
21
330
1F
100
AcDbEntity
  8
0
100
AcDbBlockEnd
  0
BLOCK
  5
1C
330
1B
100
AcDbEntity
 67
     1
  8
0
100
AcDbBlockBegin
  2
*Paper_Space
 70
     0
 10
0.0
 20
0.0
 30
0.0
  3
*Paper_Space
  1

  0
ENDBLK
  5
1D
330
1B
100
AcDbEntity
 67
     1
  8
0
100
AcDbBlockEnd
  0
BLOCK
  5
24
330
23
100
AcDbEntity
  8
0
100
AcDbBlockBegin
  2
*Paper_Space0
 70
     0
 10
0.0
 20
0.0
 30
0.0
  3
*Paper_Space0
  1

  0
ENDBLK
  5
25
330
23
100
AcDbEntity
  8
0
100
AcDbBlockEnd
  0
BLOCK
  5
9D
330
9A
100
AcDbEntity
  8
0
100
AcDbBlockBegin
  2
$AttrValue elphel_parts
 70
     0
 10
0.0
 20
0.0
 30
0.0
  3
$AttrValue elphel_parts
  1

  0
TEXT
  5
9B
330
9A
100
AcDbEntity
  8
0
 62
     2
100
AcDbText
 10
0.0
 20
0.0
 30
0.0
 40
3.0
  1
1:1
  7
VCDSTYLE22
100
AcDbText
  0
ENDBLK
  5
9E
330
9A
100
AcDbEntity
  8
0
100
AcDbBlockEnd
  0
BLOCK
  5
A2
330
9F
100
AcDbEntity
  8
0
100
AcDbBlockBegin
  2
$AttrValue elphel_parts(1)
 70
     0
 10
0.0
 20
0.0
 30
0.0
  3
$AttrValue elphel_parts(1)
  1

  0
TEXT
  5
A0
330
9F
100
AcDbEntity
  8
0
 62
     2
100
AcDbText
 10
0.0
 20
0.0
 30
0.0
 40
2.0
  1
12/08/2015
  7
VCDSTYLE03
100
AcDbText
  0
ENDBLK
  5
A3
330
9F
100
AcDbEntity
  8
0
100
AcDbBlockEnd
  0
BLOCK
  5
A7
330
A4
100
AcDbEntity
  8
0
100
AcDbBlockBegin
  2
$AttrValue elphel_parts(2)
 70
     0
 10
0.0
 20
0.0
 30
0.0
  3
$AttrValue elphel_parts(2)
  1

  0
TEXT
  5
A5
330
A4
100
AcDbEntity
  8
0
 62
     2
100
AcDbText
 10
0.0
 20
0.0
 30
0.0
 40
2.0
  1
Anodize/Chromate Conversion
  7
VCDSTYLE04
100
AcDbText
  0
ENDBLK
  5
A8
330
A4
100
AcDbEntity
  8
0
100
AcDbBlockEnd
  0
BLOCK
  5
AC
330
A9
100
AcDbEntity
  8
0
100
AcDbBlockBegin
  2
$AttrValue elphel_parts(3)
 70
     0
 10
0.0
 20
0.0
 30
0.0
  3
$AttrValue elphel_parts(3)
  1

  0
TEXT
  5
AA
330
A9
100
AcDbEntity
  8
0
 62
     2
100
AcDbText
 10
0.0
 20
0.0
 30
0.0
 40
2.0
  1
Aluminum 6061-T6
  7
VCDSTYLE04
100
AcDbText
  0
ENDBLK
  5
AD
330
A9
100
AcDbEntity
  8
0
100
AcDbBlockEnd
  0
BLOCK
  5
B1
330
AE
100
AcDbEntity
  8
0
100
AcDbBlockBegin
  2
$AttrValue elphel_parts(4)
 70
     0
 10
0.0
 20
0.0
 30
0.0
  3
$AttrValue elphel_parts(4)
  1

  0
TEXT
  5
AF
330
AE
100
AcDbEntity
  8
0
 62
     2
100
AcDbText
 10
0.0
 20
0.0
 30
0.0
 40
2.0
  1
10.68
  7
VCDSTYLE04
100
AcDbText
  0
ENDBLK
  5
B2
330
AE
100
AcDbEntity
  8
0
100
AcDbBlockEnd
  0
BLOCK
  5
B6
330
B3
100
AcDbEntity
  8
0
100
AcDbBlockBegin
  2
$AttrValue elphel_parts(5)
 70
     0
 10
0.0
 20
0.0
 30
0.0
  3
$AttrValue elphel_parts(5)
  1

  0
TEXT
  5
B4
330
B3
100
AcDbEntity
  8
0
100
AcDbText
 10
0.0
 20
0.0
 30
0.0
 40
1.5
  1
2015
  7
VCDSTYLE10
100
AcDbText
  0
ENDBLK
  5
B7
330
B3
100
AcDbEntity
  8
0
100
AcDbBlockEnd
  0
BLOCK
  5
BB
330
B8
100
AcDbEntity
  8
0
100
AcDbBlockBegin
  2
$AttrValue elphel_parts(6)
 70
     0
 10
0.0
 20
0.0
 30
0.0
  3
$AttrValue elphel_parts(6)
  1

  0
TEXT
  5
B9
330
B8
100
AcDbEntity
  8
0
 62
     2
100
AcDbText
 10
0.0
 20
0.0
 30
0.0
 40
3.0
  1
Back Panel 10393 only
  7
VCDSTYLE04
100
AcDbText
  0
ENDBLK
  5
BC
330
B8
100
AcDbEntity
  8
0
100
AcDbBlockEnd
  0
BLOCK
  5
C0
330
BD
100
AcDbEntity
  8
0
100
AcDbBlockBegin
  2
$AttrValue elphel_parts(7)
 70
     0
 10
0.0
 20
0.0
 30
0.0
  3
$AttrValue elphel_parts(7)
  1

  0
TEXT
  5
BE
330
BD
100
AcDbEntity
  8
0
 62
     2
100
AcDbText
 10
0.0
 20
0.0
 30
0.0
 40
6.0
  1
0393-13-02
  7
VCDSTYLE22
100
AcDbText
  0
ENDBLK
  5
C1
330
BD
100
AcDbEntity
  8
0
100
AcDbBlockEnd
  0
BLOCK
  5
CF
330
C2
100
AcDbEntity
  8
0
100
AcDbBlockBegin
  2
*D9
 70
     1
 10
0.0
 20
0.0
 30
0.0
  3
*D9
  1

  0
LINE
  5
C3
330
C2
100
AcDbEntity
  8
Dimension
 62
     0
370
    -2
100
AcDbLine
 10
64.60262141788917
 20
241.68381633854
 30
0.0
 11
64.60262141788917
 21
249.6929456461365
 31
0.0
  0
LINE
  5
C4
330
C2
100
AcDbEntity
  8
Dimension
 62
     0
370
    -2
100
AcDbLine
 10
105.1026214178893
 20
241.6838164754953
 30
0.0
 11
105.1026214178893
 21
249.6929456461365
 31
0.0
  0
LINE
  5
C5
330
C2
100
AcDbEntity
  8
Dimension
 62
     0
370
    -2
100
AcDbLine
 10
69.60262141788917
 20
248.6929456461365
 30
0.0
 11
100.1026214178893
 21
248.6929456461365
 31
0.0
  0
SOLID
  5
C6
330
C2
100
AcDbEntity
  8
Dimension
 62
     0
100
AcDbTrace
 10
69.60262141788917
 20
249.5262789794698
 30
0.0
 11
69.60262141788917
 21
247.8596123128031
 31
0.0
 12
64.60262141788917
 22
248.6929456461365
 32
0.0
 13
64.60262141788917
 23
248.6929456461365
 33
0.0
  0
SOLID
  5
C7
330
C2
100
AcDbEntity
  8
Dimension
 62
     0
100
AcDbTrace
 10
100.1026214178893
 20
247.8596123128031
 30
0.0
 11
100.1026214178893
 21
249.5262789794698
 31
0.0
 12
105.1026214178893
 22
248.6929456461365
 32
0.0
 13
105.1026214178893
 23
248.6929456461365
 33
0.0
  0
MTEXT
  5
C8
330
C2
100
AcDbEntity
  8
Dimension
 62
     0
100
AcDbMText
 10
84.59119059209138
 20
251.6929456461365
 30
0.0
 40
4.0
 41
0.0
 46
0.0
 71
     5
 72
     1
  1
\A1;40.5
  7
VCDSTYLE02
 73
     1
 44
1.0
  0
POINT
  5
CC
330
C2
100
AcDbEntity
  8
Defpoints
 62
     0
100
AcDbPoint
 10
64.60262141788917
 20
241.68381633854
 30
0.0
  0
POINT
  5
CD
330
C2
100
AcDbEntity
  8
Defpoints
 62
     0
100
AcDbPoint
 10
105.1026214178893
 20
241.6838164754953
 30
0.0
  0
POINT
  5
CE
330
C2
100
AcDbEntity
  8
Defpoints
 62
     0
100
AcDbPoint
 10
105.1026214178893
 20
248.6929456461365
 30
0.0
  0
ENDBLK
  5
D0
330
C2
100
AcDbEntity
  8
0
100
AcDbBlockEnd
  0
BLOCK
  5
DC
330
D1
100
AcDbEntity
  8
0
100
AcDbBlockBegin
  2
*D10
 70
     1
 10
0.0
 20
0.0
 30
0.0
  3
*D10
  1

  0
LINE
  5
D2
330
D1
100
AcDbEntity
  8
Dimension
 62
     0
370
    -2
100
AcDbLine
 10
66.85262141788905
 20
243.9338162015819
 30
0.0
 11
58.94556450039244
 21
243.9338162015819
 31
0.0
  0
LINE
  5
D3
330
D1
100
AcDbEntity
  8
Dimension
 62
     0
370
    -2
100
AcDbLine
 10
66.85262155484793
 20
203.4338235973769
 30
0.0
 11
58.94556450039244
 21
203.4338235973769
 31
0.0
  0
LINE
  5
D4
330
D1
100
AcDbEntity
  8
Dimension
 62
     0
370
    -2
100
AcDbLine
 10
59.94556450039244
 20
238.9338162015819
 30
0.0
 11
59.94556450039244
 21
208.4338235973769
 31
0.0
  0
SOLID
  5
D5
330
D1
100
AcDbEntity
  8
Dimension
 62
     0
100
AcDbTrace
 10
60.77889783372577
 20
238.9338162015819
 30
0.0
 11
59.1122311670591
 21
238.9338162015819
 31
0.0
 12
59.94556450039244
 22
243.9338162015819
 32
0.0
 13
59.94556450039244
 23
243.9338162015819
 33
0.0
  0
SOLID
  5
D6
330
D1
100
AcDbEntity
  8
Dimension
 62
     0
100
AcDbTrace
 10
59.1122311670591
 20
208.4338235973769
 30
0.0
 11
60.77889783372577
 21
208.4338235973769
 31
0.0
 12
59.94556450039244
 22
203.4338235973769
 32
0.0
 13
59.94556450039244
 23
203.4338235973769
 33
0.0
  0
MTEXT
  5
D7
330
D1
100
AcDbEntity
  8
Dimension
 62
     0
100
AcDbMText
 10
56.94556450039244
 20
223.5714475816681
 30
0.0
 40
4.0
 41
0.0
 46
0.0
 71
     5
 72
     1
  1
\A1;40.5
  7
VCDSTYLE02
 11
0.0
 21
1.0
 31
0.0
 73
     1
 44
1.0
  0
POINT
  5
D9
330
D1
100
AcDbEntity
  8
Defpoints
 62
     0
100
AcDbPoint
 10
66.85262141788905
 20
243.9338162015819
 30
0.0
  0
POINT
  5
DA
330
D1
100
AcDbEntity
  8
Defpoints
 62
     0
100
AcDbPoint
 10
66.85262155484793
 20
203.4338235973769
 30
0.0
  0
POINT
  5
DB
330
D1
100
AcDbEntity
  8
Defpoints
 62
     0
100
AcDbPoint
 10
59.94556450039244
 20
203.4338235973769
 30
0.0
  0
ENDBLK
  5
DD
330
D1
100
AcDbEntity
  8
0
100
AcDbBlockEnd
  0
BLOCK
  5
E9
330
DE
100
AcDbEntity
  8
0
100
AcDbBlockBegin
  2
*D11
 70
     1
 10
0.0
 20
0.0
 30
0.0
  3
*D11
  1

  0
LINE
  5
DF
330
DE
100
AcDbEntity
  8
Dimension
 62
     0
370
    -2
100
AcDbLine
 10
65.90262150664364
 20
171.4338198512951
 30
0.0
 11
59.08190712170551
 21
171.4338198512951
 31
0.0
  0
LINE
  5
E0
330
DE
100
AcDbEntity
  8
Dimension
 62
     0
370
    -2
100
AcDbLine
 10
65.10262163094092
 20
165.4338198512952
 30
0.0
 11
59.08190712170551
 21
165.4338198512952
 31
0.0
  0
LINE
  5
E1
330
DE
100
AcDbEntity
  8
Dimension
 62
     0
370
    -2
100
AcDbLine
 10
60.08190712170551
 20
166.4338198512951
 30
0.0
 11
60.08190712170551
 21
170.4338198512952
 31
0.0
  0
SOLID
  5
E2
330
DE
100
AcDbEntity
  8
Dimension
 62
     0
100
AcDbTrace
 10
60.91524045503885
 20
166.4338198512951
 30
0.0
 11
59.24857378837218
 21
166.4338198512951
 31
0.0
 12
60.08190712170551
 22
171.4338198512951
 32
0.0
 13
60.08190712170551
 23
171.4338198512951
 33
0.0
  0
SOLID
  5
E3
330
DE
100
AcDbEntity
  8
Dimension
 62
     0
100
AcDbTrace
 10
59.24857378837218
 20
170.4338198512952
 30
0.0
 11
60.91524045503885
 21
170.4338198512952
 31
0.0
 12
60.08190712170551
 22
165.4338198512952
 32
0.0
 13
60.08190712170551
 23
165.4338198512952
 33
0.0
  0
MTEXT
  5
E4
330
DE
100
AcDbEntity
  8
Dimension
 62
     0
100
AcDbMText
 10
57.08190712170551
 20
168.583127141419
 30
0.0
 40
4.0
 41
0.0
 46
0.0
 71
     5
 72
     1
  1
\A1;6
  7
VCDSTYLE02
 11
0.0
 21
1.0
 31
0.0
 73
     1
 44
1.0
  0
POINT
  5
E5
330
DE
100
AcDbEntity
  8
Defpoints
 62
     0
100
AcDbPoint
 10
65.90262150664364
 20
171.4338198512951
 30
0.0
  0
POINT
  5
E6
330
DE
100
AcDbEntity
  8
Defpoints
 62
     0
100
AcDbPoint
 10
65.10262163094092
 20
165.4338198512952
 30
0.0
  0
POINT
  5
E8
330
DE
100
AcDbEntity
  8
Defpoints
 62
     0
100
AcDbPoint
 10
60.08190712170551
 20
165.4338198512952
 30
0.0
  0
ENDBLK
  5
EA
330
DE
100
AcDbEntity
  8
0
100
AcDbBlockEnd
  0
BLOCK
  5
442
330
413
100
AcDbEntity
  8
0
100
AcDbBlockBegin
  2
$TitleBlock elphel_parts
 70
     0
 10
0.0
 20
0.0
 30
0.0
  3
$TitleBlock elphel_parts
  1

  0
TEXT
  5
414
330
413
100
AcDbEntity
  8
Outline
 62
     2
100
AcDbText
 10
-168.3495635986328
 20
16.18584442138672
 30
0.0
 40
1.841060042381287
  1
Surface
  7
VCDSTYLE02
100
AcDbText
  0
LWPOLYLINE
  5
415
330
413
100
AcDbEntity
  8
Outline
 62
     2
100
AcDbPolyline
 90
        5
 70
     0
 43
0.0
 10
-0.4602650136366151
 20
0.4602650136366293
 10
-82.38743744095697
 20
0.4602650136366293
 10
-82.38743744095697
 20
15.18874545000888
 10
-0.4602650136366151
 20
15.18874545000888
 10
-0.4602650136366151
 20
0.0
  0
LINE
  5
416
330
413
100
AcDbEntity
  8
Outline
 62
     2
100
AcDbLine
 10
0.0000000000000568
 20
15.64901046364552
 30
0.0
 11
0.0000000000000568
 21
0.0
 31
0.0
  0
LINE
  5
417
330
413
100
AcDbEntity
  8
Outline
 62
     2
100
AcDbLine
 10
-97.57618289096607
 20
15.64901046364552
 30
0.0
 11
-97.57618289096607
 21
19.56126307955689
 31
0.0
  0
LINE
  5
418
330
413
100
AcDbEntity
  8
Outline
 62
     2
100
AcDbLine
 10
-170.298055045554
 20
15.64901046364552
 30
0.0
 11
-82.84770245459381
 21
15.64901046364552
 31
0.0
  0
LINE
  5
419
330
413
100
AcDbEntity
  8
Outline
 62
     2
100
AcDbLine
 10
-170.298055045554
 20
0.0
 30
0.0
 11
-82.84770245459381
 21
0.0
 31
0.0
  0
LINE
  5
41A
330
413
100
AcDbEntity
  8
Outline
 62
     2
100
AcDbLine
 10
-82.84770245459381
 20
0.0
 30
0.0
 11
-82.84770245459381
 21
15.64901046364552
 31
0.0
  0
LINE
  5
41B
330
413
100
AcDbEntity
  8
Outline
 62
     2
100
AcDbLine
 10
-170.298055045554
 20
19.56126307955689
 30
0.0
 11
0.0000000000000568
 21
19.56126307955689
 31
0.0
  0
LINE
  5
41C
330
413
100
AcDbEntity
  8
Outline
 62
     2
100
AcDbLine
 10
0.0000000000000568
 20
0.0
 30
0.0
 11
-82.84770245459381
 21
0.0
 31
0.0
  0
LINE
  5
41D
330
413
100
AcDbEntity
  8
Outline
 62
     2
100
AcDbLine
 10
-82.84770245459381
 20
15.64901046364552
 30
0.0
 11
0.0000000000000568
 21
15.64901046364552
 31
0.0
  0
TEXT
  5
41E
330
413
100
AcDbEntity
  8
Outline
 62
     2
100
AcDbText
 10
-81.25203704833984
 20
44.91454315185547
 30
0.0
 40
0.9205300211906433
  1
Description
  7
VCDSTYLE02
100
AcDbText
  0
LINE
  5
41F
330
413
100
AcDbEntity
  8
Outline
 62
     2
100
AcDbLine
 10
-170.298055045554
 20
27.38576831137964
 30
0.0
 11
0.0000000000000568
 21
27.38576831137964
 31
0.0
  0
LINE
  5
420
330
413
100
AcDbEntity
  8
Outline
 62
     2
100
AcDbLine
 10
0.0000000000000568
 20
46.94703139093654
 30
0.0
 11
-170.298055045554
 21
46.94703139093654
 31
0.0
  0
LINE
  5
421
330
413
100
AcDbEntity
  8
Outline
 62
     2
100
AcDbLine
 10
-170.298055045554
 20
27.38576831137964
 30
0.0
 11
-82.84770245459381
 21
27.38576831137964
 31
0.0
  0
LINE
  5
422
330
413
100
AcDbEntity
  8
Outline
 62
     2
100
AcDbLine
 10
-170.298055045554
 20
31.29802092729101
 30
0.0
 11
-170.298055045554
 21
46.94703139093654
 31
0.0
  0
LINE
  5
423
330
413
100
AcDbEntity
  8
Outline
 62
     2
100
AcDbLine
 10
-82.84770245459381
 20
46.94703139093654
 30
0.0
 11
-82.84770245459381
 21
31.29802092729101
 31
0.0
  0
LINE
  5
424
330
413
100
AcDbEntity
  8
Outline
 62
     2
100
AcDbLine
 10
0.0000000000000568
 20
31.29802092729101
 30
0.0
 11
0.0000000000000568
 21
46.94703139093654
 31
0.0
  0
LINE
  5
425
330
413
100
AcDbEntity
  8
Outline
 62
     2
100
AcDbLine
 10
-157.0483207857146
 20
46.94703139093654
 30
0.0
 11
-157.0483207857146
 21
31.29802092729101
 31
0.0
  0
TEXT
  5
426
330
413
100
AcDbEntity
  8
Outline
 62
     2
100
AcDbText
 10
-168.3495635986328
 20
28.04717826843262
 30
0.0
 40
1.841060042381287
  1
Material
  7
VCDSTYLE02
100
AcDbText
  0
LINE
  5
427
330
413
100
AcDbEntity
  8
Outline
 62
     2
100
AcDbLine
 10
-170.298055045554
 20
0.0
 30
0.0
 11
-170.298055045554
 21
31.29802092729101
 31
0.0
  0
LINE
  5
428
330
413
100
AcDbEntity
  8
Outline
 62
     2
100
AcDbLine
 10
-150.9056121242796
 20
15.64901046364552
 30
0.0
 11
-150.9056121242796
 21
31.29802092729101
 31
0.0
  0
LINE
  5
429
330
413
100
AcDbEntity
  8
Outline
 62
     2
100
AcDbLine
 10
-82.84770245459381
 20
31.29802092729101
 30
0.0
 11
-82.84770245459381
 21
15.64901046364552
 31
0.0
  0
LINE
  5
42A
330
413
100
AcDbEntity
  8
Outline
100
AcDbLine
 10
-170.298055045554
 20
23.47351569546827
 30
0.0
 11
-82.84770245459381
 21
23.47351569546827
 31
0.0
  0
LINE
  5
42B
330
413
100
AcDbEntity
  8
Outline
 62
     2
100
AcDbLine
 10
-170.298055045554
 20
23.47351569546827
 30
0.0
 11
0.0000000000000568
 21
23.47351569546827
 31
0.0
  0
TEXT
  5
42C
330
413
100
AcDbEntity
  8
Outline
 62
     2
100
AcDbText
 10
-168.3495635986328
 20
24.13492584228516
 30
0.0
 40
1.841060042381287
  1
Finish
  7
VCDSTYLE02
100
AcDbText
  0
LINE
  5
42D
330
413
100
AcDbEntity
  8
Outline
 62
     2
100
AcDbLine
 10
0.0000000000000568
 20
15.64901046364552
 30
0.0
 11
0.0000000000000568
 21
31.29802092729101
 31
0.0
  0
TEXT
  5
42E
330
413
100
AcDbEntity
  8
Outline
 62
     2
100
AcDbText
 10
-81.25203704833984
 20
12.55433559417725
 30
0.0
 40
0.9205300211906433
  1
Notes
  7
VCDSTYLE02
100
AcDbText
  0
LINE
  5
42F
330
413
100
AcDbEntity
  8
Outline
 62
     2
100
AcDbLine
 10
-170.298055045554
 20
31.29802092729101
 30
0.0
 11
-82.84770245459381
 21
31.29802092729101
 31
0.0
  0
TEXT
  5
430
330
413
100
AcDbEntity
  8
Outline
 62
     2
100
AcDbText
 10
-168.3495635986328
 20
20.20714569091797
 30
0.0
 40
1.841060042381287
  1
Weight(g)
  7
VCDSTYLE02
100
AcDbText
  0
TEXT
  5
431
330
413
100
AcDbEntity
  8
Outline
 62
     2
100
AcDbText
 10
-156.5416564941406
 20
45.10939788818359
 30
0.0
 40
0.9205300211906433
  1
Part #
  7
VCDSTYLE02
100
AcDbText
  0
TEXT
  5
432
330
413
100
AcDbEntity
  8
Outline
 62
     2
100
AcDbText
 10
-169.0979461669922
 20
45.19255065917969
 30
0.0
 40
0.9205300211906433
  1
Revision
  7
VCDSTYLE02
100
AcDbText
  0
LINE
  5
433
330
413
100
AcDbEntity
  8
Outline
 62
     2
100
AcDbLine
 10
-59.83011277766059
 20
27.38576831137964
 30
0.0
 11
-59.83011277766059
 21
15.64901046364552
 31
0.0
  0
TEXT
  5
434
330
413
100
AcDbEntity
  8
Outline
 62
     2
100
AcDbText
 10
-82.25203704833984
 20
24.13492584228516
 30
0.0
 40
1.841060042381287
  1
Serial No.
  7
VCDSTYLE02
100
AcDbText
  0
TEXT
  5
435
330
413
100
AcDbEntity
  8
Outline
 62
     2
100
AcDbText
 10
-82.25203704833984
 20
16.18584442138672
 30
0.0
 40
1.841060042381287
  1
Date
  7
VCDSTYLE02
100
AcDbText
  0
TEXT
  5
436
330
413
100
AcDbEntity
  8
Outline
 62
     2
100
AcDbText
 10
-82.25203704833984
 20
20.20714569091797
 30
0.0
 40
1.841060042381287
  1
Assembly No.
  7
VCDSTYLE02
100
AcDbText
  0
LINE
  5
437
330
413
100
AcDbEntity
  8
Outline
 62
     2
100
AcDbLine
 10
-14.79493342379411
 20
19.56126307955689
 30
0.0
 11
-14.79493342379411
 21
15.64901046364552
 31
0.0
  0
LINE
  5
438
330
413
100
AcDbEntity
  8
Outline
 62
     2
100
AcDbLine
 10
-26.81252310072733
 20
19.56126307955689
 30
0.0
 11
-26.81252310072733
 21
15.64901046364552
 31
0.0
  0
TEXT
  5
439
330
413
100
AcDbEntity
  8
Outline
 62
     2
100
AcDbText
 10
-25.21685791015625
 20
16.18584442138672
 30
0.0
 40
1.841060042381287
  1
Scale
  7
VCDSTYLE02
100
AcDbText
  0
TEXT
  5
43A
330
413
100
AcDbEntity
  8
Outline
100
AcDbText
 10
-167.9451904296875
 20
7.327913532257082
 30
0.0
 40
1.2
  1
Permission is also granted to copy, distribute and/or modify this document under the terms of the
 50
360.0
  7
VCDSTYLE12
100
AcDbText
  0
TEXT
  5
43B
330
413
100
AcDbEntity
  8
Outline
100
AcDbText
 10
-167.9451904296875
 20
5.407913532257083
 30
0.0
 40
1.2
  1
GNU Free Documentation License, Version 1.3 or any later version published by the Free Software
 50
360.0
  7
VCDSTYLE12
100
AcDbText
  0
TEXT
  5
43C
330
413
100
AcDbEntity
  8
Outline
100
AcDbText
 10
-167.9451904296875
 20
3.487913532257082
 30
0.0
 40
1.2
  1
Foundation; with no Invariant Sections, no Front-Cover Texts, and no Back-Cover Texts.  A copy of
 50
360.0
  7
VCDSTYLE12
100
AcDbText
  0
TEXT
  5
43D
330
413
100
AcDbEntity
  8
Outline
100
AcDbText
 10
-167.9451904296875
 20
1.56791353225708
 30
0.0
 40
1.2
  1
the license is included in the section entitled "GNU Free Documentation License".
 50
360.0
  7
VCDSTYLE12
100
AcDbText
  0
TEXT
  5
43E
330
413
100
AcDbEntity
  8
Outline
100
AcDbText
 10
-168.0283508300781
 20
12.77079420089722
 30
0.0
 40
1.5
  1
Copyright (c)                 Elphel, Inc.
 50
360.0
  7
VCDSTYLE12
100
AcDbText
  0
TEXT
  5
43F
330
413
100
AcDbEntity
  8
Outline
100
AcDbText
 10
-168.0283508300781
 20
10.37079420089722
 30
0.0
 40
1.5
  1
Licensed under CERN OHL v.1.1 or later - see http://ohwr.org/cernohl
 50
360.0
  7
VCDSTYLE12
100
AcDbText
  0
TEXT
  5
440
330
413
100
AcDbEntity
  8
Outline
100
AcDbText
 10
-168.0283508300781
 20
7.97079420089722
 30
0.0
 40
1.5
  1
 
 50
360.0
  7
VCDSTYLE12
100
AcDbText
  0
ENDBLK
  5
443
330
413
100
AcDbEntity
  8
0
100
AcDbBlockEnd
  0
BLOCK
  5
448
330
444
100
AcDbEntity
  8
0
100
AcDbBlockBegin
  2
Sheet Border
 70
     0
 10
0.0
 20
0.0
 30
0.0
  3
Sheet Border
  1

  0
LWPOLYLINE
  5
445
330
444
100
AcDbEntity
  8
Outline
 62
     2
100
AcDbPolyline
 90
        5
 70
     0
 43
0.0
 10
5.0
 20
5.0
 10
205.0
 20
5.0
 10
205.0
 20
292.0
 10
5.0
 20
292.0
 10
5.0
 20
5.0
  0
LWPOLYLINE
  5
446
330
444
100
AcDbEntity
  8
Outline
 62
     2
100
AcDbPolyline
 90
        5
 70
     0
 43
0.0
 10
0.0
 20
0.0
 10
210.0
 20
0.0
 10
210.0
 20
297.0
 10
0.0
 20
297.0
 10
0.0
 20
0.0
  0
ENDBLK
  5
449
330
444
100
AcDbEntity
  8
0
100
AcDbBlockEnd
  0
ENDSEC
  0
SECTION
  2
ENTITIES
  0
INSERT
  5
9C
330
1F
100
AcDbEntity
  8
Dimension
100
AcDbBlockReference
  2
$AttrValue elphel_parts
 10
188.2343
 20
26.0346
 30
0.0
  0
INSERT
  5
A1
330
1F
100
AcDbEntity
  8
Dimension
100
AcDbBlockReference
  2
$AttrValue elphel_parts(1)
 10
145.3357000000001
 20
26.4917
 30
0.0
  0
INSERT
  5
A6
330
1F
100
AcDbEntity
  8
Dimension
100
AcDbBlockReference
  2
$AttrValue elphel_parts(2)
 10
50.43000000000006
 20
34.4112
 30
0.0
  0
INSERT
  5
AB
330
1F
100
AcDbEntity
  8
Dimension
100
AcDbBlockReference
  2
$AttrValue elphel_parts(3)
 10
50.43000000000006
 20
38.1451
 30
0.0
  0
INSERT
  5
B0
330
1F
100
AcDbEntity
  8
Dimension
100
AcDbBlockReference
  2
$AttrValue elphel_parts(4)
 10
50.43000000000006
 20
30.3694
 30
0.0
  0
INSERT
  5
B5
330
1F
100
AcDbEntity
  8
Dimension
100
AcDbBlockReference
  2
$AttrValue elphel_parts(5)
 10
47.37900000000005
 20
22.801
 30
0.0
  0
INSERT
  5
BA
330
1F
100
AcDbEntity
  8
Dimension
100
AcDbBlockReference
  2
$AttrValue elphel_parts(6)
 10
119.3813000000001
 20
49.8706
 30
0.0
  0
INSERT
  5
BF
330
1F
100
AcDbEntity
  8
Dimension
100
AcDbBlockReference
  2
$AttrValue elphel_parts(7)
 10
44.76700000000005
 20
44.7335
 30
0.0
  0
DIMENSION
  5
CA
330
1F
100
AcDbEntity
  8
Dimension
100
AcDbDimension
280
     0
  2
*D9
 10
105.1026214178893
 20
248.6929456461365
 30
0.0
 11
84.59119059209138
 21
248.6929456461365
 31
0.0
 70
   160
 71
     5
 42
40.50000000000011
 73
     0
 74
     0
 75
     0
  3
VCDDIMSTYLE01
100
AcDbAlignedDimension
 13
64.60262141788917
 23
241.68381633854
 33
0.0
 14
105.1026214178893
 24
241.6838164754953
 34
0.0
100
AcDbRotatedDimension
1001
ACAD
1000
DSTYLE
1002
{
1070
   271
1070
     4
1002
}
  0
DIMENSION
  5
D8
330
1F
100
AcDbEntity
  8
Dimension
100
AcDbDimension
280
     0
  2
*D10
 10
59.94556450039244
 20
203.4338235973769
 30
0.0
 11
59.94556450039244
 21
223.5714475816681
 31
0.0
 70
   160
 71
     5
 42
40.49999260420498
 73
     0
 74
     0
 75
     0
  3
VCDDIMSTYLE01
100
AcDbAlignedDimension
 13
66.85262141788905
 23
243.9338162015819
 33
0.0
 14
66.85262155484793
 24
203.4338235973769
 34
0.0
 50
90.0
100
AcDbRotatedDimension
1001
ACAD
1000
DSTYLE
1002
{
1070
   271
1070
     4
1002
}
  0
DIMENSION
  5
E7
330
1F
100
AcDbEntity
  8
Dimension
100
AcDbDimension
280
     0
  2
*D11
 10
60.08190712170551
 20
165.4338198512952
 30
0.0
 11
60.08190712170551
 21
168.583127141419
 31
0.0
 70
   160
 71
     5
 42
5.999999999999943
 73
     0
 74
     0
 75
     0
  3
VCDDIMSTYLE01
100
AcDbAlignedDimension
 13
65.90262150664364
 23
171.4338198512951
 33
0.0
 14
65.10262163094092
 24
165.4338198512952
 34
0.0
 50
90.0
100
AcDbRotatedDimension
  0
LINE
  5
EB
330
1F
100
AcDbEntity
  8
0
 62
     2
100
AcDbLine
 10
173.3061514319051
 20
171.2338198512828
 30
0.0
 11
173.3061514441173
 21
169.4338198512829
 31
0.0
  0
LINE
  5
EC
330
1F
100
AcDbEntity
  8
0
 62
     2
100
AcDbLine
 10
141.4182015452404
 20
171.2338198512866
 30
0.0
 11
141.4182015330113
 21
169.4338198512866
 31
0.0
  0
LINE
  5
ED
330
1F
100
AcDbEntity
  8
0
 62
     2
100
AcDbLine
 10
160.1026181364342
 20
171.2338198512845
 30
0.0
 11
160.3026181364342
 21
171.4338198512844
 31
0.0
  0
LINE
  5
EE
330
1F
100
AcDbEntity
  8
0
 62
     2
100
AcDbLine
 10
176.5026184369206
 20
171.2338198512825
 30
0.0
 11
176.3026184369205
 21
171.4338198512825
 31
0.0
  0
LINE
  5
EF
330
1F
100
AcDbEntity
  8
0
 62
     2
100
AcDbLine
 10
171.0472474654624
 20
171.2338198512832
 30
0.0
 11
171.2472474654624
 21
171.4338198512831
 31
0.0
  0
LINE
  5
F0
330
1F
100
AcDbEntity
  8
0
 62
     2
100
AcDbLine
 10
171.0472474654576
 20
171.2338198512831
 30
0.0
 11
171.2472474654576
 21
171.4338198512831
 31
0.0
  0
LINE
  5
F1
330
1F
100
AcDbEntity
  8
0
 62
     2
100
AcDbLine
 10
173.3061514441173
 20
171.2338198512829
 30
0.0
 11
173.1061514441172
 21
171.4338198512829
 31
0.0
  0
LINE
  5
F2
330
1F
100
AcDbEntity
  8
0
 62
     2
100
AcDbLine
 10
138.2026258327036
 20
171.233819851287
 30
0.0
 11
138.4026258327036
 21
171.4338198512869
 31
0.0
  0
LINE
  5
F3
330
1F
100
AcDbEntity
  8
0
 62
     2
100
AcDbLine
 10
141.4182015330112
 20
171.2338198512866
 30
0.0
 11
141.6182015330111
 21
171.4338198512866
 31
0.0
  0
LINE
  5
F4
330
1F
100
AcDbEntity
  8
0
 62
     2
100
AcDbLine
 10
154.5472473845683
 20
171.233819851285
 30
0.0
 11
154.3472473845682
 21
171.4338198512851
 31
0.0
  0
LINE
  5
F5
330
1F
100
AcDbEntity
  8
0
 62
     2
100
AcDbLine
 10
168.2472473586772
 20
171.2338198512834
 30
0.0
 11
168.4472473586772
 21
171.4338198512835
 31
0.0
  0
LINE
  5
F6
330
1F
100
AcDbEntity
  8
0
 62
     2
100
AcDbLine
 10
168.2472473586824
 20
171.2338198512834
 30
0.0
 11
168.4472473586825
 21
171.4338198512835
 31
0.0
  0
LINE
  5
F7
330
1F
100
AcDbEntity
  8
0
 62
     2
100
AcDbLine
 10
161.1026214907594
 20
171.4338198512843
 30
0.0
 11
161.302621496441
 21
171.2338198512843
 31
0.0
  0
LINE
  5
F8
330
1F
100
AcDbEntity
  8
0
 62
     2
100
AcDbLine
 10
161.6026214688195
 20
170.9338198884444
 30
0.0
 11
162.1026214998731
 21
170.4338198661205
 31
0.0
  0
LINE
  5
F9
330
1F
100
AcDbEntity
  8
0
 62
     2
100
AcDbLine
 10
164.1026181474386
 20
169.633819854887
 30
0.0
 11
163.6026181294232
 21
169.633819851284
 31
0.0
  0
LINE
  5
FA
330
1F
100
AcDbEntity
  8
0
 62
     2
100
AcDbLine
 10
139.3526214893262
 20
165.4338198512868
 30
0.0
 11
137.6026215066565
 21
165.433819851287
 31
0.0
  0
LINE
  5
FB
330
1F
100
AcDbEntity
  8
0
 62
     2
100
AcDbLine
 10
141.6032546220819
 20
165.4338198512866
 30
0.0
 11
142.102621493972
 21
165.4338198512864
 31
0.0
  0
LINE
  5
FC
330
1F
100
AcDbEntity
  8
0
 62
     2
100
AcDbLine
 10
139.3526214893262
 20
165.4338198512868
 30
0.0
 11
141.6032546220819
 21
165.4338198512866
 31
0.0
  0
LINE
  5
FD
330
1F
100
AcDbEntity
  8
0
 62
     2
100
AcDbLine
 10
172.6026216123381
 20
165.433819851283
 30
0.0
 11
142.1026214880534
 21
165.4338198512864
 31
0.0
  0
LINE
  5
FE
330
1F
100
AcDbEntity
  8
0
 62
     2
100
AcDbLine
 10
173.1026216106472
 20
165.9338198512829
 30
0.0
 11
141.6026214863625
 21
165.9338198512866
 31
0.0
  0
LINE
  5
FF
330
1F
100
AcDbEntity
  8
0
 62
     2
100
AcDbLine
 10
173.7723839932315
 20
165.4338198512829
 30
0.0
 11
175.3526214893235
 21
165.4338198512827
 31
0.0
  0
LINE
  5
100
330
1F
100
AcDbEntity
  8
0
 62
     2
100
AcDbLine
 10
172.6026214939683
 20
165.433819851283
 30
0.0
 11
173.7723839932315
 21
165.4338198512829
 31
0.0
  0
LINE
  5
101
330
1F
100
AcDbEntity
  8
0
 62
     2
100
AcDbLine
 10
177.102617856946
 20
165.4338198512825
 30
0.0
 11
175.3526214893203
 21
165.4338198512827
 31
0.0
  0
LINE
  5
102
330
1F
100
AcDbEntity
  8
0
 62
     2
100
AcDbLine
 10
161.302621496441
 20
171.2338198512843
 30
0.0
 11
161.6026214917739
 21
170.9338198654881
 31
0.0
  0
LINE
  5
103
330
1F
100
AcDbEntity
  8
0
 62
     2
100
AcDbLine
 10
162.1026214900833
 20
169.6338198512842
 30
0.0
 11
163.6026181294232
 21
169.633819851284
 31
0.0
  0
LINE
  5
104
330
1F
100
AcDbEntity
  8
0
 62
     2
100
AcDbLine
 10
177.6026178569449
 20
168.4338198512825
 30
0.0
 11
177.6026178569451
 21
165.9338198512825
 31
0.0
  0
LINE
  5
105
330
1F
100
AcDbEntity
  8
0
 62
     2
100
AcDbLine
 10
173.1026214939695
 20
165.9338198512829
 30
0.0
 11
173.1026214939694
 21
168.4338198512829
 31
0.0
  0
LINE
  5
106
330
1F
100
AcDbEntity
  8
0
 62
     2
100
AcDbLine
 10
141.6026214863614
 20
168.4338198512866
 30
0.0
 11
141.6026214863616
 21
165.9338198512866
 31
0.0
  0
LINE
  5
107
330
1F
100
AcDbEntity
  8
0
 62
     2
100
AcDbLine
 10
137.1026252527381
 20
165.9338198512871
 30
0.0
 11
137.1026252527379
 21
168.433819851287
 31
0.0
  0
LINE
  5
108
330
1F
100
AcDbEntity
  8
0
 62
     2
100
AcDbLine
 10
141.6026214863623
 20
168.4338198512866
 30
0.0
 11
139.3526249788233
 21
168.4338198512868
 31
0.0
  0
LINE
  5
109
330
1F
100
AcDbEntity
  8
0
 62
     2
100
AcDbLine
 10
137.102625252738
 20
168.4338198512871
 30
0.0
 11
139.3526252527381
 21
168.4338198512868
 31
0.0
  0
LINE
  5
10A
330
1F
100
AcDbEntity
  8
0
 62
     2
100
AcDbLine
 10
175.3526179939032
 20
168.4338198512827
 30
0.0
 11
173.1026214863605
 21
168.4338198512829
 31
0.0
  0
LINE
  5
10B
330
1F
100
AcDbEntity
  8
0
 62
     2
100
AcDbLine
 10
175.3526179939032
 20
168.4338198512827
 30
0.0
 11
177.6026178569451
 21
168.4338198512825
 31
0.0
  0
LINE
  5
10C
330
1F
100
AcDbEntity
  8
0
 62
     2
100
AcDbLine
 10
137.1026252527379
 20
169.433819851287
 30
0.0
 11
139.352625252738
 21
169.4338198512868
 31
0.0
  0
LINE
  5
10D
330
1F
100
AcDbEntity
  8
0
 62
     2
100
AcDbLine
 10
175.3526179939032
 20
169.4338198512827
 30
0.0
 11
139.3526249788233
 21
169.4338198512868
 31
0.0
  0
LINE
  5
10E
330
1F
100
AcDbEntity
  8
0
 62
     2
100
AcDbLine
 10
175.3526179939032
 20
169.4338198512827
 30
0.0
 11
177.6026178569451
 21
169.4338198512825
 31
0.0
  0
LINE
  5
10F
330
1F
100
AcDbEntity
  8
0
 62
     2
100
AcDbLine
 10
137.1026252527378
 20
169.433819851287
 30
0.0
 11
137.1026252527379
 21
168.433819851287
 31
0.0
  0
LINE
  5
110
330
1F
100
AcDbEntity
  8
0
 62
     2
100
AcDbLine
 10
139.352625252738
 20
169.4338198512868
 30
0.0
 11
139.3526252527381
 21
168.4338198512868
 31
0.0
  0
LINE
  5
111
330
1F
100
AcDbEntity
  8
0
 62
     2
100
AcDbLine
 10
175.3526179939032
 20
169.4338198512827
 30
0.0
 11
175.3526179939032
 21
168.4338198512827
 31
0.0
  0
LINE
  5
112
330
1F
100
AcDbEntity
  8
0
 62
     2
100
AcDbLine
 10
177.6026178569451
 20
169.4338198512825
 30
0.0
 11
177.6026178569451
 21
168.4338198512825
 31
0.0
  0
LINE
  5
113
330
1F
100
AcDbEntity
  8
0
 62
     2
100
AcDbLine
 10
139.3526214901709
 20
165.9338198512868
 30
0.0
 11
137.1026215066565
 21
165.933819851287
 31
0.0
  0
LINE
  5
114
330
1F
100
AcDbEntity
  8
0
 62
     2
100
AcDbLine
 10
139.3526214901709
 20
165.9338198512868
 30
0.0
 11
141.602621493972
 21
165.9338198512866
 31
0.0
  0
LINE
  5
115
330
1F
100
AcDbEntity
  8
0
 62
     2
100
AcDbLine
 10
173.1026214939683
 20
165.9338198512829
 30
0.0
 11
175.352621490168
 21
165.9338198512827
 31
0.0
  0
LINE
  5
116
330
1F
100
AcDbEntity
  8
0
 62
     2
100
AcDbLine
 10
177.602617856946
 20
165.9338198512824
 30
0.0
 11
175.3526214901657
 21
165.9338198512827
 31
0.0
  0
LINE
  5
117
330
1F
100
AcDbEntity
  8
0
 62
     2
100
AcDbLine
 10
139.3526214901707
 20
168.4338198512868
 30
0.0
 11
139.3526214901709
 21
165.9338198512868
 31
0.0
  0
LINE
  5
118
330
1F
100
AcDbEntity
  8
0
 62
     2
100
AcDbLine
 10
175.3526214901655
 20
168.4338198512827
 30
0.0
 11
175.3526214901657
 21
165.9338198512827
 31
0.0
  0
LINE
  5
119
330
1F
100
AcDbEntity
  8
0
 62
     2
100
AcDbLine
 10
171.0472474654576
 20
171.2338198512832
 30
0.0
 11
170.1026182678103
 21
171.2338198512832
 31
0.0
  0
LINE
  5
11A
330
1F
100
AcDbEntity
  8
0
 62
     2
100
AcDbLine
 10
170.1026182678103
 20
171.2338198512833
 30
0.0
 11
168.7472473586826
 21
171.2338198512834
 31
0.0
  0
LINE
  5
11B
330
1F
100
AcDbEntity
  8
0
 62
     2
100
AcDbLine
 10
168.2472473586824
 20
171.2338198512834
 30
0.0
 11
168.7472473586826
 21
171.2338198512834
 31
0.0
  0
LINE
  5
11C
330
1F
100
AcDbEntity
  8
0
 62
     2
100
AcDbLine
 10
154.5472473845684
 20
169.4338198512851
 30
0.0
 11
154.5472473845683
 21
171.233819851285
 31
0.0
  0
LINE
  5
11D
330
1F
100
AcDbEntity
  8
0
 62
     2
100
AcDbLine
 10
160.1026181364342
 20
171.2338198512845
 30
0.0
 11
160.1026181364343
 21
169.4338198512844
 31
0.0
  0
LINE
  5
11E
330
1F
100
AcDbEntity
  8
0
 62
     2
100
AcDbLine
 10
164.1026181474386
 20
169.4338198512839
 30
0.0
 11
164.1026181474386
 21
169.633819854887
 31
0.0
  0
LINE
  5
11F
330
1F
100
AcDbEntity
  8
0
 62
     2
100
AcDbLine
 10
171.0472474654576
 20
171.2338198512832
 30
0.0
 11
171.0472474654576
 21
169.4338198512831
 31
0.0
  0
LINE
  5
120
330
1F
100
AcDbEntity
  8
0
 62
     2
100
AcDbLine
 10
168.2472473586787
 20
171.2338198512835
 30
0.0
 11
168.2472473586787
 21
169.4338198512835
 31
0.0
  0
LINE
  5
121
330
1F
100
AcDbEntity
  8
0
 62
     2
100
AcDbLine
 10
168.7472473586826
 20
171.2338198512834
 30
0.0
 11
168.7472473586826
 21
169.4338198512834
 31
0.0
  0
LINE
  5
122
330
1F
100
AcDbEntity
  8
0
 62
     2
100
AcDbLine
 10
170.1026182678103
 20
171.2338198512832
 30
0.0
 11
170.1026182678103
 21
169.4338198512832
 31
0.0
  0
LINE
  5
123
330
1F
100
AcDbEntity
  8
0
 62
     2
100
AcDbLine
 10
142.018201533011
 20
171.2338198512865
 30
0.0
 11
154.0472473845706
 21
171.2338198512851
 31
0.0
  0
LINE
  5
124
330
1F
100
AcDbEntity
  8
0
 62
     2
100
AcDbLine
 10
141.4182015452404
 20
171.2338198512866
 30
0.0
 11
142.018201533011
 21
171.2338198512865
 31
0.0
  0
LINE
  5
125
330
1F
100
AcDbEntity
  8
0
 62
     2
100
AcDbLine
 10
141.4182015452404
 20
171.2338198512866
 30
0.0
 11
140.3459574095035
 21
171.2338198512867
 31
0.0
  0
LINE
  5
126
330
1F
100
AcDbEntity
  8
0
 62
     2
100
AcDbLine
 10
140.3459574095035
 20
171.2338198512867
 30
0.0
 11
139.9417055257734
 21
171.2338198512867
 31
0.0
  0
LINE
  5
127
330
1F
100
AcDbEntity
  8
0
 62
     2
100
AcDbLine
 10
139.0710002927569
 20
171.2338198512869
 30
0.0
 11
139.9417055257734
 21
171.2338198512867
 31
0.0
  0
LINE
  5
128
330
1F
100
AcDbEntity
  8
0
 62
     2
100
AcDbLine
 10
138.2026258327036
 20
171.233819851287
 30
0.0
 11
139.071000292757
 21
171.2338198512869
 31
0.0
  0
LINE
  5
129
330
1F
100
AcDbEntity
  8
0
 62
     2
100
AcDbLine
 10
172.706151444117
 20
171.233819851283
 30
0.0
 11
173.3061514319051
 21
171.2338198512828
 31
0.0
  0
LINE
  5
12A
330
1F
100
AcDbEntity
  8
0
 62
     2
100
AcDbLine
 10
171.5472474654589
 20
171.2338198512831
 30
0.0
 11
172.7061514441172
 21
171.233819851283
 31
0.0
  0
LINE
  5
12B
330
1F
100
AcDbEntity
  8
0
 62
     2
100
AcDbLine
 10
175.6342438788714
 20
171.2338198512826
 30
0.0
 11
176.5026184369206
 21
171.2338198512825
 31
0.0
  0
LINE
  5
12C
330
1F
100
AcDbEntity
  8
0
 62
     2
100
AcDbLine
 10
174.7852179778263
 20
171.2338198512827
 30
0.0
 11
175.6342438788715
 21
171.2338198512826
 31
0.0
  0
LINE
  5
12D
330
1F
100
AcDbEntity
  8
0
 62
     2
100
AcDbLine
 10
174.7852179778263
 20
171.2338198512827
 30
0.0
 11
174.3857846961019
 21
171.2338198512828
 31
0.0
  0
LINE
  5
12E
330
1F
100
AcDbEntity
  8
0
 62
     2
100
AcDbLine
 10
174.3857846961018
 20
171.2338198512828
 30
0.0
 11
173.3061514319051
 21
171.2338198512828
 31
0.0
  0
LINE
  5
12F
330
1F
100
AcDbEntity
  8
0
 62
     2
100
AcDbLine
 10
160.6026181294285
 20
171.2338198512844
 30
0.0
 11
161.302621496441
 21
171.2338198512843
 31
0.0
  0
LINE
  5
130
330
1F
100
AcDbEntity
  8
0
 62
     2
100
AcDbLine
 10
154.0472473845707
 20
169.4338198512851
 30
0.0
 11
154.0472473845706
 21
171.2338198512851
 31
0.0
  0
LINE
  5
131
330
1F
100
AcDbEntity
  8
0
 62
     2
100
AcDbLine
 10
160.6026181294285
 20
171.2338198512844
 30
0.0
 11
160.6026181294286
 21
169.4338198512844
 31
0.0
  0
LINE
  5
132
330
1F
100
AcDbEntity
  8
0
 62
     2
100
AcDbLine
 10
161.602621491774
 20
169.6338198512842
 30
0.0
 11
161.6026214917739
 21
170.9338198884444
 31
0.0
  0
LINE
  5
133
330
1F
100
AcDbEntity
  8
0
 62
     2
100
AcDbLine
 10
162.1026214900832
 20
169.6338198512842
 30
0.0
 11
161.602621491774
 21
169.6338198512842
 31
0.0
  0
LINE
  5
134
330
1F
100
AcDbEntity
  8
0
 62
     2
100
AcDbLine
 10
163.6026181294232
 20
169.4338198512841
 30
0.0
 11
163.6026181294232
 21
169.633819851284
 31
0.0
  0
LINE
  5
135
330
1F
100
AcDbEntity
  8
0
 62
     2
100
AcDbLine
 10
171.5472474654589
 20
171.2338198512831
 30
0.0
 11
171.547247465459
 21
169.4338198512831
 31
0.0
  0
LINE
  5
136
330
1F
100
AcDbEntity
  8
0
 62
     2
100
AcDbLine
 10
176.5026184369206
 20
171.2338198512825
 30
0.0
 11
176.5026184369207
 21
169.4338198512826
 31
0.0
  0
LINE
  5
137
330
1F
100
AcDbEntity
  8
0
 62
     2
100
AcDbLine
 10
175.6342438788715
 20
171.2338198512826
 30
0.0
 11
175.6342438788715
 21
169.4338198512827
 31
0.0
  0
LINE
  5
138
330
1F
100
AcDbEntity
  8
0
 62
     2
100
AcDbLine
 10
174.7852179778263
 20
171.2338198512827
 30
0.0
 11
174.7852179778263
 21
169.4338198512827
 31
0.0
  0
LINE
  5
139
330
1F
100
AcDbEntity
  8
0
 62
     2
100
AcDbLine
 10
174.3857846961019
 20
171.2338198512828
 30
0.0
 11
174.385784696102
 21
169.4338198512828
 31
0.0
  0
LINE
  5
13A
330
1F
100
AcDbEntity
  8
0
 62
     2
100
AcDbLine
 10
172.7061514441173
 20
171.233819851283
 30
0.0
 11
172.7061514441173
 21
169.433819851283
 31
0.0
  0
LINE
  5
13B
330
1F
100
AcDbEntity
  8
0
 62
     2
100
AcDbLine
 10
142.0182015330112
 20
171.2338198512865
 30
0.0
 11
142.0182015330113
 21
169.4338198512864
 31
0.0
  0
LINE
  5
13C
330
1F
100
AcDbEntity
  8
0
 62
     2
100
AcDbLine
 10
140.3459574095035
 20
171.2338198512867
 30
0.0
 11
140.3459574095035
 21
169.4338198512867
 31
0.0
  0
LINE
  5
13D
330
1F
100
AcDbEntity
  8
0
 62
     2
100
AcDbLine
 10
139.9417055257734
 20
171.2338198512867
 30
0.0
 11
139.9417055257734
 21
169.4338198512867
 31
0.0
  0
LINE
  5
13E
330
1F
100
AcDbEntity
  8
0
 62
     2
100
AcDbLine
 10
139.0710002927569
 20
171.2338198512867
 30
0.0
 11
139.071000292757
 21
169.4338198512868
 31
0.0
  0
LINE
  5
13F
330
1F
100
AcDbEntity
  8
0
 62
     2
100
AcDbLine
 10
138.2026258327036
 20
171.2338198512869
 30
0.0
 11
138.2026258327036
 21
169.4338198512869
 31
0.0
  0
LINE
  5
140
330
1F
100
AcDbEntity
  8
0
 62
     2
100
AcDbLine
 10
171.2472474654576
 20
171.4338198512831
 30
0.0
 11
170.1026182678043
 21
171.4338198512833
 31
0.0
  0
LINE
  5
141
330
1F
100
AcDbEntity
  8
0
 62
     2
100
AcDbLine
 10
170.1026182678095
 20
171.4338198512833
 30
0.0
 11
168.7472473586824
 21
171.4338198512834
 31
0.0
  0
LINE
  5
142
330
1F
100
AcDbEntity
  8
0
 62
     2
100
AcDbLine
 10
168.4472473586825
 20
171.4338198512835
 30
0.0
 11
168.7472473586824
 21
171.4338198512834
 31
0.0
  0
LINE
  5
143
330
1F
100
AcDbEntity
  8
0
 62
     2
100
AcDbLine
 10
154.0472473845683
 20
171.4338198512851
 30
0.0
 11
154.3472473845682
 21
171.4338198512851
 31
0.0
  0
LINE
  5
144
330
1F
100
AcDbEntity
  8
0
 62
     2
100
AcDbLine
 10
142.018201533011
 20
171.4338198512864
 30
0.0
 11
154.0472473845706
 21
171.4338198512851
 31
0.0
  0
LINE
  5
145
330
1F
100
AcDbEntity
  8
0
 62
     2
100
AcDbLine
 10
141.618201541164
 20
171.4338198512866
 30
0.0
 11
142.018201533011
 21
171.4338198512864
 31
0.0
  0
LINE
  5
146
330
1F
100
AcDbEntity
  8
0
 62
     2
100
AcDbLine
 10
141.6200773050114
 20
171.4338198512866
 30
0.0
 11
140.4182000096444
 21
171.4338198512867
 31
0.0
  0
LINE
  5
147
330
1F
100
AcDbEntity
  8
0
 62
     2
100
AcDbLine
 10
140.4182000096443
 20
171.4338198512867
 30
0.0
 11
139.8522473724223
 21
171.4338198512867
 31
0.0
  0
LINE
  5
148
330
1F
100
AcDbEntity
  8
0
 62
     2
100
AcDbLine
 10
138.9815421394058
 20
171.4338198512868
 30
0.0
 11
139.8522473724223
 21
171.4338198512867
 31
0.0
  0
LINE
  5
149
330
1F
100
AcDbEntity
  8
0
 62
     2
100
AcDbLine
 10
138.4026258327036
 20
171.4338198512869
 30
0.0
 11
138.9815421394058
 21
171.4338198512868
 31
0.0
  0
LINE
  5
14A
330
1F
100
AcDbEntity
  8
0
 62
     2
100
AcDbLine
 10
172.706151444117
 20
171.433819851283
 30
0.0
 11
173.1061514359758
 21
171.4338198512829
 31
0.0
  0
LINE
  5
14B
330
1F
100
AcDbEntity
  8
0
 62
     2
100
AcDbLine
 10
171.5472474654588
 20
171.4338198512831
 30
0.0
 11
172.7061514441173
 21
171.433819851283
 31
0.0
  0
LINE
  5
14C
330
1F
100
AcDbEntity
  8
0
 62
     2
100
AcDbLine
 10
171.2472474654576
 20
171.4338198512831
 30
0.0
 11
171.5472474654576
 21
171.4338198512831
 31
0.0
  0
LINE
  5
14D
330
1F
100
AcDbEntity
  8
0
 62
     2
100
AcDbLine
 10
175.7237020648877
 20
171.4338198512827
 30
0.0
 11
176.3026184369205
 21
171.4338198512825
 31
0.0
  0
LINE
  5
14E
330
1F
100
AcDbEntity
  8
0
 62
     2
100
AcDbLine
 10
174.8746761638427
 20
171.4338198512827
 30
0.0
 11
175.7237020648878
 21
171.4338198512827
 31
0.0
  0
LINE
  5
14F
330
1F
100
AcDbEntity
  8
0
 62
     2
100
AcDbLine
 10
174.8746761638427
 20
171.4338198512827
 30
0.0
 11
174.3154695694283
 21
171.4338198512828
 31
0.0
  0
LINE
  5
150
330
1F
100
AcDbEntity
  8
0
 62
     2
100
AcDbLine
 10
174.3154695694283
 20
171.4338198512828
 30
0.0
 11
173.1061514441172
 21
171.4338198512829
 31
0.0
  0
LINE
  5
151
330
1F
100
AcDbEntity
  8
0
 62
     2
100
AcDbLine
 10
160.3026181364342
 20
171.4338198512844
 30
0.0
 11
160.6026181315302
 21
171.4338198512844
 31
0.0
  0
LINE
  5
152
330
1F
100
AcDbEntity
  8
0
 62
     2
100
AcDbLine
 10
160.6026181294285
 20
171.4338198512844
 30
0.0
 11
161.1026214907594
 21
171.4338198512843
 31
0.0
  0
LINE
  5
153
330
1F
100
AcDbEntity
  8
0
 62
     2
100
AcDbLine
 10
162.1026215009051
 20
169.6338198512842
 30
0.0
 11
162.1026215009051
 21
170.4338198661205
 31
0.0
  0
LINE
  5
154
330
1F
100
AcDbEntity
  8
0
 62
     2
100
AcDbLine
 10
177.102617856945
 20
165.4338198512825
 30
0.0
 11
177.6026178569451
 21
165.9338198512825
 31
0.0
  0
LINE
  5
155
330
1F
100
AcDbEntity
  8
0
 62
     2
100
AcDbLine
 10
175.3526214893203
 20
165.4338198512827
 30
0.0
 11
175.3526214901657
 21
165.9338198512827
 31
0.0
  0
LINE
  5
156
330
1F
100
AcDbEntity
  8
0
 62
     2
100
AcDbLine
 10
172.6026214880515
 20
165.433819851283
 30
0.0
 11
173.1026214845112
 21
165.9338198607413
 31
0.0
  0
LINE
  5
157
330
1F
100
AcDbEntity
  8
0
 62
     2
100
AcDbLine
 10
142.1026214880534
 20
165.4338198512864
 30
0.0
 11
141.6026214863625
 21
165.9338198512866
 31
0.0
  0
LINE
  5
158
330
1F
100
AcDbEntity
  8
0
 62
     2
100
AcDbLine
 10
139.3526214893262
 20
165.4338198512868
 30
0.0
 11
139.3526214901709
 21
165.9338198512868
 31
0.0
  0
LINE
  5
159
330
1F
100
AcDbEntity
  8
0
 62
     2
100
AcDbLine
 10
137.6026215066565
 20
165.433819851287
 30
0.0
 11
137.1026215066564
 21
165.933819851287
 31
0.0
  0
LINE
  5
15A
330
1F
100
AcDbEntity
  8
0
 62
     2
100
AcDbLine
 10
171.0472474654576
 20
171.2338198512831
 30
0.0
 11
171.5472474654589
 21
171.2338198512831
 31
0.0
  0
LINE
  5
15B
330
1F
100
AcDbEntity
  8
0
 62
     2
100
AcDbLine
 10
160.1026181364342
 20
171.2338198512845
 30
0.0
 11
160.6026181294285
 21
171.2338198512844
 31
0.0
  0
LINE
  5
15C
330
1F
100
AcDbEntity
  8
0
 62
     2
100
AcDbLine
 10
154.0472473845706
 20
171.233819851285
 30
0.0
 11
154.5472473845683
 21
171.233819851285
 31
0.0
  0
LINE
  5
15D
330
1F
100
AcDbEntity
  8
0
 62
     2
100
AcDbLine
 10
160.6026181294285
 20
171.2338198512844
 30
0.0
 11
160.6026181294285
 21
171.4338198512844
 31
0.0
  0
LINE
  5
15E
330
1F
100
AcDbEntity
  8
0
 62
     2
100
AcDbLine
 10
160.1026181364342
 20
171.2338198512845
 30
0.0
 11
160.3026181364342
 21
171.4338198512844
 31
0.0
  0
LINE
  5
15F
330
1F
100
AcDbEntity
  8
0
 62
     2
100
AcDbLine
 10
174.3154695694283
 20
171.4338198512828
 30
0.0
 11
174.3857846961018
 21
171.2338198512828
 31
0.0
  0
LINE
  5
160
330
1F
100
AcDbEntity
  8
0
 62
     2
100
AcDbLine
 10
174.8746761638427
 20
171.4338198512827
 30
0.0
 11
174.7852179778263
 21
171.2338198512827
 31
0.0
  0
LINE
  5
161
330
1F
100
AcDbEntity
  8
0
 62
     2
100
AcDbLine
 10
175.7237020648878
 20
171.4338198512827
 30
0.0
 11
175.6342438788715
 21
171.2338198512826
 31
0.0
  0
LINE
  5
162
330
1F
100
AcDbEntity
  8
0
 62
     2
100
AcDbLine
 10
176.5026184369206
 20
171.2338198512825
 30
0.0
 11
176.3026184369205
 21
171.4338198512825
 31
0.0
  0
LINE
  5
163
330
1F
100
AcDbEntity
  8
0
 62
     2
100
AcDbLine
 10
171.0472474654624
 20
171.2338198512832
 30
0.0
 11
171.2472474654624
 21
171.4338198512831
 31
0.0
  0
LINE
  5
164
330
1F
100
AcDbEntity
  8
0
 62
     2
100
AcDbLine
 10
171.2472474654567
 20
171.4338198512853
 30
0.0
 11
171.0472474654582
 21
171.2338198512831
 31
0.0
  0
LINE
  5
165
330
1F
100
AcDbEntity
  8
0
 62
     2
100
AcDbLine
 10
171.5472474654576
 20
171.2338198512831
 30
0.0
 11
171.5472474654586
 21
171.4338198512831
 31
0.0
  0
LINE
  5
166
330
1F
100
AcDbEntity
  8
0
 62
     2
100
AcDbLine
 10
172.7061514441172
 20
171.433819851283
 30
0.0
 11
172.7061514441172
 21
171.233819851283
 31
0.0
  0
LINE
  5
167
330
1F
100
AcDbEntity
  8
0
 62
     2
100
AcDbLine
 10
138.4026258327036
 20
171.4338198512869
 30
0.0
 11
138.202625832703
 21
171.2338198512855
 31
0.0
  0
LINE
  5
168
330
1F
100
AcDbEntity
  8
0
 62
     2
100
AcDbLine
 10
139.071000292757
 20
171.2338198512869
 30
0.0
 11
138.9815421394059
 21
171.4338198512868
 31
0.0
  0
LINE
  5
169
330
1F
100
AcDbEntity
  8
0
 62
     2
100
AcDbLine
 10
139.8522473724223
 20
171.4338198512867
 30
0.0
 11
139.9417055257734
 21
171.2338198512867
 31
0.0
  0
LINE
  5
16A
330
1F
100
AcDbEntity
  8
0
 62
     2
100
AcDbLine
 10
140.4182000096444
 20
171.4338198512867
 30
0.0
 11
140.3459574095035
 21
171.2338198512867
 31
0.0
  0
LINE
  5
16B
330
1F
100
AcDbEntity
  8
0
 62
     2
100
AcDbLine
 10
142.018201533011
 20
171.2338198512865
 30
0.0
 11
142.0182015330111
 21
171.4338198512864
 31
0.0
  0
LINE
  5
16C
330
1F
100
AcDbEntity
  8
0
 62
     2
100
AcDbLine
 10
154.0472473845706
 20
171.4338198512851
 30
0.0
 11
154.0472473845706
 21
171.2338198512851
 31
0.0
  0
LINE
  5
16D
330
1F
100
AcDbEntity
  8
0
 62
     2
100
AcDbLine
 10
154.5472473845683
 20
171.233819851285
 30
0.0
 11
154.3472473845682
 21
171.4338198512851
 31
0.0
  0
LINE
  5
16E
330
1F
100
AcDbEntity
  8
0
 62
     2
100
AcDbLine
 10
168.2472473586772
 20
171.2338198512834
 30
0.0
 11
168.4472473586772
 21
171.4338198512835
 31
0.0
  0
LINE
  5
16F
330
1F
100
AcDbEntity
  8
0
 62
     2
100
AcDbLine
 10
168.4472473586795
 20
171.4338198512827
 30
0.0
 11
168.2472473586787
 21
171.2338198512834
 31
0.0
  0
LINE
  5
170
330
1F
100
AcDbEntity
  8
0
 62
     2
100
AcDbLine
 10
168.7472473586826
 20
171.2338198512834
 30
0.0
 11
168.7472473586824
 21
171.4338198512834
 31
0.0
  0
LINE
  5
171
330
1F
100
AcDbEntity
  8
0
 62
     2
100
AcDbLine
 10
170.1026182678095
 20
171.4338198512833
 30
0.0
 11
170.1026182678103
 21
171.2338198512832
 31
0.0
  0
LINE
  5
172
330
1F
100
AcDbEntity
  8
0
 62
     2
100
AcDbLine
 10
79.1026215773366
 20
94.23382666711609
 30
0.0
 11
79.30262157700173
 21
94.03382666711651
 31
0.0
  0
LINE
  5
173
330
1F
100
AcDbEntity
  8
0
 62
     2
100
AcDbLine
 10
90.40262157699573
 20
94.03382666711701
 30
0.0
 11
90.60262157733888
 21
94.23382666711836
 31
0.0
  0
LINE
  5
174
330
1F
100
AcDbEntity
  8
0
 62
     2
100
AcDbLine
 10
90.60262164142227
 20
132.1338192713279
 30
0.0
 11
90.40262164175971
 21
132.3338192713278
 31
0.0
  0
LINE
  5
175
330
1F
100
AcDbEntity
  8
0
 62
     2
100
AcDbLine
 10
79.30262164176014
 20
132.3338192713287
 30
0.0
 11
79.10262164142091
 21
132.1338192713284
 31
0.0
  0
LINE
  5
176
330
1F
100
AcDbEntity
  8
0
 62
     2
100
AcDbLine
 10
101.4026215066446
 20
109.4338234932178
 30
0.0
 11
101.2026215066447
 21
109.2338234875365
 31
0.0
  0
LINE
  5
177
330
1F
100
AcDbEntity
  8
0
 62
     2
100
AcDbLine
 10
104.0026215066555
 20
109.2338234780672
 30
0.0
 11
103.8026215066554
 21
109.4338234851013
 31
0.0
  0
LINE
  5
178
330
1F
100
AcDbEntity
  8
0
 62
     2
100
AcDbLine
 10
68.50262150665594
 20
109.2338235981239
 30
0.0
 11
68.30262150665601
 21
109.4338236051581
 31
0.0
  0
LINE
  5
179
330
1F
100
AcDbEntity
  8
0
 62
     2
100
AcDbLine
 10
65.90262150665058
 20
109.4338236132747
 30
0.0
 11
65.70262150665059
 21
109.2338236075933
 31
0.0
  0
ARC
  5
17A
330
1F
100
AcDbEntity
  8
0
 62
     2
100
AcDbCircle
 10
103.5026215066554
 20
108.9338234844249
 30
0.0
 40
0.4999999999999081
100
AcDbArc
 50
270.0036807440312
 51
0.0000028241417239
  0
ARC
  5
17B
330
1F
100
AcDbEntity
  8
0
 62
     2
100
AcDbCircle
 10
90.10262164091506
 20
131.8338192713279
 30
0.0
 40
0.5
100
AcDbArc
 50
89.99999999999349
 51
179.9963189639795
  0
ARC
  5
17C
330
1F
100
AcDbEntity
  8
0
 62
     2
100
AcDbCircle
 10
86.10262164091472
 20
131.8338192713281
 30
0.0
 40
0.5000000000000767
100
AcDbArc
 50
0.00368084207312
 51
89.99999999985248
  0
ARC
  5
17D
330
1F
100
AcDbEntity
  8
0
 62
     2
100
AcDbCircle
 10
83.60262164091449
 20
131.8338192713283
 30
0.0
 40
0.5
100
AcDbArc
 50
90.00000000001303
 51
179.9963189639664
  0
ARC
  5
17E
330
1F
100
AcDbEntity
  8
0
 62
     2
100
AcDbCircle
 10
79.60262164091381
 20
131.8338192713285
 30
0.0
 40
0.50000000000002
100
AcDbArc
 50
0.0036808422711533
 51
89.99999999999352
  0
ARC
  5
17F
330
1F
100
AcDbEntity
  8
0
 62
     2
100
AcDbCircle
 10
66.20262150665053
 20
108.9338236031292
 30
0.0
 40
0.500000000000001
100
AcDbArc
 50
179.9999963777452
 51
269.9963189329147
  0
ARC
  5
180
330
1F
100
AcDbEntity
  8
0
 62
     2
100
AcDbCircle
 10
66.20262150665008
 20
106.9338269565958
 30
0.0
 40
0.5000000000000572
100
AcDbArc
 50
179.9999979086902
 51
269.9999987115282
  0
ARC
  5
181
330
1F
100
AcDbEntity
  8
0
 62
     2
100
AcDbCircle
 10
79.60262157784399
 20
94.53382666711617
 30
0.0
 40
0.5000000000000004
100
AcDbArc
 50
269.9999973696461
 51
359.9963189639358
  0
ARC
  5
182
330
1F
100
AcDbEntity
  8
0
 62
     2
100
AcDbCircle
 10
83.60262157784541
 20
94.53382666711695
 30
0.0
 40
0.5000000000001337
100
AcDbArc
 50
180.0036808422711
 51
270.0000026303239
  0
ARC
  5
183
330
1F
100
AcDbEntity
  8
0
 62
     2
100
AcDbCircle
 10
86.10262157784513
 20
94.53382666711741
 30
0.0
 40
0.5000000000000004
100
AcDbArc
 50
269.9999973696461
 51
359.9963189639732
  0
ARC
  5
184
330
1F
100
AcDbEntity
  8
0
 62
     2
100
AcDbCircle
 10
90.10262157784575
 20
94.53382666711832
 30
0.0
 40
0.4999999999999631
100
AcDbArc
 50
180.0036808422711
 51
270.0000026303412
  0
ARC
  5
185
330
1F
100
AcDbEntity
  8
0
 62
     2
100
AcDbCircle
 10
103.5026215066553
 20
106.9338274921465
 30
0.0
 40
0.5000000000000001
100
AcDbArc
 50
270.0000013763608
 51
0.0000005734779268
  0
LINE
  5
186
330
1F
100
AcDbEntity
  8
0
 62
     2
100
AcDbLine
 10
85.80262164176133
 20
132.3338192713282
 30
0.0
 11
85.6026216414221
 21
132.1338192713281
 31
0.0
  0
LINE
  5
187
330
1F
100
AcDbEntity
  8
0
 62
     2
100
AcDbLine
 10
84.10262164142176
 20
132.1338192713282
 30
0.0
 11
83.90262164175914
 21
132.3338192713283
 31
0.0
  0
LINE
  5
188
330
1F
100
AcDbEntity
  8
0
 62
     2
100
AcDbLine
 10
83.90262157699658
 20
94.03382666711674
 30
0.0
 11
84.10262157733871
 21
94.23382666711711
 31
0.0
  0
LINE
  5
189
330
1F
100
AcDbEntity
  8
0
 62
     2
100
AcDbLine
 10
85.60262157733791
 20
94.23382666711734
 30
0.0
 11
85.80262157700423
 21
94.03382666711678
 31
0.0
  0
LINE
  5
18A
330
1F
100
AcDbEntity
  8
0
 62
     2
100
AcDbLine
 10
86.10262164091466
 20
132.3338192713281
 30
0.0
 11
85.80262164176048
 21
132.3338192713281
 31
0.0
  0
LINE
  5
18B
330
1F
100
AcDbEntity
  8
0
 62
     2
100
AcDbLine
 10
90.40262164176045
 20
132.3338192713279
 30
0.0
 11
90.10262164091506
 21
132.3338192713279
 31
0.0
  0
LINE
  5
18C
330
1F
100
AcDbEntity
  8
0
 62
     2
100
AcDbLine
 10
79.60262164091381
 20
132.3338192713285
 30
0.0
 11
79.30262164175906
 21
132.3338192713284
 31
0.0
  0
LINE
  5
18D
330
1F
100
AcDbEntity
  8
0
 62
     2
100
AcDbLine
 10
83.90262164175999
 20
132.3338192713282
 30
0.0
 11
83.60262164091438
 21
132.3338192713283
 31
0.0
  0
LINE
  5
18E
330
1F
100
AcDbEntity
  8
0
 62
     2
100
AcDbLine
 10
104.0026215066554
 20
108.9338234861157
 30
0.0
 11
104.0026215066555
 21
109.2338234780672
 31
0.0
  0
LINE
  5
18F
330
1F
100
AcDbEntity
  8
0
 62
     2
100
AcDbLine
 10
101.2026215066451
 20
108.4338234732654
 30
0.0
 11
101.2026215066446
 21
109.2338234875365
 31
0.0
  0
LINE
  5
190
330
1F
100
AcDbEntity
  8
0
 62
     2
100
AcDbLine
 10
65.70262150665059
 20
109.2338236075933
 30
0.0
 11
65.70262150665053
 21
108.9338236122604
 31
0.0
  0
LINE
  5
191
330
1F
100
AcDbEntity
  8
0
 62
     2
100
AcDbLine
 10
68.50262150665594
 20
109.2338235981239
 30
0.0
 11
68.50262150665549
 21
108.4338235879108
 31
0.0
  0
LINE
  5
192
330
1F
100
AcDbEntity
  8
0
 62
     2
100
AcDbLine
 10
83.6026215778457
 20
94.03382666711695
 30
0.0
 11
83.90262157700084
 21
94.033826667117
 31
0.0
  0
LINE
  5
193
330
1F
100
AcDbEntity
  8
0
 62
     2
100
AcDbLine
 10
79.30262157699826
 20
94.0338266671161
 30
0.0
 11
79.60262157784416
 21
94.03382666711617
 31
0.0
  0
LINE
  5
194
330
1F
100
AcDbEntity
  8
0
 62
     2
100
AcDbLine
 10
90.10262157784587
 20
94.03382666711832
 30
0.0
 11
90.40262157700113
 21
94.0338266671183
 31
0.0
  0
LINE
  5
195
330
1F
100
AcDbEntity
  8
0
 62
     2
100
AcDbLine
 10
85.80262157699974
 20
94.03382666711741
 30
0.0
 11
86.10262157784547
 21
94.03382666711752
 31
0.0
  0
LINE
  5
196
330
1F
100
AcDbEntity
  8
0
 62
     2
100
AcDbLine
 10
89.60262164176032
 20
132.3338192713279
 30
0.0
 11
86.60262164176146
 21
132.333819271328
 31
0.0
  0
LINE
  5
197
330
1F
100
AcDbEntity
  8
0
 62
     2
100
AcDbLine
 10
83.10262164175987
 20
132.3338192713283
 30
0.0
 11
80.1026216417585
 21
132.3338192713284
 31
0.0
  0
LINE
  5
198
330
1F
100
AcDbEntity
  8
0
 62
     2
100
AcDbLine
 10
65.70262150665042
 20
108.4338236139512
 30
0.0
 11
65.70262150665002
 21
106.9338269746113
 31
0.0
  0
LINE
  5
199
330
1F
100
AcDbEntity
  8
0
 62
     2
100
AcDbLine
 10
80.10262157699833
 20
94.03382666711627
 30
0.0
 11
83.10262157699958
 21
94.03382666711684
 31
0.0
  0
LINE
  5
19A
330
1F
100
AcDbEntity
  8
0
 62
     2
100
AcDbLine
 10
86.60262157699987
 20
94.03382666711752
 30
0.0
 11
89.60262157700038
 21
94.0338266671182
 31
0.0
  0
LINE
  5
19B
330
1F
100
AcDbEntity
  8
0
 62
     2
100
AcDbLine
 10
104.0026215066553
 20
106.933827497151
 30
0.0
 11
104.0026215066554
 21
108.4338234844249
 31
0.0
  0
ARC
  5
19C
330
1F
100
AcDbEntity
  8
0
 62
     2
100
AcDbCircle
 10
101.7026215066514
 20
106.9338274719347
 30
0.0
 40
0.5
100
AcDbArc
 50
180.0
 51
270.0000008014745
  0
LINE
  5
19D
330
1F
100
AcDbEntity
  8
0
 62
     2
100
AcDbLine
 10
101.2026215066462
 20
106.933827471925
 30
0.0
 11
101.2026215066452
 21
108.4338234938941
 31
0.0
  0
LINE
  5
19E
330
1F
100
AcDbEntity
  8
0
 62
     2
100
AcDbLine
 10
68.50262150665554
 20
108.4338236044816
 30
0.0
 11
68.5026215066548
 21
106.9338269998358
 31
0.0
  0
ARC
  5
19F
330
1F
100
AcDbEntity
  8
0
 62
     2
100
AcDbCircle
 10
68.00262150665378
 20
106.9338269998302
 30
0.0
 40
0.5
100
AcDbArc
 50
270.0000008029922
 51
0.0000000006448638
  0
LINE
  5
1A0
330
1F
100
AcDbEntity
  8
0
 62
     2
100
AcDbLine
 10
68.00262151366115
 20
106.4338269998322
 30
0.0
 11
66.20262151365591
 21
106.4338269746111
 31
0.0
  0
LINE
  5
1A1
330
1F
100
AcDbEntity
  8
0
 62
     2
100
AcDbLine
 10
103.5026215136618
 20
106.4338274971511
 30
0.0
 11
101.7026215136457
 21
106.4338274719282
 31
0.0
  0
CIRCLE
  5
1A2
330
1F
100
AcDbEntity
  8
0
 62
     2
100
AcDbCircle
 10
95.7746214471523
 20
120.4891977194596
 30
0.0
 40
4.000000000000057
  0
ARC
  5
1A3
330
1F
100
AcDbEntity
  8
0
 62
     2
100
AcDbCircle
 10
91.07462144715294
 20
115.7891977194618
 30
0.0
 40
0.5
100
AcDbArc
 50
180.0
 51
269.9999999984465
  0
LINE
  5
1A4
330
1F
100
AcDbEntity
  8
0
 62
     2
100
AcDbLine
 10
100.4746214471263
 20
115.2891977194612
 30
0.0
 11
91.07462144713946
 21
115.2891977194623
 31
0.0
  0
ARC
  5
1A5
330
1F
100
AcDbEntity
  8
0
 62
     2
100
AcDbCircle
 10
100.4746214471524
 20
115.7891977194595
 30
0.0
 40
0.5
100
AcDbArc
 50
269.9999999969907
 51
0.0000000018172417
  0
LINE
  5
1A6
330
1F
100
AcDbEntity
  8
0
 62
     2
100
AcDbLine
 10
100.97462144715
 20
124.1891977194389
 30
0.0
 11
100.9746214471547
 21
115.7891977194754
 31
0.0
  0
ARC
  5
1A7
330
1F
100
AcDbEntity
  8
0
 62
     2
100
AcDbCircle
 10
100.4746214471518
 20
124.1891977194583
 30
0.0
 40
0.5000000000000568
100
AcDbArc
 50
0.0
 51
90.00000000221469
  0
LINE
  5
1A8
330
1F
100
AcDbEntity
  8
0
 62
     2
100
AcDbLine
 10
91.0746214471526
 20
124.68919771946
 30
0.0
 11
100.4746214471547
 21
124.689197719459
 31
0.0
  0
ARC
  5
1A9
330
1F
100
AcDbEntity
  8
0
 62
     2
100
AcDbCircle
 10
91.07462144715254
 20
124.189197719459
 30
0.0
 40
0.5
100
AcDbArc
 50
90.00000000001303
 51
180.0000000000128
  0
LINE
  5
1AA
330
1F
100
AcDbEntity
  8
0
 62
     2
100
AcDbLine
 10
90.57462144715379
 20
115.789197719446
 30
0.0
 11
90.57462144715129
 21
124.189197719459
 31
0.0
  0
LINE
  5
1AB
330
1F
100
AcDbEntity
  8
0
 62
     2
100
AcDbLine
 10
85.77262173085597
 20
112.1891977453543
 30
0.0
 11
73.77262173083238
 21
112.1891977453557
 31
0.0
  0
ARC
  5
1AC
330
1F
100
AcDbEntity
  8
0
 62
     2
100
AcDbCircle
 10
85.77262173085592
 20
112.6891977453543
 30
0.0
 40
0.5
100
AcDbArc
 50
269.999999998111
 51
0.0000000000977066
  0
LINE
  5
1AD
330
1F
100
AcDbEntity
  8
0
 62
     2
100
AcDbLine
 10
86.27262173084586
 20
112.9391977453764
 30
0.0
 11
86.27262173085586
 21
112.689197745355
 31
0.0
  0
ARC
  5
1AE
330
1F
100
AcDbEntity
  8
0
 62
     2
100
AcDbCircle
 10
86.77262173084551
 20
112.9391977453769
 30
0.0
 40
0.5
100
AcDbArc
 50
89.99999999999349
 51
179.9999999999935
  0
LINE
  5
1AF
330
1F
100
AcDbEntity
  8
0
 62
     2
100
AcDbLine
 10
87.64760623683321
 20
113.4391977453624
 30
0.0
 11
86.77262173086103
 21
113.4391977453625
 31
0.0
  0
ARC
  5
1B0
330
1F
100
AcDbEntity
  8
0
 62
     2
100
AcDbCircle
 10
87.64760623685265
 20
113.9391977453605
 30
0.0
 40
0.5
100
AcDbArc
 50
269.9999999977788
 51
0.0000000013027552
  0
LINE
  5
1B1
330
1F
100
AcDbEntity
  8
0
 62
     2
100
AcDbLine
 10
88.1476062368506
 20
126.3891977453544
 30
0.0
 11
88.14760623685072
 21
113.9391977453718
 31
0.0
  0
ARC
  5
1B2
330
1F
100
AcDbEntity
  8
0
 62
     2
100
AcDbCircle
 10
87.64760623685015
 20
126.3891977453546
 30
0.0
 40
0.5
100
AcDbArc
 50
0.0
 51
90.00000000001303
  0
LINE
  5
1B3
330
1F
100
AcDbEntity
  8
0
 62
     2
100
AcDbLine
 10
71.89763722486566
 20
126.8891977453572
 30
0.0
 11
87.64760623686158
 21
126.8891977453554
 31
0.0
  0
ARC
  5
1B4
330
1F
100
AcDbEntity
  8
0
 62
     2
100
AcDbCircle
 10
71.89763722484912
 20
126.389197745358
 30
0.0
 40
0.5
100
AcDbArc
 50
89.99999999999349
 51
179.9999999999935
  0
LINE
  5
1B5
330
1F
100
AcDbEntity
  8
0
 62
     2
100
AcDbLine
 10
71.39763722484975
 20
113.9391977453737
 30
0.0
 11
71.39763722484884
 21
126.389197745358
 31
0.0
  0
ARC
  5
1B6
330
1F
100
AcDbEntity
  8
0
 62
     2
100
AcDbCircle
 10
71.8976372248502
 20
113.93919774536
 30
0.0
 40
0.5
100
AcDbArc
 50
180.0
 51
270.000000000013
  0
LINE
  5
1B7
330
1F
100
AcDbEntity
  8
0
 62
     2
100
AcDbLine
 10
72.77262173086768
 20
113.4391977453533
 30
0.0
 11
71.89763722485043
 21
113.4391977453534
 31
0.0
  0
ARC
  5
1B8
330
1F
100
AcDbEntity
  8
0
 62
     2
100
AcDbCircle
 10
72.7726217308595
 20
112.9391977453543
 30
0.0
 40
0.5
100
AcDbArc
 50
0.0
 51
90.00000000278789
  0
LINE
  5
1B9
330
1F
100
AcDbEntity
  8
0
 62
     2
100
AcDbLine
 10
73.27262173083841
 20
112.6891977453462
 30
0.0
 11
73.2726217308134
 21
112.9391977453299
 31
0.0
  0
ARC
  5
1BA
330
1F
100
AcDbEntity
  8
0
 62
     2
100
AcDbCircle
 10
73.77262173083835
 20
112.6891977453543
 30
0.0
 40
0.5000000000000568
100
AcDbArc
 50
180.0
 51
269.9999999992998
  0
ARC
  5
1BB
330
1F
100
AcDbEntity
  8
0
 62
     2
100
AcDbCircle
 10
76.52262173085103
 20
109.2391977453581
 30
0.0
 40
0.5000000000000568
100
AcDbArc
 50
180.0
 51
269.9999999983878
  0
LINE
  5
1BC
330
1F
100
AcDbEntity
  8
0
 62
     2
100
AcDbLine
 10
76.02262173084881
 20
110.2891977453581
 30
0.0
 11
76.02262173085836
 21
109.2391977453635
 31
0.0
  0
ARC
  5
1BD
330
1F
100
AcDbEntity
  8
0
 62
     2
100
AcDbCircle
 10
76.5226217308603
 20
110.2891977453581
 30
0.0
 40
0.5
100
AcDbArc
 50
90.00000000001303
 51
180.000000000013
  0
LINE
  5
1BE
330
1F
100
AcDbEntity
  8
0
 62
     2
100
AcDbLine
 10
83.02262173085757
 20
110.7891977453566
 30
0.0
 11
76.52262173086575
 21
110.7891977453535
 31
0.0
  0
ARC
  5
1BF
330
1F
100
AcDbEntity
  8
0
 62
     2
100
AcDbCircle
 10
83.02262173085194
 20
110.2891977453565
 30
0.0
 40
0.5000000000000568
100
AcDbArc
 50
0.0
 51
89.99999999876238
  0
LINE
  5
1C0
330
1F
100
AcDbEntity
  8
0
 62
     2
100
AcDbLine
 10
83.52262173084779
 20
109.2391977453733
 30
0.0
 11
83.5226217308491
 21
110.2891977453673
 31
0.0
  0
ARC
  5
1C1
330
1F
100
AcDbEntity
  8
0
 62
     2
100
AcDbCircle
 10
83.02262173085518
 20
109.2391977453566
 30
0.0
 40
0.5
100
AcDbArc
 50
270.0000000002931
 51
0.0000000019215639
  0
LINE
  5
1C2
330
1F
100
AcDbEntity
  8
0
 62
     2
100
AcDbLine
 10
76.52262173083693
 20
108.7391977453543
 30
0.0
 11
83.02262173085774
 21
108.7391977453566
 31
0.0
  0
ARC
  5
1C3
330
1F
100
AcDbEntity
  8
0
 62
     2
100
AcDbCircle
 10
76.17262173085476
 20
108.639197745357
 30
0.0
 40
0.5
100
AcDbArc
 50
180.0
 51
270.0000000029572
  0
LINE
  5
1C4
330
1F
100
AcDbEntity
  8
0
 62
     2
100
AcDbLine
 10
83.37262173083451
 20
108.139197745356
 30
0.0
 11
76.17262173088062
 21
108.1391977453568
 31
0.0
  0
ARC
  5
1C5
330
1F
100
AcDbEntity
  8
0
 62
     2
100
AcDbCircle
 10
83.37262173084923
 20
108.6391977453532
 30
0.0
 40
0.5
100
AcDbArc
 50
269.9999999983195
 51
359.9999999975117
  0
LINE
  5
1C6
330
1F
100
AcDbEntity
  8
0
 62
     2
100
AcDbLine
 10
83.87262173085003
 20
110.889197745344
 30
0.0
 11
83.87262173085145
 21
108.6391977453313
 31
0.0
  0
ARC
  5
1C7
330
1F
100
AcDbEntity
  8
0
 62
     2
100
AcDbCircle
 10
83.37262173085003
 20
110.8891977453581
 30
0.0
 40
0.5
100
AcDbArc
 50
0.0
 51
90.0000000016024
  0
LINE
  5
1C8
330
1F
100
AcDbEntity
  8
0
 62
     2
100
AcDbLine
 10
76.17262173084976
 20
111.3891977453569
 30
0.0
 11
83.37262173083434
 21
111.3891977453561
 31
0.0
  0
ARC
  5
1C9
330
1F
100
AcDbEntity
  8
0
 62
     2
100
AcDbCircle
 10
76.1726217308514
 20
110.8891977453589
 30
0.0
 40
0.5
100
AcDbArc
 50
90.0000000001889
 51
180.0000000000032
  0
LINE
  5
1CA
330
1F
100
AcDbEntity
  8
0
 62
     2
100
AcDbLine
 10
75.67262173085777
 20
108.6391977453741
 30
0.0
 11
75.67262173085129
 21
110.8891977453591
 31
0.0
  0
ARC
  5
1CB
330
1F
100
AcDbEntity
  8
0
 62
     2
100
AcDbCircle
 10
66.60262150665363
 20
111.4338269802087
 30
0.0
 40
1.000000000000057
100
AcDbArc
 50
180.0
 51
270.0000008030232
  0
LINE
  5
1CC
330
1F
100
AcDbEntity
  8
0
 62
     2
100
AcDbLine
 10
65.60262150665255
 20
114.9891977194603
 30
0.0
 11
65.60262150665233
 21
111.4338269802088
 31
0.0
  0
ARC
  5
1CD
330
1F
100
AcDbEntity
  8
0
 62
     2
100
AcDbCircle
 10
66.60262150665176
 20
114.9891977194635
 30
0.0
 40
1.0
100
AcDbArc
 50
90.00000000006838
 51
180.0
  0
ARC
  5
1CE
330
1F
100
AcDbEntity
  8
0
 62
     2
100
AcDbCircle
 10
66.60262150665477
 20
100.4891976385744
 30
0.0
 40
1.000000000000057
100
AcDbArc
 50
180.0
 51
270.0000000000358
  0
LINE
  5
1CF
330
1F
100
AcDbEntity
  8
0
 62
     2
100
AcDbLine
 10
65.60262150665312
 20
105.4338269802154
 30
0.0
 11
65.60262150665454
 21
100.4891976385745
 31
0.0
  0
ARC
  5
1D0
330
1F
100
AcDbEntity
  8
0
 62
     2
100
AcDbCircle
 10
66.60262150665511
 20
105.4338269802158
 30
0.0
 40
1.0
100
AcDbArc
 50
90.00000080295317
 51
180.0000000000073
  0
ARC
  5
1D1
330
1F
100
AcDbEntity
  8
0
 62
     2
100
AcDbCircle
 10
77.47362809115248
 20
94.93382683621485
 30
0.0
 40
1.0
100
AcDbArc
 50
270.000000000254
 51
359.9999999991703
  0
LINE
  5
1D2
330
1F
100
AcDbEntity
  8
0
 62
     2
100
AcDbLine
 10
71.0736280911409
 20
93.93382683621611
 30
0.0
 11
77.47362809115702
 21
93.9338268362154
 31
0.0
  0
ARC
  5
1D3
330
1F
100
AcDbEntity
  8
0
 62
     2
100
AcDbCircle
 10
71.0736280911442
 20
94.93382683621759
 30
0.0
 40
1.000000000000057
100
AcDbArc
 50
180.0
 51
269.9999999998102
  0
ARC
  5
1D4
330
1F
100
AcDbEntity
  8
0
 62
     2
100
AcDbCircle
 10
103.1026215066486
 20
105.4338274915471
 30
0.0
 40
1.0
100
AcDbArc
 50
0.0
 51
90.00000000057322
  0
LINE
  5
1D5
330
1F
100
AcDbEntity
  8
0
 62
     2
100
AcDbLine
 10
104.1026215066439
 20
103.2891977453509
 30
0.0
 11
104.1026215066466
 21
105.433827491537
 31
0.0
  0
ARC
  5
1D6
330
1F
100
AcDbEntity
  8
0
 62
     2
100
AcDbCircle
 10
103.102621506645
 20
103.2891977453505
 30
0.0
 40
1.0
100
AcDbArc
 50
270.0000000003648
 51
0.0000000000229
  0
ARC
  5
1D7
330
1F
100
AcDbEntity
  8
0
 62
     2
100
AcDbCircle
 10
103.1026215066501
 20
114.9891977194642
 30
0.0
 40
1.000000000000057
100
AcDbArc
 50
0.0
 51
90.00000000038513
  0
LINE
  5
1D8
330
1F
100
AcDbEntity
  8
0
 62
     2
100
AcDbLine
 10
104.1026215066506
 20
111.4338274915447
 30
0.0
 11
104.1026215066503
 21
114.9891977194574
 31
0.0
  0
ARC
  5
1D9
330
1F
100
AcDbEntity
  8
0
 62
     2
100
AcDbCircle
 10
103.1026215066493
 20
111.4338274915393
 30
0.0
 40
1.0
100
AcDbArc
 50
270.0000008031062
 51
0.0000000003158672
  0
CIRCLE
  5
1DA
330
1F
100
AcDbEntity
  8
0
 62
     2
100
AcDbCircle
 10
102.8526216398189
 20
131.1838236100626
 30
0.0
 40
1.350000000000023
  0
CIRCLE
  5
1DB
330
1F
100
AcDbEntity
  8
0
 62
     2
100
AcDbCircle
 10
66.85262163981685
 20
131.1838236100668
 30
0.0
 40
1.349999999999966
  0
CIRCLE
  5
1DC
330
1F
100
AcDbEntity
  8
0
 62
     2
100
AcDbCircle
 10
66.85262163981884
 20
95.1838236100668
 30
0.0
 40
1.349999999999966
  0
CIRCLE
  5
1DD
330
1F
100
AcDbEntity
  8
0
 62
     2
100
AcDbCircle
 10
102.8526216398209
 20
95.18382361006265
 30
0.0
 40
1.350000000000023
  0
LINE
  5
1DE
330
1F
100
AcDbEntity
  8
0
 62
     2
100
AcDbLine
 10
102.8526215066676
 20
92.93382724708611
 30
0.0
 11
66.85262178057644
 21
92.93382724709024
 31
0.0
  0
ARC
  5
1DF
330
1F
100
AcDbEntity
  8
0
 62
     2
100
AcDbCircle
 10
102.8526215066584
 20
95.1838272470859
 30
0.0
 40
2.25
100
AcDbArc
 50
270.0000000000043
 51
359.9999930247461
  0
LINE
  5
1E0
330
1F
100
AcDbEntity
  8
0
 62
     2
100
AcDbLine
 10
105.1026215066565
 20
131.1838199882425
 30
0.0
 11
105.1026215066585
 21
95.18382697316781
 31
0.0
  0
ARC
  5
1E1
330
1F
100
AcDbEntity
  8
0
 62
     2
100
AcDbCircle
 10
102.8526215066565
 20
131.1838198512908
 30
0.0
 40
2.250000000000118
100
AcDbArc
 50
0.000003415094585
 51
89.99999992764285
  0
LINE
  5
1E2
330
1F
100
AcDbEntity
  8
0
 62
     2
100
AcDbLine
 10
66.85262164361319
 20
133.433819851295
 30
0.0
 11
102.8526215066613
 21
133.4338198512909
 31
0.0
  0
ARC
  5
1E3
330
1F
100
AcDbEntity
  8
0
 62
     2
100
AcDbCircle
 10
66.85262150665636
 20
131.1838198512949
 30
0.0
 40
2.25
100
AcDbArc
 50
90.00000000000436
 51
180.0000000000043
  0
LINE
  5
1E4
330
1F
100
AcDbEntity
  8
0
 62
     2
100
AcDbLine
 10
64.60262150665835
 20
95.18382711013213
 30
0.0
 11
64.60262150665619
 21
131.18382012521
 31
0.0
  0
ARC
  5
1E5
330
1F
100
AcDbEntity
  8
0
 62
     2
100
AcDbCircle
 10
66.85262150665841
 20
95.18382724709005
 30
0.0
 40
2.250000000000118
100
AcDbArc
 50
180.0000034150946
 51
269.9999999274829
  0
LINE
  5
1E6
330
1F
100
AcDbEntity
  8
0
 62
     2
100
AcDbLine
 10
78.47362809115072
 20
94.53382666711754
 30
0.0
 11
78.4736280911576
 21
96.93382683620655
 31
0.0
  0
ARC
  5
1E7
330
1F
100
AcDbEntity
  8
0
 62
     2
100
AcDbCircle
 10
78.97362809115737
 20
96.93382683620648
 30
0.0
 40
0.5
100
AcDbArc
 50
90.00000000001303
 51
180.000000000013
  0
LINE
  5
1E8
330
1F
100
AcDbEntity
  8
0
 62
     2
100
AcDbLine
 10
78.97362809115629
 20
97.43382683620719
 30
0.0
 11
98.10262150665466
 21
97.43382683620496
 31
0.0
  0
ARC
  5
1E9
330
1F
100
AcDbEntity
  8
0
 62
     2
100
AcDbCircle
 10
98.10262150665397
 20
100.4338268362071
 30
0.0
 40
3.0
100
AcDbArc
 50
270.0000000000141
 51
0.0000000002643677
  0
LINE
  5
1EA
330
1F
100
AcDbEntity
  8
0
 62
     2
100
AcDbLine
 10
101.1026215066573
 20
100.4338268362204
 30
0.0
 11
101.1026215066522
 21
101.7891977453481
 31
0.0
  0
ARC
  5
1EB
330
1F
100
AcDbEntity
  8
0
 62
     2
100
AcDbCircle
 10
101.602621506652
 20
101.789197745348
 30
0.0
 40
0.5
100
AcDbArc
 50
89.99999999999349
 51
179.9999999999935
  0
LINE
  5
1EC
330
1F
100
AcDbEntity
  8
0
 62
     2
100
AcDbLine
 10
101.6026215066413
 20
102.2891977453518
 30
0.0
 11
103.5026215066545
 21
102.2891977453515
 31
0.0
  0
LINE
  5
1ED
330
1F
100
AcDbEntity
  8
0
 62
     2
100
AcDbLine
 10
103.5026215066569
 20
115.9891977194612
 30
0.0
 11
101.6026215066696
 21
115.9891977194615
 31
0.0
  0
ARC
  5
1EE
330
1F
100
AcDbEntity
  8
0
 62
     2
100
AcDbCircle
 10
101.6026215066559
 20
116.4891977194539
 30
0.0
 40
0.5000000000001705
100
AcDbArc
 50
180.0
 51
270.0000000014722
  0
LINE
  5
1EF
330
1F
100
AcDbEntity
  8
0
 62
     2
100
AcDbLine
 10
101.1026215066544
 20
116.4891977194561
 30
0.0
 11
101.1026215066557
 21
125.9338194404147
 31
0.0
  0
ARC
  5
1F0
330
1F
100
AcDbEntity
  8
0
 62
     2
100
AcDbCircle
 10
98.10262150665574
 20
125.9338194404149
 30
0.0
 40
3.000000000000171
100
AcDbArc
 50
0.0
 51
89.99999999999797
  0
LINE
  5
1F1
330
1F
100
AcDbEntity
  8
0
 62
     2
100
AcDbLine
 10
98.10262150665409
 20
128.9338194404147
 30
0.0
 11
71.60262150665875
 21
128.9338194404177
 31
0.0
  0
ARC
  5
1F2
330
1F
100
AcDbEntity
  8
0
 62
     2
100
AcDbCircle
 10
71.60262150665551
 20
125.9338194404183
 30
0.0
 40
3.0
100
AcDbArc
 50
90.00000000000325
 51
180.0000000000032
  0
LINE
  5
1F3
330
1F
100
AcDbEntity
  8
0
 62
     2
100
AcDbLine
 10
68.60262150665523
 20
125.9338194404222
 30
0.0
 11
68.60262150665437
 21
116.4891977194567
 31
0.0
  0
ARC
  5
1F4
330
1F
100
AcDbEntity
  8
0
 62
     2
100
AcDbCircle
 10
68.10262150665267
 20
116.4891977194579
 30
0.0
 40
0.5
100
AcDbArc
 50
269.9999999999023
 51
359.9999999998612
  0
LINE
  5
1F5
330
1F
100
AcDbEntity
  8
0
 62
     2
100
AcDbLine
 10
68.10262150665653
 20
115.9891977194653
 30
0.0
 11
66.20262150665565
 21
115.9891977194656
 31
0.0
  0
LINE
  5
1F6
330
1F
100
AcDbEntity
  8
0
 62
     2
100
AcDbLine
 10
66.20262150664882
 20
99.48919763857658
 30
0.0
 11
69.0736280911442
 21
99.48919763857621
 31
0.0
  0
ARC
  5
1F7
330
1F
100
AcDbEntity
  8
0
 62
     2
100
AcDbCircle
 10
69.07362809114085
 20
98.48919763857202
 30
0.0
 40
1.000000000000057
100
AcDbArc
 50
0.0
 51
89.99999999997007
  0
LINE
  5
1F8
330
1F
100
AcDbEntity
  8
0
 62
     2
100
AcDbLine
 10
70.07362809114358
 20
98.4891976385718
 30
0.0
 11
70.0736280911446
 21
94.53382666711423
 31
0.0
  0
LINE
  5
1F9
330
1F
100
AcDbEntity
  8
0
 62
     2
100
AcDbLine
 10
101.2026215066447
 20
109.2338234875365
 30
0.0
 11
101.2026215066442
 21
109.9338274719342
 31
0.0
  0
ARC
  5
1FA
330
1F
100
AcDbEntity
  8
0
 62
     2
100
AcDbCircle
 10
101.7026215066443
 20
109.9338274719341
 30
0.0
 40
0.5
100
AcDbArc
 50
90.00000080119445
 51
180.0000000000106
  0
LINE
  5
1FB
330
1F
100
AcDbEntity
  8
0
 62
     2
100
AcDbLine
 10
101.7026214996167
 20
110.4338274719325
 30
0.0
 11
103.5026214564298
 21
110.4338274719323
 31
0.0
  0
LINE
  5
1FC
330
1F
100
AcDbEntity
  8
0
 62
     2
100
AcDbLine
 10
68.5026215066564
 20
109.9338269998207
 30
0.0
 11
68.50262150665594
 21
109.2338235981239
 31
0.0
  0
ARC
  5
1FD
330
1F
100
AcDbEntity
  8
0
 62
     2
100
AcDbCircle
 10
68.0026215066589
 20
109.9338269998259
 30
0.0
 40
0.5000000000000568
100
AcDbArc
 50
0.0
 51
90.00000000059921
  0
LINE
  5
1FE
330
1F
100
AcDbEntity
  8
0
 62
     2
100
AcDbLine
 10
66.2026215066507
 20
110.4338269675999
 30
0.0
 11
68.00262149965045
 21
110.4338269675997
 31
0.0
  0
LINE
  5
1FF
330
1F
100
AcDbEntity
  8
0
 62
     2
100
AcDbLine
 10
78.97362809115106
 20
94.03382666711302
 30
0.0
 11
79.30262157700179
 21
94.03382666711298
 31
0.0
  0
LINE
  5
200
330
1F
100
AcDbEntity
  8
0
 62
     2
100
AcDbLine
 10
104.0026215066546
 20
97.84940363010082
 30
0.0
 11
104.0026215066549
 21
101.789197745353
 31
0.0
  0
ARC
  5
201
330
1F
100
AcDbEntity
  8
0
 62
     2
100
AcDbCircle
 10
103.4026215066547
 20
97.84940363010094
 30
0.0
 40
0.5999999999999182
100
AcDbArc
 50
243.4299947685404
 51
359.9999999999939
  0
LINE
  5
202
330
1F
100
AcDbEntity
  8
0
 62
     2
100
AcDbLine
 10
102.285218032363
 20
97.73737674411183
 30
0.0
 11
103.1342469486056
 21
97.31277051838322
 31
0.0
  0
ARC
  5
203
330
1F
100
AcDbEntity
  8
0
 62
     2
100
AcDbCircle
 10
102.061572567322
 20
97.29018248434703
 30
0.0
 40
0.4999999999999488
100
AcDbArc
 50
63.4299947685363
 51
110.5837182095676
  0
ARC
  5
204
330
1F
100
AcDbEntity
  8
0
 62
     2
100
AcDbCircle
 10
102.8526177423983
 20
95.18382365190917
 30
0.0
 40
2.750000000000108
100
AcDbArc
 50
110.5837182095731
 51
158.8252907525788
  0
ARC
  5
205
330
1F
100
AcDbEntity
  8
0
 62
     2
100
AcDbCircle
 10
100.7545302409775
 20
95.99655290349443
 30
0.0
 40
0.5000000000001258
100
AcDbArc
 50
158.8252907525789
 51
206.5699947685461
  0
LINE
  5
206
330
1F
100
AcDbEntity
  8
0
 62
     2
100
AcDbLine
 10
100.7427830487002
 20
94.90220112717361
 30
0.0
 11
100.3073359403722
 21
95.7729075201168
 31
0.0
  0
ARC
  5
207
330
1F
100
AcDbEntity
  8
0
 62
     2
100
AcDbCircle
 10
100.2061498879739
 20
94.63382666712027
 30
0.0
 40
0.599999999999909
100
AcDbArc
 50
270.0000000000271
 51
26.56999476855713
  0
LINE
  5
208
330
1F
100
AcDbEntity
  8
0
 62
     2
100
AcDbLine
 10
90.40262157699573
 20
94.03382666711174
 30
0.0
 11
100.2061498879742
 21
94.03382666711057
 31
0.0
  0
LINE
  5
209
330
1F
100
AcDbEntity
  8
0
 62
     2
100
AcDbLine
 10
100.1870394404471
 20
132.3338192713275
 30
0.0
 11
90.40262164175971
 21
132.3338192713285
 31
0.0
  0
ARC
  5
20A
330
1F
100
AcDbEntity
  8
0
 62
     2
100
AcDbCircle
 10
100.1870394404471
 20
131.7338192713274
 30
0.0
 40
0.6000000000001215
100
AcDbArc
 50
333.4299947685381
 51
89.99999999999511
  0
LINE
  5
20B
330
1F
100
AcDbEntity
  8
0
 62
     2
100
AcDbLine
 10
100.2990684144536
 20
130.6164199721677
 30
0.0
 11
100.723672552165
 21
131.4654447132783
 31
0.0
  0
ARC
  5
20C
330
1F
100
AcDbEntity
  8
0
 62
     2
100
AcDbCircle
 10
100.7462626742187
 20
130.3927745071267
 30
0.0
 40
0.5000000000000758
100
AcDbArc
 50
153.4299947685414
 51
200.5837182095615
  0
ARC
  5
20D
330
1F
100
AcDbEntity
  8
0
 62
     2
100
AcDbCircle
 10
102.8526215066565
 20
131.1838196822026
 30
0.0
 40
2.749999999999895
100
AcDbArc
 50
200.5837182095646
 51
248.8252907525703
  0
ARC
  5
20E
330
1F
100
AcDbEntity
  8
0
 62
     2
100
AcDbCircle
 10
102.0398922550714
 20
129.0857321807821
 30
0.0
 40
0.5000000000000198
100
AcDbArc
 50
248.8252907525757
 51
296.5699947685482
  0
LINE
  5
20F
330
1F
100
AcDbEntity
  8
0
 62
     2
100
AcDbLine
 10
103.1342470466034
 20
129.0739864964353
 30
0.0
 11
102.2635376384492
 21
128.6385378801768
 31
0.0
  0
ARC
  5
210
330
1F
100
AcDbEntity
  8
0
 62
     2
100
AcDbCircle
 10
103.4026215066569
 20
128.537353335709
 30
0.0
 40
0.5999999999999659
100
AcDbArc
 50
0.0
 51
116.5699947685536
  0
LINE
  5
211
330
1F
100
AcDbEntity
  8
0
 62
     2
100
AcDbLine
 10
104.0026215066559
 20
116.4891977194603
 30
0.0
 11
104.0026215066569
 21
128.5373533357088
 31
0.0
  0
LINE
  5
212
330
1F
100
AcDbEntity
  8
0
 62
     2
100
AcDbLine
 10
65.70262150665536
 20
128.5182435710221
 30
0.0
 11
65.70262150665235
 21
116.4891977194633
 31
0.0
  0
ARC
  5
213
330
1F
100
AcDbEntity
  8
0
 62
     2
100
AcDbCircle
 10
66.30262150665533
 20
128.5182435710219
 30
0.0
 40
0.5999999999999944
100
AcDbArc
 50
63.42999476853073
 51
179.9999999999786
  0
LINE
  5
214
330
1F
100
AcDbEntity
  8
0
 62
     2
100
AcDbLine
 10
67.42002518639629
 20
128.6302703542642
 30
0.0
 11
66.57099606470427
 21
129.0548766827397
 31
0.0
  0
ARC
  5
215
330
1F
100
AcDbEntity
  8
0
 62
     2
100
AcDbCircle
 10
67.64367065143722
 20
129.0774646140291
 30
0.0
 40
0.4999999999999996
100
AcDbArc
 50
243.4299947685444
 51
290.5837182095686
  0
ARC
  5
216
330
1F
100
AcDbEntity
  8
0
 62
     2
100
AcDbCircle
 10
66.85262547636097
 20
131.1838234464669
 30
0.0
 40
2.750000000000108
100
AcDbArc
 50
290.5837182095731
 51
338.8252907525786
  0
ARC
  5
217
330
1F
100
AcDbEntity
  8
0
 62
     2
100
AcDbCircle
 10
68.95071297778179
 20
130.3710941948815
 30
0.0
 40
0.5000000000000727
100
AcDbArc
 50
338.825290752578
 51
26.56999476854613
  0
LINE
  5
218
330
1F
100
AcDbEntity
  8
0
 62
     2
100
AcDbLine
 10
68.96246075014761
 20
131.4654448112757
 30
0.0
 11
69.39790727838704
 21
130.5947395782592
 31
0.0
  0
ARC
  5
219
330
1F
100
AcDbEntity
  8
0
 62
     2
100
AcDbCircle
 10
69.49909391087391
 20
131.7338192713289
 30
0.0
 40
0.6000000000000227
100
AcDbArc
 50
90.00000000000543
 51
206.5699947685475
  0
LINE
  5
21A
330
1F
100
AcDbEntity
  8
0
 62
     2
100
AcDbLine
 10
79.3026216417602
 20
132.3338192713298
 30
0.0
 11
69.4990939108738
 21
132.3338192713309
 31
0.0
  0
LINE
  5
21B
330
1F
100
AcDbEntity
  8
0
 62
     2
100
AcDbLine
 10
66.5709959667011
 20
97.29366049919123
 30
0.0
 11
67.4417055803101
 21
97.72910921819926
 31
0.0
  0
ARC
  5
21C
330
1F
100
AcDbEntity
  8
0
 62
     2
100
AcDbCircle
 10
66.30262150664777
 20
97.83029365991759
 30
0.0
 40
0.6000000000000227
100
AcDbArc
 50
180.0
 51
296.5699947685663
  0
LINE
  5
21D
330
1F
100
AcDbEntity
  8
0
 62
     2
100
AcDbLine
 10
65.70262150664797
 20
98.98919763857603
 30
0.0
 11
65.70262150664769
 21
97.83029365991776
 31
0.0
  0
LINE
  5
21E
330
1F
100
AcDbEntity
  8
0
 62
     2
100
AcDbLine
 10
69.5182031982198
 20
94.0338266671141
 30
0.0
 11
69.57362809114483
 21
94.03382666711411
 31
0.0
  0
ARC
  5
21F
330
1F
100
AcDbEntity
  8
0
 62
     2
100
AcDbCircle
 10
69.51820319821945
 20
94.63382666711414
 30
0.0
 40
0.6000000000000453
100
AcDbArc
 50
153.429994768538
 51
270.0000000000158
  0
LINE
  5
220
330
1F
100
AcDbEntity
  8
0
 62
     2
100
AcDbLine
 10
69.40617480430564
 20
95.75122712620828
 30
0.0
 11
68.9815700865015
 21
94.90220122516325
 31
0.0
  0
ARC
  5
221
330
1F
100
AcDbEntity
  8
0
 62
     2
100
AcDbCircle
 10
68.95898054454074
 20
95.97487259124921
 30
0.0
 40
0.5000000000000758
100
AcDbArc
 50
333.4299947685414
 51
20.58371820956668
  0
ARC
  5
222
330
1F
100
AcDbEntity
  8
0
 62
     2
100
AcDbCircle
 10
66.85262171210286
 20
95.18382741617341
 30
0.0
 40
2.749999999999948
100
AcDbArc
 50
20.58371820956508
 51
68.82529075257071
  0
ARC
  5
223
330
1F
100
AcDbEntity
  8
0
 62
     2
100
AcDbCircle
 10
67.66535096368796
 20
97.28191491759402
 30
0.0
 40
0.4999999999999462
100
AcDbArc
 50
68.82529075257219
 51
116.5699947685424
  0
LINE
  5
224
330
1F
100
AcDbEntity
  8
0
 62
     2
100
AcDbLine
 10
104.0026215066555
 20
109.2338234780672
 30
0.0
 11
104.0026215066555
 21
109.9338274971451
 31
0.0
  0
LINE
  5
225
330
1F
100
AcDbEntity
  8
0
 62
     2
100
AcDbLine
 10
65.70262150665076
 20
109.9338269746057
 30
0.0
 11
65.70262150665059
 21
109.2338236075933
 31
0.0
  0
LINE
  5
226
330
1F
100
AcDbEntity
  8
0
 62
     2
100
AcDbLine
 10
104.0026215066554
 20
108.9338234861157
 30
0.0
 11
104.0026215066554
 21
108.4338234844249
 31
0.0
  0
LINE
  5
227
330
1F
100
AcDbEntity
  8
0
 62
     2
100
AcDbLine
 10
89.60262164176032
 20
132.3338192713279
 30
0.0
 11
90.10262164091506
 21
132.3338192713279
 31
0.0
  0
LINE
  5
228
330
1F
100
AcDbEntity
  8
0
 62
     2
100
AcDbLine
 10
86.10262164091466
 20
132.3338192713281
 30
0.0
 11
86.60262164176044
 21
132.3338192713281
 31
0.0
  0
LINE
  5
229
330
1F
100
AcDbEntity
  8
0
 62
     2
100
AcDbLine
 10
83.10262164175987
 20
132.3338192713283
 30
0.0
 11
83.60262164091438
 21
132.3338192713283
 31
0.0
  0
LINE
  5
22A
330
1F
100
AcDbEntity
  8
0
 62
     2
100
AcDbLine
 10
79.60262164091381
 20
132.3338192713285
 30
0.0
 11
80.10262164175913
 21
132.3338192713284
 31
0.0
  0
LINE
  5
22B
330
1F
100
AcDbEntity
  8
0
 62
     2
100
AcDbLine
 10
65.70262150665042
 20
108.4338236139512
 30
0.0
 11
65.70262150665053
 21
108.9338236122604
 31
0.0
  0
LINE
  5
22C
330
1F
100
AcDbEntity
  8
0
 62
     2
100
AcDbLine
 10
80.10262157699833
 20
94.03382666711627
 30
0.0
 11
79.60262157784416
 21
94.03382666711617
 31
0.0
  0
LINE
  5
22D
330
1F
100
AcDbEntity
  8
0
 62
     2
100
AcDbLine
 10
83.6026215778457
 20
94.03382666711695
 30
0.0
 11
83.10262157700089
 21
94.03382666711683
 31
0.0
  0
LINE
  5
22E
330
1F
100
AcDbEntity
  8
0
 62
     2
100
AcDbLine
 10
86.60262157699987
 20
94.03382666711752
 30
0.0
 11
86.10262157784547
 21
94.03382666711741
 31
0.0
  0
LINE
  5
22F
330
1F
100
AcDbEntity
  8
0
 62
     2
100
AcDbLine
 10
90.10262157784587
 20
94.03382666711832
 30
0.0
 11
89.60262157700106
 21
94.03382666711822
 31
0.0
  0
LINE
  5
230
330
1F
100
AcDbEntity
  8
0
 62
     2
100
AcDbLine
 10
85.80262164176128
 20
132.333819271329
 30
0.0
 11
83.90262164175903
 21
132.3338192713293
 31
0.0
  0
LINE
  5
231
330
1F
100
AcDbEntity
  8
0
 62
     2
100
AcDbLine
 10
83.90262157699658
 20
94.03382666711248
 30
0.0
 11
85.80262157700434
 21
94.03382666711225
 31
0.0
  0
LINE
  5
232
330
1F
100
AcDbEntity
  8
0
 62
     2
100
AcDbLine
 10
78.97362809115089
 20
94.23382666711603
 30
0.0
 11
79.1026215773366
 21
94.23382666711609
 31
0.0
  0
ARC
  5
233
330
1F
100
AcDbEntity
  8
0
 62
     2
100
AcDbCircle
 10
78.97362809115083
 20
94.53382666711605
 30
0.0
 40
0.3000000000030241
100
AcDbArc
 50
180.0
 51
270.0000000001839
  0
LINE
  5
234
330
1F
100
AcDbEntity
  8
0
 62
     2
100
AcDbLine
 10
78.67362809115076
 20
94.53382666711695
 30
0.0
 11
78.67362809115758
 21
96.93382683620655
 31
0.0
  0
ARC
  5
235
330
1F
100
AcDbEntity
  8
0
 62
     2
100
AcDbCircle
 10
78.97362809115737
 20
96.93382683620648
 30
0.0
 40
0.2999999999999545
100
AcDbArc
 50
90.0
 51
180.0
  0
LINE
  5
236
330
1F
100
AcDbEntity
  8
0
 62
     2
100
AcDbLine
 10
88.60262157902736
 20
97.23382683620618
 30
0.0
 11
98.10262150665477
 21
97.23382683620548
 31
0.0
  0
LINE
  5
237
330
1F
100
AcDbEntity
  8
0
 62
     2
100
AcDbLine
 10
82.10262157902866
 20
97.2338268362065
 30
0.0
 11
87.60262157903401
 21
97.23382683620616
 31
0.0
  0
LINE
  5
238
330
1F
100
AcDbEntity
  8
0
 62
     2
100
AcDbLine
 10
78.97362809115651
 20
97.23382683620673
 30
0.0
 11
81.1026215790273
 21
97.23382683620662
 31
0.0
  0
ARC
  5
239
330
1F
100
AcDbEntity
  8
0
 62
     2
100
AcDbCircle
 10
98.10262150665397
 20
100.4338268362071
 30
0.0
 40
3.200000000000045
100
AcDbArc
 50
270.0000000000143
 51
0.0000000003555606
  0
LINE
  5
23A
330
1F
100
AcDbEntity
  8
0
 62
     2
100
AcDbLine
 10
101.3026215066574
 20
100.4338268362212
 30
0.0
 11
101.3026215066521
 21
101.7891977453481
 31
0.0
  0
ARC
  5
23B
330
1F
100
AcDbEntity
  8
0
 62
     2
100
AcDbCircle
 10
101.602621506652
 20
101.789197745348
 30
0.0
 40
0.3000000000000682
100
AcDbArc
 50
90.0
 51
180.0
  0
LINE
  5
23C
330
1F
100
AcDbEntity
  8
0
 62
     2
100
AcDbLine
 10
101.6026215066414
 20
102.089197745351
 30
0.0
 11
103.5026215066546
 21
102.0891977453516
 31
0.0
  0
ARC
  5
23D
330
1F
100
AcDbEntity
  8
0
 62
     2
100
AcDbCircle
 10
103.502621506655
 20
101.7891977453531
 30
0.0
 40
0.2999999999999545
100
AcDbArc
 50
0.0
 51
90.00000000000645
  0
LINE
  5
23E
330
1F
100
AcDbEntity
  8
0
 62
     2
100
AcDbLine
 10
103.8026215066546
 20
97.84940363010088
 30
0.0
 11
103.8026215066549
 21
101.7891977453531
 31
0.0
  0
ARC
  5
23F
330
1F
100
AcDbEntity
  8
0
 62
     2
100
AcDbCircle
 10
103.4026215066547
 20
97.84940363010094
 30
0.0
 40
0.4000000000000302
100
AcDbArc
 50
243.4299947685282
 51
359.999999999982
  0
LINE
  5
240
330
1F
100
AcDbEntity
  8
0
 62
     2
100
AcDbLine
 10
102.3746762183795
 20
97.91625444801775
 30
0.0
 11
103.2237051346218
 21
97.49164822228909
 31
0.0
  0
ARC
  5
241
330
1F
100
AcDbEntity
  8
0
 62
     2
100
AcDbCircle
 10
102.061572567322
 20
97.29018248434703
 30
0.0
 40
0.6999999999999893
100
AcDbArc
 50
63.42999476852986
 51
110.5837182095632
  0
ARC
  5
242
330
1F
100
AcDbEntity
  8
0
 62
     2
100
AcDbCircle
 10
102.8526177423983
 20
95.18382365190917
 30
0.0
 40
2.950000000000121
100
AcDbArc
 50
110.5837182095731
 51
158.8252907525824
  0
ARC
  5
243
330
1F
100
AcDbEntity
  8
0
 62
     2
100
AcDbCircle
 10
100.7545302409775
 20
95.99655290349443
 30
0.0
 40
0.700000000000066
100
AcDbArc
 50
158.8252907525779
 51
206.5699947685404
  0
LINE
  5
244
330
1F
100
AcDbEntity
  8
0
 62
     2
100
AcDbLine
 10
100.5639053284581
 20
94.81274297382254
 30
0.0
 11
100.1284582201301
 21
95.68344936676567
 31
0.0
  0
ARC
  5
245
330
1F
100
AcDbEntity
  8
0
 62
     2
100
AcDbCircle
 10
100.2061498879739
 20
94.63382666712027
 30
0.0
 40
0.3999999999999773
100
AcDbArc
 50
270.0000000000326
 51
26.56999476856292
  0
LINE
  5
246
330
1F
100
AcDbEntity
  8
0
 62
     2
100
AcDbLine
 10
90.60262157733888
 20
94.23382666711836
 30
0.0
 11
100.2061498879741
 21
94.2338266671203
 31
0.0
  0
LINE
  5
247
330
1F
100
AcDbEntity
  8
0
 62
     2
100
AcDbLine
 10
100.1870394404471
 20
132.1338192713274
 30
0.0
 11
90.60262164142227
 21
132.1338192713279
 31
0.0
  0
ARC
  5
248
330
1F
100
AcDbEntity
  8
0
 62
     2
100
AcDbCircle
 10
100.1870394404471
 20
131.7338192713274
 30
0.0
 40
0.4000000000000811
100
AcDbArc
 50
333.4299947685319
 51
89.9999999999884
  0
LINE
  5
249
330
1F
100
AcDbEntity
  8
0
 62
     2
100
AcDbLine
 10
100.1201907105477
 20
130.7058781581841
 30
0.0
 11
100.5447948482591
 21
131.5549028992947
 31
0.0
  0
ARC
  5
24A
330
1F
100
AcDbEntity
  8
0
 62
     2
100
AcDbCircle
 10
100.7462626742187
 20
130.3927745071267
 30
0.0
 40
0.7000000000001673
100
AcDbArc
 50
153.429994768546
 51
200.5837182095656
  0
ARC
  5
24B
330
1F
100
AcDbEntity
  8
0
 62
     2
100
AcDbCircle
 10
102.8526215066565
 20
131.1838196822027
 30
0.0
 40
2.949999999999961
100
AcDbArc
 50
200.5837182095649
 51
248.8252907525703
  0
ARC
  5
24C
330
1F
100
AcDbEntity
  8
0
 62
     2
100
AcDbCircle
 10
102.0398922550714
 20
129.0857321807821
 30
0.0
 40
0.700000000000013
100
AcDbArc
 50
248.8252907525762
 51
296.5699947685487
  0
LINE
  5
24D
330
1F
100
AcDbEntity
  8
0
 62
     2
100
AcDbLine
 10
103.2237051999545
 20
128.8951087761932
 30
0.0
 11
102.3529957918003
 21
128.4596601599347
 31
0.0
  0
ARC
  5
24E
330
1F
100
AcDbEntity
  8
0
 62
     2
100
AcDbCircle
 10
103.4026215066569
 20
128.537353335709
 30
0.0
 40
0.4000000000000341
100
AcDbArc
 50
0.0
 51
116.569994768553
  0
LINE
  5
24F
330
1F
100
AcDbEntity
  8
0
 62
     2
100
AcDbLine
 10
103.8026215066559
 20
116.4891977194604
 30
0.0
 11
103.8026215066569
 21
128.5373533357089
 31
0.0
  0
ARC
  5
250
330
1F
100
AcDbEntity
  8
0
 62
     2
100
AcDbCircle
 10
103.5026215066559
 20
116.4891977194599
 30
0.0
 40
0.2999999999999545
100
AcDbArc
 50
270.0000000001411
 51
0.0000000000040711
  0
LINE
  5
251
330
1F
100
AcDbEntity
  8
0
 62
     2
100
AcDbLine
 10
103.5026215066565
 20
116.1891977194624
 30
0.0
 11
101.6026215066641
 21
116.189197719461
 31
0.0
  0
ARC
  5
252
330
1F
100
AcDbEntity
  8
0
 62
     2
100
AcDbCircle
 10
101.6026215066559
 20
116.489197719454
 30
0.0
 40
0.3000000000001251
100
AcDbArc
 50
180.0
 51
270.0000000014722
  0
LINE
  5
253
330
1F
100
AcDbEntity
  8
0
 62
     2
100
AcDbLine
 10
101.3026215066544
 20
116.4891977194561
 30
0.0
 11
101.3026215066556
 21
125.9338194404147
 31
0.0
  0
ARC
  5
254
330
1F
100
AcDbEntity
  8
0
 62
     2
100
AcDbCircle
 10
98.1026215066558
 20
125.9338194404149
 30
0.0
 40
3.200000000000159
100
AcDbArc
 50
0.0
 51
89.99999999999827
  0
LINE
  5
255
330
1F
100
AcDbEntity
  8
0
 62
     2
100
AcDbLine
 10
81.10262163972897
 20
129.1338194404167
 30
0.0
 11
71.60262150665892
 21
129.1338194404178
 31
0.0
  0
LINE
  5
256
330
1F
100
AcDbEntity
  8
0
 62
     2
100
AcDbLine
 10
87.60262163973186
 20
129.1338194404159
 30
0.0
 11
82.1026216397334
 21
129.1338194404166
 31
0.0
  0
LINE
  5
257
330
1F
100
AcDbEntity
  8
0
 62
     2
100
AcDbLine
 10
98.10262150665409
 20
129.1338194404146
 30
0.0
 11
88.60262163973033
 21
129.1338194404158
 31
0.0
  0
ARC
  5
258
330
1F
100
AcDbEntity
  8
0
 62
     2
100
AcDbCircle
 10
71.60262150665551
 20
125.9338194404183
 30
0.0
 40
3.199999999999932
100
AcDbArc
 50
90.00000000000306
 51
179.9999999998192
  0
LINE
  5
259
330
1F
100
AcDbEntity
  8
0
 62
     2
100
AcDbLine
 10
68.4026215066553
 20
125.9338194404222
 30
0.0
 11
68.40262150665438
 21
116.4891977194572
 31
0.0
  0
ARC
  5
25A
330
1F
100
AcDbEntity
  8
0
 62
     2
100
AcDbCircle
 10
68.10262150665267
 20
116.4891977194579
 30
0.0
 40
0.2999999999999545
100
AcDbArc
 50
269.9999999999023
 51
359.9999999998615
  0
LINE
  5
25B
330
1F
100
AcDbEntity
  8
0
 62
     2
100
AcDbLine
 10
68.10262150665619
 20
116.1891977194666
 30
0.0
 11
66.2026215066553
 21
116.1891977194656
 31
0.0
  0
ARC
  5
25C
330
1F
100
AcDbEntity
  8
0
 62
     2
100
AcDbCircle
 10
66.20262150665235
 20
116.4891977194656
 30
0.0
 40
0.3000000000000114
100
AcDbArc
 50
180.0
 51
270.0000000000931
  0
LINE
  5
25D
330
1F
100
AcDbEntity
  8
0
 62
     2
100
AcDbLine
 10
65.90262150665535
 20
128.5182435710221
 30
0.0
 11
65.9026215066524
 21
116.4891977194631
 31
0.0
  0
ARC
  5
25E
330
1F
100
AcDbEntity
  8
0
 62
     2
100
AcDbCircle
 10
66.30262150665533
 20
128.5182435710219
 30
0.0
 40
0.4000000000000302
100
AcDbArc
 50
63.42999476852829
 51
179.999999999976
  0
LINE
  5
25F
330
1F
100
AcDbEntity
  8
0
 62
     2
100
AcDbLine
 10
67.33056700037986
 20
128.4513926503583
 30
0.0
 11
66.48153787868796
 21
128.8759989788339
 31
0.0
  0
ARC
  5
260
330
1F
100
AcDbEntity
  8
0
 62
     2
100
AcDbCircle
 10
67.64367065143722
 20
129.0774646140291
 30
0.0
 40
0.7000000000000656
100
AcDbArc
 50
243.4299947685418
 51
290.5837182095682
  0
ARC
  5
261
330
1F
100
AcDbEntity
  8
0
 62
     2
100
AcDbCircle
 10
66.85262547636097
 20
131.1838234464669
 30
0.0
 40
2.950000000000101
100
AcDbArc
 50
290.5837182095721
 51
338.8252907525776
  0
ARC
  5
262
330
1F
100
AcDbEntity
  8
0
 62
     2
100
AcDbCircle
 10
68.95071297778179
 20
130.3710941948815
 30
0.0
 40
0.7000000000000866
100
AcDbArc
 50
338.8252907525719
 51
26.56999476853906
  0
LINE
  5
263
330
1F
100
AcDbEntity
  8
0
 62
     2
100
AcDbLine
 10
69.14133847038977
 20
131.5549029646268
 30
0.0
 11
69.57678499862914
 21
130.6841977316103
 31
0.0
  0
ARC
  5
264
330
1F
100
AcDbEntity
  8
0
 62
     2
100
AcDbCircle
 10
69.49909391087391
 20
131.7338192713289
 30
0.0
 40
0.3999999999999773
100
AcDbArc
 50
90.00000000000813
 51
206.5699947685502
  0
LINE
  5
265
330
1F
100
AcDbEntity
  8
0
 62
     2
100
AcDbLine
 10
79.10262164142091
 20
132.1338192713284
 30
0.0
 11
69.49909391087385
 21
132.1338192713289
 31
0.0
  0
LINE
  5
266
330
1F
100
AcDbEntity
  8
0
 62
     2
100
AcDbLine
 10
66.48153781334992
 20
97.47253821943339
 30
0.0
 11
67.35224742695891
 21
97.90798693844135
 31
0.0
  0
ARC
  5
267
330
1F
100
AcDbEntity
  8
0
 62
     2
100
AcDbCircle
 10
66.30262150664777
 20
97.83029365991759
 30
0.0
 40
0.4000000000000909
100
AcDbArc
 50
180.0
 51
296.5699947685659
  0
LINE
  5
268
330
1F
100
AcDbEntity
  8
0
 62
     2
100
AcDbLine
 10
65.90262150664802
 20
98.98919763857589
 30
0.0
 11
65.90262150664768
 21
97.83029365991764
 31
0.0
  0
ARC
  5
269
330
1F
100
AcDbEntity
  8
0
 62
     2
100
AcDbCircle
 10
66.20262150664803
 20
98.98919763857714
 30
0.0
 40
0.2999999999999545
100
AcDbArc
 50
90.00000000001087
 51
180.0000000000065
  0
LINE
  5
26A
330
1F
100
AcDbEntity
  8
0
 62
     2
100
AcDbLine
 10
66.20262150664854
 20
99.289197638578
 30
0.0
 11
69.07362809114352
 21
99.28919763857539
 31
0.0
  0
ARC
  5
26B
330
1F
100
AcDbEntity
  8
0
 62
     2
100
AcDbCircle
 10
69.07362809114085
 20
98.48919763857202
 30
0.0
 40
0.8000000000000682
100
AcDbArc
 50
0.0
 51
89.99999999996997
  0
LINE
  5
26C
330
1F
100
AcDbEntity
  8
0
 62
     2
100
AcDbLine
 10
69.87362809114353
 20
98.4891976385718
 30
0.0
 11
69.8736280911445
 21
94.53382666711417
 31
0.0
  0
ARC
  5
26D
330
1F
100
AcDbEntity
  8
0
 62
     2
100
AcDbCircle
 10
69.57362809114454
 20
94.53382666711411
 30
0.0
 40
0.2999999999999545
100
AcDbArc
 50
270.0000000000326
 51
0.0000000000271238
  0
LINE
  5
26E
330
1F
100
AcDbEntity
  8
0
 62
     2
100
AcDbLine
 10
69.51820319821974
 20
94.23382666711416
 30
0.0
 11
69.57362809114471
 21
94.23382666711416
 31
0.0
  0
ARC
  5
26F
330
1F
100
AcDbEntity
  8
0
 62
     2
100
AcDbCircle
 10
69.51820319821945
 20
94.63382666711414
 30
0.0
 40
0.4000000000000302
100
AcDbArc
 50
153.4299947685465
 51
270.0000000000247
  0
LINE
  5
270
330
1F
100
AcDbEntity
  8
0
 62
     2
100
AcDbLine
 10
69.5850525082115
 20
95.66176894019178
 30
0.0
 11
69.16044779040755
 21
94.81274303914688
 31
0.0
  0
ARC
  5
271
330
1F
100
AcDbEntity
  8
0
 62
     2
100
AcDbCircle
 10
68.95898054454074
 20
95.97487259124921
 30
0.0
 40
0.7000000000001418
100
AcDbArc
 50
333.4299947685356
 51
20.58371820956561
  0
ARC
  5
272
330
1F
100
AcDbEntity
  8
0
 62
     2
100
AcDbCircle
 10
66.85262171210286
 20
95.18382741617341
 30
0.0
 40
2.949999999999921
100
AcDbArc
 50
20.58371820956345
 51
68.82529075256856
  0
ARC
  5
273
330
1F
100
AcDbEntity
  8
0
 62
     2
100
AcDbCircle
 10
67.66535096368796
 20
97.28191491759402
 30
0.0
 40
0.6999999999999394
100
AcDbArc
 50
68.82529075257848
 51
116.5699947685484
  0
LINE
  5
274
330
1F
100
AcDbEntity
  8
0
 62
     2
100
AcDbLine
 10
101.4026215066446
 20
109.4338234932178
 30
0.0
 11
101.4026215066442
 21
109.9338274719342
 31
0.0
  0
ARC
  5
275
330
1F
100
AcDbEntity
  8
0
 62
     2
100
AcDbCircle
 10
101.7026215066443
 20
109.9338274719343
 30
0.0
 40
0.2999999999999545
100
AcDbArc
 50
90.00000080117275
 51
179.9999999999884
  0
LINE
  5
276
330
1F
100
AcDbEntity
  8
0
 62
     2
100
AcDbLine
 10
101.7026215024183
 20
110.2338274588884
 30
0.0
 11
103.5026214592313
 21
110.2338274714947
 31
0.0
  0
ARC
  5
277
330
1F
100
AcDbEntity
  8
0
 62
     2
100
AcDbCircle
 10
103.5026215066555
 20
109.9338274539232
 30
0.0
 40
0.2999999999998977
100
AcDbArc
 50
0.0000012074182697
 51
90.00000059707592
  0
LINE
  5
278
330
1F
100
AcDbEntity
  8
0
 62
     2
100
AcDbLine
 10
103.8026215066554
 20
109.4338234851013
 30
0.0
 11
103.8026215066556
 21
109.9338274971452
 31
0.0
  0
LINE
  5
279
330
1F
100
AcDbEntity
  8
0
 62
     2
100
AcDbLine
 10
68.30262150665635
 20
109.9338269998227
 30
0.0
 11
68.30262150665601
 21
109.4338236051581
 31
0.0
  0
ARC
  5
27A
330
1F
100
AcDbEntity
  8
0
 62
     2
100
AcDbCircle
 10
68.0026215066589
 20
109.9338269998259
 30
0.0
 40
0.3000000000000114
100
AcDbArc
 50
0.0
 51
90.0000000005987
  0
LINE
  5
27B
330
1F
100
AcDbEntity
  8
0
 62
     2
100
AcDbLine
 10
66.20262150945297
 20
110.2338269580548
 30
0.0
 11
68.00262150245271
 21
110.2338269706646
 31
0.0
  0
ARC
  5
27C
330
1F
100
AcDbEntity
  8
0
 62
     2
100
AcDbCircle
 10
66.20262150665076
 20
109.9338269675999
 30
0.0
 40
0.2999999999999545
100
AcDbArc
 50
90.0
 51
179.999999063402
  0
LINE
  5
27D
330
1F
100
AcDbEntity
  8
0
 62
     2
100
AcDbLine
 10
65.90262150665075
 20
109.9338269746056
 30
0.0
 11
65.90262150665058
 21
109.4338236132747
 31
0.0
  0
LINE
  5
27E
330
1F
100
AcDbEntity
  8
0
 62
     2
100
AcDbLine
 10
85.6026216414221
 20
132.1338192713281
 30
0.0
 11
84.10262164142176
 21
132.1338192713282
 31
0.0
  0
LINE
  5
27F
330
1F
100
AcDbEntity
  8
0
 62
     2
100
AcDbLine
 10
84.10262157733871
 20
94.23382666711711
 30
0.0
 11
85.60262157733791
 21
94.23382666711734
 31
0.0
  0
LINE
  5
280
330
1F
100
AcDbEntity
  8
0
 62
     2
100
AcDbLine
 10
85.60262163973078
 20
131.1338192713127
 30
0.0
 11
85.6026216414221
 21
132.1338192713281
 31
0.0
  0
ARC
  5
281
330
1F
100
AcDbEntity
  8
0
 62
     2
100
AcDbCircle
 10
87.60262163973005
 20
131.1338192713125
 30
0.0
 40
1.999999999999871
100
AcDbArc
 50
239.8865556740777
 51
270.0000000001362
  0
ARC
  5
282
330
1F
100
AcDbEntity
  8
0
 62
     2
100
AcDbCircle
 10
87.60262163973005
 20
131.1338192713125
 30
0.0
 40
2.000000000000114
100
AcDbArc
 50
180.0
 51
239.8865556740775
  0
ARC
  5
283
330
1F
100
AcDbEntity
  8
0
 62
     2
100
AcDbCircle
 10
88.60262163973306
 20
131.1338192713114
 30
0.0
 40
2.000000000000225
100
AcDbArc
 50
329.8865557710022
 51
359.999999903344
  0
ARC
  5
284
330
1F
100
AcDbEntity
  8
0
 62
     2
100
AcDbCircle
 10
88.60262163973306
 20
131.1338192713114
 30
0.0
 40
2.0
100
AcDbArc
 50
269.9999999999218
 51
329.8865557710099
  0
LINE
  5
285
330
1F
100
AcDbEntity
  8
0
 62
     2
100
AcDbLine
 10
90.60262164142227
 20
132.1338192713279
 30
0.0
 11
90.60262163973181
 21
131.1338192679337
 31
0.0
  0
LINE
  5
286
330
1F
100
AcDbEntity
  8
0
 62
     2
100
AcDbLine
 10
79.10262163973067
 20
131.1338192713199
 30
0.0
 11
79.10262164142091
 21
132.1338192713284
 31
0.0
  0
ARC
  5
287
330
1F
100
AcDbEntity
  8
0
 62
     2
100
AcDbCircle
 10
81.10262163972999
 20
131.1338192713197
 30
0.0
 40
1.999999999999859
100
AcDbArc
 50
239.8865556741302
 51
270.0000000000095
  0
ARC
  5
288
330
1F
100
AcDbEntity
  8
0
 62
     2
100
AcDbCircle
 10
81.10262163972999
 20
131.1338192713197
 30
0.0
 40
2.000000000000114
100
AcDbArc
 50
180.0
 51
239.8865556741292
  0
ARC
  5
289
330
1F
100
AcDbEntity
  8
0
 62
     2
100
AcDbCircle
 10
82.10262163973124
 20
131.1338192713174
 30
0.0
 40
2.000000000000199
100
AcDbArc
 50
329.8865557709313
 51
359.9999999030669
  0
ARC
  5
28A
330
1F
100
AcDbEntity
  8
0
 62
     2
100
AcDbCircle
 10
82.10262163973124
 20
131.1338192713174
 30
0.0
 40
2.0
100
AcDbArc
 50
270.0000000000635
 51
329.8865557709365
  0
LINE
  5
28B
330
1F
100
AcDbEntity
  8
0
 62
     2
100
AcDbLine
 10
84.10262164142176
 20
132.1338192713282
 30
0.0
 11
84.10262163973078
 21
131.1338192679343
 31
0.0
  0
LINE
  5
28C
330
1F
100
AcDbEntity
  8
0
 62
     2
100
AcDbLine
 10
101.4026215066446
 20
109.4338234932178
 30
0.0
 11
103.8026215066554
 21
109.4338234851013
 31
0.0
  0
LINE
  5
28D
330
1F
100
AcDbEntity
  8
0
 62
     2
100
AcDbLine
 10
65.90262150665058
 20
109.4338236132747
 30
0.0
 11
68.30262150665601
 21
109.4338236051581
 31
0.0
  0
LINE
  5
28E
330
1F
100
AcDbEntity
  8
0
 62
     2
100
AcDbLine
 10
84.10262157902781
 20
95.23382666373813
 30
0.0
 11
84.10262157733871
 21
94.23382666711711
 31
0.0
  0
ARC
  5
28F
330
1F
100
AcDbEntity
  8
0
 62
     2
100
AcDbCircle
 10
82.1026215790285
 20
95.23382666712259
 30
0.0
 40
1.999999999999803
100
AcDbArc
 50
59.8865556741912
 51
90.0000000000003
  0
ARC
  5
290
330
1F
100
AcDbEntity
  8
0
 62
     2
100
AcDbCircle
 10
82.1026215790285
 20
95.23382666712259
 30
0.0
 40
2.000000000000057
100
AcDbArc
 50
0.0
 51
59.88655577114154
  0
ARC
  5
291
330
1F
100
AcDbEntity
  8
0
 62
     2
100
AcDbCircle
 10
81.1026215790273
 20
95.23382666712291
 30
0.0
 40
2.000000000000165
100
AcDbArc
 50
149.8865557709229
 51
179.9999999031619
  0
ARC
  5
292
330
1F
100
AcDbEntity
  8
0
 62
     2
100
AcDbCircle
 10
81.1026215790273
 20
95.23382666712291
 30
0.0
 40
2.0
100
AcDbArc
 50
90.00000000000325
 51
149.88655577093
  0
LINE
  5
293
330
1F
100
AcDbEntity
  8
0
 62
     2
100
AcDbLine
 10
79.1026215773366
 20
94.23382666711609
 30
0.0
 11
79.10262157902804
 21
95.23382667050475
 31
0.0
  0
LINE
  5
294
330
1F
100
AcDbEntity
  8
0
 62
     2
100
AcDbLine
 10
90.6026215790285
 20
95.23382666373789
 30
0.0
 11
90.60262157733888
 21
94.23382666711836
 31
0.0
  0
ARC
  5
295
330
1F
100
AcDbEntity
  8
0
 62
     2
100
AcDbCircle
 10
88.60262157902929
 20
95.23382666711383
 30
0.0
 40
1.999999999999847
100
AcDbArc
 50
59.88655567418112
 51
89.99999999999824
  0
ARC
  5
296
330
1F
100
AcDbEntity
  8
0
 62
     2
100
AcDbCircle
 10
88.60262157902929
 20
95.23382666711383
 30
0.0
 40
2.000000000000114
100
AcDbArc
 50
0.0
 51
59.88655577088674
  0
ARC
  5
297
330
1F
100
AcDbEntity
  8
0
 62
     2
100
AcDbCircle
 10
87.60262157903088
 20
95.23382666711679
 30
0.0
 40
2.000000000000219
100
AcDbArc
 50
149.8865557710272
 51
179.999999903133
  0
ARC
  5
298
330
1F
100
AcDbEntity
  8
0
 62
     2
100
AcDbCircle
 10
87.60262157903088
 20
95.23382666711679
 30
0.0
 40
2.0
100
AcDbArc
 50
90.00000000000325
 51
149.8865557710313
  0
LINE
  5
299
330
1F
100
AcDbEntity
  8
0
 62
     2
100
AcDbLine
 10
85.60262157733791
 20
94.23382666711734
 30
0.0
 11
85.60262157902878
 21
95.23382667049852
 31
0.0
  0
LINE
  5
29A
330
1F
100
AcDbEntity
  8
0
 62
     2
100
AcDbLine
 10
86.60262163973078
 20
131.1338192713126
 30
0.0
 11
86.60262164091483
 21
131.8338192704823
 31
0.0
  0
ARC
  5
29B
330
1F
100
AcDbEntity
  8
0
 62
     2
100
AcDbCircle
 10
87.60262163973005
 20
131.1338192713125
 30
0.0
 40
1.000000000000057
100
AcDbArc
 50
180.0
 51
270.0000000001366
  0
LINE
  5
29C
330
1F
100
AcDbEntity
  8
0
 62
     2
100
AcDbLine
 10
88.60262163973158
 20
130.1338192713143
 30
0.0
 11
87.60262163973249
 21
130.1338192713145
 31
0.0
  0
ARC
  5
29D
330
1F
100
AcDbEntity
  8
0
 62
     2
100
AcDbCircle
 10
88.60262163973306
 20
131.1338192713114
 30
0.0
 40
1.0
100
AcDbArc
 50
269.9999999999186
 51
359.9999999033482
  0
LINE
  5
29E
330
1F
100
AcDbEntity
  8
0
 62
     2
100
AcDbLine
 10
89.602621640915
 20
131.8338192721732
 30
0.0
 11
89.60262163973175
 21
131.1338192696244
 31
0.0
  0
LINE
  5
29F
330
1F
100
AcDbEntity
  8
0
 62
     2
100
AcDbLine
 10
80.10262163973067
 20
131.1338192713198
 30
0.0
 11
80.10262164091381
 21
131.8338192704831
 31
0.0
  0
ARC
  5
2A0
330
1F
100
AcDbEntity
  8
0
 62
     2
100
AcDbCircle
 10
81.10262163972999
 20
131.1338192713197
 30
0.0
 40
1.000000000000057
100
AcDbArc
 50
180.0
 51
270.0000000000085
  0
LINE
  5
2A1
330
1F
100
AcDbEntity
  8
0
 62
     2
100
AcDbLine
 10
82.10262163973226
 20
130.13381927132
 30
0.0
 11
81.10262163973022
 21
130.1338192713201
 31
0.0
  0
ARC
  5
2A2
330
1F
100
AcDbEntity
  8
0
 62
     2
100
AcDbCircle
 10
82.10262163973124
 20
131.1338192713174
 30
0.0
 40
1.0
100
AcDbArc
 50
270.0000000000618
 51
359.9999999030701
  0
LINE
  5
2A3
330
1F
100
AcDbEntity
  8
0
 62
     2
100
AcDbLine
 10
83.10262164091444
 20
131.8338192721739
 30
0.0
 11
83.10262163973067
 21
131.1338192696255
 31
0.0
  0
LINE
  5
2A4
330
1F
100
AcDbEntity
  8
0
 62
     2
100
AcDbLine
 10
101.2026215066452
 20
108.4338234844253
 30
0.0
 11
103.5026215049646
 21
108.4338234844249
 31
0.0
  0
LINE
  5
2A5
330
1F
100
AcDbEntity
  8
0
 62
     2
100
AcDbLine
 10
66.20262150495961
 20
108.4338236031292
 30
0.0
 11
68.50262150665549
 21
108.433823603129
 31
0.0
  0
LINE
  5
2A6
330
1F
100
AcDbEntity
  8
0
 62
     2
100
AcDbLine
 10
83.10262157902787
 20
95.23382666543033
 30
0.0
 11
83.10262157784541
 21
94.53382666796166
 31
0.0
  0
ARC
  5
2A7
330
1F
100
AcDbEntity
  8
0
 62
     2
100
AcDbCircle
 10
82.1026215790285
 20
95.23382666712259
 30
0.0
 40
1.000000000000057
100
AcDbArc
 50
0.0
 51
90.00000009695063
  0
LINE
  5
2A8
330
1F
100
AcDbEntity
  8
0
 62
     2
100
AcDbLine
 10
81.10262157902724
 20
96.23382666712052
 30
0.0
 11
82.10262157902747
 21
96.23382666712041
 31
0.0
  0
ARC
  5
2A9
330
1F
100
AcDbEntity
  8
0
 62
     2
100
AcDbCircle
 10
81.1026215790273
 20
95.23382666712291
 30
0.0
 40
1.0
100
AcDbArc
 50
90.00000000000325
 51
180.000000000003
  0
LINE
  5
2AA
330
1F
100
AcDbEntity
  8
0
 62
     2
100
AcDbLine
 10
80.10262157784405
 20
94.53382666627033
 30
0.0
 11
80.10262157902804
 21
95.23382666881311
 31
0.0
  0
LINE
  5
2AB
330
1F
100
AcDbEntity
  8
0
 62
     2
100
AcDbLine
 10
89.60262157902844
 20
95.2338266654258
 30
0.0
 11
89.60262157784575
 21
94.53382666796313
 31
0.0
  0
ARC
  5
2AC
330
1F
100
AcDbEntity
  8
0
 62
     2
100
AcDbCircle
 10
88.60262157902929
 20
95.23382666711383
 30
0.0
 40
1.000000000000057
100
AcDbArc
 50
0.0
 51
90.00000009670387
  0
LINE
  5
2AD
330
1F
100
AcDbEntity
  8
0
 62
     2
100
AcDbLine
 10
87.60262157903247
 20
96.23382666711814
 30
0.0
 11
88.60262157902872
 21
96.23382666711804
 31
0.0
  0
ARC
  5
2AE
330
1F
100
AcDbEntity
  8
0
 62
     2
100
AcDbCircle
 10
87.60262157903088
 20
95.23382666711679
 30
0.0
 40
1.0
100
AcDbArc
 50
90.0
 51
180.0
  0
LINE
  5
2AF
330
1F
100
AcDbEntity
  8
0
 62
     2
100
AcDbLine
 10
86.60262157784524
 20
94.53382666627192
 30
0.0
 11
86.60262157902883
 21
95.23382666880741
 31
0.0
  0
LINE
  5
2B0
330
1F
100
AcDbEntity
  8
0
 62
     2
100
AcDbLine
 10
87.6026215790339
 20
97.23382666711689
 30
0.0
 11
88.60262157902747
 21
97.23382666711802
 31
0.0
  0
LINE
  5
2B1
330
1F
100
AcDbEntity
  8
0
 62
     2
100
AcDbLine
 10
85.60262157902878
 20
95.23382667049852
 30
0.0
 11
86.60262157902883
 21
95.23382666880741
 31
0.0
  0
LINE
  5
2B2
330
1F
100
AcDbEntity
  8
0
 62
     2
100
AcDbLine
 10
87.6026215790339
 20
97.23382666711677
 30
0.0
 11
87.60262157903247
 21
96.23382666711667
 31
0.0
  0
LINE
  5
2B3
330
1F
100
AcDbEntity
  8
0
 62
     2
100
AcDbLine
 10
88.60262157902747
 20
97.23382666711802
 30
0.0
 11
88.60262157902872
 21
96.233826667122
 31
0.0
  0
LINE
  5
2B4
330
1F
100
AcDbEntity
  8
0
 62
     2
100
AcDbLine
 10
90.60262157902946
 20
95.23382666373789
 30
0.0
 11
89.6026215790294
 21
95.23382666542578
 31
0.0
  0
LINE
  5
2B5
330
1F
100
AcDbEntity
  8
0
 62
     2
100
AcDbLine
 10
81.10262157902724
 20
97.23382666712178
 30
0.0
 11
82.10262157902866
 21
97.23382666712041
 31
0.0
  0
LINE
  5
2B6
330
1F
100
AcDbEntity
  8
0
 62
     2
100
AcDbLine
 10
79.10262157902804
 20
95.23382667050475
 30
0.0
 11
80.10262157902804
 21
95.23382666881311
 31
0.0
  0
LINE
  5
2B7
330
1F
100
AcDbEntity
  8
0
 62
     2
100
AcDbLine
 10
81.10262157902719
 20
97.23382666712293
 30
0.0
 11
81.10262157902736
 21
96.2338266671229
 31
0.0
  0
LINE
  5
2B8
330
1F
100
AcDbEntity
  8
0
 62
     2
100
AcDbLine
 10
82.10262157902866
 20
97.23382666712041
 30
0.0
 11
82.10262157902758
 21
96.23382666711643
 31
0.0
  0
LINE
  5
2B9
330
1F
100
AcDbEntity
  8
0
 62
     2
100
AcDbLine
 10
84.10262157902866
 20
95.23382666373811
 30
0.0
 11
83.1026215790285
 21
95.23382666543034
 31
0.0
  0
LINE
  5
2BA
330
1F
100
AcDbEntity
  8
0
 62
     2
100
AcDbLine
 10
82.1026216397334
 20
129.1338192713187
 30
0.0
 11
81.10262163972897
 21
129.1338192713201
 31
0.0
  0
LINE
  5
2BB
330
1F
100
AcDbEntity
  8
0
 62
     2
100
AcDbLine
 10
84.10262163973078
 20
131.1338192679343
 30
0.0
 11
83.10262163973067
 21
131.1338192696255
 31
0.0
  0
LINE
  5
2BC
330
1F
100
AcDbEntity
  8
0
 62
     2
100
AcDbLine
 10
82.10262163973346
 20
129.1338192713174
 30
0.0
 11
82.10262163973232
 21
130.1338192713174
 31
0.0
  0
LINE
  5
2BD
330
1F
100
AcDbEntity
  8
0
 62
     2
100
AcDbLine
 10
81.10262163972897
 20
129.1338192713201
 30
0.0
 11
81.10262163973016
 21
130.1338192713245
 31
0.0
  0
LINE
  5
2BE
330
1F
100
AcDbEntity
  8
0
 62
     2
100
AcDbLine
 10
79.10262163972988
 20
131.1338192713199
 30
0.0
 11
80.10262163972999
 21
131.1338192713198
 31
0.0
  0
LINE
  5
2BF
330
1F
100
AcDbEntity
  8
0
 62
     2
100
AcDbLine
 10
88.60262163973039
 20
129.1338192713137
 30
0.0
 11
87.60262163973186
 21
129.1338192713145
 31
0.0
  0
LINE
  5
2C0
330
1F
100
AcDbEntity
  8
0
 62
     2
100
AcDbLine
 10
90.60262163973181
 20
131.1338192679337
 30
0.0
 11
89.60262163973175
 21
131.1338192696244
 31
0.0
  0
LINE
  5
2C1
330
1F
100
AcDbEntity
  8
0
 62
     2
100
AcDbLine
 10
88.60262163973033
 20
129.1338192713114
 30
0.0
 11
88.60262163973164
 21
130.1338192713114
 31
0.0
  0
LINE
  5
2C2
330
1F
100
AcDbEntity
  8
0
 62
     2
100
AcDbLine
 10
87.60262163973186
 20
129.1338192713145
 30
0.0
 11
87.60262163973255
 21
130.1338192713166
 31
0.0
  0
LINE
  5
2C3
330
1F
100
AcDbEntity
  8
0
 62
     2
100
AcDbLine
 10
85.60262163972993
 20
131.1338192713127
 30
0.0
 11
86.60262163972999
 21
131.1338192713125
 31
0.0
  0
ARC
  5
2C4
330
1F
100
AcDbEntity
  8
0
 62
     2
100
AcDbCircle
 10
103.5026215066555
 20
109.9338274539232
 30
0.0
 40
0.499999999999945
100
AcDbArc
 50
0.0000049045561969
 51
89.99999995167767
  0
ARC
  5
2C5
330
1F
100
AcDbEntity
  8
0
 62
     2
100
AcDbCircle
 10
103.5026215066559
 20
116.4891977194599
 30
0.0
 40
0.5
100
AcDbArc
 50
270.0000000000977
 51
0.0000000000618809
  0
ARC
  5
2C6
330
1F
100
AcDbEntity
  8
0
 62
     2
100
AcDbCircle
 10
103.502621506655
 20
101.7891977453531
 30
0.0
 40
0.4999999999999432
100
AcDbArc
 50
0.0
 51
90.00000000000773
  0
ARC
  5
2C7
330
1F
100
AcDbEntity
  8
0
 62
     2
100
AcDbCircle
 10
78.97362809115083
 20
94.53382666711605
 30
0.0
 40
0.5
100
AcDbArc
 50
180.0
 51
270.0000000001832
  0
ARC
  5
2C8
330
1F
100
AcDbEntity
  8
0
 62
     2
100
AcDbCircle
 10
69.57362809114466
 20
94.53382666711411
 30
0.0
 40
0.5
100
AcDbArc
 50
270.0000000000196
 51
0.0000000000154702
  0
ARC
  5
2C9
330
1F
100
AcDbEntity
  8
0
 62
     2
100
AcDbCircle
 10
66.20262150664803
 20
98.98919763857714
 30
0.0
 40
0.5
100
AcDbArc
 50
89.99999999999349
 51
180.0000000001321
  0
ARC
  5
2CA
330
1F
100
AcDbEntity
  8
0
 62
     2
100
AcDbCircle
 10
66.20262150665076
 20
109.9338269675999
 30
0.0
 40
0.5
100
AcDbArc
 50
90.0000004013919
 51
179.9999991971998
  0
ARC
  5
2CB
330
1F
100
AcDbEntity
  8
0
 62
     2
100
AcDbCircle
 10
66.20262150665235
 20
116.4891977194656
 30
0.0
 40
0.5
100
AcDbArc
 50
180.0
 51
269.9999999996602
  0
LINE
  5
2CC
330
1F
100
AcDbEntity
  8
0
 62
     2
100
AcDbLine
 10
65.70262150665076
 20
109.9338269746057
 30
0.0
 11
65.90262150665075
 21
109.9338269746056
 31
0.0
  0
LINE
  5
2CD
330
1F
100
AcDbEntity
  8
0
 62
     2
100
AcDbLine
 10
66.20262149964509
 20
110.4338269675999
 30
0.0
 11
66.20262150805183
 21
110.2338269675999
 31
0.0
  0
LINE
  5
2CE
330
1F
100
AcDbEntity
  8
0
 62
     2
100
AcDbLine
 10
68.00262149965045
 20
110.4338269675997
 30
0.0
 11
68.00262150245271
 21
110.2338269706646
 31
0.0
  0
LINE
  5
2CF
330
1F
100
AcDbEntity
  8
0
 62
     2
100
AcDbLine
 10
68.5026215066589
 20
109.9338269998207
 30
0.0
 11
68.30262150665897
 21
109.9338269998227
 31
0.0
  0
LINE
  5
2D0
330
1F
100
AcDbEntity
  8
0
 62
     2
100
AcDbLine
 10
103.8026215066556
 20
109.9338274971452
 30
0.0
 11
104.0026215066555
 21
109.9338274971451
 31
0.0
  0
LINE
  5
2D1
330
1F
100
AcDbEntity
  8
0
 62
     2
100
AcDbLine
 10
103.5026214996519
 20
110.4338274539232
 30
0.0
 11
103.5026214701285
 21
110.2338274527536
 31
0.0
  0
LINE
  5
2D2
330
1F
100
AcDbEntity
  8
0
 62
     2
100
AcDbLine
 10
101.7026215024183
 20
110.2338274588884
 30
0.0
 11
101.7026214996167
 21
110.4338274719325
 31
0.0
  0
LINE
  5
2D3
330
1F
100
AcDbEntity
  8
0
 62
     2
100
AcDbLine
 10
101.2026215066442
 20
109.9338274719342
 30
0.0
 11
101.4026215066443
 21
109.9338274719342
 31
0.0
  0
LINE
  5
2D4
330
1F
100
AcDbEntity
  8
0
 62
     2
100
AcDbLine
 10
67.91820006418106
 20
97.9346532513693
 30
0.0
 11
67.84595746404023
 21
97.74815658457634
 31
0.0
  0
LINE
  5
2D5
330
1F
100
AcDbEntity
  8
0
 62
     2
100
AcDbLine
 10
69.6142921812991
 20
96.22097553460618
 30
0.0
 11
69.42706028508235
 21
96.15066040793283
 31
0.0
  0
LINE
  5
2D6
330
1F
100
AcDbEntity
  8
0
 62
     2
100
AcDbLine
 10
69.5850525082115
 20
95.66176894019179
 30
0.0
 11
69.40617480430564
 21
95.75122712620822
 31
0.0
  0
LINE
  5
2D7
330
1F
100
AcDbEntity
  8
0
 62
     2
100
AcDbLine
 10
69.16044779040755
 20
94.81274303914688
 30
0.0
 11
68.9815700865015
 21
94.90220122516325
 31
0.0
  0
LINE
  5
2D8
330
1F
100
AcDbEntity
  8
0
 62
     2
100
AcDbLine
 10
69.5182031982198
 20
94.0338266671141
 30
0.0
 11
69.51820319821974
 21
94.23382666711404
 31
0.0
  0
LINE
  5
2D9
330
1F
100
AcDbEntity
  8
0
 62
     2
100
AcDbLine
 10
69.57362809114471
 20
94.23382666711417
 30
0.0
 11
69.57362809114477
 21
94.03382666711606
 31
0.0
  0
LINE
  5
2DA
330
1F
100
AcDbEntity
  8
0
 62
     2
100
AcDbLine
 10
70.0736280911446
 20
94.53382666711423
 30
0.0
 11
69.87362809114461
 21
94.53382666711417
 31
0.0
  0
LINE
  5
2DB
330
1F
100
AcDbEntity
  8
0
 62
     2
100
AcDbLine
 10
69.87362809114353
 20
98.4891976385718
 30
0.0
 11
70.07362809114358
 21
98.4891976385718
 31
0.0
  0
LINE
  5
2DC
330
1F
100
AcDbEntity
  8
0
 62
     2
100
AcDbLine
 10
69.07362809114409
 20
99.48919763857202
 30
0.0
 11
69.07362809114352
 21
99.28919763857199
 31
0.0
  0
LINE
  5
2DD
330
1F
100
AcDbEntity
  8
0
 62
     2
100
AcDbLine
 10
66.20262150664854
 20
99.289197638578
 30
0.0
 11
66.20262150664882
 21
99.48919763857658
 31
0.0
  0
LINE
  5
2DE
330
1F
100
AcDbEntity
  8
0
 62
     2
100
AcDbLine
 10
65.70262150664809
 20
98.98919763857725
 30
0.0
 11
65.90262150664796
 21
98.98919763857623
 31
0.0
  0
LINE
  5
2DF
330
1F
100
AcDbEntity
  8
0
 62
     2
100
AcDbLine
 10
65.90262150664768
 20
97.83029365991764
 30
0.0
 11
65.70262150664769
 21
97.83029365991776
 31
0.0
  0
LINE
  5
2E0
330
1F
100
AcDbEntity
  8
0
 62
     2
100
AcDbLine
 10
67.35224742695891
 20
97.90798693844135
 30
0.0
 11
67.4417055803101
 21
97.72910921819926
 31
0.0
  0
LINE
  5
2E1
330
1F
100
AcDbEntity
  8
0
 62
     2
100
AcDbLine
 10
66.5709959667011
 20
97.29366049919123
 30
0.0
 11
66.48153781335003
 21
97.47253821943337
 31
0.0
  0
LINE
  5
2E2
330
1F
100
AcDbEntity
  8
0
 62
     2
100
AcDbLine
 10
69.49909391087385
 20
132.1338192713289
 30
0.0
 11
69.49909391087385
 21
132.3338192713295
 31
0.0
  0
LINE
  5
2E3
330
1F
100
AcDbEntity
  8
0
 62
     2
100
AcDbLine
 10
68.9624607501475
 20
131.4654448112756
 30
0.0
 11
69.1413384703896
 21
131.5549029646268
 31
0.0
  0
LINE
  5
2E4
330
1F
100
AcDbEntity
  8
0
 62
     2
100
AcDbLine
 10
69.57678499862914
 20
130.6841977316103
 30
0.0
 11
69.39790727838704
 21
130.5947395782592
 31
0.0
  0
LINE
  5
2E5
330
1F
100
AcDbEntity
  8
0
 62
     2
100
AcDbLine
 10
69.60345131155714
 20
130.1182450943883
 30
0.0
 11
69.41695464476425
 21
130.1904876945292
 31
0.0
  0
LINE
  5
2E6
330
1F
100
AcDbEntity
  8
0
 62
     2
100
AcDbLine
 10
67.88977359479424
 20
128.4221529772706
 30
0.0
 11
67.81945846812084
 21
128.6093848734873
 31
0.0
  0
LINE
  5
2E7
330
1F
100
AcDbEntity
  8
0
 62
     2
100
AcDbLine
 10
67.33056700037986
 20
128.4513926503582
 30
0.0
 11
67.42002518639629
 21
128.6302703542642
 31
0.0
  0
LINE
  5
2E8
330
1F
100
AcDbEntity
  8
0
 62
     2
100
AcDbLine
 10
66.48153787868796
 20
128.8759989788339
 30
0.0
 11
66.57099606470427
 21
129.0548766827397
 31
0.0
  0
LINE
  5
2E9
330
1F
100
AcDbEntity
  8
0
 62
     2
100
AcDbLine
 10
65.7026215066553
 20
128.5182435710221
 30
0.0
 11
65.90262150665535
 21
128.5182435710221
 31
0.0
  0
LINE
  5
2EA
330
1F
100
AcDbEntity
  8
0
 62
     2
100
AcDbLine
 10
65.9026215066524
 20
116.4891977194631
 30
0.0
 11
65.70262150665235
 21
116.4891977194633
 31
0.0
  0
LINE
  5
2EB
330
1F
100
AcDbEntity
  8
0
 62
     2
100
AcDbLine
 10
66.20262150665309
 20
115.9891977194656
 30
0.0
 11
66.20262150665485
 21
116.1891977194656
 31
0.0
  0
LINE
  5
2EC
330
1F
100
AcDbEntity
  8
0
 62
     2
100
AcDbLine
 10
68.10262150665619
 20
116.1891977194666
 30
0.0
 11
68.10262150665653
 21
115.9891977194653
 31
0.0
  0
LINE
  5
2ED
330
1F
100
AcDbEntity
  8
0
 62
     2
100
AcDbLine
 10
68.60262150665267
 20
116.4891977194567
 30
0.0
 11
68.40262150665274
 21
116.4891977194571
 31
0.0
  0
LINE
  5
2EE
330
1F
100
AcDbEntity
  8
0
 62
     2
100
AcDbLine
 10
68.4026215066553
 20
125.9338194404222
 30
0.0
 11
68.60262150665523
 21
125.9338194404222
 31
0.0
  0
LINE
  5
2EF
330
1F
100
AcDbEntity
  8
0
 62
     2
100
AcDbLine
 10
71.60262150665898
 20
129.1338194404183
 30
0.0
 11
71.6026215066588
 21
128.9338194404182
 31
0.0
  0
LINE
  5
2F0
330
1F
100
AcDbEntity
  8
0
 62
     2
100
AcDbLine
 10
98.1026215066542
 20
129.1338194404146
 30
0.0
 11
98.10262150665409
 21
128.9338194404147
 31
0.0
  0
LINE
  5
2F1
330
1F
100
AcDbEntity
  8
0
 62
     2
100
AcDbLine
 10
101.302621506656
 20
125.9338194404147
 30
0.0
 11
101.1026215066559
 21
125.9338194404147
 31
0.0
  0
LINE
  5
2F2
330
1F
100
AcDbEntity
  8
0
 62
     2
100
AcDbLine
 10
101.3026215066544
 20
116.4891977194561
 30
0.0
 11
101.1026215066544
 21
116.4891977194561
 31
0.0
  0
LINE
  5
2F3
330
1F
100
AcDbEntity
  8
0
 62
     2
100
AcDbLine
 10
101.6026215066696
 20
115.9891977194538
 30
0.0
 11
101.6026215066641
 21
116.1891977194539
 31
0.0
  0
LINE
  5
2F4
330
1F
100
AcDbEntity
  8
0
 62
     2
100
AcDbLine
 10
103.5026215066565
 20
116.1891977194624
 30
0.0
 11
103.5026215066569
 21
115.9891977194612
 31
0.0
  0
LINE
  5
2F5
330
1F
100
AcDbEntity
  8
0
 62
     2
100
AcDbLine
 10
104.0026215066559
 20
116.4891977194599
 30
0.0
 11
103.802621506656
 21
116.4891977194602
 31
0.0
  0
LINE
  5
2F6
330
1F
100
AcDbEntity
  8
0
 62
     2
100
AcDbLine
 10
103.8026215066569
 20
128.5373533357089
 30
0.0
 11
104.0026215066569
 21
128.5373533357088
 31
0.0
  0
LINE
  5
2F7
330
1F
100
AcDbEntity
  8
0
 62
     2
100
AcDbLine
 10
103.1342470466034
 20
129.0739864964353
 30
0.0
 11
103.2237051999545
 21
128.8951087761932
 31
0.0
  0
LINE
  5
2F8
330
1F
100
AcDbEntity
  8
0
 62
     2
100
AcDbLine
 10
102.3529957918003
 20
128.4596601599347
 30
0.0
 11
102.2635376384492
 21
128.6385378801768
 31
0.0
  0
LINE
  5
2F9
330
1F
100
AcDbEntity
  8
0
 62
     2
100
AcDbLine
 10
101.7870431545782
 20
128.4329938470067
 30
0.0
 11
101.8592857547191
 21
128.6194905137997
 31
0.0
  0
LINE
  5
2FA
330
1F
100
AcDbEntity
  8
0
 62
     2
100
AcDbLine
 10
100.0909510374602
 20
130.1466715637698
 30
0.0
 11
100.2781829336769
 21
130.2169866904432
 31
0.0
  0
LINE
  5
2FB
330
1F
100
AcDbEntity
  8
0
 62
     2
100
AcDbLine
 10
100.1201907105477
 20
130.7058781581841
 30
0.0
 11
100.2990684144538
 21
130.6164199721677
 31
0.0
  0
LINE
  5
2FC
330
1F
100
AcDbEntity
  8
0
 62
     2
100
AcDbLine
 10
100.5447948482591
 20
131.5549028992947
 30
0.0
 11
100.723672552165
 21
131.4654447132783
 31
0.0
  0
LINE
  5
2FD
330
1F
100
AcDbEntity
  8
0
 62
     2
100
AcDbLine
 10
100.1870394404471
 20
132.3338192713275
 30
0.0
 11
100.1870394404471
 21
132.1338192713274
 31
0.0
  0
LINE
  5
2FE
330
1F
100
AcDbEntity
  8
0
 62
     2
100
AcDbLine
 10
100.2061498879741
 20
94.2338266671203
 30
0.0
 11
100.2061498879743
 21
94.03382666711741
 31
0.0
  0
LINE
  5
2FF
330
1F
100
AcDbEntity
  8
0
 62
     2
100
AcDbLine
 10
100.7427830487002
 20
94.90220112717361
 30
0.0
 11
100.5639053284581
 21
94.81274297382254
 31
0.0
  0
LINE
  5
300
330
1F
100
AcDbEntity
  8
0
 62
     2
100
AcDbLine
 10
100.1284582201301
 20
95.68344936676567
 30
0.0
 11
100.3073359403722
 21
95.7729075201168
 31
0.0
  0
LINE
  5
301
330
1F
100
AcDbEntity
  8
0
 62
     2
100
AcDbLine
 10
100.1017919072021
 20
96.2494020039876
 30
0.0
 11
100.288288573995
 21
96.17715940384677
 31
0.0
  0
LINE
  5
302
330
1F
100
AcDbEntity
  8
0
 62
     2
100
AcDbLine
 10
101.815469623965
 20
97.94549412110547
 30
0.0
 11
101.8857847506384
 21
97.75826222488877
 31
0.0
  0
LINE
  5
303
330
1F
100
AcDbEntity
  8
0
 62
     2
100
AcDbLine
 10
102.3746762183795
 20
97.91625444801775
 30
0.0
 11
102.285218032363
 21
97.73737674411183
 31
0.0
  0
LINE
  5
304
330
1F
100
AcDbEntity
  8
0
 62
     2
100
AcDbLine
 10
103.2237051346218
 20
97.49164822228909
 30
0.0
 11
103.1342469486056
 21
97.31277051838322
 31
0.0
  0
LINE
  5
305
330
1F
100
AcDbEntity
  8
0
 62
     2
100
AcDbLine
 10
104.0026215066546
 20
97.84940363010082
 30
0.0
 11
103.8026215066546
 21
97.84940363010088
 31
0.0
  0
LINE
  5
306
330
1F
100
AcDbEntity
  8
0
 62
     2
100
AcDbLine
 10
103.8026215066549
 20
101.7891977453531
 30
0.0
 11
104.0026215066549
 21
101.789197745353
 31
0.0
  0
LINE
  5
307
330
1F
100
AcDbEntity
  8
0
 62
     2
100
AcDbLine
 10
103.5026215066545
 20
102.2891977453531
 30
0.0
 11
103.5026215066547
 21
102.0891977453531
 31
0.0
  0
LINE
  5
308
330
1F
100
AcDbEntity
  8
0
 62
     2
100
AcDbLine
 10
101.6026215066414
 20
102.089197745351
 30
0.0
 11
101.6026215066413
 21
102.2891977453519
 31
0.0
  0
LINE
  5
309
330
1F
100
AcDbEntity
  8
0
 62
     2
100
AcDbLine
 10
101.1026215066519
 20
101.7891977453481
 30
0.0
 11
101.3026215066519
 21
101.7891977453481
 31
0.0
  0
LINE
  5
30A
330
1F
100
AcDbEntity
  8
0
 62
     2
100
AcDbLine
 10
101.3026215066574
 20
100.4338268362212
 30
0.0
 11
101.1026215066573
 21
100.4338268362204
 31
0.0
  0
LINE
  5
30B
330
1F
100
AcDbEntity
  8
0
 62
     2
100
AcDbLine
 10
98.10262150665477
 20
97.23382683620707
 30
0.0
 11
98.10262150665471
 21
97.43382683620712
 31
0.0
  0
LINE
  5
30C
330
1F
100
AcDbEntity
  8
0
 62
     2
100
AcDbLine
 10
78.97362809115651
 20
97.23382683620673
 30
0.0
 11
78.97362809115629
 21
97.43382683620719
 31
0.0
  0
LINE
  5
30D
330
1F
100
AcDbEntity
  8
0
 62
     2
100
AcDbLine
 10
78.47362809115731
 20
96.93382683620656
 30
0.0
 11
78.67362809115735
 21
96.93382683620655
 31
0.0
  0
LINE
  5
30E
330
1F
100
AcDbEntity
  8
0
 62
     2
100
AcDbLine
 10
78.67362809115076
 20
94.53382666711695
 30
0.0
 11
78.47362809115072
 21
94.53382666711754
 31
0.0
  0
LINE
  5
30F
330
1F
100
AcDbEntity
  8
0
 62
     2
100
AcDbLine
 10
78.97362809115106
 20
94.03382666711302
 30
0.0
 11
78.97362809115083
 21
94.23382666711309
 31
0.0
  0
ARC
  5
310
330
1F
100
AcDbEntity
  8
0
 62
     2
100
AcDbCircle
 10
102.8526215510467
 20
241.6838199603453
 30
0.0
 40
2.749999999999854
100
AcDbArc
 50
234.9261479972925
 51
270.0000001931609
  0
ARC
  5
311
330
1F
100
AcDbEntity
  8
0
 62
     2
100
AcDbCircle
 10
102.8526215510467
 20
241.6838199603453
 30
0.0
 40
2.750000000000171
100
AcDbArc
 50
180.0
 51
234.9261480944094
  0
LINE
  5
312
330
1F
100
AcDbEntity
  8
0
 62
     2
100
AcDbLine
 10
104.6026214178827
 20
238.9338199662607
 30
0.0
 11
102.8526215603341
 21
238.933819960345
 31
0.0
  0
LINE
  5
313
330
1F
100
AcDbEntity
  8
0
 62
     2
100
AcDbLine
 10
104.6026214178912
 20
208.4338200474225
 30
0.0
 11
104.6026214178895
 21
238.9338199662674
 31
0.0
  0
LINE
  5
314
330
1F
100
AcDbEntity
  8
0
 62
     2
100
AcDbLine
 10
105.1026214178912
 20
207.9338200491127
 30
0.0
 11
105.1026214178894
 21
239.4338199679576
 31
0.0
  0
LINE
  5
315
330
1F
100
AcDbEntity
  8
0
 62
     2
100
AcDbLine
 10
102.8526214808657
 20
208.433819960352
 30
0.0
 11
104.6026214990457
 21
208.4338199662679
 31
0.0
  0
ARC
  5
316
330
1F
100
AcDbEntity
  8
0
 62
     2
100
AcDbCircle
 10
102.8526214901759
 20
205.683819960349
 30
0.0
 40
2.75000000000031
100
AcDbArc
 50
144.9261477067464
 51
179.9999999027644
  0
ARC
  5
317
330
1F
100
AcDbEntity
  8
0
 62
     2
100
AcDbCircle
 10
102.8526214901759
 20
205.683819960349
 30
0.0
 40
2.75
100
AcDbArc
 50
90.00000019397669
 51
144.9261477067518
  0
LINE
  5
318
330
1F
100
AcDbEntity
  8
0
 62
     2
100
AcDbLine
 10
100.1026214872176
 20
203.9338235973715
 30
0.0
 11
100.1026214901756
 21
205.6838199650045
 31
0.0
  0
LINE
  5
319
330
1F
100
AcDbEntity
  8
0
 62
     2
100
AcDbLine
 10
69.60262523330005
 20
203.9338235973767
 30
0.0
 11
100.102621487216
 21
203.9338235973731
 31
0.0
  0
LINE
  5
31A
330
1F
100
AcDbEntity
  8
0
 62
     2
100
AcDbLine
 10
69.10262523245456
 20
203.4338235973767
 30
0.0
 11
100.6026214863709
 21
203.4338235973731
 31
0.0
  0
LINE
  5
31B
330
1F
100
AcDbEntity
  8
0
 62
     2
100
AcDbLine
 10
69.60262149017723
 20
205.6838198339647
 30
0.0
 11
69.60262148721841
 21
203.9338198512951
 31
0.0
  0
ARC
  5
31C
330
1F
100
AcDbEntity
  8
0
 62
     2
100
AcDbCircle
 10
66.85262149017825
 20
205.6838198386106
 30
0.0
 40
2.74999999999987
100
AcDbArc
 50
54.92614799733324
 51
89.99999999999827
  0
ARC
  5
31D
330
1F
100
AcDbEntity
  8
0
 62
     2
100
AcDbCircle
 10
66.85262149017825
 20
205.6838198386106
 30
0.0
 40
2.750000000000171
100
AcDbArc
 50
0.0
 51
54.92614809412689
  0
LINE
  5
31E
330
1F
100
AcDbEntity
  8
0
 62
     2
100
AcDbLine
 10
65.10262141789008
 20
208.4338198326914
 30
0.0
 11
66.85262148087998
 21
208.4338198386096
 31
0.0
  0
LINE
  5
31F
330
1F
100
AcDbEntity
  8
0
 62
     2
100
AcDbLine
 10
65.10262141788922
 20
238.9338199569751
 30
0.0
 11
65.10262141789093
 21
208.4338198326923
 31
0.0
  0
LINE
  5
320
330
1F
100
AcDbEntity
  8
0
 62
     2
100
AcDbLine
 10
64.60262141788917
 20
239.4338199552843
 30
0.0
 11
64.60262141789099
 21
207.9338198310014
 31
0.0
  0
LINE
  5
321
330
1F
100
AcDbEntity
  8
0
 62
     2
100
AcDbLine
 10
66.85262156035554
 20
238.9338198386064
 30
0.0
 11
65.10262154217577
 21
238.9338198326885
 31
0.0
  0
ARC
  5
322
330
1F
100
AcDbEntity
  8
0
 62
     2
100
AcDbCircle
 10
66.85262155104971
 20
241.6838198386052
 30
0.0
 40
2.750000000000286
100
AcDbArc
 50
324.9261477066997
 51
359.9999999032215
  0
ARC
  5
323
330
1F
100
AcDbEntity
  8
0
 62
     2
100
AcDbCircle
 10
66.85262155104971
 20
241.6838198386052
 30
0.0
 40
2.75
100
AcDbArc
 50
270.0000001938855
 51
324.9261477067042
  0
LINE
  5
324
330
1F
100
AcDbEntity
  8
0
 62
     2
100
AcDbLine
 10
69.60262155400858
 20
243.4338162015823
 30
0.0
 11
69.6026215510496
 21
241.6838198339567
 31
0.0
  0
LINE
  5
325
330
1F
100
AcDbEntity
  8
0
 62
     2
100
AcDbLine
 10
100.1026178079237
 20
243.4338162015779
 30
0.0
 11
69.60262155400954
 21
243.4338162015814
 31
0.0
  0
LINE
  5
326
330
1F
100
AcDbEntity
  8
0
 62
     2
100
AcDbLine
 10
100.6026178087691
 20
243.9338162015779
 30
0.0
 11
69.10262155485498
 21
243.9338162015814
 31
0.0
  0
LINE
  5
327
330
1F
100
AcDbEntity
  8
0
 62
     2
100
AcDbLine
 10
100.1026215510468
 20
241.6838199649901
 30
0.0
 11
100.1026215540051
 21
243.4338199476592
 31
0.0
  0
CIRCLE
  5
328
330
1F
100
AcDbEntity
  8
0
 62
     2
100
AcDbCircle
 10
95.77462135838601
 20
216.3784457292057
 30
0.0
 40
4.0
  0
LINE
  5
329
330
1F
100
AcDbEntity
  8
0
 62
     2
100
AcDbLine
 10
85.77262164208867
 20
224.6784457033133
 30
0.0
 11
73.7726216420711
 21
224.6784457033147
 31
0.0
  0
ARC
  5
32A
330
1F
100
AcDbEntity
  8
0
 62
     2
100
AcDbCircle
 10
73.77262164207116
 20
224.1784457033161
 30
0.0
 40
0.5
100
AcDbArc
 50
90.0000000007035
 51
180.0000000000033
  0
LINE
  5
32B
330
1F
100
AcDbEntity
  8
0
 62
     2
100
AcDbLine
 10
73.27262164207116
 20
224.1784457033243
 30
0.0
 11
73.2726216420462
 21
223.9284457033406
 31
0.0
  0
ARC
  5
32C
330
1F
100
AcDbEntity
  8
0
 62
     2
100
AcDbCircle
 10
72.7726216420923
 20
223.9284457033163
 30
0.0
 40
0.5
100
AcDbArc
 50
270.0000000009445
 51
0.0000000027878961
  0
LINE
  5
32D
330
1F
100
AcDbEntity
  8
0
 62
     2
100
AcDbLine
 10
72.77262164210055
 20
223.4284457033173
 30
0.0
 11
71.89763713608323
 21
223.4284457033174
 31
0.0
  0
ARC
  5
32E
330
1F
100
AcDbEntity
  8
0
 62
     2
100
AcDbCircle
 10
71.89763713608318
 20
222.9284457033108
 30
0.0
 40
0.5
100
AcDbArc
 50
90.00000000000651
 51
180.0000000000065
  0
LINE
  5
32F
330
1F
100
AcDbEntity
  8
0
 62
     2
100
AcDbLine
 10
71.39763713608266
 20
222.9284457032973
 30
0.0
 11
71.39763713608306
 21
210.4784457033146
 31
0.0
  0
ARC
  5
330
330
1F
100
AcDbEntity
  8
0
 62
     2
100
AcDbCircle
 10
71.89763713608346
 20
210.4784457033128
 30
0.0
 40
0.5
100
AcDbArc
 50
180.0
 51
270.0000000018923
  0
LINE
  5
331
330
1F
100
AcDbEntity
  8
0
 62
     2
100
AcDbLine
 10
71.8976371361
 20
209.9784457033136
 30
0.0
 11
87.64760614809597
 21
209.9784457033119
 31
0.0
  0
ARC
  5
332
330
1F
100
AcDbEntity
  8
0
 62
     2
100
AcDbCircle
 10
87.64760614808444
 20
210.4784457033127
 30
0.0
 40
0.5
100
AcDbArc
 50
270.0000000013223
 51
0.0000000000195413
  0
LINE
  5
333
330
1F
100
AcDbEntity
  8
0
 62
     2
100
AcDbLine
 10
88.14760614808483
 20
210.4784457033127
 30
0.0
 11
88.1476061480837
 21
222.9284457032953
 31
0.0
  0
ARC
  5
334
330
1F
100
AcDbEntity
  8
0
 62
     2
100
AcDbCircle
 10
87.64760614808552
 20
222.9284457033068
 30
0.0
 40
0.5
100
AcDbArc
 50
0.0
 51
90.00000000130275
  0
LINE
  5
335
330
1F
100
AcDbEntity
  8
0
 62
     2
100
AcDbLine
 10
87.64760614806607
 20
223.4284457033049
 30
0.0
 11
86.7726216420939
 21
223.4284457033049
 31
0.0
  0
ARC
  5
336
330
1F
100
AcDbEntity
  8
0
 62
     2
100
AcDbCircle
 10
86.77262164207832
 20
223.9284457032905
 30
0.0
 40
0.5000000000000568
100
AcDbArc
 50
180.0
 51
270.0000000017848
  0
LINE
  5
337
330
1F
100
AcDbEntity
  8
0
 62
     2
100
AcDbLine
 10
86.2726216420786
 20
223.9284457032911
 30
0.0
 11
86.27262164208872
 21
224.1784457033125
 31
0.0
  0
ARC
  5
338
330
1F
100
AcDbEntity
  8
0
 62
     2
100
AcDbCircle
 10
85.77262164208872
 20
224.1784457033133
 30
0.0
 40
0.5
100
AcDbArc
 50
0.0
 51
90.00000000009119
  0
ARC
  5
339
330
1F
100
AcDbEntity
  8
0
 62
     2
100
AcDbCircle
 10
76.52262164208332
 20
227.6284457033117
 30
0.0
 40
0.5
100
AcDbArc
 50
90.0000000016089
 51
179.9999999999966
  0
LINE
  5
33A
330
1F
100
AcDbEntity
  8
0
 62
     2
100
AcDbLine
 10
76.02262164209071
 20
227.6284457033063
 30
0.0
 11
76.02262164208133
 21
226.5784457033017
 31
0.0
  0
ARC
  5
33B
330
1F
100
AcDbEntity
  8
0
 62
     2
100
AcDbCircle
 10
76.5226216420927
 20
226.5784457033117
 30
0.0
 40
0.5000000000000568
100
AcDbArc
 50
180.0
 51
270.0000000006318
  0
LINE
  5
33C
330
1F
100
AcDbEntity
  8
0
 62
     2
100
AcDbLine
 10
76.52262164209827
 20
226.0784457033163
 30
0.0
 11
83.02262164209014
 21
226.0784457033156
 31
0.0
  0
ARC
  5
33D
330
1F
100
AcDbEntity
  8
0
 62
     2
100
AcDbCircle
 10
83.02262164208435
 20
226.5784457033117
 30
0.0
 40
0.5
100
AcDbArc
 50
270.0000000006644
 51
359.9999999987721
  0
LINE
  5
33E
330
1F
100
AcDbEntity
  8
0
 62
     2
100
AcDbLine
 10
83.52262164208156
 20
226.5784457033009
 30
0.0
 11
83.52262164208014
 21
227.6284457032949
 31
0.0
  0
ARC
  5
33F
330
1F
100
AcDbEntity
  8
0
 62
     2
100
AcDbCircle
 10
83.02262164208753
 20
227.6284457033117
 30
0.0
 40
0.5000000000000568
100
AcDbArc
 50
0.0
 51
90.00000000191501
  0
LINE
  5
340
330
1F
100
AcDbEntity
  8
0
 62
     2
100
AcDbLine
 10
83.02262164209003
 20
228.1284457033117
 30
0.0
 11
76.52262164206928
 21
228.1284457033124
 31
0.0
  0
CIRCLE
  5
341
330
1F
100
AcDbEntity
  8
0
 62
     2
100
AcDbCircle
 10
102.8526215510537
 20
205.6838198386011
 30
0.0
 40
1.350000000000023
  0
CIRCLE
  5
342
330
1F
100
AcDbEntity
  8
0
 62
     2
100
AcDbCircle
 10
66.8526215510517
 20
205.6838198386052
 30
0.0
 40
1.350000000000023
  0
CIRCLE
  5
343
330
1F
100
AcDbEntity
  8
0
 62
     2
100
AcDbCircle
 10
66.85262155104965
 20
241.6838198386052
 30
0.0
 40
1.350000000000023
  0
CIRCLE
  5
344
330
1F
100
AcDbEntity
  8
0
 62
     2
100
AcDbCircle
 10
102.8526215510517
 20
241.6838198386011
 30
0.0
 40
1.350000000000023
  0
LINE
  5
345
330
1F
100
AcDbEntity
  8
0
 62
     2
100
AcDbLine
 10
100.6026214863709
 20
203.4338235973731
 30
0.0
 11
102.8526214178964
 21
203.4338235973729
 31
0.0
  0
LINE
  5
346
330
1F
100
AcDbEntity
  8
0
 62
     2
100
AcDbLine
 10
105.1026214178913
 20
205.6838234604207
 30
0.0
 11
105.1026214178912
 21
207.9338199679581
 31
0.0
  0
ARC
  5
347
330
1F
100
AcDbEntity
  8
0
 62
     2
100
AcDbCircle
 10
102.8526214178913
 20
205.683823597373
 30
0.0
 40
2.25
100
AcDbArc
 50
270.0000000001302
 51
359.9999965125511
  0
LINE
  5
348
330
1F
100
AcDbEntity
  8
0
 62
     2
100
AcDbLine
 10
64.60262141789099
 20
207.9338198310014
 30
0.0
 11
64.6026214178911
 21
205.6838233234625
 31
0.0
  0
LINE
  5
349
330
1F
100
AcDbEntity
  8
0
 62
     2
100
AcDbLine
 10
66.85262155484838
 20
203.4338235973769
 30
0.0
 11
69.10262148637298
 21
203.4338235973767
 31
0.0
  0
ARC
  5
34A
330
1F
100
AcDbEntity
  8
0
 62
     2
100
AcDbCircle
 10
66.85262141789121
 20
205.6838235973771
 30
0.0
 40
2.250000000000114
100
AcDbArc
 50
180.0
 51
270.0000034875813
  0
LINE
  5
34B
330
1F
100
AcDbEntity
  8
0
 62
     2
100
AcDbLine
 10
64.60262141788905
 20
241.6838163385404
 30
0.0
 11
64.60262141788917
 21
239.4338198309978
 31
0.0
  0
LINE
  5
34C
330
1F
100
AcDbEntity
  8
0
 62
     2
100
AcDbLine
 10
69.10262155485498
 20
243.9338162015814
 30
0.0
 11
66.85262169180703
 21
243.9338162015817
 31
0.0
  0
ARC
  5
34D
330
1F
100
AcDbEntity
  8
0
 62
     2
100
AcDbCircle
 10
66.85262141788917
 20
241.6838162015819
 30
0.0
 40
2.25
100
AcDbArc
 50
90.0000000000029
 51
179.9999965123912
  0
LINE
  5
34E
330
1F
100
AcDbEntity
  8
0
 62
     2
100
AcDbLine
 10
105.1026214178893
 20
239.4338199679576
 30
0.0
 11
105.1026214178893
 21
241.6838164754954
 31
0.0
  0
LINE
  5
34F
330
1F
100
AcDbEntity
  8
0
 62
     2
100
AcDbLine
 10
102.852621417898
 20
243.9338162015776
 30
0.0
 11
100.6026215548504
 21
243.9338162015779
 31
0.0
  0
ARC
  5
350
330
1F
100
AcDbEntity
  8
0
 62
     2
100
AcDbCircle
 10
102.8526214178892
 20
241.6838162015778
 30
0.0
 40
2.25000000000013
100
AcDbArc
 50
0.000006936089891
 51
89.9999999608317
  0
ARC
  5
351
330
1F
100
AcDbEntity
  8
0
 62
     2
100
AcDbCircle
 10
102.8526215510467
 20
241.6838199603453
 30
0.0
 40
2.250000000000114
100
AcDbArc
 50
180.0
 51
270.0000001931638
  0
LINE
  5
352
330
1F
100
AcDbEntity
  8
0
 62
     2
100
AcDbLine
 10
105.1026214178827
 20
239.4338199679509
 30
0.0
 11
102.8526215586438
 21
239.4338199679511
 31
0.0
  0
LINE
  5
353
330
1F
100
AcDbEntity
  8
0
 62
     2
100
AcDbLine
 10
102.8526214825585
 20
207.933819960352
 30
0.0
 11
105.1026215066522
 21
207.9338199603517
 31
0.0
  0
ARC
  5
354
330
1F
100
AcDbEntity
  8
0
 62
     2
100
AcDbCircle
 10
102.8526214901759
 20
205.683819960349
 30
0.0
 40
2.25
100
AcDbArc
 50
90.00000019397592
 51
179.9999999027691
  0
LINE
  5
355
330
1F
100
AcDbEntity
  8
0
 62
     2
100
AcDbLine
 10
100.6026214863725
 20
203.4338235973715
 30
0.0
 11
100.6026214901757
 21
205.6838199641593
 31
0.0
  0
LINE
  5
356
330
1F
100
AcDbEntity
  8
0
 62
     2
100
AcDbLine
 10
69.10262149017717
 20
205.6838198348094
 30
0.0
 11
69.10262148637298
 21
203.4338198512951
 31
0.0
  0
ARC
  5
357
330
1F
100
AcDbEntity
  8
0
 62
     2
100
AcDbCircle
 10
66.85262149017825
 20
205.6838198386106
 30
0.0
 40
2.250000000000114
100
AcDbArc
 50
0.0
 51
90.00000009679181
  0
LINE
  5
358
330
1F
100
AcDbEntity
  8
0
 62
     2
100
AcDbLine
 10
64.60262141789008
 20
207.9338198310005
 30
0.0
 11
66.85262148257101
 21
207.9338198310002
 31
0.0
  0
LINE
  5
359
330
1F
100
AcDbEntity
  8
0
 62
     2
100
AcDbLine
 10
66.85262155866354
 20
239.4338198386064
 30
0.0
 11
64.60262153456677
 21
239.4338198386067
 31
0.0
  0
ARC
  5
35A
330
1F
100
AcDbEntity
  8
0
 62
     2
100
AcDbCircle
 10
66.85262155104971
 20
241.6838198386052
 30
0.0
 40
2.25
100
AcDbArc
 50
270.0000001938847
 51
359.9999999032252
  0
LINE
  5
35B
330
1F
100
AcDbEntity
  8
0
 62
     2
100
AcDbLine
 10
69.10262155485401
 20
243.9338162015823
 30
0.0
 11
69.1026215510496
 21
241.6838198348022
 31
0.0
  0
LINE
  5
35C
330
1F
100
AcDbEntity
  8
0
 62
     2
100
AcDbLine
 10
100.6026215510468
 20
241.6838199641448
 30
0.0
 11
100.6026215548504
 21
243.9338199476592
 31
0.0
  0
LINE
  5
35D
330
1F
100
AcDbEntity
  8
0
 62
     2
100
AcDbLine
 10
100.1026215540051
 20
243.4338199476592
 30
0.0
 11
100.6026215548504
 21
243.9338199476592
 31
0.0
  0
LINE
  5
35E
330
1F
100
AcDbEntity
  8
0
 62
     2
100
AcDbLine
 10
69.60262155400954
 20
243.4338162015814
 30
0.0
 11
69.10262155485498
 21
243.9338162015814
 31
0.0
  0
LINE
  5
35F
330
1F
100
AcDbEntity
  8
0
 62
     2
100
AcDbLine
 10
69.6026215510496
 20
241.6838198339567
 30
0.0
 11
69.10262155104954
 21
241.6838198348022
 31
0.0
  0
LINE
  5
360
330
1F
100
AcDbEntity
  8
0
 62
     2
100
AcDbLine
 10
66.85262156035554
 20
238.9338198386052
 30
0.0
 11
66.85262155866354
 21
239.4338198386052
 31
0.0
  0
LINE
  5
361
330
1F
100
AcDbEntity
  8
0
 62
     2
100
AcDbLine
 10
65.10262154217577
 20
238.9338198326885
 30
0.0
 11
64.60262154402511
 21
239.4338198291483
 31
0.0
  0
LINE
  5
362
330
1F
100
AcDbEntity
  8
0
 62
     2
100
AcDbLine
 10
65.10262141789093
 20
208.4338198326923
 30
0.0
 11
64.60262141789099
 21
207.9338198310014
 31
0.0
  0
LINE
  5
363
330
1F
100
AcDbEntity
  8
0
 62
     2
100
AcDbLine
 10
66.85262148087998
 20
208.4338198386096
 30
0.0
 11
66.85262148257101
 21
207.9338198404591
 31
0.0
  0
LINE
  5
364
330
1F
100
AcDbEntity
  8
0
 62
     2
100
AcDbLine
 10
69.60262149017842
 20
205.6838198339647
 30
0.0
 11
69.10262149017836
 21
205.6838198348094
 31
0.0
  0
LINE
  5
365
330
1F
100
AcDbEntity
  8
0
 62
     2
100
AcDbLine
 10
69.60262148721841
 20
203.9338198512951
 30
0.0
 11
69.10262148637293
 21
203.4338198512951
 31
0.0
  0
LINE
  5
366
330
1F
100
AcDbEntity
  8
0
 62
     2
100
AcDbLine
 10
100.102621487216
 20
203.9338235973731
 30
0.0
 11
100.6026214863709
 21
203.4338235973731
 31
0.0
  0
LINE
  5
367
330
1F
100
AcDbEntity
  8
0
 62
     2
100
AcDbLine
 10
100.1026214901756
 20
205.6838199650045
 30
0.0
 11
100.6026214901757
 21
205.6838199641593
 31
0.0
  0
LINE
  5
368
330
1F
100
AcDbEntity
  8
0
 62
     2
100
AcDbLine
 10
102.8526214808657
 20
208.433819960349
 30
0.0
 11
102.8526214825585
 21
207.933819960349
 31
0.0
  0
LINE
  5
369
330
1F
100
AcDbEntity
  8
0
 62
     2
100
AcDbLine
 10
104.6026214990457
 20
208.4338199662679
 30
0.0
 11
105.102621497197
 21
207.9338199698069
 31
0.0
  0
LINE
  5
36A
330
1F
100
AcDbEntity
  8
0
 62
     2
100
AcDbLine
 10
104.6026214178895
 20
238.9338199662674
 30
0.0
 11
105.1026214178894
 21
239.4338199679576
 31
0.0
  0
LINE
  5
36B
330
1F
100
AcDbEntity
  8
0
 62
     2
100
AcDbLine
 10
102.8526215603341
 20
238.933819960345
 30
0.0
 11
102.8526215586438
 21
239.4338199584964
 31
0.0
  0
LINE
  5
36C
330
1F
100
AcDbEntity
  8
0
 62
     2
100
AcDbLine
 10
100.6026215510468
 20
241.6838199641448
 30
0.0
 11
100.1026215510468
 21
241.6838199649901
 31
0.0
  0
LINE
  5
36D
330
1F
100
AcDbEntity
  8
0
 62
     2
100
AcDbLine
 10
100.8061498757576
 20
171.2338198512911
 30
0.0
 11
100.8061498879698
 21
169.4338198512912
 31
0.0
  0
LINE
  5
36E
330
1F
100
AcDbEntity
  8
0
 62
     2
100
AcDbLine
 10
68.9182032104444
 20
171.2338198512948
 30
0.0
 11
68.91820319821528
 21
169.4338198512948
 31
0.0
  0
LINE
  5
36F
330
1F
100
AcDbEntity
  8
0
 62
     2
100
AcDbLine
 10
68.91820319821522
 20
171.2338198512948
 30
0.0
 11
69.11820319821516
 21
171.4338198512947
 31
0.0
  0
LINE
  5
370
330
1F
100
AcDbEntity
  8
0
 62
     2
100
AcDbLine
 10
70.07362809114039
 20
171.2338198512947
 30
0.0
 11
69.87362809114035
 21
171.4338198512947
 31
0.0
  0
LINE
  5
371
330
1F
100
AcDbEntity
  8
0
 62
     2
100
AcDbLine
 10
65.70262150664371
 20
171.2338198512952
 30
0.0
 11
65.90262150664364
 21
171.4338198512951
 31
0.0
  0
LINE
  5
372
330
1F
100
AcDbEntity
  8
0
 62
     2
100
AcDbLine
 10
100.8061498879697
 20
171.2338198512911
 30
0.0
 11
100.6061498879697
 21
171.4338198512912
 31
0.0
  0
LINE
  5
373
330
1F
100
AcDbEntity
  8
0
 62
     2
100
AcDbLine
 10
104.0026215066506
 20
171.2338198512907
 30
0.0
 11
103.8026215066506
 21
171.4338198512908
 31
0.0
  0
LINE
  5
374
330
1F
100
AcDbEntity
  8
0
 62
     2
100
AcDbLine
 10
78.47362809115327
 20
171.2338198512937
 30
0.0
 11
78.6736280911532
 21
171.4338198512937
 31
0.0
  0
LINE
  5
375
330
1F
100
AcDbEntity
  8
0
 62
     2
100
AcDbLine
 10
78.47362809114355
 20
171.2338198512937
 30
0.0
 11
78.67362809114348
 21
171.4338198512937
 31
0.0
  0
LINE
  5
376
330
1F
100
AcDbEntity
  8
0
 62
     2
100
AcDbLine
 10
79.10262157733223
 20
171.4338198512936
 30
0.0
 11
79.30262157699747
 21
171.2338198512901
 31
0.0
  0
LINE
  5
377
330
1F
100
AcDbEntity
  8
0
 62
     2
100
AcDbLine
 10
90.40262157699152
 20
171.2338198512871
 30
0.0
 11
90.60262157733462
 21
171.4338198512924
 31
0.0
  0
LINE
  5
378
330
1F
100
AcDbEntity
  8
0
 62
     2
100
AcDbLine
 10
103.6939678696453
 20
170.4718867252569
 30
0.0
 11
103.6929531905545
 21
170.471475498952
 31
0.0
  0
LINE
  5
379
330
1F
100
AcDbEntity
  8
0
 62
     2
100
AcDbLine
 10
103.993018230613
 20
170.8362950737026
 30
0.0
 11
103.9910168250199
 21
170.8267217313949
 31
0.0
  0
LINE
  5
37A
330
1F
100
AcDbEntity
  8
0
 62
     2
100
AcDbLine
 10
79.60262155488556
 20
170.9338198734039
 30
0.0
 11
80.10262157681109
 21
170.4338198434659
 31
0.0
  0
LINE
  5
37B
330
1F
100
AcDbEntity
  8
0
 62
     2
100
AcDbLine
 10
83.60262160079583
 20
170.9338198750942
 30
0.0
 11
83.10262157886854
 21
170.4338198434643
 31
0.0
  0
LINE
  5
37C
330
1F
100
AcDbEntity
  8
0
 62
     2
100
AcDbLine
 10
86.1026215548867
 20
170.9338198734035
 30
0.0
 11
86.60262157681433
 21
170.4338198434631
 31
0.0
  0
LINE
  5
37D
330
1F
100
AcDbEntity
  8
0
 62
     2
100
AcDbLine
 10
90.10262160079606
 20
170.9338198750936
 30
0.0
 11
89.60262157886677
 21
170.4338198434615
 31
0.0
  0
LINE
  5
37E
330
1F
100
AcDbEntity
  8
0
 62
     2
100
AcDbLine
 10
103.6939632323128
 20
169.6338198503661
 30
0.0
 11
103.6929531905546
 21
169.6338198503654
 31
0.0
  0
LINE
  5
37F
330
1F
100
AcDbEntity
  8
0
 62
     2
100
AcDbLine
 10
101.2723841504898
 20
165.4338198512911
 30
0.0
 11
102.8526216490832
 21
165.4338198512909
 31
0.0
  0
LINE
  5
380
330
1F
100
AcDbEntity
  8
0
 62
     2
100
AcDbLine
 10
100.1026216398118
 20
165.4338198512912
 30
0.0
 11
101.2723841504898
 21
165.4338198512911
 31
0.0
  0
LINE
  5
381
330
1F
100
AcDbEntity
  8
0
 62
     2
100
AcDbLine
 10
104.6026215066479
 20
165.4338198512908
 30
0.0
 11
102.8526216490992
 21
165.4338198512909
 31
0.0
  0
LINE
  5
382
330
1F
100
AcDbEntity
  8
0
 62
     2
100
AcDbLine
 10
66.85262164912069
 20
165.433819851295
 30
0.0
 11
65.10262163094092
 21
165.4338198512952
 31
0.0
  0
LINE
  5
383
330
1F
100
AcDbEntity
  8
0
 62
     2
100
AcDbLine
 10
69.10325475990925
 20
165.4338198512947
 30
0.0
 11
69.6026216398152
 21
165.4338198512947
 31
0.0
  0
LINE
  5
384
330
1F
100
AcDbEntity
  8
0
 62
     2
100
AcDbLine
 10
66.85262164912069
 20
165.433819851295
 30
0.0
 11
69.10325475990925
 21
165.4338198512947
 31
0.0
  0
LINE
  5
385
330
1F
100
AcDbEntity
  8
0
 62
     2
100
AcDbLine
 10
100.1026178966891
 20
165.4338198512912
 30
0.0
 11
69.60262164277498
 21
165.4338198512947
 31
0.0
  0
LINE
  5
386
330
1F
100
AcDbEntity
  8
0
 62
     2
100
AcDbLine
 10
100.6026178975345
 20
165.9338198512912
 30
0.0
 11
69.10262164362041
 21
165.9338198512947
 31
0.0
  0
LINE
  5
387
330
1F
100
AcDbEntity
  8
0
 62
     2
100
AcDbLine
 10
83.90262157699237
 20
171.2338198512888
 30
0.0
 11
84.10262157733439
 21
171.433819851293
 31
0.0
  0
LINE
  5
388
330
1F
100
AcDbEntity
  8
0
 62
     2
100
AcDbLine
 10
85.60262157733365
 20
171.4338198512929
 30
0.0
 11
85.80262157700008
 21
171.2338198512883
 31
0.0
  0
LINE
  5
389
330
1F
100
AcDbEntity
  8
0
 62
     2
100
AcDbLine
 10
83.60262157784138
 20
170.9338198521378
 30
0.0
 11
83.90262157699664
 21
171.2338198512931
 31
0.0
  0
LINE
  5
38A
330
1F
100
AcDbEntity
  8
0
 62
     2
100
AcDbLine
 10
79.302621576994
 20
171.2338198512936
 30
0.0
 11
79.60262157783995
 21
170.9338198504477
 31
0.0
  0
LINE
  5
38B
330
1F
100
AcDbEntity
  8
0
 62
     2
100
AcDbLine
 10
90.10262157784166
 20
170.9338198521373
 30
0.0
 11
90.40262157699681
 21
171.2338198512923
 31
0.0
  0
LINE
  5
38C
330
1F
100
AcDbEntity
  8
0
 62
     2
100
AcDbLine
 10
85.80262157699553
 20
171.2338198512928
 30
0.0
 11
86.10262157784115
 21
170.9338198504472
 31
0.0
  0
LINE
  5
38D
330
1F
100
AcDbEntity
  8
0
 62
     2
100
AcDbLine
 10
80.10262157699407
 20
169.6338198512935
 30
0.0
 11
83.10262157699538
 21
169.6338198512932
 31
0.0
  0
LINE
  5
38E
330
1F
100
AcDbEntity
  8
0
 62
     2
100
AcDbLine
 10
86.60262157699566
 20
169.6338198512927
 30
0.0
 11
89.60262157699611
 21
169.6338198512924
 31
0.0
  0
LINE
  5
38F
330
1F
100
AcDbEntity
  8
0
 62
     2
100
AcDbLine
 10
105.1026215066544
 20
168.4338198512907
 30
0.0
 11
105.1026215066547
 21
165.9338198512907
 31
0.0
  0
LINE
  5
390
330
1F
100
AcDbEntity
  8
0
 62
     2
100
AcDbLine
 10
100.6026216436159
 20
165.9338198512912
 30
0.0
 11
100.6026216436157
 21
168.4338198512912
 31
0.0
  0
LINE
  5
391
330
1F
100
AcDbEntity
  8
0
 62
     2
100
AcDbLine
 10
69.10262164361927
 20
168.4338198512947
 30
0.0
 11
69.10262164361944
 21
165.9338198512947
 31
0.0
  0
LINE
  5
392
330
1F
100
AcDbEntity
  8
0
 62
     2
100
AcDbLine
 10
64.60262150665432
 20
165.9338198512953
 30
0.0
 11
64.6026215066542
 21
168.4338198512953
 31
0.0
  0
LINE
  5
393
330
1F
100
AcDbEntity
  8
0
 62
     2
100
AcDbLine
 10
69.10262164362024
 20
168.4338198512947
 30
0.0
 11
66.85262178057229
 21
168.433819851295
 31
0.0
  0
LINE
  5
394
330
1F
100
AcDbEntity
  8
0
 62
     2
100
AcDbLine
 10
64.6026215066542
 20
168.4338198512953
 30
0.0
 11
66.85262150665432
 21
168.433819851295
 31
0.0
  0
LINE
  5
395
330
1F
100
AcDbEntity
  8
0
 62
     2
100
AcDbLine
 10
102.8526215066634
 20
168.4338198512909
 30
0.0
 11
100.6026216436156
 21
168.4338198512912
 31
0.0
  0
LINE
  5
396
330
1F
100
AcDbEntity
  8
0
 62
     2
100
AcDbLine
 10
102.8526215066543
 20
168.4338198512909
 30
0.0
 11
105.1026215066544
 21
168.4338198512907
 31
0.0
  0
LINE
  5
397
330
1F
100
AcDbEntity
  8
0
 62
     2
100
AcDbLine
 10
102.8526215066632
 20
169.4338198512909
 30
0.0
 11
66.85262178057224
 21
169.4338198512951
 31
0.0
  0
LINE
  5
398
330
1F
100
AcDbEntity
  8
0
 62
     2
100
AcDbLine
 10
102.8526215066543
 20
169.4338198512909
 30
0.0
 11
105.1026215066544
 21
169.4338198512907
 31
0.0
  0
LINE
  5
399
330
1F
100
AcDbEntity
  8
0
 62
     2
100
AcDbLine
 10
64.60262150665415
 20
169.4338198512953
 30
0.0
 11
66.85262150665426
 21
169.433819851295
 31
0.0
  0
LINE
  5
39A
330
1F
100
AcDbEntity
  8
0
 62
     2
100
AcDbLine
 10
102.8526215066632
 20
169.4338198512909
 30
0.0
 11
102.8526215066634
 21
168.4338198512909
 31
0.0
  0
LINE
  5
39B
330
1F
100
AcDbEntity
  8
0
 62
     2
100
AcDbLine
 10
105.1026215066544
 20
169.4338198512907
 30
0.0
 11
105.1026215066544
 21
168.4338198512907
 31
0.0
  0
LINE
  5
39C
330
1F
100
AcDbEntity
  8
0
 62
     2
100
AcDbLine
 10
64.60262150665415
 20
169.4338198512953
 30
0.0
 11
64.6026215066542
 21
168.4338198512953
 31
0.0
  0
LINE
  5
39D
330
1F
100
AcDbEntity
  8
0
 62
     2
100
AcDbLine
 10
66.85262150665426
 20
169.433819851295
 30
0.0
 11
66.85262150665432
 21
168.433819851295
 31
0.0
  0
LINE
  5
39E
330
1F
100
AcDbEntity
  8
0
 62
     2
100
AcDbLine
 10
100.6026216398119
 20
165.9338198512912
 30
0.0
 11
102.8526216473975
 21
165.9338198512909
 31
0.0
  0
LINE
  5
39F
330
1F
100
AcDbEntity
  8
0
 62
     2
100
AcDbLine
 10
105.1026215066479
 20
165.9338198512907
 30
0.0
 11
102.852621647409
 21
165.9338198512909
 31
0.0
  0
LINE
  5
3A0
330
1F
100
AcDbEntity
  8
0
 62
     2
100
AcDbLine
 10
66.85262164742869
 20
165.9338198512951
 30
0.0
 11
64.60262162333197
 21
165.9338198512953
 31
0.0
  0
LINE
  5
3A1
330
1F
100
AcDbEntity
  8
0
 62
     2
100
AcDbLine
 10
66.85262164742869
 20
165.9338198512951
 30
0.0
 11
69.10262163981514
 21
165.9338198512947
 31
0.0
  0
LINE
  5
3A2
330
1F
100
AcDbEntity
  8
0
 62
     2
100
AcDbLine
 10
66.85262164742858
 20
168.433819851295
 30
0.0
 11
66.85262164742869
 21
165.9338198512951
 31
0.0
  0
LINE
  5
3A3
330
1F
100
AcDbEntity
  8
0
 62
     2
100
AcDbLine
 10
102.8526216474088
 20
168.4338198512909
 30
0.0
 11
102.852621647409
 21
165.9338198512909
 31
0.0
  0
LINE
  5
3A4
330
1F
100
AcDbEntity
  8
0
 62
     2
100
AcDbLine
 10
78.47362809114355
 20
171.2338198512937
 30
0.0
 11
71.60262150665653
 21
171.2338198512945
 31
0.0
  0
LINE
  5
3A5
330
1F
100
AcDbEntity
  8
0
 62
     2
100
AcDbLine
 10
82.96741750800714
 20
171.2338198512932
 30
0.0
 11
82.96560841891181
 21
171.2338198512932
 31
0.0
  0
LINE
  5
3A6
330
1F
100
AcDbEntity
  8
0
 62
     2
100
AcDbLine
 10
89.467417508013
 20
171.2338198512925
 30
0.0
 11
89.46560841891699
 21
171.2338198512925
 31
0.0
  0
LINE
  5
3A7
330
1F
100
AcDbEntity
  8
0
 62
     2
100
AcDbLine
 10
71.60262150665653
 20
171.2338198512945
 30
0.0
 11
70.07362809114039
 21
171.2338198512947
 31
0.0
  0
LINE
  5
3A8
330
1F
100
AcDbEntity
  8
0
 62
     2
100
AcDbLine
 10
70.07362809114045
 20
169.4338198512946
 30
0.0
 11
70.07362809114039
 21
171.2338198512946
 31
0.0
  0
LINE
  5
3A9
330
1F
100
AcDbEntity
  8
0
 62
     2
100
AcDbLine
 10
78.47362809114355
 20
171.2338198512937
 30
0.0
 11
78.47362809114361
 21
169.4338198512937
 31
0.0
  0
LINE
  5
3AA
330
1F
100
AcDbEntity
  8
0
 62
     2
100
AcDbLine
 10
71.60262150665653
 20
171.2338198512945
 30
0.0
 11
71.60262150665653
 21
169.4338198512945
 31
0.0
  0
LINE
  5
3AB
330
1F
100
AcDbEntity
  8
0
 62
     2
100
AcDbLine
 10
78.97362809114674
 20
171.2338198512937
 30
0.0
 11
79.30262157699752
 21
171.2338198512936
 31
0.0
  0
LINE
  5
3AC
330
1F
100
AcDbEntity
  8
0
 62
     2
100
AcDbLine
 10
103.1342469486014
 20
171.2338198512908
 30
0.0
 11
104.0026215066506
 21
171.2338198512907
 31
0.0
  0
LINE
  5
3AD
330
1F
100
AcDbEntity
  8
0
 62
     2
100
AcDbLine
 10
102.285218032359
 20
171.233819851291
 30
0.0
 11
103.1342469486015
 21
171.2338198512909
 31
0.0
  0
LINE
  5
3AE
330
1F
100
AcDbEntity
  8
0
 62
     2
100
AcDbLine
 10
102.285218032359
 20
171.2338198512909
 30
0.0
 11
101.8857847506345
 21
171.233819851291
 31
0.0
  0
LINE
  5
3AF
330
1F
100
AcDbEntity
  8
0
 62
     2
100
AcDbLine
 10
101.8857847506345
 20
171.233819851291
 30
0.0
 11
100.8061498757576
 21
171.2338198512911
 31
0.0
  0
LINE
  5
3B0
330
1F
100
AcDbEntity
  8
0
 62
     2
100
AcDbLine
 10
100.2061498879698
 20
171.2338198512912
 30
0.0
 11
100.8061498757576
 21
171.2338198512911
 31
0.0
  0
LINE
  5
3B1
330
1F
100
AcDbEntity
  8
0
 62
     2
100
AcDbLine
 10
90.40262157699152
 20
171.2338198512923
 30
0.0
 11
100.2061498879699
 21
171.2338198512912
 31
0.0
  0
LINE
  5
3B2
330
1F
100
AcDbEntity
  8
0
 62
     2
100
AcDbLine
 10
66.57099596669707
 20
171.233819851295
 30
0.0
 11
67.44170558030606
 21
171.2338198512949
 31
0.0
  0
LINE
  5
3B3
330
1F
100
AcDbEntity
  8
0
 62
     2
100
AcDbLine
 10
65.70262150664371
 20
171.2338198512952
 30
0.0
 11
66.57099596669707
 21
171.233819851295
 31
0.0
  0
LINE
  5
3B4
330
1F
100
AcDbEntity
  8
0
 62
     2
100
AcDbLine
 10
69.51820319821547
 20
171.2338198512947
 30
0.0
 11
69.57362809114056
 21
171.2338198512947
 31
0.0
  0
LINE
  5
3B5
330
1F
100
AcDbEntity
  8
0
 62
     2
100
AcDbLine
 10
68.9182032104444
 20
171.2338198512948
 30
0.0
 11
69.51820319821547
 21
171.2338198512947
 31
0.0
  0
LINE
  5
3B6
330
1F
100
AcDbEntity
  8
0
 62
     2
100
AcDbLine
 10
68.9182032104444
 20
171.2338198512948
 30
0.0
 11
67.84595746403613
 21
171.2338198512949
 31
0.0
  0
LINE
  5
3B7
330
1F
100
AcDbEntity
  8
0
 62
     2
100
AcDbLine
 10
67.84595746403613
 20
171.2338198512949
 30
0.0
 11
67.44170558030606
 21
171.2338198512949
 31
0.0
  0
LINE
  5
3B8
330
1F
100
AcDbEntity
  8
0
 62
     2
100
AcDbLine
 10
69.57362809114056
 20
169.4338198512948
 30
0.0
 11
69.5736280911405
 21
171.2338198512947
 31
0.0
  0
LINE
  5
3B9
330
1F
100
AcDbEntity
  8
0
 62
     2
100
AcDbLine
 10
78.97362809114674
 20
171.2338198512936
 30
0.0
 11
78.9736280911468
 21
169.4338198512937
 31
0.0
  0
LINE
  5
3BA
330
1F
100
AcDbEntity
  8
0
 62
     2
100
AcDbLine
 10
79.60262157784001
 20
169.6338198512935
 30
0.0
 11
79.60262157783995
 21
170.9338198734039
 31
0.0
  0
LINE
  5
3BB
330
1F
100
AcDbEntity
  8
0
 62
     2
100
AcDbLine
 10
80.10262157699407
 20
169.6338198512935
 30
0.0
 11
79.60262157784001
 21
169.6338198512935
 31
0.0
  0
LINE
  5
3BC
330
1F
100
AcDbEntity
  8
0
 62
     2
100
AcDbLine
 10
83.60262157784138
 20
170.9338198750942
 30
0.0
 11
83.60262157784143
 21
169.6338198512931
 31
0.0
  0
LINE
  5
3BD
330
1F
100
AcDbEntity
  8
0
 62
     2
100
AcDbLine
 10
83.60262157784143
 20
169.6338198512931
 30
0.0
 11
83.10262157699663
 21
169.6338198512932
 31
0.0
  0
LINE
  5
3BE
330
1F
100
AcDbEntity
  8
0
 62
     2
100
AcDbLine
 10
86.10262157784115
 20
169.6338198512929
 30
0.0
 11
86.10262157784115
 21
170.9338198734035
 31
0.0
  0
LINE
  5
3BF
330
1F
100
AcDbEntity
  8
0
 62
     2
100
AcDbLine
 10
86.60262157699566
 20
169.6338198512927
 30
0.0
 11
86.10262157784115
 21
169.6338198512929
 31
0.0
  0
LINE
  5
3C0
330
1F
100
AcDbEntity
  8
0
 62
     2
100
AcDbLine
 10
90.10262157784166
 20
170.9338198750936
 30
0.0
 11
90.10262157784172
 21
169.6338198512924
 31
0.0
  0
LINE
  5
3C1
330
1F
100
AcDbEntity
  8
0
 62
     2
100
AcDbLine
 10
90.10262157784172
 20
169.6338198512924
 30
0.0
 11
89.60262157699685
 21
169.6338198512924
 31
0.0
  0
LINE
  5
3C2
330
1F
100
AcDbEntity
  8
0
 62
     2
100
AcDbLine
 10
83.90262157699237
 20
171.2338198512931
 30
0.0
 11
85.80262157700002
 21
171.2338198512929
 31
0.0
  0
LINE
  5
3C3
330
1F
100
AcDbEntity
  8
0
 62
     2
100
AcDbLine
 10
104.0026215066506
 20
171.2338198512908
 30
0.0
 11
104.0026215066507
 21
169.4338198512908
 31
0.0
  0
LINE
  5
3C4
330
1F
100
AcDbEntity
  8
0
 62
     2
100
AcDbLine
 10
103.1342469486015
 20
171.2338198512909
 30
0.0
 11
103.1342469486015
 21
169.4338198512909
 31
0.0
  0
LINE
  5
3C5
330
1F
100
AcDbEntity
  8
0
 62
     2
100
AcDbLine
 10
102.2852180323589
 20
171.2338198512909
 30
0.0
 11
102.285218032359
 21
169.433819851291
 31
0.0
  0
LINE
  5
3C6
330
1F
100
AcDbEntity
  8
0
 62
     2
100
AcDbLine
 10
101.8857847506345
 20
171.233819851291
 30
0.0
 11
101.8857847506345
 21
169.433819851291
 31
0.0
  0
LINE
  5
3C7
330
1F
100
AcDbEntity
  8
0
 62
     2
100
AcDbLine
 10
100.2061498879699
 20
171.2338198512912
 30
0.0
 11
100.20614988797
 21
169.4338198512912
 31
0.0
  0
LINE
  5
3C8
330
1F
100
AcDbEntity
  8
0
 62
     2
100
AcDbLine
 10
69.51820319821547
 20
171.2338198512947
 30
0.0
 11
69.51820319821547
 21
169.4338198512948
 31
0.0
  0
LINE
  5
3C9
330
1F
100
AcDbEntity
  8
0
 62
     2
100
AcDbLine
 10
67.84595746403613
 20
171.2338198512949
 30
0.0
 11
67.84595746403619
 21
169.4338198512949
 31
0.0
  0
LINE
  5
3CA
330
1F
100
AcDbEntity
  8
0
 62
     2
100
AcDbLine
 10
67.44170558030606
 20
171.2338198512949
 30
0.0
 11
67.44170558030612
 21
169.433819851295
 31
0.0
  0
LINE
  5
3CB
330
1F
100
AcDbEntity
  8
0
 62
     2
100
AcDbLine
 10
66.57099596669707
 20
171.233819851295
 30
0.0
 11
66.57099596669713
 21
169.4338198512951
 31
0.0
  0
LINE
  5
3CC
330
1F
100
AcDbEntity
  8
0
 62
     2
100
AcDbLine
 10
65.70262150664371
 20
171.2338198512952
 30
0.0
 11
65.70262150664371
 21
169.4338198512952
 31
0.0
  0
LINE
  5
3CD
330
1F
100
AcDbEntity
  8
0
 62
     2
100
AcDbLine
 10
78.97362809114657
 20
171.4338198512937
 30
0.0
 11
79.10262157733223
 21
171.4338198512936
 31
0.0
  0
LINE
  5
3CE
330
1F
100
AcDbEntity
  8
0
 62
     2
100
AcDbLine
 10
78.67362809114348
 20
171.4338198512937
 30
0.0
 11
78.97362809114657
 21
171.4338198512937
 31
0.0
  0
LINE
  5
3CF
330
1F
100
AcDbEntity
  8
0
 62
     2
100
AcDbLine
 10
103.2237051346177
 20
171.4338198512909
 30
0.0
 11
103.8026215066506
 21
171.4338198512908
 31
0.0
  0
LINE
  5
3D0
330
1F
100
AcDbEntity
  8
0
 62
     2
100
AcDbLine
 10
102.3746762183754
 20
171.433819851291
 30
0.0
 11
103.2237051346177
 21
171.4338198512909
 31
0.0
  0
LINE
  5
3D1
330
1F
100
AcDbEntity
  8
0
 62
     2
100
AcDbLine
 10
102.3746762183754
 20
171.433819851291
 30
0.0
 11
101.815469623961
 21
171.433819851291
 31
0.0
  0
LINE
  5
3D2
330
1F
100
AcDbEntity
  8
0
 62
     2
100
AcDbLine
 10
101.815469623961
 20
171.433819851291
 30
0.0
 11
100.6061498879697
 21
171.4338198512912
 31
0.0
  0
LINE
  5
3D3
330
1F
100
AcDbEntity
  8
0
 62
     2
100
AcDbLine
 10
100.2061498879697
 20
171.4338198512912
 30
0.0
 11
100.6061498798283
 21
171.4338198512912
 31
0.0
  0
LINE
  5
3D4
330
1F
100
AcDbEntity
  8
0
 62
     2
100
AcDbLine
 10
90.60262157733462
 20
171.4338198512924
 30
0.0
 11
100.2061498879698
 21
171.4338198512912
 31
0.0
  0
LINE
  5
3D5
330
1F
100
AcDbEntity
  8
0
 62
     2
100
AcDbLine
 10
78.67504530990396
 20
171.4338198512939
 30
0.0
 11
71.60262150665665
 21
171.4338198512949
 31
0.0
  0
LINE
  5
3D6
330
1F
100
AcDbEntity
  8
0
 62
     2
100
AcDbLine
 10
71.60262150665665
 20
171.4338198512945
 30
0.0
 11
69.87362809114035
 21
171.4338198512947
 31
0.0
  0
LINE
  5
3D7
330
1F
100
AcDbEntity
  8
0
 62
     2
100
AcDbLine
 10
66.48153781334588
 20
171.4338198512951
 30
0.0
 11
67.35224742695482
 21
171.433819851295
 31
0.0
  0
LINE
  5
3D8
330
1F
100
AcDbEntity
  8
0
 62
     2
100
AcDbLine
 10
65.90262150664364
 20
171.4338198512951
 30
0.0
 11
66.48153781334588
 21
171.4338198512951
 31
0.0
  0
LINE
  5
3D9
330
1F
100
AcDbEntity
  8
0
 62
     2
100
AcDbLine
 10
69.57362809114039
 20
171.4338198512947
 30
0.0
 11
69.87362809114035
 21
171.4338198512947
 31
0.0
  0
LINE
  5
3DA
330
1F
100
AcDbEntity
  8
0
 62
     2
100
AcDbLine
 10
69.51820319821536
 20
171.4338198512947
 30
0.0
 11
69.57362809114039
 21
171.4338198512947
 31
0.0
  0
LINE
  5
3DB
330
1F
100
AcDbEntity
  8
0
 62
     2
100
AcDbLine
 10
69.11820320636792
 20
171.4338198512947
 30
0.0
 11
69.51820319821536
 21
171.4338198512947
 31
0.0
  0
LINE
  5
3DC
330
1F
100
AcDbEntity
  8
0
 62
     2
100
AcDbLine
 10
69.12007897021539
 20
171.4338198512947
 30
0.0
 11
67.91820006417697
 21
171.4338198512949
 31
0.0
  0
LINE
  5
3DD
330
1F
100
AcDbEntity
  8
0
 62
     2
100
AcDbLine
 10
67.91820006417697
 20
171.4338198512949
 30
0.0
 11
67.35224742695482
 21
171.433819851295
 31
0.0
  0
LINE
  5
3DE
330
1F
100
AcDbEntity
  8
0
 62
     2
100
AcDbLine
 10
84.10262157733439
 20
171.433819851293
 30
0.0
 11
85.60262157733365
 21
171.4338198512929
 31
0.0
  0
LINE
  5
3DF
330
1F
100
AcDbEntity
  8
0
 62
     2
100
AcDbLine
 10
83.10604903739693
 20
171.4338198512932
 30
0.0
 11
82.10262157902235
 21
171.4338198512933
 31
0.0
  0
LINE
  5
3E0
330
1F
100
AcDbEntity
  8
0
 62
     2
100
AcDbLine
 10
84.10262157902434
 20
171.433819851293
 30
0.0
 11
83.10604903739693
 21
171.4338198512932
 31
0.0
  0
LINE
  5
3E1
330
1F
100
AcDbEntity
  8
0
 62
     2
100
AcDbLine
 10
79.3725541405554
 20
171.4338198512936
 30
0.0
 11
79.10262157902292
 21
171.4338198512936
 31
0.0
  0
LINE
  5
3E2
330
1F
100
AcDbEntity
  8
0
 62
     2
100
AcDbLine
 10
81.1026215790231
 20
171.4338198512934
 30
0.0
 11
79.3725541405554
 21
171.4338198512936
 31
0.0
  0
LINE
  5
3E3
330
1F
100
AcDbEntity
  8
0
 62
     2
100
AcDbLine
 10
89.60604903739795
 20
171.4338198512925
 30
0.0
 11
88.60262157902395
 21
171.4338198512926
 31
0.0
  0
LINE
  5
3E4
330
1F
100
AcDbEntity
  8
0
 62
     2
100
AcDbLine
 10
90.6026215790252
 20
171.4338198512924
 30
0.0
 11
89.60604903739795
 21
171.4338198512925
 31
0.0
  0
LINE
  5
3E5
330
1F
100
AcDbEntity
  8
0
 62
     2
100
AcDbLine
 10
85.87255414055716
 20
171.4338198512929
 30
0.0
 11
85.6026215790265
 21
171.4338198512929
 31
0.0
  0
LINE
  5
3E6
330
1F
100
AcDbEntity
  8
0
 62
     2
100
AcDbLine
 10
87.6026215790298
 20
171.4338198512927
 30
0.0
 11
85.87255414055716
 21
171.4338198512929
 31
0.0
  0
LINE
  5
3E7
330
1F
100
AcDbEntity
  8
0
 62
     2
100
AcDbLine
 10
80.10262157783984
 20
169.6338198512935
 30
0.0
 11
80.10262157783978
 21
170.4338198434659
 31
0.0
  0
LINE
  5
3E8
330
1F
100
AcDbEntity
  8
0
 62
     2
100
AcDbLine
 10
83.1026215778412
 20
170.4338198434643
 30
0.0
 11
83.10262157784126
 21
169.6338198512932
 31
0.0
  0
LINE
  5
3E9
330
1F
100
AcDbEntity
  8
0
 62
     2
100
AcDbLine
 10
86.60262157784103
 20
169.6338198512927
 30
0.0
 11
86.60262157784098
 21
170.4338198434631
 31
0.0
  0
LINE
  5
3EA
330
1F
100
AcDbEntity
  8
0
 62
     2
100
AcDbLine
 10
89.60262157784155
 20
170.4338198434615
 30
0.0
 11
89.6026215778416
 21
169.6338198512924
 31
0.0
  0
LINE
  5
3EB
330
1F
100
AcDbEntity
  8
0
 62
     2
100
AcDbLine
 10
83.1026215790244
 20
170.4338198512932
 30
0.0
 11
82.10262157902338
 21
170.4338198512933
 31
0.0
  0
LINE
  5
3EC
330
1F
100
AcDbEntity
  8
0
 62
     2
100
AcDbLine
 10
81.10262157902315
 20
170.4338198512934
 30
0.0
 11
82.10262157902338
 21
170.4338198512933
 31
0.0
  0
LINE
  5
3ED
330
1F
100
AcDbEntity
  8
0
 62
     2
100
AcDbLine
 10
81.10262157902315
 20
170.4338198512934
 30
0.0
 11
80.10262157902304
 21
170.4338198512935
 31
0.0
  0
LINE
  5
3EE
330
1F
100
AcDbEntity
  8
0
 62
     2
100
AcDbLine
 10
89.6026215790252
 20
170.4338198512925
 30
0.0
 11
88.60262157902457
 21
170.4338198512926
 31
0.0
  0
LINE
  5
3EF
330
1F
100
AcDbEntity
  8
0
 62
     2
100
AcDbLine
 10
87.60262157902827
 20
170.4338198512927
 30
0.0
 11
88.60262157902457
 21
170.4338198512926
 31
0.0
  0
LINE
  5
3F0
330
1F
100
AcDbEntity
  8
0
 62
     2
100
AcDbLine
 10
87.60262157902827
 20
170.4338198512927
 30
0.0
 11
86.60262157902662
 21
170.4338198512928
 31
0.0
  0
LINE
  5
3F1
330
1F
100
AcDbEntity
  8
0
 62
     2
100
AcDbLine
 10
81.10262157902315
 20
170.4338198512934
 30
0.0
 11
81.10262157902321
 21
169.6338198512934
 31
0.0
  0
LINE
  5
3F2
330
1F
100
AcDbEntity
  8
0
 62
     2
100
AcDbLine
 10
82.10262157902338
 20
170.4338198512933
 30
0.0
 11
82.10262157902338
 21
169.6338198512933
 31
0.0
  0
LINE
  5
3F3
330
1F
100
AcDbEntity
  8
0
 62
     2
100
AcDbLine
 10
87.60262157902827
 20
170.4338198512927
 30
0.0
 11
87.60262157902832
 21
169.6338198512926
 31
0.0
  0
LINE
  5
3F4
330
1F
100
AcDbEntity
  8
0
 62
     2
100
AcDbLine
 10
88.60262157902457
 20
170.4338198512926
 30
0.0
 11
88.60262157902457
 21
169.6338198512925
 31
0.0
  0
LINE
  5
3F5
330
1F
100
AcDbEntity
  8
0
 62
     2
100
AcDbLine
 10
87.6026215790298
 20
171.4338198512927
 30
0.0
 11
88.60262157902326
 21
171.4338198512926
 31
0.0
  0
LINE
  5
3F6
330
1F
100
AcDbEntity
  8
0
 62
     2
100
AcDbLine
 10
87.6026215790298
 20
171.4338198512927
 30
0.0
 11
87.60262157902827
 21
170.4338198512927
 31
0.0
  0
LINE
  5
3F7
330
1F
100
AcDbEntity
  8
0
 62
     2
100
AcDbLine
 10
88.60262157902326
 20
171.4338198512926
 30
0.0
 11
88.60262157902457
 21
170.4338198512886
 31
0.0
  0
LINE
  5
3F8
330
1F
100
AcDbEntity
  8
0
 62
     2
100
AcDbLine
 10
81.1026215790231
 20
171.4338198512934
 30
0.0
 11
82.10262157902457
 21
171.4338198512933
 31
0.0
  0
LINE
  5
3F9
330
1F
100
AcDbEntity
  8
0
 62
     2
100
AcDbLine
 10
81.1026215790231
 20
171.4338198512934
 30
0.0
 11
81.10262157902315
 21
170.4338198512934
 31
0.0
  0
LINE
  5
3FA
330
1F
100
AcDbEntity
  8
0
 62
     2
100
AcDbLine
 10
82.10262157902457
 20
171.4338198512933
 30
0.0
 11
82.10262157902338
 21
170.4338198512972
 31
0.0
  0
LINE
  5
3FB
330
1F
100
AcDbEntity
  8
0
 62
     2
100
AcDbLine
 10
100.1026216427705
 20
165.4338198512912
 30
0.0
 11
100.6026216436159
 21
165.9338198512912
 31
0.0
  0
LINE
  5
3FC
330
1F
100
AcDbEntity
  8
0
 62
     2
100
AcDbLine
 10
69.60262164277498
 20
165.4338198512947
 30
0.0
 11
69.10262164362041
 21
165.9338198512947
 31
0.0
  0
LINE
  5
3FD
330
1F
100
AcDbEntity
  8
0
 62
     2
100
AcDbLine
 10
66.85262164912069
 20
165.433819851295
 30
0.0
 11
66.85262164742869
 21
165.9338198512951
 31
0.0
  0
LINE
  5
3FE
330
1F
100
AcDbEntity
  8
0
 62
     2
100
AcDbLine
 10
65.10262163094092
 20
165.4338198512952
 30
0.0
 11
64.60262163279032
 21
165.9338198607536
 31
0.0
  0
LINE
  5
3FF
330
1F
100
AcDbEntity
  8
0
 62
     2
100
AcDbLine
 10
104.6026215066546
 20
165.4338198512908
 30
0.0
 11
105.1026215066547
 21
165.9338198512907
 31
0.0
  0
LINE
  5
400
330
1F
100
AcDbEntity
  8
0
 62
     2
100
AcDbLine
 10
102.8526216490992
 20
165.4338198512909
 30
0.0
 11
102.852621647409
 21
165.9338198607457
 31
0.0
  0
LINE
  5
401
330
1F
100
AcDbEntity
  8
0
 62
     2
100
AcDbLine
 10
78.47362809114355
 20
171.2338198512937
 30
0.0
 11
78.97362809114674
 21
171.2338198512936
 31
0.0
  0
LINE
  5
402
330
1F
100
AcDbEntity
  8
0
 62
     2
100
AcDbLine
 10
69.5736280911405
 20
171.2338198512947
 30
0.0
 11
70.07362809114039
 21
171.2338198512946
 31
0.0
  0
LINE
  5
403
330
1F
100
AcDbEntity
  8
0
 62
     2
100
AcDbLine
 10
67.91820006417697
 20
171.4338198512949
 30
0.0
 11
67.84595746403613
 21
171.2338198512949
 31
0.0
  0
LINE
  5
404
330
1F
100
AcDbEntity
  8
0
 62
     2
100
AcDbLine
 10
69.51820319821547
 20
171.2338198512947
 30
0.0
 11
69.51820319821536
 21
171.4338198512947
 31
0.0
  0
LINE
  5
405
330
1F
100
AcDbEntity
  8
0
 62
     2
100
AcDbLine
 10
69.57362809114045
 20
171.4338198512947
 30
0.0
 11
69.57362809114056
 21
171.2338198512928
 31
0.0
  0
LINE
  5
406
330
1F
100
AcDbEntity
  8
0
 62
     2
100
AcDbLine
 10
70.07362809114039
 20
171.2338198512946
 30
0.0
 11
69.87362809114035
 21
171.4338198512947
 31
0.0
  0
LINE
  5
407
330
1F
100
AcDbEntity
  8
0
 62
     2
100
AcDbLine
 10
65.90262150664364
 20
171.4338198512951
 30
0.0
 11
65.70262150664371
 21
171.2338198512952
 31
0.0
  0
LINE
  5
408
330
1F
100
AcDbEntity
  8
0
 62
     2
100
AcDbLine
 10
67.35224742695482
 20
171.433819851295
 30
0.0
 11
67.44170558030606
 21
171.2338198512949
 31
0.0
  0
LINE
  5
409
330
1F
100
AcDbEntity
  8
0
 62
     2
100
AcDbLine
 10
66.57099596669707
 20
171.233819851295
 30
0.0
 11
66.48153781334594
 21
171.4338198512951
 31
0.0
  0
LINE
  5
40A
330
1F
100
AcDbEntity
  8
0
 62
     2
100
AcDbLine
 10
71.60262150665665
 20
171.4338198512945
 30
0.0
 11
71.60262150665653
 21
171.2338198512945
 31
0.0
  0
LINE
  5
40B
330
1F
100
AcDbEntity
  8
0
 62
     2
100
AcDbLine
 10
100.2061498879698
 20
171.4338198512912
 30
0.0
 11
100.2061498879699
 21
171.2338198512844
 31
0.0
  0
LINE
  5
40C
330
1F
100
AcDbEntity
  8
0
 62
     2
100
AcDbLine
 10
101.815469623961
 20
171.433819851291
 30
0.0
 11
101.8857847506344
 21
171.233819851291
 31
0.0
  0
LINE
  5
40D
330
1F
100
AcDbEntity
  8
0
 62
     2
100
AcDbLine
 10
102.3746762183754
 20
171.433819851291
 30
0.0
 11
102.285218032359
 21
171.2338198512909
 31
0.0
  0
LINE
  5
40E
330
1F
100
AcDbEntity
  8
0
 62
     2
100
AcDbLine
 10
103.2237051346177
 20
171.4338198512909
 30
0.0
 11
103.1342469486015
 21
171.2338198512908
 31
0.0
  0
LINE
  5
40F
330
1F
100
AcDbEntity
  8
0
 62
     2
100
AcDbLine
 10
104.0026215066506
 20
171.2338198512907
 30
0.0
 11
103.8026215066506
 21
171.4338198512908
 31
0.0
  0
LINE
  5
410
330
1F
100
AcDbEntity
  8
0
 62
     2
100
AcDbLine
 10
78.47362809115327
 20
171.2338198512937
 30
0.0
 11
78.6736280911532
 21
171.4338198512937
 31
0.0
  0
LINE
  5
411
330
1F
100
AcDbEntity
  8
0
 62
     2
100
AcDbLine
 10
78.6736280911465
 20
171.4338198512937
 30
0.0
 11
78.47362809114657
 21
171.2338198512937
 31
0.0
  0
LINE
  5
412
330
1F
100
AcDbEntity
  8
0
 62
     2
100
AcDbLine
 10
78.97362809114674
 20
171.2338198512936
 30
0.0
 11
78.97362809114657
 21
171.4338198512937
 31
0.0
  0
INSERT
  5
441
330
1F
100
AcDbEntity
  8
Dimension
100
AcDbBlockReference
  2
$TitleBlock elphel_parts
 10
200.0
 20
10.0
 30
0.0
  0
INSERT
  5
447
330
1F
100
AcDbEntity
  8
Outline
100
AcDbBlockReference
  2
Sheet Border
 10
0.0
 20
0.0
 30
0.0
  0
ENDSEC
  0
SECTION
  2
OBJECTS
  0
DICTIONARY
  5
C
330
0
100
AcDbDictionary
281
     1
  3
ACAD_DETAILVIEWSTYLE
350
451
  3
ACAD_GROUP
350
D
  3
ACAD_LAYOUT
350
1A
  3
ACAD_MATERIAL
350
43
  3
ACAD_MLEADERSTYLE
350
6B
  3
ACAD_MLINESTYLE
350
17
  3
ACAD_PLOTSETTINGS
350
19
  3
ACAD_PLOTSTYLENAME
350
E
  3
ACAD_SCALELIST
350
47
  3
ACAD_SECTIONVIEWSTYLE
350
452
  3
ACAD_TABLESTYLE
350
69
  3
ACAD_VISUALSTYLE
350
2A
  3
ACDB_RECOMPOSE_DATA
350
44E
  3
AcDbVariableDictionary
350
44A
  0
SUN
  5
6D
330
29
100
AcDbSun
 90
        1
290
     0
 63
     7
421
 16777215
 40
1.0
291
     1
 91
  2455826
 92
 54000000
292
     0
 70
     2
 71
   256
280
     1
  0
DICTIONARY
  5
451
102
{ACAD_REACTORS
330
C
102
}
330
C
100
AcDbDictionary
281
     1
  0
DICTIONARY
  5
D
102
{ACAD_REACTORS
330
C
102
}
330
C
100
AcDbDictionary
281
     1
  0
DICTIONARY
  5
1A
102
{ACAD_REACTORS
330
C
102
}
330
C
100
AcDbDictionary
281
     1
  3
Layout1
350
1E
  3
Layout2
350
26
  3
Model
350
22
  0
DICTIONARY
  5
43
102
{ACAD_REACTORS
330
C
102
}
330
C
100
AcDbDictionary
281
     1
  3
ByBlock
350
45
  3
ByLayer
350
44
  3
Global
350
46
  0
DICTIONARY
  5
6B
102
{ACAD_REACTORS
330
C
102
}
330
C
100
AcDbDictionary
281
     1
  3
Standard
350
6C
  0
DICTIONARY
  5
17
102
{ACAD_REACTORS
330
C
102
}
330
C
100
AcDbDictionary
281
     1
  3
Standard
350
18
  0
DICTIONARY
  5
19
102
{ACAD_REACTORS
330
C
102
}
330
C
100
AcDbDictionary
281
     1
  0
ACDBDICTIONARYWDFLT
  5
E
102
{ACAD_REACTORS
330
C
102
}
330
C
100
AcDbDictionary
281
     1
  3
Normal
350
F
100
AcDbDictionaryWithDefault
340
F
  0
DICTIONARY
  5
47
102
{ACAD_REACTORS
330
C
102
}
330
C
100
AcDbDictionary
281
     1
  3
A0
350
48
  3
A1
350
49
  3
A2
350
4A
  3
A3
350
4B
  3
A4
350
4C
  3
A5
350
4D
  3
A6
350
4E
  3
A7
350
4F
  3
A8
350
50
  3
A9
350
51
  3
B0
350
52
  3
B1
350
53
  3
B2
350
54
  3
B3
350
55
  3
B4
350
56
  3
B5
350
57
  3
B6
350
58
  3
B7
350
59
  3
B8
350
5A
  3
B9
350
5B
  3
C0
350
5C
  3
C1
350
5D
  3
C2
350
5E
  3
C3
350
5F
  3
C4
350
60
  3
C5
350
61
  3
C6
350
62
  3
C7
350
63
  3
C8
350
64
  3
C9
350
65
  3
D0
350
66
  3
D1
350
67
  3
D2
350
68
  0
DICTIONARY
  5
452
102
{ACAD_REACTORS
330
C
102
}
330
C
100
AcDbDictionary
281
     1
  0
DICTIONARY
  5
69
102
{ACAD_REACTORS
330
C
102
}
330
C
100
AcDbDictionary
281
     1
  3
Standard
350
6A
  0
DICTIONARY
  5
2A
102
{ACAD_REACTORS
330
C
102
}
330
C
100
AcDbDictionary
281
     1
  3
2dWireframe
350
2F
  3
Basic
350
32
  3
Brighten
350
36
  3
ColorChange
350
3A
  3
Conceptual
350
34
  3
Dim
350
35
  3
EdgeColorOff
350
3D
  3
Facepattern
350
39
  3
Flat
350
2B
  3
FlatWithEdges
350
2C
  3
Gouraud
350
2D
  3
GouraudWithEdges
350
2E
  3
Hidden
350
31
  3
JitterOff
350
3B
  3
Linepattern
350
38
  3
OverhangOff
350
3C
  3
Realistic
350
33
  3
Shaded
350
42
  3
Shaded with edges
350
41
  3
Shades of Gray
350
3E
  3
Sketchy
350
3F
  3
Thicken
350
37
  3
Wireframe
350
30
  3
X-Ray
350
40
  0
XRECORD
  5
44E
102
{ACAD_REACTORS
330
C
102
}
330
C
100
AcDbXrecord
280
     1
 90
        1
330
6A
  0
DICTIONARY
  5
44A
102
{ACAD_REACTORS
330
C
102
}
330
C
100
AcDbDictionary
281
     1
  3
CANNOSCALE
350
44B
  3
CMLEADERSTYLE
350
450
  3
CTABLESTYLE
350
44F
  0
LAYOUT
  5
1E
102
{ACAD_REACTORS
330
1A
102
}
330
1A
100
AcDbPlotSettings
  1

  2
none_device
  4

  6

 40
0.0
 41
0.0
 42
0.0
 43
0.0
 44
0.0
 45
0.0
 46
0.0
 47
0.0
 48
0.0
 49
0.0
140
0.0
141
0.0
142
1.0
143
1.0
 70
   688
 72
     1
 73
     0
 74
     5
  7

 75
    16
 76
     0
 77
     2
 78
   300
147
1.0
148
0.0
149
0.0
100
AcDbLayout
  1
Layout1
 70
     1
 71
     1
 10
0.0
 20
0.0
 11
420.0
 21
297.0
 12
0.0
 22
0.0
 32
0.0
 14
1.000000000000000E+20
 24
1.000000000000000E+20
 34
1.000000000000000E+20
 15
-1.000000000000000E+20
 25
-1.000000000000000E+20
 35
-1.000000000000000E+20
146
0.0
 13
0.0
 23
0.0
 33
0.0
 16
1.0
 26
0.0
 36
0.0
 17
0.0
 27
1.0
 37
0.0
 76
     0
330
1B
  0
LAYOUT
  5
26
102
{ACAD_REACTORS
330
1A
102
}
330
1A
100
AcDbPlotSettings
  1

  2
none_device
  4

  6

 40
0.0
 41
0.0
 42
0.0
 43
0.0
 44
0.0
 45
0.0
 46
0.0
 47
0.0
 48
0.0
 49
0.0
140
0.0
141
0.0
142
1.0
143
1.0
 70
   688
 72
     1
 73
     0
 74
     5
  7

 75
    16
 76
     0
 77
     2
 78
   300
147
1.0
148
0.0
149
0.0
100
AcDbLayout
  1
Layout2
 70
     1
 71
     2
 10
0.0
 20
0.0
 11
0.0
 21
0.0
 12
0.0
 22
0.0
 32
0.0
 14
0.0
 24
0.0
 34
0.0
 15
0.0
 25
0.0
 35
0.0
146
0.0
 13
0.0
 23
0.0
 33
0.0
 16
1.0
 26
0.0
 36
0.0
 17
0.0
 27
1.0
 37
0.0
 76
     0
330
23
  0
LAYOUT
  5
22
102
{ACAD_REACTORS
330
1A
102
}
330
1A
100
AcDbPlotSettings
  1

  2
none_device
  4
Letter_(8.50_x_11.00_Inches)
  6

 40
6.35
 41
6.35
 42
6.35000508
 43
6.35000508
 44
215.9
 45
279.4
 46
0.0
 47
0.0
 48
0.0
 49
0.0
140
0.0
141
0.0
142
1.0
143
1.0
 70
  1712
 72
     1
 73
     0
 74
     0
  7

 75
     0
 76
     0
 77
     2
 78
   300
147
1.0
148
0.0
149
0.0
100
AcDbLayout
  1
Model
 70
     1
 71
     0
 10
0.0
 20
0.0
 11
210.0
 21
297.0
 12
0.0
 22
0.0
 32
0.0
 14
0.0
 24
0.0
 34
0.0
 15
210.0
 25
297.0
 35
0.0
146
0.0
 13
0.0
 23
0.0
 33
0.0
 16
1.0
 26
0.0
 36
0.0
 17
0.0
 27
1.0
 37
0.0
 76
     0
330
1F
331
29
  0
MATERIAL
  5
45
102
{ACAD_REACTORS
330
43
102
}
330
43
100
AcDbMaterial
  1
ByBlock
 72
     1
 94
      127
  0
MATERIAL
  5
44
102
{ACAD_REACTORS
330
43
102
}
330
43
100
AcDbMaterial
  1
ByLayer
 72
     1
 94
      127
  0
MATERIAL
  5
46
102
{ACAD_REACTORS
330
43
102
}
330
43
100
AcDbMaterial
  1
Global
 72
     1
 94
      127
  0
MLEADERSTYLE
  5
6C
102
{ACAD_REACTORS
330
6B
102
}
330
6B
100
AcDbMLeaderStyle
179
     2
170
     2
171
     1
172
     0
 90
        2
 40
0.0
 41
0.0
173
     1
 91
-1056964608
340
14
 92
       -2
290
     1
 42
2.0
291
     1
 43
8.0
  3
Standard
341
0
 44
4.0
300

342
11
174
     1
178
     6
175
     1
176
     0
 93
-1056964608
 45
4.0
292
     0
297
     0
 46
4.0
343
0
 94
-1056964608
 47
1.0
 49
1.0
140
1.0
293
     1
141
0.0
294
     1
177
     0
142
1.0
295
     0
296
     0
143
3.75
271
     0
272
     9
273
     9
298
     0
  0
MLINESTYLE
  5
18
102
{ACAD_REACTORS
330
17
102
}
330
17
100
AcDbMlineStyle
  2
Standard
 70
     0
  3

 62
   256
 51
90.0
 52
90.0
 71
     2
 49
0.5
 62
   256
  6
BYLAYER
 49
-0.5
 62
   256
  6
BYLAYER
  0
ACDBPLACEHOLDER
  5
F
102
{ACAD_REACTORS
330
E
102
}
330
E
  0
SCALE
  5
48
102
{ACAD_REACTORS
330
47
102
}
330
47
100
AcDbScale
 70
     0
300
1:1
140
1.0
141
1.0
290
     1
  0
SCALE
  5
49
102
{ACAD_REACTORS
330
47
102
}
330
47
100
AcDbScale
 70
     0
300
1:2
140
1.0
141
2.0
290
     0
  0
SCALE
  5
4A
102
{ACAD_REACTORS
330
47
102
}
330
47
100
AcDbScale
 70
     0
300
1:4
140
1.0
141
4.0
290
     0
  0
SCALE
  5
4B
102
{ACAD_REACTORS
330
47
102
}
330
47
100
AcDbScale
 70
     0
300
1:5
140
1.0
141
5.0
290
     0
  0
SCALE
  5
4C
102
{ACAD_REACTORS
330
47
102
}
330
47
100
AcDbScale
 70
     0
300
1:8
140
1.0
141
8.0
290
     0
  0
SCALE
  5
4D
102
{ACAD_REACTORS
330
47
102
}
330
47
100
AcDbScale
 70
     0
300
1:10
140
1.0
141
10.0
290
     0
  0
SCALE
  5
4E
102
{ACAD_REACTORS
330
47
102
}
330
47
100
AcDbScale
 70
     0
300
1:16
140
1.0
141
16.0
290
     0
  0
SCALE
  5
4F
102
{ACAD_REACTORS
330
47
102
}
330
47
100
AcDbScale
 70
     0
300
1:20
140
1.0
141
20.0
290
     0
  0
SCALE
  5
50
102
{ACAD_REACTORS
330
47
102
}
330
47
100
AcDbScale
 70
     0
300
1:30
140
1.0
141
30.0
290
     0
  0
SCALE
  5
51
102
{ACAD_REACTORS
330
47
102
}
330
47
100
AcDbScale
 70
     0
300
1:40
140
1.0
141
40.0
290
     0
  0
SCALE
  5
52
102
{ACAD_REACTORS
330
47
102
}
330
47
100
AcDbScale
 70
     0
300
1:50
140
1.0
141
50.0
290
     0
  0
SCALE
  5
53
102
{ACAD_REACTORS
330
47
102
}
330
47
100
AcDbScale
 70
     0
300
1:100
140
1.0
141
100.0
290
     0
  0
SCALE
  5
54
102
{ACAD_REACTORS
330
47
102
}
330
47
100
AcDbScale
 70
     0
300
2:1
140
2.0
141
1.0
290
     0
  0
SCALE
  5
55
102
{ACAD_REACTORS
330
47
102
}
330
47
100
AcDbScale
 70
     0
300
4:1
140
4.0
141
1.0
290
     0
  0
SCALE
  5
56
102
{ACAD_REACTORS
330
47
102
}
330
47
100
AcDbScale
 70
     0
300
8:1
140
8.0
141
1.0
290
     0
  0
SCALE
  5
57
102
{ACAD_REACTORS
330
47
102
}
330
47
100
AcDbScale
 70
     0
300
10:1
140
10.0
141
1.0
290
     0
  0
SCALE
  5
58
102
{ACAD_REACTORS
330
47
102
}
330
47
100
AcDbScale
 70
     0
300
100:1
140
100.0
141
1.0
290
     0
  0
SCALE
  5
59
102
{ACAD_REACTORS
330
47
102
}
330
47
100
AcDbScale
 70
     0
300
1/128" = 1'-0"
140
0.0078125
141
12.0
290
     0
  0
SCALE
  5
5A
102
{ACAD_REACTORS
330
47
102
}
330
47
100
AcDbScale
 70
     0
300
1/64" = 1'-0"
140
0.015625
141
12.0
290
     0
  0
SCALE
  5
5B
102
{ACAD_REACTORS
330
47
102
}
330
47
100
AcDbScale
 70
     0
300
1/32" = 1'-0"
140
0.03125
141
12.0
290
     0
  0
SCALE
  5
5C
102
{ACAD_REACTORS
330
47
102
}
330
47
100
AcDbScale
 70
     0
300
1/16" = 1'-0"
140
0.0625
141
12.0
290
     0
  0
SCALE
  5
5D
102
{ACAD_REACTORS
330
47
102
}
330
47
100
AcDbScale
 70
     0
300
3/32" = 1'-0"
140
0.09375
141
12.0
290
     0
  0
SCALE
  5
5E
102
{ACAD_REACTORS
330
47
102
}
330
47
100
AcDbScale
 70
     0
300
1/8" = 1'-0"
140
0.125
141
12.0
290
     0
  0
SCALE
  5
5F
102
{ACAD_REACTORS
330
47
102
}
330
47
100
AcDbScale
 70
     0
300
3/16" = 1'-0"
140
0.1875
141
12.0
290
     0
  0
SCALE
  5
60
102
{ACAD_REACTORS
330
47
102
}
330
47
100
AcDbScale
 70
     0
300
1/4" = 1'-0"
140
0.25
141
12.0
290
     0
  0
SCALE
  5
61
102
{ACAD_REACTORS
330
47
102
}
330
47
100
AcDbScale
 70
     0
300
3/8" = 1'-0"
140
0.375
141
12.0
290
     0
  0
SCALE
  5
62
102
{ACAD_REACTORS
330
47
102
}
330
47
100
AcDbScale
 70
     0
300
1/2" = 1'-0"
140
0.5
141
12.0
290
     0
  0
SCALE
  5
63
102
{ACAD_REACTORS
330
47
102
}
330
47
100
AcDbScale
 70
     0
300
3/4" = 1'-0"
140
0.75
141
12.0
290
     0
  0
SCALE
  5
64
102
{ACAD_REACTORS
330
47
102
}
330
47
100
AcDbScale
 70
     0
300
1" = 1'-0"
140
1.0
141
12.0
290
     0
  0
SCALE
  5
65
102
{ACAD_REACTORS
330
47
102
}
330
47
100
AcDbScale
 70
     0
300
1-1/2" = 1'-0"
140
1.5
141
12.0
290
     0
  0
SCALE
  5
66
102
{ACAD_REACTORS
330
47
102
}
330
47
100
AcDbScale
 70
     0
300
3" = 1'-0"
140
3.0
141
12.0
290
     0
  0
SCALE
  5
67
102
{ACAD_REACTORS
330
47
102
}
330
47
100
AcDbScale
 70
     0
300
6" = 1'-0"
140
6.0
141
12.0
290
     0
  0
SCALE
  5
68
102
{ACAD_REACTORS
330
47
102
}
330
47
100
AcDbScale
 70
     0
300
1'-0" = 1'-0"
140
12.0
141
12.0
290
     0
  0
TABLESTYLE
  5
6A
102
{ACAD_REACTORS
330
69
102
}
102
{ACAD_XDICTIONARY
360
44C
102
}
330
69
100
AcDbTableStyle
  3
Standard
 70
     0
 71
     0
 40
0.06
 41
0.06
280
     0
281
     0
  7
Standard
140
4.5
170
     2
 62
     0
 63
   257
283
     0
 90
        4
 91
        0
  1

274
    -2
284
     1
 64
     0
275
    -2
285
     1
 65
     0
276
    -2
286
     1
 66
     0
277
    -2
287
     1
 67
     0
278
    -2
288
     1
 68
     0
279
    -2
289
     1
 69
     0
  7
Standard
140
6.0
170
     5
 62
     0
 63
   257
283
     0
 90
        4
 91
        0
  1

274
    -2
284
     1
 64
     0
275
    -2
285
     1
 65
     0
276
    -2
286
     1
 66
     0
277
    -2
287
     1
 67
     0
278
    -2
288
     1
 68
     0
279
    -2
289
     1
 69
     0
  7
Standard
140
4.5
170
     5
 62
     0
 63
   257
283
     0
 90
        4
 91
        0
  1

274
    -2
284
     1
 64
     0
275
    -2
285
     1
 65
     0
276
    -2
286
     1
 66
     0
277
    -2
287
     1
 67
     0
278
    -2
288
     1
 68
     0
279
    -2
289
     1
 69
     0
  0
VISUALSTYLE
  5
2F
102
{ACAD_REACTORS
330
2A
102
}
330
2A
100
AcDbVisualStyle
  2
2dWireframe
 70
     4
177
     3
291
     0
 70
    58
 90
        0
176
     1
 90
        2
176
     1
 90
        0
176
     1
 90
        0
176
     1
 40
0.6
176
     1
 40
30.0
176
     1
 62
     7
420
 16777215
176
     1
 90
        1
176
     1
 90
        4
176
     1
 62
     7
176
     1
 62
   257
176
     1
 90
        1
176
     1
 90
        1
176
     1
 40
1.0
176
     1
 90
        0
176
     1
 62
   257
176
     1
 40
1.0
176
     1
 90
        1
176
     1
 90
        6
176
     1
 90
        2
176
     1
 62
     7
176
     1
 90
        5
176
     1
 90
        0
176
     1
 90
        0
176
     1
290
     0
176
     1
 90
        1
176
     1
 40
0.0
176
     1
 90
        0
176
     1
290
     1
176
     1
290
     1
176
     1
290
     0
176
     1
290
     0
176
     1
290
     0
176
     1
290
     0
176
     1
290
     0
176
     1
290
     0
176
     1
290
     0
176
     1
 90
       50
176
     1
 40
0.0
176
     1
 40
1.0
176
     1
 90
        0
176
     1
 62
   178
420
        0
176
     1
 90
       50
176
     1
 90
        3
176
     1
 62
     5
420
      255
176
     1
290
     0
176
     1
 90
       50
176
     1
 90
       50
176
     1
 90
       50
176
     1
290
     0
176
     1
 90
       50
176
     1
 62
   256
176
     0
 40
1.0
176
     0
 90
        2
176
     1
  1
strokes_ogs.tif
176
     1
290
     0
176
     1
 40
1.0
176
     1
 40
1.0
176
     1
  0
VISUALSTYLE
  5
32
102
{ACAD_REACTORS
330
2A
102
}
330
2A
100
AcDbVisualStyle
  2
Basic
 70
     7
177
     3
291
     1
 70
    58
 90
        1
176
     1
 90
        0
176
     1
 90
        1
176
     1
 90
        0
176
     1
 40
0.6
176
     1
 40
30.0
176
     1
 62
     7
420
 16777215
176
     1
 90
        0
176
     1
 90
        4
176
     1
 62
     7
176
     1
 62
   257
176
     1
 90
        1
176
     1
 90
        1
176
     1
 40
1.0
176
     1
 90
        8
176
     1
 62
     7
176
     1
 40
1.0
176
     1
 90
        1
176
     1
 90
        6
176
     1
 90
        2
176
     1
 62
     7
176
     1
 90
        5
176
     1
 90
        0
176
     1
 90
        0
176
     1
290
     0
176
     1
 90
        1
176
     1
 40
0.0
176
     1
 90
        0
176
     1
290
     0
176
     1
290
     1
176
     1
290
     1
176
     1
290
     0
176
     1
290
     0
176
     1
290
     0
176
     1
290
     0
176
     1
290
     0
176
     1
290
     0
176
     1
 90
       50
176
     1
 40
0.0
176
     1
 40
1.0
176
     1
 90
        0
176
     1
 62
   178
420
        0
176
     1
 90
       50
176
     1
 90
        3
176
     1
 62
     5
420
      255
176
     1
290
     0
176
     1
 90
       50
176
     1
 90
       50
176
     1
 90
       50
176
     1
290
     0
176
     1
 90
       50
176
     1
 62
   256
176
     0
 40
1.0
176
     0
 90
        2
176
     1
  1
strokes_ogs.tif
176
     1
290
     0
176
     1
 40
1.0
176
     1
 40
1.0
176
     1
  0
VISUALSTYLE
  5
36
102
{ACAD_REACTORS
330
2A
102
}
330
2A
100
AcDbVisualStyle
  2
Brighten
 70
    12
177
     3
291
     1
 70
    58
 90
        2
176
     1
 90
        2
176
     1
 90
        0
176
     1
 90
        0
176
     1
 40
0.6
176
     1
 40
30.0
176
     1
 62
     7
420
 16777215
176
     1
 90
        1
176
     1
 90
        4
176
     1
 62
     7
176
     1
 62
   257
176
     1
 90
        1
176
     1
 90
        1
176
     1
 40
1.0
176
     1
 90
        8
176
     1
 62
     7
176
     1
 40
1.0
176
     1
 90
        1
176
     1
 90
        6
176
     1
 90
        2
176
     1
 62
     7
176
     1
 90
        5
176
     1
 90
        0
176
     1
 90
        0
176
     1
290
     0
176
     1
 90
        1
176
     1
 40
50.0
176
     1
 90
        0
176
     1
290
     0
176
     1
290
     1
176
     1
290
     1
176
     1
290
     0
176
     1
290
     0
176
     1
290
     0
176
     1
290
     0
176
     1
290
     0
176
     1
290
     0
176
     1
 90
       50
176
     1
 40
0.0
176
     1
 40
1.0
176
     1
 90
        0
176
     1
 62
   178
420
        0
176
     1
 90
       50
176
     1
 90
        3
176
     1
 62
     5
420
      255
176
     1
290
     0
176
     1
 90
       50
176
     1
 90
       50
176
     1
 90
       50
176
     1
290
     0
176
     1
 90
       50
176
     1
 62
   256
176
     0
 40
1.0
176
     0
 90
        2
176
     1
  1
strokes_ogs.tif
176
     1
290
     0
176
     1
 40
1.0
176
     1
 40
1.0
176
     1
  0
VISUALSTYLE
  5
3A
102
{ACAD_REACTORS
330
2A
102
}
330
2A
100
AcDbVisualStyle
  2
ColorChange
 70
    16
177
     3
291
     1
 70
    58
 90
        2
176
     1
 90
        2
176
     1
 90
        3
176
     1
 90
        0
176
     1
 40
0.6
176
     1
 40
30.0
176
     1
 62
     8
420
  8421504
176
     1
 90
        1
176
     1
 90
        4
176
     1
 62
     7
176
     1
 62
   257
176
     1
 90
        1
176
     1
 90
        1
176
     1
 40
1.0
176
     1
 90
        8
176
     1
 62
     8
420
  8421504
176
     1
 40
1.0
176
     1
 90
        1
176
     1
 90
        6
176
     1
 90
        2
176
     1
 62
     7
176
     1
 90
        5
176
     1
 90
        0
176
     1
 90
        0
176
     1
290
     0
176
     1
 90
        1
176
     1
 40
0.0
176
     1
 90
        0
176
     1
290
     0
176
     1
290
     1
176
     1
290
     1
176
     1
290
     0
176
     1
290
     0
176
     1
290
     0
176
     1
290
     0
176
     1
290
     0
176
     1
290
     0
176
     1
 90
       50
176
     1
 40
0.0
176
     1
 40
1.0
176
     1
 90
        0
176
     1
 62
   178
420
        0
176
     1
 90
       50
176
     1
 90
        3
176
     1
 62
     5
420
      255
176
     1
290
     0
176
     1
 90
       50
176
     1
 90
       50
176
     1
 90
       50
176
     1
290
     0
176
     1
 90
       50
176
     1
 62
   256
176
     0
 40
1.0
176
     0
 90
        2
176
     1
  1
strokes_ogs.tif
176
     1
290
     0
176
     1
 40
1.0
176
     1
 40
1.0
176
     1
  0
VISUALSTYLE
  5
34
102
{ACAD_REACTORS
330
2A
102
}
330
2A
100
AcDbVisualStyle
  2
Conceptual
 70
     9
177
     3
291
     0
 70
    58
 90
        3
176
     1
 90
        2
176
     1
 90
        0
176
     1
 90
        0
176
     1
 40
0.6
176
     1
 40
30.0
176
     1
 62
     7
420
 16777215
176
     1
 90
        2
176
     1
 90
        2
176
     1
 62
     7
176
     1
 62
   257
176
     1
 90
        1
176
     1
 90
        1
176
     1
 40
179.0
176
     1
 90
        8
176
     1
 62
     7
176
     1
 40
1.0
176
     1
 90
        1
176
     1
 90
        6
176
     1
 90
        2
176
     1
 62
     7
176
     1
 90
        3
176
     1
 90
        0
176
     1
 90
        0
176
     1
290
     0
176
     1
 90
        1
176
     1
 40
0.0
176
     1
 90
        0
176
     1
290
     0
176
     1
290
     1
176
     1
290
     1
176
     1
290
     0
176
     1
290
     0
176
     1
290
     0
176
     1
290
     0
176
     1
290
     0
176
     1
290
     0
176
     1
 90
       50
176
     1
 40
0.0
176
     1
 40
1.0
176
     1
 90
        0
176
     1
 62
   178
420
        0
176
     1
 90
       50
176
     1
 90
        3
176
     1
 62
     5
420
      255
176
     1
290
     0
176
     1
 90
       50
176
     1
 90
       50
176
     1
 90
       50
176
     1
290
     0
176
     1
 90
       50
176
     1
 62
   256
176
     0
 40
1.0
176
     0
 90
        2
176
     1
  1
strokes_ogs.tif
176
     1
290
     0
176
     1
 40
1.0
176
     1
 40
1.0
176
     1
  0
VISUALSTYLE
  5
35
102
{ACAD_REACTORS
330
2A
102
}
330
2A
100
AcDbVisualStyle
  2
Dim
 70
    11
177
     3
291
     1
 70
    58
 90
        2
176
     1
 90
        2
176
     1
 90
        0
176
     1
 90
        0
176
     1
 40
0.6
176
     1
 40
30.0
176
     1
 62
     7
420
 16777215
176
     1
 90
        1
176
     1
 90
        4
176
     1
 62
     7
176
     1
 62
   257
176
     1
 90
        1
176
     1
 90
        1
176
     1
 40
1.0
176
     1
 90
        8
176
     1
 62
     7
176
     1
 40
1.0
176
     1
 90
        1
176
     1
 90
        6
176
     1
 90
        2
176
     1
 62
     7
176
     1
 90
        5
176
     1
 90
        0
176
     1
 90
        0
176
     1
290
     0
176
     1
 90
        1
176
     1
 40
-50.0
176
     1
 90
        0
176
     1
290
     0
176
     1
290
     1
176
     1
290
     1
176
     1
290
     0
176
     1
290
     0
176
     1
290
     0
176
     1
290
     0
176
     1
290
     0
176
     1
290
     0
176
     1
 90
       50
176
     1
 40
0.0
176
     1
 40
1.0
176
     1
 90
        0
176
     1
 62
   178
420
        0
176
     1
 90
       50
176
     1
 90
        3
176
     1
 62
     5
420
      255
176
     1
290
     0
176
     1
 90
       50
176
     1
 90
       50
176
     1
 90
       50
176
     1
290
     0
176
     1
 90
       50
176
     1
 62
   256
176
     0
 40
1.0
176
     0
 90
        2
176
     1
  1
strokes_ogs.tif
176
     1
290
     0
176
     1
 40
1.0
176
     1
 40
1.0
176
     1
  0
VISUALSTYLE
  5
3D
102
{ACAD_REACTORS
330
2A
102
}
330
2A
100
AcDbVisualStyle
  2
EdgeColorOff
 70
    22
177
     3
291
     1
 70
    58
 90
        2
176
     0
 90
        2
176
     0
 90
        0
176
     0
 90
        0
176
     0
 40
0.6
176
     0
 40
30.0
176
     0
 62
     7
420
 16777215
176
     0
 90
        1
176
     0
 90
        4
176
     0
 62
     7
176
     0
 62
   257
176
     0
 90
        1
176
     0
 90
        1
176
     0
 40
1.0
176
     0
 90
        8
176
     2
 62
     7
176
     0
 40
1.0
176
     0
 90
        1
176
     0
 90
        6
176
     0
 90
        2
176
     0
 62
     7
176
     0
 90
        5
176
     0
 90
        0
176
     0
 90
        0
176
     0
290
     0
176
     0
 90
        1
176
     0
 40
0.0
176
     0
 90
        0
176
     0
290
     0
176
     0
290
     1
176
     0
290
     1
176
     0
290
     0
176
     0
290
     0
176
     0
290
     0
176
     0
290
     0
176
     0
290
     0
176
     0
290
     0
176
     0
 90
       50
176
     0
 40
0.0
176
     0
 40
1.0
176
     0
 90
        0
176
     0
 62
   178
420
        0
176
     0
 90
       50
176
     0
 90
        3
176
     0
 62
     5
420
      255
176
     0
290
     0
176
     0
 90
       50
176
     0
 90
       50
176
     0
 90
       50
176
     0
290
     0
176
     0
 90
       50
176
     0
 62
   256
176
     0
 40
1.0
176
     0
 90
        2
176
     0
  1
strokes_ogs.tif
176
     0
290
     0
176
     0
 40
1.0
176
     0
 40
1.0
176
     0
  0
VISUALSTYLE
  5
39
102
{ACAD_REACTORS
330
2A
102
}
330
2A
100
AcDbVisualStyle
  2
Facepattern
 70
    15
177
     3
291
     1
 70
    58
 90
        2
176
     1
 90
        2
176
     1
 90
        0
176
     1
 90
        0
176
     1
 40
0.6
176
     1
 40
30.0
176
     1
 62
     7
420
 16777215
176
     1
 90
        1
176
     1
 90
        4
176
     1
 62
     7
176
     1
 62
   257
176
     1
 90
        1
176
     1
 90
        1
176
     1
 40
1.0
176
     1
 90
        8
176
     1
 62
     7
176
     1
 40
1.0
176
     1
 90
        1
176
     1
 90
        6
176
     1
 90
        2
176
     1
 62
     7
176
     1
 90
        5
176
     1
 90
        0
176
     1
 90
        0
176
     1
290
     0
176
     1
 90
        1
176
     1
 40
0.0
176
     1
 90
        0
176
     1
290
     0
176
     1
290
     1
176
     1
290
     1
176
     1
290
     0
176
     1
290
     0
176
     1
290
     0
176
     1
290
     0
176
     1
290
     0
176
     1
290
     0
176
     1
 90
       50
176
     1
 40
0.0
176
     1
 40
1.0
176
     1
 90
        0
176
     1
 62
   178
420
        0
176
     1
 90
       50
176
     1
 90
        3
176
     1
 62
     5
420
      255
176
     1
290
     0
176
     1
 90
       50
176
     1
 90
       50
176
     1
 90
       50
176
     1
290
     0
176
     1
 90
       50
176
     1
 62
   256
176
     0
 40
1.0
176
     0
 90
        2
176
     1
  1
strokes_ogs.tif
176
     1
290
     0
176
     1
 40
1.0
176
     1
 40
1.0
176
     1
  0
VISUALSTYLE
  5
2B
102
{ACAD_REACTORS
330
2A
102
}
330
2A
100
AcDbVisualStyle
  2
Flat
 70
     0
177
     3
291
     1
 70
    58
 90
        2
176
     1
 90
        1
176
     1
 90
        1
176
     1
 90
        2
176
     1
 40
0.6
176
     1
 40
30.0
176
     1
 62
     7
420
 16777215
176
     1
 90
        0
176
     1
 90
        0
176
     1
 62
     7
176
     1
 62
   257
176
     1
 90
        1
176
     1
 90
        1
176
     1
 40
1.0
176
     1
 90
        8
176
     1
 62
     7
176
     1
 40
1.0
176
     1
 90
        1
176
     1
 90
        6
176
     1
 90
        2
176
     1
 62
     7
176
     1
 90
        5
176
     1
 90
        0
176
     1
 90
        0
176
     1
290
     0
176
     1
 90
       13
176
     1
 40
0.0
176
     1
 90
        0
176
     1
290
     0
176
     1
290
     1
176
     1
290
     1
176
     1
290
     0
176
     1
290
     0
176
     1
290
     0
176
     1
290
     0
176
     1
290
     0
176
     1
290
     0
176
     1
 90
       50
176
     1
 40
0.0
176
     1
 40
1.0
176
     1
 90
        0
176
     1
 62
   178
420
        0
176
     1
 90
       50
176
     1
 90
        3
176
     1
 62
     5
420
      255
176
     1
290
     0
176
     1
 90
       50
176
     1
 90
       50
176
     1
 90
       50
176
     1
290
     0
176
     1
 90
       50
176
     1
 62
   256
176
     0
 40
1.0
176
     0
 90
        2
176
     1
  1
strokes_ogs.tif
176
     1
290
     0
176
     1
 40
1.0
176
     1
 40
1.0
176
     1
  0
VISUALSTYLE
  5
2C
102
{ACAD_REACTORS
330
2A
102
}
330
2A
100
AcDbVisualStyle
  2
FlatWithEdges
 70
     1
177
     3
291
     1
 70
    58
 90
        2
176
     1
 90
        1
176
     1
 90
        1
176
     1
 90
        2
176
     1
 40
0.6
176
     1
 40
30.0
176
     1
 62
     7
420
 16777215
176
     1
 90
        1
176
     1
 90
        0
176
     1
 62
     7
176
     1
 62
   257
176
     1
 90
        1
176
     1
 90
        1
176
     1
 40
1.0
176
     1
 90
        0
176
     1
 62
   257
176
     1
 40
1.0
176
     1
 90
        1
176
     1
 90
        6
176
     1
 90
        2
176
     1
 62
     7
176
     1
 90
        5
176
     1
 90
        0
176
     1
 90
        0
176
     1
290
     0
176
     1
 90
       13
176
     1
 40
0.0
176
     1
 90
        0
176
     1
290
     0
176
     1
290
     1
176
     1
290
     1
176
     1
290
     0
176
     1
290
     0
176
     1
290
     0
176
     1
290
     0
176
     1
290
     0
176
     1
290
     0
176
     1
 90
       50
176
     1
 40
0.0
176
     1
 40
1.0
176
     1
 90
        0
176
     1
 62
   178
420
        0
176
     1
 90
       50
176
     1
 90
        3
176
     1
 62
     5
420
      255
176
     1
290
     0
176
     1
 90
       50
176
     1
 90
       50
176
     1
 90
       50
176
     1
290
     0
176
     1
 90
       50
176
     1
 62
   256
176
     0
 40
1.0
176
     0
 90
        2
176
     1
  1
strokes_ogs.tif
176
     1
290
     0
176
     1
 40
1.0
176
     1
 40
1.0
176
     1
  0
VISUALSTYLE
  5
2D
102
{ACAD_REACTORS
330
2A
102
}
330
2A
100
AcDbVisualStyle
  2
Gouraud
 70
     2
177
     3
291
     1
 70
    58
 90
        2
176
     1
 90
        2
176
     1
 90
        1
176
     1
 90
        2
176
     1
 40
0.6
176
     1
 40
30.0
176
     1
 62
     7
420
 16777215
176
     1
 90
        0
176
     1
 90
        0
176
     1
 62
     7
176
     1
 62
   257
176
     1
 90
        1
176
     1
 90
        1
176
     1
 40
1.0
176
     1
 90
        0
176
     1
 62
     7
176
     1
 40
1.0
176
     1
 90
        1
176
     1
 90
        6
176
     1
 90
        2
176
     1
 62
     7
176
     1
 90
        5
176
     1
 90
        0
176
     1
 90
        0
176
     1
290
     0
176
     1
 90
       13
176
     1
 40
0.0
176
     1
 90
        0
176
     1
290
     0
176
     1
290
     1
176
     1
290
     1
176
     1
290
     0
176
     1
290
     0
176
     1
290
     0
176
     1
290
     0
176
     1
290
     0
176
     1
290
     0
176
     1
 90
       50
176
     1
 40
0.0
176
     1
 40
1.0
176
     1
 90
        0
176
     1
 62
   178
420
        0
176
     1
 90
       50
176
     1
 90
        3
176
     1
 62
     5
420
      255
176
     1
290
     0
176
     1
 90
       50
176
     1
 90
       50
176
     1
 90
       50
176
     1
290
     0
176
     1
 90
       50
176
     1
 62
   256
176
     0
 40
1.0
176
     0
 90
        2
176
     1
  1
strokes_ogs.tif
176
     1
290
     0
176
     1
 40
1.0
176
     1
 40
1.0
176
     1
  0
VISUALSTYLE
  5
2E
102
{ACAD_REACTORS
330
2A
102
}
330
2A
100
AcDbVisualStyle
  2
GouraudWithEdges
 70
     3
177
     3
291
     1
 70
    58
 90
        2
176
     1
 90
        2
176
     1
 90
        1
176
     1
 90
        2
176
     1
 40
0.6
176
     1
 40
30.0
176
     1
 62
     7
420
 16777215
176
     1
 90
        1
176
     1
 90
        0
176
     1
 62
     7
176
     1
 62
   257
176
     1
 90
        1
176
     1
 90
        1
176
     1
 40
1.0
176
     1
 90
        0
176
     1
 62
   257
176
     1
 40
1.0
176
     1
 90
        1
176
     1
 90
        6
176
     1
 90
        2
176
     1
 62
     7
176
     1
 90
        5
176
     1
 90
        0
176
     1
 90
        0
176
     1
290
     0
176
     1
 90
       13
176
     1
 40
0.0
176
     1
 90
        0
176
     1
290
     0
176
     1
290
     1
176
     1
290
     1
176
     1
290
     0
176
     1
290
     0
176
     1
290
     0
176
     1
290
     0
176
     1
290
     0
176
     1
290
     0
176
     1
 90
       50
176
     1
 40
0.0
176
     1
 40
1.0
176
     1
 90
        0
176
     1
 62
   178
420
        0
176
     1
 90
       50
176
     1
 90
        3
176
     1
 62
     5
420
      255
176
     1
290
     0
176
     1
 90
       50
176
     1
 90
       50
176
     1
 90
       50
176
     1
290
     0
176
     1
 90
       50
176
     1
 62
   256
176
     0
 40
1.0
176
     0
 90
        2
176
     1
  1
strokes_ogs.tif
176
     1
290
     0
176
     1
 40
1.0
176
     1
 40
1.0
176
     1
  0
VISUALSTYLE
  5
31
102
{ACAD_REACTORS
330
2A
102
}
330
2A
100
AcDbVisualStyle
  2
Hidden
 70
     6
177
     3
291
     0
 70
    58
 90
        1
176
     1
 90
        2
176
     1
 90
        2
176
     1
 90
        0
176
     1
 40
0.6
176
     1
 40
30.0
176
     1
 62
     7
420
 16777215
176
     1
 90
        2
176
     1
 90
        2
176
     1
 62
     7
176
     1
 62
   257
176
     1
 90
        2
176
     1
 90
        1
176
     1
 40
40.0
176
     1
 90
        0
176
     1
 62
   257
176
     1
 40
1.0
176
     1
 90
        1
176
     1
 90
        6
176
     1
 90
        2
176
     1
 62
     7
176
     1
 90
        3
176
     1
 90
        0
176
     1
 90
        0
176
     1
290
     0
176
     1
 90
        1
176
     1
 40
0.0
176
     1
 90
        0
176
     1
290
     0
176
     1
290
     1
176
     1
290
     1
176
     1
290
     0
176
     1
290
     0
176
     1
290
     0
176
     1
290
     0
176
     1
290
     0
176
     1
290
     0
176
     1
 90
       50
176
     1
 40
0.0
176
     1
 40
1.0
176
     1
 90
        0
176
     1
 62
   178
420
        0
176
     1
 90
       50
176
     1
 90
        3
176
     1
 62
     5
420
      255
176
     1
290
     0
176
     1
 90
       50
176
     1
 90
       50
176
     1
 90
       50
176
     1
290
     0
176
     1
 90
       50
176
     1
 62
   256
176
     0
 40
1.0
176
     0
 90
        2
176
     1
  1
strokes_ogs.tif
176
     1
290
     0
176
     1
 40
1.0
176
     1
 40
1.0
176
     1
  0
VISUALSTYLE
  5
3B
102
{ACAD_REACTORS
330
2A
102
}
330
2A
100
AcDbVisualStyle
  2
JitterOff
 70
    20
177
     3
291
     1
 70
    58
 90
        2
176
     0
 90
        2
176
     0
 90
        0
176
     0
 90
        0
176
     0
 40
0.6
176
     0
 40
30.0
176
     0
 62
     7
420
 16777215
176
     0
 90
        1
176
     0
 90
        4
176
     0
 62
     7
176
     0
 62
   257
176
     0
 90
        1
176
     0
 90
        1
176
     0
 40
1.0
176
     0
 90
       10
176
     2
 62
     7
176
     0
 40
1.0
176
     0
 90
        1
176
     0
 90
        6
176
     0
 90
        2
176
     0
 62
     7
176
     0
 90
        5
176
     0
 90
        0
176
     0
 90
        0
176
     0
290
     0
176
     0
 90
        1
176
     0
 40
0.0
176
     0
 90
        0
176
     0
290
     0
176
     0
290
     1
176
     0
290
     1
176
     0
290
     0
176
     0
290
     0
176
     0
290
     0
176
     0
290
     0
176
     0
290
     0
176
     0
290
     0
176
     0
 90
       50
176
     0
 40
0.0
176
     0
 40
1.0
176
     0
 90
        0
176
     0
 62
   178
420
        0
176
     0
 90
       50
176
     0
 90
        3
176
     0
 62
     5
420
      255
176
     0
290
     0
176
     0
 90
       50
176
     0
 90
       50
176
     0
 90
       50
176
     0
290
     0
176
     0
 90
       50
176
     0
 62
   256
176
     0
 40
1.0
176
     0
 90
        2
176
     0
  1
strokes_ogs.tif
176
     0
290
     0
176
     0
 40
1.0
176
     0
 40
1.0
176
     0
  0
VISUALSTYLE
  5
38
102
{ACAD_REACTORS
330
2A
102
}
330
2A
100
AcDbVisualStyle
  2
Linepattern
 70
    14
177
     3
291
     1
 70
    58
 90
        2
176
     1
 90
        2
176
     1
 90
        0
176
     1
 90
        0
176
     1
 40
0.6
176
     1
 40
30.0
176
     1
 62
     7
420
 16777215
176
     1
 90
        1
176
     1
 90
        4
176
     1
 62
     7
176
     1
 62
   257
176
     1
 90
        7
176
     1
 90
        7
176
     1
 40
1.0
176
     1
 90
        8
176
     1
 62
     7
176
     1
 40
1.0
176
     1
 90
        1
176
     1
 90
        6
176
     1
 90
        2
176
     1
 62
     7
176
     1
 90
        5
176
     1
 90
        0
176
     1
 90
        0
176
     1
290
     0
176
     1
 90
        1
176
     1
 40
0.0
176
     1
 90
        0
176
     1
290
     0
176
     1
290
     1
176
     1
290
     1
176
     1
290
     0
176
     1
290
     0
176
     1
290
     0
176
     1
290
     0
176
     1
290
     0
176
     1
290
     0
176
     1
 90
       50
176
     1
 40
0.0
176
     1
 40
1.0
176
     1
 90
        0
176
     1
 62
   178
420
        0
176
     1
 90
       50
176
     1
 90
        3
176
     1
 62
     5
420
      255
176
     1
290
     0
176
     1
 90
       50
176
     1
 90
       50
176
     1
 90
       50
176
     1
290
     0
176
     1
 90
       50
176
     1
 62
   256
176
     0
 40
1.0
176
     0
 90
        2
176
     1
  1
strokes_ogs.tif
176
     1
290
     0
176
     1
 40
1.0
176
     1
 40
1.0
176
     1
  0
VISUALSTYLE
  5
3C
102
{ACAD_REACTORS
330
2A
102
}
330
2A
100
AcDbVisualStyle
  2
OverhangOff
 70
    21
177
     3
291
     1
 70
    58
 90
        2
176
     0
 90
        2
176
     0
 90
        0
176
     0
 90
        0
176
     0
 40
0.6
176
     0
 40
30.0
176
     0
 62
     7
420
 16777215
176
     0
 90
        1
176
     0
 90
        4
176
     0
 62
     7
176
     0
 62
   257
176
     0
 90
        1
176
     0
 90
        1
176
     0
 40
1.0
176
     0
 90
        9
176
     2
 62
     7
176
     0
 40
1.0
176
     0
 90
        1
176
     0
 90
        6
176
     0
 90
        2
176
     0
 62
     7
176
     0
 90
        5
176
     0
 90
        0
176
     0
 90
        0
176
     0
290
     0
176
     0
 90
        1
176
     0
 40
0.0
176
     0
 90
        0
176
     0
290
     0
176
     0
290
     1
176
     0
290
     1
176
     0
290
     0
176
     0
290
     0
176
     0
290
     0
176
     0
290
     0
176
     0
290
     0
176
     0
290
     0
176
     0
 90
       50
176
     0
 40
0.0
176
     0
 40
1.0
176
     0
 90
        0
176
     0
 62
   178
420
        0
176
     0
 90
       50
176
     0
 90
        3
176
     0
 62
     5
420
      255
176
     0
290
     0
176
     0
 90
       50
176
     0
 90
       50
176
     0
 90
       50
176
     0
290
     0
176
     0
 90
       50
176
     0
 62
   256
176
     0
 40
1.0
176
     0
 90
        2
176
     0
  1
strokes_ogs.tif
176
     0
290
     0
176
     0
 40
1.0
176
     0
 40
1.0
176
     0
  0
VISUALSTYLE
  5
33
102
{ACAD_REACTORS
330
2A
102
}
330
2A
100
AcDbVisualStyle
  2
Realistic
 70
     8
177
     3
291
     0
 70
    58
 90
        2
176
     1
 90
        3
176
     1
 90
        0
176
     1
 90
        2
176
     1
 40
0.6
176
     1
 40
30.0
176
     1
 62
     7
420
 16777215
176
     1
 90
        0
176
     1
 90
        0
176
     1
 62
     7
176
     1
 62
   257
176
     1
 90
        1
176
     1
 90
        1
176
     1
 40
1.0
176
     1
 90
        8
176
     1
 62
   257
176
     1
 40
1.0
176
     1
 90
        1
176
     1
 90
        6
176
     1
 90
        2
176
     1
 62
     7
176
     1
 90
        3
176
     1
 90
        0
176
     1
 90
        0
176
     1
290
     0
176
     1
 90
       13
176
     1
 40
0.0
176
     1
 90
        0
176
     1
290
     0
176
     1
290
     1
176
     1
290
     1
176
     1
290
     0
176
     1
290
     0
176
     1
290
     0
176
     1
290
     0
176
     1
290
     0
176
     1
290
     0
176
     1
 90
       50
176
     1
 40
0.0
176
     1
 40
1.0
176
     1
 90
        0
176
     1
 62
   178
420
        0
176
     1
 90
       50
176
     1
 90
        3
176
     1
 62
     5
420
      255
176
     1
290
     0
176
     1
 90
       50
176
     1
 90
       50
176
     1
 90
       50
176
     1
290
     0
176
     1
 90
       50
176
     1
 62
   256
176
     0
 40
1.0
176
     0
 90
        2
176
     1
  1
strokes_ogs.tif
176
     1
290
     0
176
     1
 40
1.0
176
     1
 40
1.0
176
     1
  0
VISUALSTYLE
  5
42
102
{ACAD_REACTORS
330
2A
102
}
330
2A
100
AcDbVisualStyle
  2
Shaded
 70
    27
177
     3
291
     0
 70
    58
 90
        2
176
     1
 90
        2
176
     1
 90
        1
176
     1
 90
        2
176
     1
 40
0.6
176
     1
 40
30.0
176
     1
 62
     7
420
 16777215
176
     1
 90
        0
176
     1
 90
        4
176
     1
 62
     7
176
     1
 62
   257
176
     1
 90
        1
176
     1
 90
        1
176
     1
 40
1.0
176
     1
 90
        8
176
     1
 62
   257
176
     1
 40
1.0
176
     1
 90
        1
176
     1
 90
        6
176
     1
 90
        2
176
     1
 62
     8
420
  7895160
176
     1
 90
        3
176
     1
 90
        0
176
     1
 90
        0
176
     1
290
     0
176
     1
 90
        5
176
     1
 40
0.0
176
     1
 90
        0
176
     1
290
     0
176
     1
290
     1
176
     1
290
     1
176
     1
290
     0
176
     1
290
     0
176
     1
290
     0
176
     1
290
     0
176
     1
290
     0
176
     1
290
     0
176
     1
 90
       50
176
     1
 40
0.0
176
     1
 40
1.0
176
     1
 90
        0
176
     1
 62
   178
420
        0
176
     1
 90
       50
176
     1
 90
        3
176
     1
 62
     5
420
      255
176
     1
290
     0
176
     1
 90
       50
176
     1
 90
       50
176
     1
 90
       50
176
     1
290
     0
176
     1
 90
       50
176
     1
 62
   256
176
     0
 40
1.0
176
     0
 90
        2
176
     1
  1
strokes_ogs.tif
176
     1
290
     0
176
     1
 40
1.0
176
     1
 40
1.0
176
     1
  0
VISUALSTYLE
  5
41
102
{ACAD_REACTORS
330
2A
102
}
330
2A
100
AcDbVisualStyle
  2
Shaded with edges
 70
    26
177
     3
291
     0
 70
    58
 90
        2
176
     1
 90
        2
176
     1
 90
        1
176
     1
 90
        2
176
     1
 40
0.6
176
     1
 40
30.0
176
     1
 62
     7
420
 16777215
176
     1
 90
        1
176
     1
 90
       10
176
     1
 62
     7
176
     1
 62
   257
176
     1
 90
        2
176
     1
 90
        1
176
     1
 40
1.0
176
     1
 90
        8
176
     1
 62
   257
176
     1
 40
1.0
176
     1
 90
        1
176
     1
 90
        6
176
     1
 90
        2
176
     1
 62
     7
176
     1
 90
        3
176
     1
 90
        0
176
     1
 90
        0
176
     1
290
     0
176
     1
 90
        5
176
     1
 40
0.0
176
     1
 90
        0
176
     1
290
     0
176
     1
290
     1
176
     1
290
     1
176
     1
290
     0
176
     1
290
     0
176
     1
290
     0
176
     1
290
     0
176
     1
290
     0
176
     1
290
     0
176
     1
 90
       50
176
     1
 40
0.0
176
     1
 40
1.0
176
     1
 90
        0
176
     1
 62
   178
420
        0
176
     1
 90
       50
176
     1
 90
        3
176
     1
 62
     5
420
      255
176
     1
290
     0
176
     1
 90
       50
176
     1
 90
       50
176
     1
 90
       50
176
     1
290
     0
176
     1
 90
       50
176
     1
 62
   256
176
     0
 40
1.0
176
     0
 90
        2
176
     1
  1
strokes_ogs.tif
176
     1
290
     0
176
     1
 40
1.0
176
     1
 40
1.0
176
     1
  0
VISUALSTYLE
  5
3E
102
{ACAD_REACTORS
330
2A
102
}
330
2A
100
AcDbVisualStyle
  2
Shades of Gray
 70
    23
177
     3
291
     0
 70
    58
 90
        2
176
     1
 90
        2
176
     1
 90
        3
176
     1
 90
        0
176
     1
 40
0.6
176
     1
 40
30.0
176
     1
 62
     7
420
 16777215
176
     1
 90
        2
176
     1
 90
        2
176
     1
 62
     7
176
     1
 62
     7
176
     1
 90
        1
176
     1
 90
        1
176
     1
 40
40.0
176
     1
 90
        8
176
     1
 62
     7
176
     1
 40
1.0
176
     1
 90
        1
176
     1
 90
        6
176
     1
 90
        2
176
     1
 62
     7
176
     1
 90
        3
176
     1
 90
        0
176
     1
 90
        0
176
     1
290
     0
176
     1
 90
        1
176
     1
 40
0.0
176
     1
 90
        0
176
     1
290
     0
176
     1
290
     1
176
     1
290
     1
176
     1
290
     0
176
     1
290
     0
176
     1
290
     0
176
     1
290
     0
176
     1
290
     0
176
     1
290
     0
176
     1
 90
       50
176
     1
 40
0.0
176
     1
 40
1.0
176
     1
 90
        0
176
     1
 62
   178
420
        0
176
     1
 90
       50
176
     1
 90
        3
176
     1
 62
     5
420
      255
176
     1
290
     0
176
     1
 90
       50
176
     1
 90
       50
176
     1
 90
       50
176
     1
290
     0
176
     1
 90
       50
176
     1
 62
   256
176
     0
 40
1.0
176
     0
 90
        2
176
     1
  1
strokes_ogs.tif
176
     1
290
     0
176
     1
 40
1.0
176
     1
 40
1.0
176
     1
  0
VISUALSTYLE
  5
3F
102
{ACAD_REACTORS
330
2A
102
}
330
2A
100
AcDbVisualStyle
  2
Sketchy
 70
    24
177
     3
291
     0
 70
    58
 90
        1
176
     1
 90
        2
176
     1
 90
        2
176
     1
 90
        0
176
     1
 40
0.6
176
     1
 40
30.0
176
     1
 62
     7
420
 16777215
176
     1
 90
        2
176
     1
 90
        2
176
     1
 62
     7
176
     1
 62
     7
176
     1
 90
        1
176
     1
 90
        1
176
     1
 40
40.0
176
     1
 90
       11
176
     1
 62
     7
176
     1
 40
1.0
176
     1
 90
        1
176
     1
 90
        6
176
     1
 90
        2
176
     1
 62
     7
176
     1
 90
        6
176
     1
 90
        0
176
     1
 90
        0
176
     1
290
     0
176
     1
 90
        1
176
     1
 40
0.0
176
     1
 90
        0
176
     1
290
     0
176
     1
290
     1
176
     1
290
     1
176
     1
290
     0
176
     1
290
     0
176
     1
290
     0
176
     1
290
     0
176
     1
290
     0
176
     1
290
     0
176
     1
 90
       50
176
     1
 40
0.0
176
     1
 40
1.0
176
     1
 90
        0
176
     1
 62
   178
420
        0
176
     1
 90
       50
176
     1
 90
        3
176
     1
 62
     5
420
      255
176
     1
290
     0
176
     1
 90
       50
176
     1
 90
       50
176
     1
 90
       50
176
     1
290
     0
176
     1
 90
       50
176
     1
 62
   256
176
     0
 40
1.0
176
     0
 90
        2
176
     1
  1
strokes_ogs.tif
176
     1
290
     0
176
     1
 40
1.0
176
     1
 40
1.0
176
     1
  0
VISUALSTYLE
  5
37
102
{ACAD_REACTORS
330
2A
102
}
330
2A
100
AcDbVisualStyle
  2
Thicken
 70
    13
177
     3
291
     1
 70
    58
 90
        2
176
     1
 90
        2
176
     1
 90
        0
176
     1
 90
        0
176
     1
 40
0.6
176
     1
 40
30.0
176
     1
 62
     7
420
 16777215
176
     1
 90
        1
176
     1
 90
        4
176
     1
 62
     7
176
     1
 62
   257
176
     1
 90
        1
176
     1
 90
        1
176
     1
 40
1.0
176
     1
 90
       12
176
     1
 62
     7
176
     1
 40
1.0
176
     1
 90
        1
176
     1
 90
        6
176
     1
 90
        2
176
     1
 62
     7
176
     1
 90
        5
176
     1
 90
        0
176
     1
 90
        0
176
     1
290
     0
176
     1
 90
        1
176
     1
 40
0.0
176
     1
 90
        0
176
     1
290
     0
176
     1
290
     1
176
     1
290
     1
176
     1
290
     0
176
     1
290
     0
176
     1
290
     0
176
     1
290
     0
176
     1
290
     0
176
     1
290
     0
176
     1
 90
       50
176
     1
 40
0.0
176
     1
 40
1.0
176
     1
 90
        0
176
     1
 62
   178
420
        0
176
     1
 90
       50
176
     1
 90
        3
176
     1
 62
     5
420
      255
176
     1
290
     0
176
     1
 90
       50
176
     1
 90
       50
176
     1
 90
       50
176
     1
290
     0
176
     1
 90
       50
176
     1
 62
   256
176
     0
 40
1.0
176
     0
 90
        2
176
     1
  1
strokes_ogs.tif
176
     1
290
     0
176
     1
 40
1.0
176
     1
 40
1.0
176
     1
  0
VISUALSTYLE
  5
30
102
{ACAD_REACTORS
330
2A
102
}
330
2A
100
AcDbVisualStyle
  2
Wireframe
 70
     5
177
     3
291
     0
 70
    58
 90
        0
176
     1
 90
        2
176
     1
 90
        0
176
     1
 90
        0
176
     1
 40
0.6
176
     1
 40
30.0
176
     1
 62
     7
420
 16777215
176
     1
 90
        1
176
     1
 90
        4
176
     1
 62
     7
176
     1
 62
   257
176
     1
 90
        1
176
     1
 90
        1
176
     1
 40
1.0
176
     1
 90
        0
176
     1
 62
   257
176
     1
 40
1.0
176
     1
 90
        1
176
     1
 90
        6
176
     1
 90
        2
176
     1
 62
     7
176
     1
 90
        3
176
     1
 90
        0
176
     1
 90
        0
176
     1
290
     0
176
     1
 90
        1
176
     1
 40
0.0
176
     1
 90
        0
176
     1
290
     0
176
     1
290
     1
176
     1
290
     1
176
     1
290
     0
176
     1
290
     0
176
     1
290
     0
176
     1
290
     0
176
     1
290
     0
176
     1
290
     0
176
     1
 90
       50
176
     1
 40
0.0
176
     1
 40
1.0
176
     1
 90
        0
176
     1
 62
   178
420
        0
176
     1
 90
       50
176
     1
 90
        3
176
     1
 62
     5
420
      255
176
     1
290
     0
176
     1
 90
       50
176
     1
 90
       50
176
     1
 90
       50
176
     1
290
     0
176
     1
 90
       50
176
     1
 62
   256
176
     0
 40
1.0
176
     0
 90
        2
176
     1
  1
strokes_ogs.tif
176
     1
290
     0
176
     1
 40
1.0
176
     1
 40
1.0
176
     1
  0
VISUALSTYLE
  5
40
102
{ACAD_REACTORS
330
2A
102
}
330
2A
100
AcDbVisualStyle
  2
X-Ray
 70
    25
177
     3
291
     0
 70
    58
 90
        2
176
     1
 90
        2
176
     1
 90
        1
176
     1
 90
        1
176
     1
 40
0.5
176
     1
 40
30.0
176
     1
 62
     7
420
 16777215
176
     1
 90
        1
176
     1
 90
        0
176
     1
 62
     7
176
     1
 62
   257
176
     1
 90
        1
176
     1
 90
        1
176
     1
 40
1.0
176
     1
 90
        8
176
     1
 62
     7
176
     1
 40
1.0
176
     1
 90
        1
176
     1
 90
        6
176
     1
 90
        2
176
     1
 62
     7
176
     1
 90
        3
176
     1
 90
        0
176
     1
 90
        0
176
     1
290
     0
176
     1
 90
       13
176
     1
 40
0.0
176
     1
 90
        0
176
     1
290
     0
176
     1
290
     1
176
     1
290
     1
176
     1
290
     0
176
     1
290
     0
176
     1
290
     0
176
     1
290
     0
176
     1
290
     0
176
     1
290
     0
176
     1
 90
       50
176
     1
 40
0.0
176
     1
 40
1.0
176
     1
 90
        0
176
     1
 62
   178
420
        0
176
     1
 90
       50
176
     1
 90
        3
176
     1
 62
     5
420
      255
176
     1
290
     0
176
     1
 90
       50
176
     1
 90
       50
176
     1
 90
       50
176
     1
290
     0
176
     1
 90
       50
176
     1
 62
   256
176
     0
 40
1.0
176
     0
 90
        2
176
     1
  1
strokes_ogs.tif
176
     1
290
     0
176
     1
 40
1.0
176
     1
 40
1.0
176
     1
  0
DICTIONARYVAR
  5
44B
102
{ACAD_REACTORS
330
44A
102
}
330
44A
100
DictionaryVariables
280
     0
  1
1:1
  0
DICTIONARYVAR
  5
450
102
{ACAD_REACTORS
330
44A
102
}
330
44A
100
DictionaryVariables
280
     0
  1
Standard
  0
DICTIONARYVAR
  5
44F
102
{ACAD_REACTORS
330
44A
102
}
330
44A
100
DictionaryVariables
280
     0
  1
Standard
  0
DICTIONARY
  5
44C
330
6A
100
AcDbDictionary
280
     1
281
     1
  3
ACAD_ROUNDTRIP_2008_TABLESTYLE_CELLSTYLEMAP
360
44D
  0
CELLSTYLEMAP
  5
44D
102
{ACAD_REACTORS
330
44C
102
}
330
44C
100
AcDbCellStyleMap
 90
        3
300
CELLSTYLE
  1
TABLEFORMAT_BEGIN
 90
        5
170
     1
 91
        0
 92
    32768
 62
   257
 93
        1
300
CONTENTFORMAT
  1
CONTENTFORMAT_BEGIN
 90
        0
 91
        0
 92
        4
 93
        0
300

 40
0.0
140
1.0
 94
        5
 62
     0
340
11
144
6.0
309
CONTENTFORMAT_END
171
     1
301
MARGIN
  1
CELLMARGIN_BEGIN
 40
1.5
 40
1.5
 40
1.5
 40
1.5
 40
1.5
 40
1.5
309
CELLMARGIN_END
 94
        6
 95
        1
302
GRIDFORMAT
  1
GRIDFORMAT_BEGIN
 90
        0
 91
        1
 62
     0
 92
       -2
340
14
 93
        0
 40
0.045
309
GRIDFORMAT_END
 95
        2
302
GRIDFORMAT
  1
GRIDFORMAT_BEGIN
 90
        0
 91
        1
 62
     0
 92
       -2
340
14
 93
        0
 40
0.045
309
GRIDFORMAT_END
 95
        4
302
GRIDFORMAT
  1
GRIDFORMAT_BEGIN
 90
        0
 91
        1
 62
     0
 92
       -2
340
14
 93
        0
 40
0.045
309
GRIDFORMAT_END
 95
        8
302
GRIDFORMAT
  1
GRIDFORMAT_BEGIN
 90
        0
 91
        1
 62
     0
 92
       -2
340
14
 93
        0
 40
0.045
309
GRIDFORMAT_END
 95
       16
302
GRIDFORMAT
  1
GRIDFORMAT_BEGIN
 90
        0
 91
        1
 62
     0
 92
       -2
340
14
 93
        0
 40
0.045
309
GRIDFORMAT_END
 95
       32
302
GRIDFORMAT
  1
GRIDFORMAT_BEGIN
 90
        0
 91
        1
 62
     0
 92
       -2
340
14
 93
        0
 40
0.045
309
GRIDFORMAT_END
309
TABLEFORMAT_END
  1
CELLSTYLE_BEGIN
 90
        1
 91
        1
300
_TITLE
309
CELLSTYLE_END
300
CELLSTYLE
  1
TABLEFORMAT_BEGIN
 90
        5
170
     1
 91
        0
 92
        0
 62
   257
 93
        1
300
CONTENTFORMAT
  1
CONTENTFORMAT_BEGIN
 90
        0
 91
        0
 92
        4
 93
        0
300

 40
0.0
140
1.0
 94
        5
 62
     0
340
11
144
4.5
309
CONTENTFORMAT_END
171
     1
301
MARGIN
  1
CELLMARGIN_BEGIN
 40
1.5
 40
1.5
 40
1.5
 40
1.5
 40
1.5
 40
1.5
309
CELLMARGIN_END
 94
        6
 95
        1
302
GRIDFORMAT
  1
GRIDFORMAT_BEGIN
 90
        0
 91
        1
 62
     0
 92
       -2
340
14
 93
        0
 40
0.045
309
GRIDFORMAT_END
 95
        2
302
GRIDFORMAT
  1
GRIDFORMAT_BEGIN
 90
        0
 91
        1
 62
     0
 92
       -2
340
14
 93
        0
 40
0.045
309
GRIDFORMAT_END
 95
        4
302
GRIDFORMAT
  1
GRIDFORMAT_BEGIN
 90
        0
 91
        1
 62
     0
 92
       -2
340
14
 93
        0
 40
0.045
309
GRIDFORMAT_END
 95
        8
302
GRIDFORMAT
  1
GRIDFORMAT_BEGIN
 90
        0
 91
        1
 62
     0
 92
       -2
340
14
 93
        0
 40
0.045
309
GRIDFORMAT_END
 95
       16
302
GRIDFORMAT
  1
GRIDFORMAT_BEGIN
 90
        0
 91
        1
 62
     0
 92
       -2
340
14
 93
        0
 40
0.045
309
GRIDFORMAT_END
 95
       32
302
GRIDFORMAT
  1
GRIDFORMAT_BEGIN
 90
        0
 91
        1
 62
     0
 92
       -2
340
14
 93
        0
 40
0.045
309
GRIDFORMAT_END
309
TABLEFORMAT_END
  1
CELLSTYLE_BEGIN
 90
        2
 91
        1
300
_HEADER
309
CELLSTYLE_END
300
CELLSTYLE
  1
TABLEFORMAT_BEGIN
 90
        5
170
     1
 91
        0
 92
        0
 62
   257
 93
        1
300
CONTENTFORMAT
  1
CONTENTFORMAT_BEGIN
 90
        0
 91
        0
 92
        4
 93
        0
300

 40
0.0
140
1.0
 94
        2
 62
     0
340
11
144
4.5
309
CONTENTFORMAT_END
171
     1
301
MARGIN
  1
CELLMARGIN_BEGIN
 40
1.5
 40
1.5
 40
1.5
 40
1.5
 40
1.5
 40
1.5
309
CELLMARGIN_END
 94
        6
 95
        1
302
GRIDFORMAT
  1
GRIDFORMAT_BEGIN
 90
        0
 91
        1
 62
     0
 92
       -2
340
14
 93
        0
 40
0.045
309
GRIDFORMAT_END
 95
        2
302
GRIDFORMAT
  1
GRIDFORMAT_BEGIN
 90
        0
 91
        1
 62
     0
 92
       -2
340
14
 93
        0
 40
0.045
309
GRIDFORMAT_END
 95
        4
302
GRIDFORMAT
  1
GRIDFORMAT_BEGIN
 90
        0
 91
        1
 62
     0
 92
       -2
340
14
 93
        0
 40
0.045
309
GRIDFORMAT_END
 95
        8
302
GRIDFORMAT
  1
GRIDFORMAT_BEGIN
 90
        0
 91
        1
 62
     0
 92
       -2
340
14
 93
        0
 40
0.045
309
GRIDFORMAT_END
 95
       16
302
GRIDFORMAT
  1
GRIDFORMAT_BEGIN
 90
        0
 91
        1
 62
     0
 92
       -2
340
14
 93
        0
 40
0.045
309
GRIDFORMAT_END
 95
       32
302
GRIDFORMAT
  1
GRIDFORMAT_BEGIN
 90
        0
 91
        1
 62
     0
 92
       -2
340
14
 93
        0
 40
0.045
309
GRIDFORMAT_END
309
TABLEFORMAT_END
  1
CELLSTYLE_BEGIN
 90
        3
 91
        2
300
_DATA
309
CELLSTYLE_END
  0
ENDSEC
  0
EOF
