  0
SECTION
  2
HEADER
  9
$ACADVER
  1
AC1027
  9
$ACADMAINTVER
 70
     8
  9
$DWGCODEPAGE
  3
ANSI_1252
  9
$REQUIREDVERSIONS
160
                 0
  9
$INSBASE
 10
0.0
 20
0.0
 30
0.0
  9
$EXTMIN
 10
0.0
 20
0.0
 30
0.0
  9
$EXTMAX
 10
210.0
 20
297.0
 30
0.0
  9
$LIMMIN
 10
0.0
 20
0.0
  9
$LIMMAX
 10
210.0
 20
297.0
  9
$ORTHOMODE
 70
     0
  9
$REGENMODE
 70
     1
  9
$FILLMODE
 70
     1
  9
$QTEXTMODE
 70
     0
  9
$MIRRTEXT
 70
     1
  9
$LTSCALE
 40
1.0
  9
$ATTMODE
 70
     1
  9
$TEXTSIZE
 40
2.5
  9
$TRACEWID
 40
1.0
  9
$TEXTSTYLE
  7
Standard
  9
$CLAYER
  8
Dimension
  9
$CELTYPE
  6
ByLayer
  9
$CECOLOR
 62
   256
  9
$CELTSCALE
 40
1.0
  9
$DISPSILH
 70
     0
  9
$DIMSCALE
 40
1.0
  9
$DIMASZ
 40
2.5
  9
$DIMEXO
 40
0.625
  9
$DIMDLI
 40
3.75
  9
$DIMRND
 40
0.0
  9
$DIMDLE
 40
0.0
  9
$DIMEXE
 40
1.25
  9
$DIMTP
 40
0.0
  9
$DIMTM
 40
0.0
  9
$DIMTXT
 40
2.5
  9
$DIMCEN
 40
2.5
  9
$DIMTSZ
 40
0.0
  9
$DIMTOL
 70
     0
  9
$DIMLIM
 70
     0
  9
$DIMTIH
 70
     0
  9
$DIMTOH
 70
     0
  9
$DIMSE1
 70
     0
  9
$DIMSE2
 70
     0
  9
$DIMTAD
 70
     1
  9
$DIMZIN
 70
     8
  9
$DIMBLK
  1

  9
$DIMASO
 70
     1
  9
$DIMSHO
 70
     1
  9
$DIMPOST
  1

  9
$DIMAPOST
  1

  9
$DIMALT
 70
     0
  9
$DIMALTD
 70
     3
  9
$DIMALTF
 40
0.03937007874016
  9
$DIMLFAC
 40
1.0
  9
$DIMTOFL
 70
     1
  9
$DIMTVP
 40
0.0
  9
$DIMTIX
 70
     0
  9
$DIMSOXD
 70
     0
  9
$DIMSAH
 70
     0
  9
$DIMBLK1
  1

  9
$DIMBLK2
  1

  9
$DIMSTYLE
  2
ISO-25
  9
$DIMCLRD
 70
     0
  9
$DIMCLRE
 70
     0
  9
$DIMCLRT
 70
     0
  9
$DIMTFAC
 40
1.0
  9
$DIMGAP
 40
0.625
  9
$DIMJUST
 70
     0
  9
$DIMSD1
 70
     0
  9
$DIMSD2
 70
     0
  9
$DIMTOLJ
 70
     0
  9
$DIMTZIN
 70
     8
  9
$DIMALTZ
 70
     0
  9
$DIMALTTZ
 70
     0
  9
$DIMUPT
 70
     0
  9
$DIMDEC
 70
     2
  9
$DIMTDEC
 70
     2
  9
$DIMALTU
 70
     2
  9
$DIMALTTD
 70
     3
  9
$DIMTXSTY
  7
Standard
  9
$DIMAUNIT
 70
     0
  9
$DIMADEC
 70
     0
  9
$DIMALTRND
 40
0.0
  9
$DIMAZIN
 70
     0
  9
$DIMDSEP
 70
    44
  9
$DIMATFIT
 70
     3
  9
$DIMFRAC
 70
     0
  9
$DIMLDRBLK
  1

  9
$DIMLUNIT
 70
     2
  9
$DIMLWD
 70
    -2
  9
$DIMLWE
 70
    -2
  9
$DIMTMOVE
 70
     0
  9
$DIMFXL
 40
1.0
  9
$DIMFXLON
 70
     0
  9
$DIMJOGANG
 40
0.7853981633974483
  9
$DIMTFILL
 70
     0
  9
$DIMTFILLCLR
 70
     0
  9
$DIMARCSYM
 70
     0
  9
$DIMLTYPE
  6

  9
$DIMLTEX1
  6

  9
$DIMLTEX2
  6

  9
$DIMTXTDIRECTION
 70
     0
  9
$LUNITS
 70
     2
  9
$LUPREC
 70
     4
  9
$SKETCHINC
 40
1.0
  9
$FILLETRAD
 40
10.0
  9
$AUNITS
 70
     0
  9
$AUPREC
 70
     0
  9
$MENU
  1
.
  9
$ELEVATION
 40
0.0
  9
$PELEVATION
 40
0.0
  9
$THICKNESS
 40
0.0
  9
$LIMCHECK
 70
     0
  9
$CHAMFERA
 40
0.0
  9
$CHAMFERB
 40
0.0
  9
$CHAMFERC
 40
0.0
  9
$CHAMFERD
 40
0.0
  9
$SKPOLY
 70
     0
  9
$TDCREATE
 40
2457520.485277778
  9
$TDUCREATE
 40
2457520.776944445
  9
$TDUPDATE
 40
2457520.485289352
  9
$TDUUPDATE
 40
2457520.776956019
  9
$TDINDWG
 40
0.0000000116
  9
$TDUSRTIMER
 40
0.0000000116
  9
$USRTIMER
 70
     1
  9
$ANGBASE
 50
0.0
  9
$ANGDIR
 70
     0
  9
$PDMODE
 70
     0
  9
$PDSIZE
 40
0.0
  9
$PLINEWID
 40
0.0
  9
$SPLFRAME
 70
     0
  9
$SPLINETYPE
 70
     6
  9
$SPLINESEGS
 70
     8
  9
$HANDSEED
  5
3C6
  9
$SURFTAB1
 70
     6
  9
$SURFTAB2
 70
     6
  9
$SURFTYPE
 70
     6
  9
$SURFU
 70
     6
  9
$SURFV
 70
     6
  9
$UCSBASE
  2

  9
$UCSNAME
  2

  9
$UCSORG
 10
0.0
 20
0.0
 30
0.0
  9
$UCSXDIR
 10
1.0
 20
0.0
 30
0.0
  9
$UCSYDIR
 10
0.0
 20
1.0
 30
0.0
  9
$UCSORTHOREF
  2

  9
$UCSORTHOVIEW
 70
     0
  9
$UCSORGTOP
 10
0.0
 20
0.0
 30
0.0
  9
$UCSORGBOTTOM
 10
0.0
 20
0.0
 30
0.0
  9
$UCSORGLEFT
 10
0.0
 20
0.0
 30
0.0
  9
$UCSORGRIGHT
 10
0.0
 20
0.0
 30
0.0
  9
$UCSORGFRONT
 10
0.0
 20
0.0
 30
0.0
  9
$UCSORGBACK
 10
0.0
 20
0.0
 30
0.0
  9
$PUCSBASE
  2

  9
$PUCSNAME
  2

  9
$PUCSORG
 10
0.0
 20
0.0
 30
0.0
  9
$PUCSXDIR
 10
1.0
 20
0.0
 30
0.0
  9
$PUCSYDIR
 10
0.0
 20
1.0
 30
0.0
  9
$PUCSORTHOREF
  2

  9
$PUCSORTHOVIEW
 70
     0
  9
$PUCSORGTOP
 10
0.0
 20
0.0
 30
0.0
  9
$PUCSORGBOTTOM
 10
0.0
 20
0.0
 30
0.0
  9
$PUCSORGLEFT
 10
0.0
 20
0.0
 30
0.0
  9
$PUCSORGRIGHT
 10
0.0
 20
0.0
 30
0.0
  9
$PUCSORGFRONT
 10
0.0
 20
0.0
 30
0.0
  9
$PUCSORGBACK
 10
0.0
 20
0.0
 30
0.0
  9
$USERI1
 70
     0
  9
$USERI2
 70
     0
  9
$USERI3
 70
     0
  9
$USERI4
 70
     0
  9
$USERI5
 70
     0
  9
$USERR1
 40
0.0
  9
$USERR2
 40
0.0
  9
$USERR3
 40
0.0
  9
$USERR4
 40
0.0
  9
$USERR5
 40
0.0
  9
$WORLDVIEW
 70
     1
  9
$SHADEDGE
 70
     3
  9
$SHADEDIF
 70
    70
  9
$TILEMODE
 70
     1
  9
$MAXACTVP
 70
    64
  9
$PINSBASE
 10
0.0
 20
0.0
 30
0.0
  9
$PLIMCHECK
 70
     0
  9
$PEXTMIN
 10
1.000000000000000E+20
 20
1.000000000000000E+20
 30
1.000000000000000E+20
  9
$PEXTMAX
 10
-1.000000000000000E+20
 20
-1.000000000000000E+20
 30
-1.000000000000000E+20
  9
$PLIMMIN
 10
0.0
 20
0.0
  9
$PLIMMAX
 10
420.0
 20
297.0
  9
$UNITMODE
 70
     0
  9
$VISRETAIN
 70
     1
  9
$PLINEGEN
 70
     0
  9
$PSLTSCALE
 70
     1
  9
$TREEDEPTH
 70
  3020
  9
$CMLSTYLE
  2
Standard
  9
$CMLJUST
 70
     0
  9
$CMLSCALE
 40
20.0
  9
$PROXYGRAPHICS
 70
     1
  9
$MEASUREMENT
 70
     1
  9
$CELWEIGHT
370
    -1
  9
$ENDCAPS
280
     0
  9
$JOINSTYLE
280
     0
  9
$LWDISPLAY
290
     0
  9
$INSUNITS
 70
     4
  9
$HYPERLINKBASE
  1

  9
$STYLESHEET
  1

  9
$XEDIT
290
     1
  9
$CEPSNTYPE
380
     0
  9
$PSTYLEMODE
290
     1
  9
$FINGERPRINTGUID
  2
{6ce3206d-4acf-483a-a025-fc9abb728102}
  9
$VERSIONGUID
  2
{FAEB1C32-E019-11D5-929B-00C0DF256EC4}
  9
$EXTNAMES
290
     1
  9
$PSVPSCALE
 40
0.0
  9
$OLESTARTUP
290
     0
  9
$SORTENTS
280
   127
  9
$INDEXCTL
280
     0
  9
$HIDETEXT
280
     1
  9
$XCLIPFRAME
280
     2
  9
$HALOGAP
280
     0
  9
$OBSCOLOR
 70
   257
  9
$OBSLTYPE
280
     0
  9
$INTERSECTIONDISPLAY
280
     0
  9
$INTERSECTIONCOLOR
 70
   257
  9
$DIMASSOC
280
     2
  9
$PROJECTNAME
  1

  9
$CAMERADISPLAY
290
     0
  9
$LENSLENGTH
 40
50.0
  9
$CAMERAHEIGHT
 40
0.0
  9
$STEPSPERSEC
 40
2.0
  9
$STEPSIZE
 40
6.0
  9
$3DDWFPREC
 40
2.0
  9
$PSOLWIDTH
 40
5.0
  9
$PSOLHEIGHT
 40
80.0
  9
$LOFTANG1
 40
1.570796326794897
  9
$LOFTANG2
 40
1.570796326794897
  9
$LOFTMAG1
 40
0.0
  9
$LOFTMAG2
 40
0.0
  9
$LOFTPARAM
 70
     7
  9
$LOFTNORMALS
280
     1
  9
$LATITUDE
 40
37.795
  9
$LONGITUDE
 40
-122.394
  9
$NORTHDIRECTION
 40
0.0
  9
$TIMEZONE
 70
 -8000
  9
$LIGHTGLYPHDISPLAY
280
     1
  9
$TILEMODELIGHTSYNCH
280
     1
  9
$CMATERIAL
347
44
  9
$SOLIDHIST
280
     0
  9
$SHOWHIST
280
     1
  9
$DWFFRAME
280
     2
  9
$DGNFRAME
280
     2
  9
$REALWORLDSCALE
290
     1
  9
$INTERFERECOLOR
 62
   256
  9
$CSHADOW
280
     0
  9
$SHADOWPLANELOCATION
 40
0.0
  0
ENDSEC
  0
SECTION
  2
CLASSES
  0
CLASS
  1
ACDBDICTIONARYWDFLT
  2
AcDbDictionaryWithDefault
  3
ObjectDBX Classes
 90
        0
 91
        4
280
     0
281
     0
  0
CLASS
  1
VISUALSTYLE
  2
AcDbVisualStyle
  3
ObjectDBX Classes
 90
     4095
 91
        4
280
     0
281
     0
  0
CLASS
  1
MATERIAL
  2
AcDbMaterial
  3
ObjectDBX Classes
 90
     1153
 91
        4
280
     0
281
     0
  0
CLASS
  1
SCALE
  2
AcDbScale
  3
ObjectDBX Classes
 90
     1153
 91
        4
280
     0
281
     0
  0
CLASS
  1
TABLESTYLE
  2
AcDbTableStyle
  3
ObjectDBX Classes
 90
     4095
 91
        4
280
     0
281
     0
  0
CLASS
  1
MLEADERSTYLE
  2
AcDbMLeaderStyle
  3
ACDB_MLEADERSTYLE_CLASS
 90
     4095
 91
        4
280
     0
281
     0
  0
CLASS
  1
SUN
  2
AcDbSun
  3
SCENEOE
 90
     1153
 91
        4
280
     0
281
     0
  0
CLASS
  1
DICTIONARYVAR
  2
AcDbDictionaryVar
  3
ObjectDBX Classes
 90
        0
 91
        4
280
     0
281
     0
  0
CLASS
  1
CELLSTYLEMAP
  2
AcDbCellStyleMap
  3
ObjectDBX Classes
 90
     1152
 91
        4
280
     0
281
     0
  0
ENDSEC
  0
SECTION
  2
TABLES
  0
TABLE
  2
VPORT
  5
8
330
0
100
AcDbSymbolTable
 70
     1
  0
VPORT
  5
29
330
8
100
AcDbSymbolTableRecord
100
AcDbViewportTableRecord
  2
*Active
 70
     0
 10
0.0
 20
0.0
 11
1.0
 21
1.0
 12
161.1003092783776
 22
148.1635971509333
 13
0.0
 23
0.0
 14
10.0
 24
10.0
 15
10.0
 25
10.0
 16
0.0
 26
0.0
 36
1.0
 17
0.0
 27
0.0
 37
0.0
 40
369.9537554222419
 41
1.863590772316951
 42
50.0
 43
0.0
 44
0.0
 50
0.0
 51
0.0
 71
     0
 72
   100
 73
     1
 74
     3
 75
     0
 76
     0
 77
     0
 78
     0
281
     0
 65
     1
110
0.0
120
0.0
130
0.0
111
1.0
121
0.0
131
0.0
112
0.0
122
1.0
132
0.0
 79
     0
146
0.0
348
2F
 60
     3
 61
     5
292
     1
282
     1
141
0.0
142
0.0
 63
   250
361
6D
  0
ENDTAB
  0
TABLE
  2
LTYPE
  5
5
330
0
100
AcDbSymbolTable
 70
     7
  0
LTYPE
  5
14
330
5
100
AcDbSymbolTableRecord
100
AcDbLinetypeTableRecord
  2
ByBlock
 70
     0
  3

 72
    65
 73
     0
 40
0.0
  0
LTYPE
  5
15
330
5
100
AcDbSymbolTableRecord
100
AcDbLinetypeTableRecord
  2
ByLayer
 70
     0
  3

 72
    65
 73
     0
 40
0.0
  0
LTYPE
  5
16
330
5
100
AcDbSymbolTableRecord
100
AcDbLinetypeTableRecord
  2
Continuous
 70
     0
  3
Solid line
 72
    65
 73
     0
 40
0.0
  0
LTYPE
  5
6E
330
5
100
AcDbSymbolTableRecord
100
AcDbLinetypeTableRecord
  2
DOT
 70
     0
  3
Dot . . . . . . . . . . . . . . . . . . . . . . . .
 72
    65
 73
     2
 40
2.032
 49
1.016
 74
     0
 49
-1.016
 74
     0
  0
LTYPE
  5
6F
330
5
100
AcDbSymbolTableRecord
100
AcDbLinetypeTableRecord
  2
CENTER
 70
     0
  3
Center ____ _ ____ _ ____ _ ____ _ ____ _ ____
 72
    65
 73
     4
 40
13.208
 49
8.128
 74
     0
 49
-1.524
 74
     0
 49
2.032
 74
     0
 49
-1.524
 74
     0
  0
LTYPE
  5
70
330
5
100
AcDbSymbolTableRecord
100
AcDbLinetypeTableRecord
  2
HIDDEN2
 70
     0
  3
Hidden (.5x) _ _ _ _ _ _ _ _ _ _ _ _ _ _ _ _ _
 72
    65
 73
     2
 40
4.762499999999999
 49
3.175
 74
     0
 49
-1.5875
 74
     0
  0
LTYPE
  5
71
330
5
100
AcDbSymbolTableRecord
100
AcDbLinetypeTableRecord
  2
DASHED
 70
     0
  3
Dashed __ __ __ __ __ __ __ __ __ __ __ __ __ _
 72
    65
 73
     2
 40
9.652
 49
8.128
 74
     0
 49
-1.524
 74
     0
  0
LTYPE
  5
72
330
5
100
AcDbSymbolTableRecord
100
AcDbLinetypeTableRecord
  2
PHANTOM2
 70
     0
  3
Phantom (.5x) ___ _ _ ___ _ _ ___ _ _ ___ _ _
 72
    65
 73
     6
 40
14.732
 49
8.128
 74
     0
 49
-1.524
 74
     0
 49
1.016
 74
     0
 49
-1.524
 74
     0
 49
1.016
 74
     0
 49
-1.524
 74
     0
  0
LTYPE
  5
73
330
5
100
AcDbSymbolTableRecord
100
AcDbLinetypeTableRecord
  2
DASHDOT
 70
     0
  3
Dash dot __ . __ . __ . __ . __ . __ . __ . __
 72
    65
 73
     4
 40
11.176
 49
8.128
 74
     0
 49
-1.524
 74
     0
 49
0.0
 74
     0
 49
-1.524
 74
     0
  0
ENDTAB
  0
TABLE
  2
LAYER
  5
2
330
0
100
AcDbSymbolTable
 70
     8
  0
LAYER
  5
10
330
2
100
AcDbSymbolTableRecord
100
AcDbLayerTableRecord
  2
0
 70
     0
 62
     7
  6
Continuous
370
    -3
390
F
347
46
348
0
  0
LAYER
  5
74
330
2
100
AcDbSymbolTableRecord
100
AcDbLayerTableRecord
  2
Outline
 70
     0
 62
     7
  6
Continuous
370
    -3
390
F
347
46
348
0
  0
LAYER
  5
75
330
2
100
AcDbSymbolTableRecord
100
AcDbLayerTableRecord
  2
Axis
 70
     0
 62
     5
  6
DASHDOT
370
    -3
390
F
347
46
348
0
  0
LAYER
  5
76
330
2
100
AcDbSymbolTableRecord
100
AcDbLayerTableRecord
  2
Dimension
 70
     0
 62
     7
  6
Continuous
370
    -3
390
F
347
46
348
0
  0
LAYER
  5
77
330
2
100
AcDbSymbolTableRecord
100
AcDbLayerTableRecord
  2
Hatch
 70
     0
 62
     5
  6
Continuous
370
    -3
390
F
347
46
348
0
  0
LAYER
  5
78
330
2
100
AcDbSymbolTableRecord
100
AcDbLayerTableRecord
  2
Auxiliary
 70
     0
 62
     1
  6
DOT
370
    -3
390
F
347
46
348
0
  0
LAYER
  5
79
330
2
100
AcDbSymbolTableRecord
100
AcDbLayerTableRecord
  2
Invisible
 70
     0
 62
     6
  6
DOT
370
    -3
390
F
347
46
348
0
  0
LAYER
  5
B8
330
2
100
AcDbSymbolTableRecord
100
AcDbLayerTableRecord
  2
Defpoints
 70
     0
 62
     7
  6
Continuous
290
     0
370
    -3
390
F
347
46
348
0
  0
ENDTAB
  0
TABLE
  2
STYLE
  5
3
330
0
100
AcDbSymbolTable
 70
    33
  0
STYLE
  5
11
330
3
100
AcDbSymbolTableRecord
100
AcDbTextStyleTableRecord
  2
Standard
 70
     0
 40
0.0
 41
1.0
 50
0.0
 71
     0
 42
2.5
  3
txt
  4

  0
STYLE
  5
7A
330
3
100
AcDbSymbolTableRecord
100
AcDbTextStyleTableRecord
  2
VCDSTYLE01
 70
     0
 40
0.0
 41
1.0
 50
0.0
 71
     0
 42
2.5
  3
txt
  4

  0
STYLE
  5
7B
330
3
100
AcDbSymbolTableRecord
100
AcDbTextStyleTableRecord
  2
VCDSTYLE02
 70
     0
 40
0.0
 41
1.0
 50
0.0
 71
     0
 42
2.5
  3
txt
  4

  0
STYLE
  5
7C
330
3
100
AcDbSymbolTableRecord
100
AcDbTextStyleTableRecord
  2
VCDSTYLE03
 70
     0
 40
0.0
 41
1.0
 50
0.0
 71
     0
 42
2.5
  3
txt
  4

  0
STYLE
  5
7D
330
3
100
AcDbSymbolTableRecord
100
AcDbTextStyleTableRecord
  2
VCDSTYLE04
 70
     0
 40
0.0
 41
1.0
 50
0.0
 71
     0
 42
2.5
  3
txt
  4

  0
STYLE
  5
7E
330
3
100
AcDbSymbolTableRecord
100
AcDbTextStyleTableRecord
  2
VCDSTYLE05
 70
     0
 40
0.0
 41
1.0
 50
0.0
 71
     0
 42
2.5
  3
txt
  4

  0
STYLE
  5
7F
330
3
100
AcDbSymbolTableRecord
100
AcDbTextStyleTableRecord
  2
VCDSTYLE06
 70
     0
 40
0.0
 41
1.0
 50
0.0
 71
     0
 42
2.5
  3
txt
  4

  0
STYLE
  5
80
330
3
100
AcDbSymbolTableRecord
100
AcDbTextStyleTableRecord
  2
VCDSTYLE07
 70
     0
 40
0.0
 41
1.0
 50
0.0
 71
     0
 42
2.5
  3
txt
  4

  0
STYLE
  5
81
330
3
100
AcDbSymbolTableRecord
100
AcDbTextStyleTableRecord
  2
VCDSTYLE08
 70
     0
 40
0.0
 41
1.0
 50
0.0
 71
     0
 42
2.5
  3
txt
  4

  0
STYLE
  5
82
330
3
100
AcDbSymbolTableRecord
100
AcDbTextStyleTableRecord
  2
VCDSTYLE09
 70
     0
 40
0.0
 41
1.0
 50
0.0
 71
     0
 42
2.5
  3
txt
  4

  0
STYLE
  5
83
330
3
100
AcDbSymbolTableRecord
100
AcDbTextStyleTableRecord
  2
VCDSTYLE10
 70
     0
 40
0.0
 41
1.0
 50
0.0
 71
     0
 42
2.5
  3
Sans Serif.ttf
  4

1001
ACAD
1000
Sans Serif
1071
        0
  0
STYLE
  5
84
330
3
100
AcDbSymbolTableRecord
100
AcDbTextStyleTableRecord
  2
VCDSTYLE11
 70
     0
 40
0.0
 41
1.0
 50
0.0
 71
     0
 42
2.5
  3
Sans Serif.ttf
  4

1001
ACAD
1000
Sans Serif
1071
 16777216
  0
STYLE
  5
85
330
3
100
AcDbSymbolTableRecord
100
AcDbTextStyleTableRecord
  2
VCDSTYLE12
 70
     0
 40
0.0
 41
1.0
 50
0.0
 71
     0
 42
2.5
  3
DejaVu Sans.ttf
  4

1001
ACAD
1000
DejaVu Sans
1071
        0
  0
STYLE
  5
86
330
3
100
AcDbSymbolTableRecord
100
AcDbTextStyleTableRecord
  2
VCDSTYLE13
 70
     0
 40
0.0
 41
1.0
 50
0.0
 71
     0
 42
2.5
  3
DejaVu Sans.ttf
  4

1001
ACAD
1000
DejaVu Sans
1071
 16777216
  0
STYLE
  5
87
330
3
100
AcDbSymbolTableRecord
100
AcDbTextStyleTableRecord
  2
VCDSTYLE14
 70
     0
 40
0.0
 41
1.0
 50
0.0
 71
     0
 42
2.5
  3
DejaVu Sans Mono.ttf
  4

1001
ACAD
1000
DejaVu Sans Mono
1071
        0
  0
STYLE
  5
88
330
3
100
AcDbSymbolTableRecord
100
AcDbTextStyleTableRecord
  2
VCDSTYLE15
 70
     0
 40
0.0
 41
1.0
 50
0.0
 71
     0
 42
2.5
  3
DejaVu Sans Mono.ttf
  4

1001
ACAD
1000
DejaVu Sans Mono
1071
 16777216
  0
STYLE
  5
89
330
3
100
AcDbSymbolTableRecord
100
AcDbTextStyleTableRecord
  2
VCDSTYLE16
 70
     0
 40
0.0
 41
1.0
 50
0.0
 71
     0
 42
2.5
  3
UnDotum.ttf
  4

1001
ACAD
1000
UnDotum
1071
        0
  0
STYLE
  5
8A
330
3
100
AcDbSymbolTableRecord
100
AcDbTextStyleTableRecord
  2
VCDSTYLE17
 70
     0
 40
0.0
 41
1.0
 50
0.0
 71
     0
 42
2.5
  3
UnDotum.ttf
  4

1001
ACAD
1000
UnDotum
1071
 16777216
  0
STYLE
  5
8B
330
3
100
AcDbSymbolTableRecord
100
AcDbTextStyleTableRecord
  2
VCDSTYLE18
 70
     0
 40
0.0
 41
1.0
 50
0.0
 71
     0
 42
2.5
  3
Sans Serif.ttf
  4

1001
ACAD
1000
Sans Serif
1071
        0
  0
STYLE
  5
8C
330
3
100
AcDbSymbolTableRecord
100
AcDbTextStyleTableRecord
  2
VCDSTYLE19
 70
     0
 40
0.0
 41
1.0
 50
0.0
 71
     0
 42
2.5
  3
Sans Serif.ttf
  4

1001
ACAD
1000
Sans Serif
1071
 16777216
  0
STYLE
  5
8D
330
3
100
AcDbSymbolTableRecord
100
AcDbTextStyleTableRecord
  2
VCDSTYLE20
 70
     0
 40
0.0
 41
1.0
 50
0.0
 71
     0
 42
2.5
  3
Sans Serif.ttf
  4

1001
ACAD
1000
Sans Serif
1071
        0
  0
STYLE
  5
8E
330
3
100
AcDbSymbolTableRecord
100
AcDbTextStyleTableRecord
  2
VCDSTYLE21
 70
     0
 40
0.0
 41
1.0
 50
0.0
 71
     0
 42
2.5
  3
Sans Serif.ttf
  4

1001
ACAD
1000
Sans Serif
1071
 16777216
  0
STYLE
  5
8F
330
3
100
AcDbSymbolTableRecord
100
AcDbTextStyleTableRecord
  2
VCDSTYLE22
 70
     0
 40
0.0
 41
1.0
 50
0.0
 71
     0
 42
2.5
  3
Monospace.ttf
  4

1001
ACAD
1000
Monospace
1071
        0
  0
STYLE
  5
90
330
3
100
AcDbSymbolTableRecord
100
AcDbTextStyleTableRecord
  2
VCDSTYLE23
 70
     0
 40
0.0
 41
1.0
 50
0.0
 71
     0
 42
2.5
  3
Monospace.ttf
  4

1001
ACAD
1000
Monospace
1071
 16777216
  0
STYLE
  5
91
330
3
100
AcDbSymbolTableRecord
100
AcDbTextStyleTableRecord
  2
VCDSTYLE24
 70
     0
 40
0.0
 41
1.0
 50
0.0
 71
     0
 42
2.5
  3
URW Gothic L.ttf
  4

1001
ACAD
1000
URW Gothic L
1071
        0
  0
STYLE
  5
92
330
3
100
AcDbSymbolTableRecord
100
AcDbTextStyleTableRecord
  2
VCDSTYLE25
 70
     0
 40
0.0
 41
1.0
 50
0.0
 71
     0
 42
2.5
  3
URW Gothic L.ttf
  4

1001
ACAD
1000
URW Gothic L
1071
 16777216
  0
STYLE
  5
93
330
3
100
AcDbSymbolTableRecord
100
AcDbTextStyleTableRecord
  2
VCDSTYLE26
 70
     0
 40
0.0
 41
1.0
 50
0.0
 71
     0
 42
2.5
  3
Waree.ttf
  4

1001
ACAD
1000
Waree
1071
        0
  0
STYLE
  5
94
330
3
100
AcDbSymbolTableRecord
100
AcDbTextStyleTableRecord
  2
VCDSTYLE27
 70
     0
 40
0.0
 41
1.0
 50
0.0
 71
     0
 42
2.5
  3
Waree.ttf
  4

1001
ACAD
1000
Waree
1071
 16777216
  0
STYLE
  5
95
330
3
100
AcDbSymbolTableRecord
100
AcDbTextStyleTableRecord
  2
VCDSTYLE28
 70
     0
 40
0.0
 41
1.0
 50
0.0
 71
     0
 42
2.5
  3
Nimbus Mono L.ttf
  4

1001
ACAD
1000
Nimbus Mono L
1071
        0
  0
STYLE
  5
96
330
3
100
AcDbSymbolTableRecord
100
AcDbTextStyleTableRecord
  2
VCDSTYLE29
 70
     0
 40
0.0
 41
1.0
 50
0.0
 71
     0
 42
2.5
  3
Nimbus Sans L.ttf
  4

1001
ACAD
1000
Nimbus Sans L
1071
        0
  0
STYLE
  5
97
330
3
100
AcDbSymbolTableRecord
100
AcDbTextStyleTableRecord
  2
VCDSTYLE30
 70
     0
 40
0.0
 41
1.0
 50
0.0
 71
     0
 42
2.5
  3
Nimbus Sans L.ttf
  4

1001
ACAD
1000
Nimbus Sans L
1071
 16777216
  0
STYLE
  5
98
330
3
100
AcDbSymbolTableRecord
100
AcDbTextStyleTableRecord
  2
VCDSTYLE31
 70
     0
 40
0.0
 41
1.0
 50
0.0
 71
     0
 42
2.5
  3
Serif.ttf
  4

1001
ACAD
1000
Serif
1071
        0
  0
STYLE
  5
99
330
3
100
AcDbSymbolTableRecord
100
AcDbTextStyleTableRecord
  2
VCDSTYLE32
 70
     0
 40
0.0
 41
1.0
 50
0.0
 71
     0
 42
2.5
  3
Serif.ttf
  4

1001
ACAD
1000
Serif
1071
 16777216
  0
ENDTAB
  0
TABLE
  2
VIEW
  5
6
330
0
100
AcDbSymbolTable
 70
     0
  0
ENDTAB
  0
TABLE
  2
UCS
  5
7
330
0
100
AcDbSymbolTable
 70
     0
  0
ENDTAB
  0
TABLE
  2
APPID
  5
9
330
0
100
AcDbSymbolTable
 70
     2
  0
APPID
  5
12
330
9
100
AcDbSymbolTableRecord
100
AcDbRegAppTableRecord
  2
ACAD
 70
     0
  0
APPID
  5
B5
330
9
100
AcDbSymbolTableRecord
100
AcDbRegAppTableRecord
  2
ACAD_DSTYLE_DIMRADIAL_EXTENSION
 70
     0
  0
ENDTAB
  0
TABLE
  2
DIMSTYLE
  5
A
330
0
100
AcDbSymbolTable
 70
     2
100
AcDbDimStyleTable
  0
DIMSTYLE
105
27
330
A
100
AcDbSymbolTableRecord
100
AcDbDimStyleTableRecord
  2
ISO-25
 70
     0
 41
2.5
 42
0.625
 43
3.75
 44
1.25
 73
     0
 74
     0
 77
     1
 78
     8
140
2.5
141
2.5
143
0.03937007874016
147
0.625
171
     3
172
     1
178
     0
271
     2
272
     2
274
     3
278
    44
283
     0
284
     8
340
11
  0
DIMSTYLE
105
B6
102
{ACAD_REACTORS
330
B7
330
C2
330
CF
330
DC
102
}
330
A
100
AcDbSymbolTableRecord
100
AcDbDimStyleTableRecord
  2
VCDDIMSTYLE01
 70
     0
 41
5.0
 42
0.0
 43
8.0
 44
1.0
 73
     0
 74
     0
 77
     1
 78
     8
 79
     2
140
4.0
147
1.0
172
     1
173
     1
178
     0
179
     3
271
     5
275
     1
288
     1
289
     0
340
7B
  0
ENDTAB
  0
TABLE
  2
BLOCK_RECORD
  5
1
330
0
100
AcDbSymbolTable
 70
    11
  0
BLOCK_RECORD
  5
1F
330
1
100
AcDbSymbolTableRecord
100
AcDbBlockTableRecord
  2
*Model_Space
340
22
 70
     0
280
     1
281
     0
  0
BLOCK_RECORD
  5
1B
330
1
100
AcDbSymbolTableRecord
100
AcDbBlockTableRecord
  2
*Paper_Space
340
1E
 70
     0
280
     1
281
     0
  0
BLOCK_RECORD
  5
23
330
1
100
AcDbSymbolTableRecord
100
AcDbBlockTableRecord
  2
*Paper_Space0
340
26
 70
     0
280
     1
281
     0
  0
BLOCK_RECORD
  5
9A
330
1
100
AcDbSymbolTableRecord
100
AcDbBlockTableRecord
  2
$AttrValue elphel_parts
340
0
102
{BLKREFS
331
9C
102
}
 70
     0
280
     1
281
     0
  0
BLOCK_RECORD
  5
9F
330
1
100
AcDbSymbolTableRecord
100
AcDbBlockTableRecord
  2
$AttrValue elphel_parts(1)
340
0
102
{BLKREFS
331
A1
102
}
 70
     0
280
     1
281
     0
  0
BLOCK_RECORD
  5
A4
330
1
100
AcDbSymbolTableRecord
100
AcDbBlockTableRecord
  2
$AttrValue elphel_parts(2)
340
0
102
{BLKREFS
331
A6
102
}
 70
     0
280
     1
281
     0
  0
BLOCK_RECORD
  5
A9
330
1
100
AcDbSymbolTableRecord
100
AcDbBlockTableRecord
  2
$AttrValue elphel_parts(3)
340
0
102
{BLKREFS
331
AB
102
}
 70
     0
280
     1
281
     0
  0
BLOCK_RECORD
  5
AE
330
1
100
AcDbSymbolTableRecord
100
AcDbBlockTableRecord
  2
*D5
340
0
 70
     0
280
     1
281
     0
  0
BLOCK_RECORD
  5
BB
330
1
100
AcDbSymbolTableRecord
100
AcDbBlockTableRecord
  2
*D6
340
0
 70
     0
280
     1
281
     0
  0
BLOCK_RECORD
  5
C8
330
1
100
AcDbSymbolTableRecord
100
AcDbBlockTableRecord
  2
*D7
340
0
 70
     0
280
     1
281
     0
  0
BLOCK_RECORD
  5
D5
330
1
100
AcDbSymbolTableRecord
100
AcDbBlockTableRecord
  2
*D8
340
0
 70
     0
280
     1
281
     0
  0
BLOCK_RECORD
  5
E2
330
1
100
AcDbSymbolTableRecord
100
AcDbBlockTableRecord
  2
Sheet Border
340
0
102
{BLKREFS
331
E5
102
}
 70
     0
280
     1
281
     0
  0
BLOCK_RECORD
  5
E8
330
1
100
AcDbSymbolTableRecord
100
AcDbBlockTableRecord
  2
$TitleBlock elphel_parts
340
0
102
{BLKREFS
331
116
102
}
 70
     0
280
     1
281
     0
  0
ENDTAB
  0
ENDSEC
  0
SECTION
  2
BLOCKS
  0
BLOCK
  5
20
330
1F
100
AcDbEntity
  8
0
100
AcDbBlockBegin
  2
*Model_Space
 70
     0
 10
0.0
 20
0.0
 30
0.0
  3
*Model_Space
  1

  0
ENDBLK
  5
21
330
1F
100
AcDbEntity
  8
0
100
AcDbBlockEnd
  0
BLOCK
  5
1C
330
1B
100
AcDbEntity
 67
     1
  8
0
100
AcDbBlockBegin
  2
*Paper_Space
 70
     0
 10
0.0
 20
0.0
 30
0.0
  3
*Paper_Space
  1

  0
ENDBLK
  5
1D
330
1B
100
AcDbEntity
 67
     1
  8
0
100
AcDbBlockEnd
  0
BLOCK
  5
24
330
23
100
AcDbEntity
  8
0
100
AcDbBlockBegin
  2
*Paper_Space0
 70
     0
 10
0.0
 20
0.0
 30
0.0
  3
*Paper_Space0
  1

  0
ENDBLK
  5
25
330
23
100
AcDbEntity
  8
0
100
AcDbBlockEnd
  0
BLOCK
  5
9D
330
9A
100
AcDbEntity
  8
0
100
AcDbBlockBegin
  2
$AttrValue elphel_parts
 70
     0
 10
0.0
 20
0.0
 30
0.0
  3
$AttrValue elphel_parts
  1

  0
TEXT
  5
9B
330
9A
100
AcDbEntity
  8
0
 62
     2
100
AcDbText
 10
0.0
 20
0.0
 30
0.0
 40
2.0
  1
PLA
  7
VCDSTYLE04
100
AcDbText
  0
ENDBLK
  5
9E
330
9A
100
AcDbEntity
  8
0
100
AcDbBlockEnd
  0
BLOCK
  5
A2
330
9F
100
AcDbEntity
  8
0
100
AcDbBlockBegin
  2
$AttrValue elphel_parts(1)
 70
     0
 10
0.0
 20
0.0
 30
0.0
  3
$AttrValue elphel_parts(1)
  1

  0
TEXT
  5
A0
330
9F
100
AcDbEntity
  8
0
100
AcDbText
 10
0.0
 20
0.0
 30
0.0
 40
1.5
  1
2016
  7
VCDSTYLE10
100
AcDbText
  0
ENDBLK
  5
A3
330
9F
100
AcDbEntity
  8
0
100
AcDbBlockEnd
  0
BLOCK
  5
A7
330
A4
100
AcDbEntity
  8
0
100
AcDbBlockBegin
  2
$AttrValue elphel_parts(2)
 70
     0
 10
0.0
 20
0.0
 30
0.0
  3
$AttrValue elphel_parts(2)
  1

  0
TEXT
  5
A5
330
A4
100
AcDbEntity
  8
0
 62
     2
100
AcDbText
 10
0.0
 20
0.0
 30
0.0
 40
3.0
  1
C/CS SFE adaptor
  7
VCDSTYLE04
100
AcDbText
  0
ENDBLK
  5
A8
330
A4
100
AcDbEntity
  8
0
100
AcDbBlockEnd
  0
BLOCK
  5
AC
330
A9
100
AcDbEntity
  8
0
100
AcDbBlockBegin
  2
$AttrValue elphel_parts(3)
 70
     0
 10
0.0
 20
0.0
 30
0.0
  3
$AttrValue elphel_parts(3)
  1

  0
TEXT
  5
AA
330
A9
100
AcDbEntity
  8
0
 62
     2
100
AcDbText
 10
0.0
 20
0.0
 30
0.0
 40
6.0
  1
0393-27-01f
  7
VCDSTYLE22
100
AcDbText
  0
ENDBLK
  5
AD
330
A9
100
AcDbEntity
  8
0
100
AcDbBlockEnd
  0
BLOCK
  5
B9
330
AE
100
AcDbEntity
  8
0
100
AcDbBlockBegin
  2
*D5
 70
     1
 10
0.0
 20
0.0
 30
0.0
  3
*D5
  1

  0
LINE
  5
AF
330
AE
100
AcDbEntity
  8
Dimension
 62
     0
370
    -2
100
AcDbLine
 10
95.20545904670202
 20
208.2192486243995
 30
0.0
 11
137.9981950218601
 21
257.8480180013388
 31
0.0
  0
MTEXT
  5
B0
330
AE
100
AcDbEntity
  8
Dimension
 62
     0
100
AcDbMText
 10
129.4442643395614
 20
252.757723467636
 30
0.0
 40
4.0
 41
0.0
 46
0.0
 71
     5
 72
     1
  1
\A1;%%c25.6
  7
VCDSTYLE02
 11
0.6530211562847692
 21
0.7573396658333058
 31
0.0
 73
     1
 44
1.0
  0
LINE
  5
B1
330
AE
100
AcDbEntity
  8
Dimension
 62
     0
370
    -2
100
AcDbLine
 10
111.9228006475921
 20
227.6071440697321
 30
0.0
 11
95.20545904670202
 21
208.2192486243995
 31
0.0
  0
SOLID
  5
B2
330
AE
100
AcDbEntity
  8
Dimension
 62
     0
100
AcDbTrace
 10
97.83944843993143
 20
212.55013125047
 30
0.0
 11
99.10168121632029
 21
211.461762656662
 31
0.0
 12
95.20545904670202
 22
208.2192486243995
 32
0.0
 13
95.20545904670202
 23
208.2192486243995
 33
0.0
  0
POINT
  5
B3
330
AE
100
AcDbEntity
  8
Defpoints
 62
     0
100
AcDbPoint
 10
95.20545904670202
 20
208.2192486243995
 30
0.0
  0
POINT
  5
B4
330
AE
100
AcDbEntity
  8
Defpoints
 62
     0
100
AcDbPoint
 10
111.9228006475921
 20
227.6071440697321
 30
0.0
  0
ENDBLK
  5
BA
330
AE
100
AcDbEntity
  8
0
100
AcDbBlockEnd
  0
BLOCK
  5
C6
330
BB
100
AcDbEntity
  8
0
100
AcDbBlockBegin
  2
*D6
 70
     1
 10
0.0
 20
0.0
 30
0.0
  3
*D6
  1

  0
LINE
  5
BC
330
BB
100
AcDbEntity
  8
Dimension
 62
     0
370
    -2
100
AcDbLine
 10
126.614129847147
 20
164.4131963470657
 30
0.0
 11
136.312742640337
 21
164.4131963470657
 31
0.0
  0
LINE
  5
BD
330
BB
100
AcDbEntity
  8
Dimension
 62
     0
370
    -2
100
AcDbLine
 10
126.6141298471471
 20
121.4131963470658
 30
0.0
 11
136.312742640337
 21
121.4131963470658
 31
0.0
  0
LINE
  5
BE
330
BB
100
AcDbEntity
  8
Dimension
 62
     0
370
    -2
100
AcDbLine
 10
135.312742640337
 20
159.4131963470657
 30
0.0
 11
135.312742640337
 21
126.4131963470658
 31
0.0
  0
SOLID
  5
BF
330
BB
100
AcDbEntity
  8
Dimension
 62
     0
100
AcDbTrace
 10
136.1460759736703
 20
159.4131963470657
 30
0.0
 11
134.4794093070036
 21
159.4131963470657
 31
0.0
 12
135.312742640337
 22
164.4131963470657
 32
0.0
 13
135.312742640337
 23
164.4131963470657
 33
0.0
  0
SOLID
  5
C0
330
BB
100
AcDbEntity
  8
Dimension
 62
     0
100
AcDbTrace
 10
134.4794093070036
 20
126.4131963470658
 30
0.0
 11
136.1460759736703
 21
126.4131963470658
 31
0.0
 12
135.312742640337
 22
121.4131963470658
 32
0.0
 13
135.312742640337
 23
121.4131963470658
 33
0.0
  0
MTEXT
  5
C1
330
BB
100
AcDbEntity
  8
Dimension
 62
     0
100
AcDbMText
 10
132.312742640337
 20
142.3639136006136
 30
0.0
 40
4.0
 41
0.0
 46
0.0
 71
     5
 72
     1
  1
\A1;43
  7
VCDSTYLE02
 11
0.0
 21
1.0
 31
0.0
 73
     1
 44
1.0
  0
POINT
  5
C3
330
BB
100
AcDbEntity
  8
Defpoints
 62
     0
100
AcDbPoint
 10
126.614129847147
 20
164.4131963470657
 30
0.0
  0
POINT
  5
C4
330
BB
100
AcDbEntity
  8
Defpoints
 62
     0
100
AcDbPoint
 10
126.6141298471471
 20
121.4131963470658
 30
0.0
  0
POINT
  5
C5
330
BB
100
AcDbEntity
  8
Defpoints
 62
     0
100
AcDbPoint
 10
135.312742640337
 20
121.4131963470658
 30
0.0
  0
ENDBLK
  5
C7
330
BB
100
AcDbEntity
  8
0
100
AcDbBlockEnd
  0
BLOCK
  5
D3
330
C8
100
AcDbEntity
  8
0
100
AcDbBlockBegin
  2
*D7
 70
     1
 10
0.0
 20
0.0
 30
0.0
  3
*D7
  1

  0
LINE
  5
C9
330
C8
100
AcDbEntity
  8
Dimension
 62
     0
370
    -2
100
AcDbLine
 10
7.064129847147001
 20
199.9131963470658
 30
0.0
 11
7.064129847147001
 21
188.8722567323433
 31
0.0
  0
LINE
  5
CA
330
C8
100
AcDbEntity
  8
Dimension
 62
     0
370
    -2
100
AcDbLine
 10
50.06412984714703
 20
199.9131963470658
 30
0.0
 11
50.06412984714703
 21
188.8722567323433
 31
0.0
  0
LINE
  5
CB
330
C8
100
AcDbEntity
  8
Dimension
 62
     0
370
    -2
100
AcDbLine
 10
12.064129847147
 20
189.8722567323433
 30
0.0
 11
45.06412984714703
 21
189.8722567323433
 31
0.0
  0
SOLID
  5
CC
330
C8
100
AcDbEntity
  8
Dimension
 62
     0
100
AcDbTrace
 10
12.064129847147
 20
190.7055900656767
 30
0.0
 11
12.064129847147
 21
189.03892339901
 31
0.0
 12
7.064129847147001
 22
189.8722567323433
 32
0.0
 13
7.064129847147001
 23
189.8722567323433
 33
0.0
  0
SOLID
  5
CD
330
C8
100
AcDbEntity
  8
Dimension
 62
     0
100
AcDbTrace
 10
45.06412984714703
 20
189.03892339901
 30
0.0
 11
45.06412984714703
 21
190.7055900656767
 31
0.0
 12
50.06412984714703
 22
189.8722567323433
 32
0.0
 13
50.06412984714703
 23
189.8722567323433
 33
0.0
  0
MTEXT
  5
CE
330
C8
100
AcDbEntity
  8
Dimension
 62
     0
100
AcDbMText
 10
28.07129702469013
 20
192.8722567323433
 30
0.0
 40
4.0
 41
0.0
 46
0.0
 71
     5
 72
     1
  1
\A1;43
  7
VCDSTYLE02
 73
     1
 44
1.0
  0
POINT
  5
D0
330
C8
100
AcDbEntity
  8
Defpoints
 62
     0
100
AcDbPoint
 10
7.064129847147001
 20
199.9131963470658
 30
0.0
  0
POINT
  5
D1
330
C8
100
AcDbEntity
  8
Defpoints
 62
     0
100
AcDbPoint
 10
50.06412984714703
 20
199.9131963470658
 30
0.0
  0
POINT
  5
D2
330
C8
100
AcDbEntity
  8
Defpoints
 62
     0
100
AcDbPoint
 10
50.06412984714703
 20
189.8722567323433
 30
0.0
  0
ENDBLK
  5
D4
330
C8
100
AcDbEntity
  8
0
100
AcDbBlockEnd
  0
BLOCK
  5
E0
330
D5
100
AcDbEntity
  8
0
100
AcDbBlockBegin
  2
*D8
 70
     1
 10
0.0
 20
0.0
 30
0.0
  3
*D8
  1

  0
LINE
  5
D6
330
D5
100
AcDbEntity
  8
Dimension
 62
     0
370
    -2
100
AcDbLine
 10
46.56412984714701
 20
239.4131963470658
 30
0.0
 11
57.57463534465674
 21
239.4131963470658
 31
0.0
  0
LINE
  5
D7
330
D5
100
AcDbEntity
  8
Dimension
 62
     0
370
    -2
100
AcDbLine
 10
46.56412984714717
 20
196.4131963470658
 30
0.0
 11
57.57463534465674
 21
196.4131963470658
 31
0.0
  0
LINE
  5
D8
330
D5
100
AcDbEntity
  8
Dimension
 62
     0
370
    -2
100
AcDbLine
 10
56.57463534465674
 20
234.4131963470658
 30
0.0
 11
56.57463534465674
 21
201.4131963470658
 31
0.0
  0
SOLID
  5
D9
330
D5
100
AcDbEntity
  8
Dimension
 62
     0
100
AcDbTrace
 10
57.40796867799008
 20
234.4131963470658
 30
0.0
 11
55.74130201132341
 21
234.4131963470658
 31
0.0
 12
56.57463534465674
 22
239.4131963470658
 32
0.0
 13
56.57463534465674
 23
239.4131963470658
 33
0.0
  0
SOLID
  5
DA
330
D5
100
AcDbEntity
  8
Dimension
 62
     0
100
AcDbTrace
 10
55.74130201132341
 20
201.4131963470658
 30
0.0
 11
57.40796867799008
 21
201.4131963470658
 31
0.0
 12
56.57463534465674
 22
196.4131963470658
 32
0.0
 13
56.57463534465674
 23
196.4131963470658
 33
0.0
  0
MTEXT
  5
DB
330
D5
100
AcDbEntity
  8
Dimension
 62
     0
100
AcDbMText
 10
53.57463534465674
 20
219.0439417039139
 30
0.0
 40
4.0
 41
0.0
 46
0.0
 71
     5
 72
     1
  1
\A1;43
  7
VCDSTYLE02
 11
0.0
 21
1.0
 31
0.0
 73
     1
 44
1.0
  0
POINT
  5
DD
330
D5
100
AcDbEntity
  8
Defpoints
 62
     0
100
AcDbPoint
 10
46.56412984714701
 20
239.4131963470658
 30
0.0
  0
POINT
  5
DE
330
D5
100
AcDbEntity
  8
Defpoints
 62
     0
100
AcDbPoint
 10
46.56412984714717
 20
196.4131963470658
 30
0.0
  0
POINT
  5
DF
330
D5
100
AcDbEntity
  8
Defpoints
 62
     0
100
AcDbPoint
 10
56.57463534465674
 20
196.4131963470658
 30
0.0
  0
ENDBLK
  5
E1
330
D5
100
AcDbEntity
  8
0
100
AcDbBlockEnd
  0
BLOCK
  5
E6
330
E2
100
AcDbEntity
  8
0
100
AcDbBlockBegin
  2
Sheet Border
 70
     0
 10
0.0
 20
0.0
 30
0.0
  3
Sheet Border
  1

  0
LWPOLYLINE
  5
E3
330
E2
100
AcDbEntity
  8
Outline
 62
     2
100
AcDbPolyline
 90
        5
 70
     0
 43
0.0
 10
5.0
 20
5.0
 10
205.0
 20
5.0
 10
205.0
 20
292.0
 10
5.0
 20
292.0
 10
5.0
 20
5.0
  0
LWPOLYLINE
  5
E4
330
E2
100
AcDbEntity
  8
Outline
 62
     2
100
AcDbPolyline
 90
        5
 70
     0
 43
0.0
 10
0.0
 20
0.0
 10
210.0
 20
0.0
 10
210.0
 20
297.0
 10
0.0
 20
297.0
 10
0.0
 20
0.0
  0
ENDBLK
  5
E7
330
E2
100
AcDbEntity
  8
0
100
AcDbBlockEnd
  0
BLOCK
  5
117
330
E8
100
AcDbEntity
  8
0
100
AcDbBlockBegin
  2
$TitleBlock elphel_parts
 70
     0
 10
0.0
 20
0.0
 30
0.0
  3
$TitleBlock elphel_parts
  1

  0
TEXT
  5
E9
330
E8
100
AcDbEntity
  8
Outline
 62
     2
100
AcDbText
 10
-168.3495635986328
 20
16.18584442138672
 30
0.0
 40
1.841060042381287
  1
Surface
  7
VCDSTYLE02
100
AcDbText
  0
LWPOLYLINE
  5
EA
330
E8
100
AcDbEntity
  8
Outline
 62
     2
100
AcDbPolyline
 90
        5
 70
     0
 43
0.0
 10
-0.4602650136366151
 20
0.4602650136366293
 10
-82.38743744095697
 20
0.4602650136366293
 10
-82.38743744095697
 20
15.18874545000888
 10
-0.4602650136366151
 20
15.18874545000888
 10
-0.4602650136366151
 20
0.0
  0
LINE
  5
EB
330
E8
100
AcDbEntity
  8
Outline
 62
     2
100
AcDbLine
 10
0.0000000000000568
 20
15.64901046364552
 30
0.0
 11
0.0000000000000568
 21
0.0
 31
0.0
  0
LINE
  5
EC
330
E8
100
AcDbEntity
  8
Outline
 62
     2
100
AcDbLine
 10
-97.57618289096607
 20
15.64901046364552
 30
0.0
 11
-97.57618289096607
 21
19.56126307955689
 31
0.0
  0
LINE
  5
ED
330
E8
100
AcDbEntity
  8
Outline
 62
     2
100
AcDbLine
 10
-170.298055045554
 20
15.64901046364552
 30
0.0
 11
-82.84770245459381
 21
15.64901046364552
 31
0.0
  0
LINE
  5
EE
330
E8
100
AcDbEntity
  8
Outline
 62
     2
100
AcDbLine
 10
-170.298055045554
 20
0.0
 30
0.0
 11
-82.84770245459381
 21
0.0
 31
0.0
  0
LINE
  5
EF
330
E8
100
AcDbEntity
  8
Outline
 62
     2
100
AcDbLine
 10
-82.84770245459381
 20
0.0
 30
0.0
 11
-82.84770245459381
 21
15.64901046364552
 31
0.0
  0
LINE
  5
F0
330
E8
100
AcDbEntity
  8
Outline
 62
     2
100
AcDbLine
 10
-170.298055045554
 20
19.56126307955689
 30
0.0
 11
0.0000000000000568
 21
19.56126307955689
 31
0.0
  0
LINE
  5
F1
330
E8
100
AcDbEntity
  8
Outline
 62
     2
100
AcDbLine
 10
0.0000000000000568
 20
0.0
 30
0.0
 11
-82.84770245459381
 21
0.0
 31
0.0
  0
LINE
  5
F2
330
E8
100
AcDbEntity
  8
Outline
 62
     2
100
AcDbLine
 10
-82.84770245459381
 20
15.64901046364552
 30
0.0
 11
0.0000000000000568
 21
15.64901046364552
 31
0.0
  0
TEXT
  5
F3
330
E8
100
AcDbEntity
  8
Outline
 62
     2
100
AcDbText
 10
-81.25203704833984
 20
44.91454315185547
 30
0.0
 40
0.9205300211906433
  1
Description
  7
VCDSTYLE02
100
AcDbText
  0
LINE
  5
F4
330
E8
100
AcDbEntity
  8
Outline
 62
     2
100
AcDbLine
 10
-170.298055045554
 20
27.38576831137964
 30
0.0
 11
0.0000000000000568
 21
27.38576831137964
 31
0.0
  0
LINE
  5
F5
330
E8
100
AcDbEntity
  8
Outline
 62
     2
100
AcDbLine
 10
0.0000000000000568
 20
46.94703139093654
 30
0.0
 11
-170.298055045554
 21
46.94703139093654
 31
0.0
  0
LINE
  5
F6
330
E8
100
AcDbEntity
  8
Outline
 62
     2
100
AcDbLine
 10
-170.298055045554
 20
27.38576831137964
 30
0.0
 11
-82.84770245459381
 21
27.38576831137964
 31
0.0
  0
LINE
  5
F7
330
E8
100
AcDbEntity
  8
Outline
 62
     2
100
AcDbLine
 10
-170.298055045554
 20
31.29802092729101
 30
0.0
 11
-170.298055045554
 21
46.94703139093654
 31
0.0
  0
LINE
  5
F8
330
E8
100
AcDbEntity
  8
Outline
 62
     2
100
AcDbLine
 10
-82.84770245459381
 20
46.94703139093654
 30
0.0
 11
-82.84770245459381
 21
31.29802092729101
 31
0.0
  0
LINE
  5
F9
330
E8
100
AcDbEntity
  8
Outline
 62
     2
100
AcDbLine
 10
0.0000000000000568
 20
31.29802092729101
 30
0.0
 11
0.0000000000000568
 21
46.94703139093654
 31
0.0
  0
LINE
  5
FA
330
E8
100
AcDbEntity
  8
Outline
 62
     2
100
AcDbLine
 10
-157.0483207857146
 20
46.94703139093654
 30
0.0
 11
-157.0483207857146
 21
31.29802092729101
 31
0.0
  0
TEXT
  5
FB
330
E8
100
AcDbEntity
  8
Outline
 62
     2
100
AcDbText
 10
-168.3495635986328
 20
28.04717826843262
 30
0.0
 40
1.841060042381287
  1
Material
  7
VCDSTYLE02
100
AcDbText
  0
LINE
  5
FC
330
E8
100
AcDbEntity
  8
Outline
 62
     2
100
AcDbLine
 10
-170.298055045554
 20
0.0
 30
0.0
 11
-170.298055045554
 21
31.29802092729101
 31
0.0
  0
LINE
  5
FD
330
E8
100
AcDbEntity
  8
Outline
 62
     2
100
AcDbLine
 10
-150.9056121242796
 20
15.64901046364552
 30
0.0
 11
-150.9056121242796
 21
31.29802092729101
 31
0.0
  0
LINE
  5
FE
330
E8
100
AcDbEntity
  8
Outline
 62
     2
100
AcDbLine
 10
-82.84770245459381
 20
31.29802092729101
 30
0.0
 11
-82.84770245459381
 21
15.64901046364552
 31
0.0
  0
LINE
  5
FF
330
E8
100
AcDbEntity
  8
Outline
100
AcDbLine
 10
-170.298055045554
 20
23.47351569546827
 30
0.0
 11
-82.84770245459381
 21
23.47351569546827
 31
0.0
  0
LINE
  5
100
330
E8
100
AcDbEntity
  8
Outline
 62
     2
100
AcDbLine
 10
-170.298055045554
 20
23.47351569546827
 30
0.0
 11
0.0000000000000568
 21
23.47351569546827
 31
0.0
  0
TEXT
  5
101
330
E8
100
AcDbEntity
  8
Outline
 62
     2
100
AcDbText
 10
-168.3495635986328
 20
24.13492584228516
 30
0.0
 40
1.841060042381287
  1
Finish
  7
VCDSTYLE02
100
AcDbText
  0
LINE
  5
102
330
E8
100
AcDbEntity
  8
Outline
 62
     2
100
AcDbLine
 10
0.0000000000000568
 20
15.64901046364552
 30
0.0
 11
0.0000000000000568
 21
31.29802092729101
 31
0.0
  0
TEXT
  5
103
330
E8
100
AcDbEntity
  8
Outline
 62
     2
100
AcDbText
 10
-81.25203704833984
 20
12.55433559417725
 30
0.0
 40
0.9205300211906433
  1
Notes
  7
VCDSTYLE02
100
AcDbText
  0
LINE
  5
104
330
E8
100
AcDbEntity
  8
Outline
 62
     2
100
AcDbLine
 10
-170.298055045554
 20
31.29802092729101
 30
0.0
 11
-82.84770245459381
 21
31.29802092729101
 31
0.0
  0
TEXT
  5
105
330
E8
100
AcDbEntity
  8
Outline
 62
     2
100
AcDbText
 10
-168.3495635986328
 20
20.20714569091797
 30
0.0
 40
1.841060042381287
  1
Weight(g)
  7
VCDSTYLE02
100
AcDbText
  0
TEXT
  5
106
330
E8
100
AcDbEntity
  8
Outline
100
AcDbText
 10
-167.9451904296875
 20
7.327913284301758
 30
0.0
 40
1.200000047683716
  1
Permission is also granted to copy, distribute and/or modify this document under the terms of the
 50
360.0
  7
VCDSTYLE10
100
AcDbText
  0
TEXT
  5
107
330
E8
100
AcDbEntity
  8
Outline
100
AcDbText
 10
-167.9451904296875
 20
5.407913684844971
 30
0.0
 40
1.200000047683716
  1
GNU Free Documentation License, Version 1.3 or any later version published by the Free Software
 50
360.0
  7
VCDSTYLE10
100
AcDbText
  0
TEXT
  5
108
330
E8
100
AcDbEntity
  8
Outline
100
AcDbText
 10
-167.9451904296875
 20
3.487913608551025
 30
0.0
 40
1.200000047683716
  1
Foundation; with no Invariant Sections, no Front-Cover Texts, and no Back-Cover Texts.  A copy of
 50
360.0
  7
VCDSTYLE10
100
AcDbText
  0
TEXT
  5
109
330
E8
100
AcDbEntity
  8
Outline
100
AcDbText
 10
-167.9451904296875
 20
1.56791353225708
 30
0.0
 40
1.200000047683716
  1
the license is included in the section entitled "GNU Free Documentation License".
 50
360.0
  7
VCDSTYLE10
100
AcDbText
  0
TEXT
  5
10A
330
E8
100
AcDbEntity
  8
Outline
 62
     2
100
AcDbText
 10
-156.5416564941406
 20
45.10939788818359
 30
0.0
 40
0.9205300211906433
  1
Part #
  7
VCDSTYLE02
100
AcDbText
  0
TEXT
  5
10B
330
E8
100
AcDbEntity
  8
Outline
 62
     2
100
AcDbText
 10
-169.0979461669922
 20
45.19255065917969
 30
0.0
 40
0.9205300211906433
  1
Revision
  7
VCDSTYLE02
100
AcDbText
  0
TEXT
  5
10C
330
E8
100
AcDbEntity
  8
Outline
100
AcDbText
 10
-168.0283508300781
 20
12.77079391479492
 30
0.0
 40
1.5
  1
Copyright (c)                 Elphel, Inc.
 50
360.0
  7
VCDSTYLE10
100
AcDbText
  0
TEXT
  5
10D
330
E8
100
AcDbEntity
  8
Outline
100
AcDbText
 10
-168.0283508300781
 20
10.37079429626465
 30
0.0
 40
1.5
  1
Licensed under CERN OHL v.1.1 or later - see http://ohwr.org/cernohl
 50
360.0
  7
VCDSTYLE10
100
AcDbText
  0
TEXT
  5
10E
330
E8
100
AcDbEntity
  8
Outline
100
AcDbText
 10
-168.0283508300781
 20
7.970794200897217
 30
0.0
 40
1.5
  1
 
 50
360.0
  7
VCDSTYLE10
100
AcDbText
  0
LINE
  5
10F
330
E8
100
AcDbEntity
  8
Outline
 62
     2
100
AcDbLine
 10
-59.83011277766059
 20
27.38576831137964
 30
0.0
 11
-59.83011277766059
 21
15.64901046364552
 31
0.0
  0
TEXT
  5
110
330
E8
100
AcDbEntity
  8
Outline
 62
     2
100
AcDbText
 10
-82.25203704833984
 20
24.13492584228516
 30
0.0
 40
1.841060042381287
  1
Serial No.
  7
VCDSTYLE02
100
AcDbText
  0
TEXT
  5
111
330
E8
100
AcDbEntity
  8
Outline
 62
     2
100
AcDbText
 10
-82.25203704833984
 20
16.18584442138672
 30
0.0
 40
1.841060042381287
  1
Date
  7
VCDSTYLE02
100
AcDbText
  0
TEXT
  5
112
330
E8
100
AcDbEntity
  8
Outline
 62
     2
100
AcDbText
 10
-82.25203704833984
 20
20.20714569091797
 30
0.0
 40
1.841060042381287
  1
Assembly No.
  7
VCDSTYLE02
100
AcDbText
  0
LINE
  5
113
330
E8
100
AcDbEntity
  8
Outline
 62
     2
100
AcDbLine
 10
-14.79493342379411
 20
19.56126307955689
 30
0.0
 11
-14.79493342379411
 21
15.64901046364552
 31
0.0
  0
LINE
  5
114
330
E8
100
AcDbEntity
  8
Outline
 62
     2
100
AcDbLine
 10
-26.81252310072733
 20
19.56126307955689
 30
0.0
 11
-26.81252310072733
 21
15.64901046364552
 31
0.0
  0
TEXT
  5
115
330
E8
100
AcDbEntity
  8
Outline
 62
     2
100
AcDbText
 10
-25.21685791015625
 20
16.18584442138672
 30
0.0
 40
1.841060042381287
  1
Scale
  7
VCDSTYLE02
100
AcDbText
  0
ENDBLK
  5
118
330
E8
100
AcDbEntity
  8
0
100
AcDbBlockEnd
  0
ENDSEC
  0
SECTION
  2
ENTITIES
  0
INSERT
  5
9C
330
1F
100
AcDbEntity
  8
Dimension
100
AcDbBlockReference
  2
$AttrValue elphel_parts
 10
50.43000000000006
 20
38.1451
 30
0.0
  0
INSERT
  5
A1
330
1F
100
AcDbEntity
  8
Dimension
100
AcDbBlockReference
  2
$AttrValue elphel_parts(1)
 10
47.37900000000005
 20
22.801
 30
0.0
  0
INSERT
  5
A6
330
1F
100
AcDbEntity
  8
Dimension
100
AcDbBlockReference
  2
$AttrValue elphel_parts(2)
 10
119.3813000000001
 20
49.8706
 30
0.0
  0
INSERT
  5
AB
330
1F
100
AcDbEntity
  8
Dimension
100
AcDbBlockReference
  2
$AttrValue elphel_parts(3)
 10
44.76700000000005
 20
44.7335
 30
0.0
  0
DIMENSION
  5
B7
330
1F
100
AcDbEntity
  8
Dimension
100
AcDbDimension
280
     0
  2
*D5
 10
111.9228006475921
 20
227.6071440697321
 30
0.0
 11
131.8330355638542
 21
250.6979896158892
 31
0.0
 70
   163
 71
     5
 42
25.59999999999999
 73
     0
 74
     0
 75
     0
  3
VCDDIMSTYLE01
100
AcDbDiametricDimension
 15
95.20545904670202
 25
208.2192486243995
 35
0.0
 40
0.0
1001
ACAD_DSTYLE_DIMRADIAL_EXTENSION
1070
   387
1070
     1
1070
   388
1040
3.180665094524681
1070
   390
1040
3.102520212654925
1001
ACAD
1000
DSTYLE
1002
{
1070
   271
1070
     4
1002
}
  0
DIMENSION
  5
C2
330
1F
100
AcDbEntity
  8
Dimension
100
AcDbDimension
280
     0
  2
*D6
 10
135.312742640337
 20
121.4131963470658
 30
0.0
 11
135.312742640337
 21
142.3639136006136
 31
0.0
 70
   160
 71
     5
 42
42.99999999999994
 73
     0
 74
     0
 75
     0
  3
VCDDIMSTYLE01
100
AcDbAlignedDimension
 13
126.614129847147
 23
164.4131963470657
 33
0.0
 14
126.6141298471471
 24
121.4131963470658
 34
0.0
 50
90.0
100
AcDbRotatedDimension
1001
ACAD
1000
DSTYLE
1002
{
1070
   271
1070
     4
1002
}
  0
DIMENSION
  5
CF
330
1F
100
AcDbEntity
  8
Dimension
100
AcDbDimension
280
     0
  2
*D7
 10
50.06412984714703
 20
189.8722567323433
 30
0.0
 11
28.07129702469013
 21
189.8722567323433
 31
0.0
 70
   160
 71
     5
 42
43.00000000000003
 73
     0
 74
     0
 75
     0
  3
VCDDIMSTYLE01
100
AcDbAlignedDimension
 13
7.064129847147001
 23
199.9131963470658
 33
0.0
 14
50.06412984714703
 24
199.9131963470658
 34
0.0
100
AcDbRotatedDimension
1001
ACAD
1000
DSTYLE
1002
{
1070
   271
1070
     4
1002
}
  0
DIMENSION
  5
DC
330
1F
100
AcDbEntity
  8
Dimension
100
AcDbDimension
280
     0
  2
*D8
 10
56.57463534465674
 20
196.4131963470658
 30
0.0
 11
56.57463534465674
 21
219.0439417039139
 31
0.0
 70
   160
 71
     5
 42
43.0
 73
     0
 74
     0
 75
     0
  3
VCDDIMSTYLE01
100
AcDbAlignedDimension
 13
46.56412984714701
 23
239.4131963470658
 33
0.0
 14
46.56412984714717
 24
196.4131963470658
 34
0.0
 50
90.0
100
AcDbRotatedDimension
1001
ACAD
1000
DSTYLE
1002
{
1070
   271
1070
     4
1002
}
  0
INSERT
  5
E5
330
1F
100
AcDbEntity
  8
Outline
100
AcDbBlockReference
  2
Sheet Border
 10
0.0
 20
0.0
 30
0.0
  0
INSERT
  5
116
330
1F
100
AcDbEntity
  8
Outline
100
AcDbBlockReference
  2
$TitleBlock elphel_parts
 10
200.0
 20
10.0
 30
0.0
  0
LINE
  5
119
330
1F
100
AcDbEntity
  8
0
 62
     2
100
AcDbLine
 10
126.6141298471471
 20
121.4131963470657
 30
0.0
 11
127.8641298471471
 21
122.6631963470658
 31
0.0
  0
LINE
  5
11A
330
1F
100
AcDbEntity
  8
0
 62
     2
100
AcDbLine
 10
126.6141298471471
 20
164.4131963470657
 30
0.0
 11
127.8641298471471
 21
163.1631963470657
 31
0.0
  0
CIRCLE
  5
11B
330
1F
100
AcDbEntity
  8
0
 62
     2
100
AcDbCircle
 10
85.56413356683657
 20
148.9131963470648
 30
0.0
 40
1.75
  0
CIRCLE
  5
11C
330
1F
100
AcDbEntity
  8
0
 62
     2
100
AcDbCircle
 10
85.56413356683663
 20
148.9131963470648
 30
0.0
 40
2.0
  0
CIRCLE
  5
11D
330
1F
100
AcDbEntity
  8
0
 62
     2
100
AcDbCircle
 10
85.56413356683657
 20
136.9131963470648
 30
0.0
 40
1.75
  0
CIRCLE
  5
11E
330
1F
100
AcDbEntity
  8
0
 62
     2
100
AcDbCircle
 10
85.56413356683663
 20
136.9131963470648
 30
0.0
 40
2.0
  0
ARC
  5
11F
330
1F
100
AcDbEntity
  8
0
 62
     2
100
AcDbCircle
 10
85.56413356683663
 20
124.9131963470648
 30
0.0
 40
2.0
100
AcDbArc
 50
305.9511009941269
 51
63.46712675318345
  0
CIRCLE
  5
120
330
1F
100
AcDbEntity
  8
0
 62
     2
100
AcDbCircle
 10
85.56413356683657
 20
124.9131963470648
 30
0.0
 40
1.75
  0
ARC
  5
121
330
1F
100
AcDbEntity
  8
0
 62
     2
100
AcDbCircle
 10
85.56413356683663
 20
124.9131963470648
 30
0.0
 40
2.0
100
AcDbArc
 50
180.0000026998693
 51
305.9511010093862
  0
ARC
  5
122
330
1F
100
AcDbEntity
  8
0
 62
     2
100
AcDbCircle
 10
85.56413356683663
 20
124.9131963470648
 30
0.0
 40
2.0
100
AcDbArc
 50
63.46712675318405
 51
179.9999886116404
  0
ARC
  5
123
330
1F
100
AcDbEntity
  8
0
 62
     2
100
AcDbCircle
 10
85.56413356683663
 20
160.9131963470648
 30
0.0
 40
2.0
100
AcDbArc
 50
296.5328536364928
 51
54.04889550851647
  0
CIRCLE
  5
124
330
1F
100
AcDbEntity
  8
0
 62
     2
100
AcDbCircle
 10
85.56413356683663
 20
160.9131963470648
 30
0.0
 40
1.75
  0
ARC
  5
125
330
1F
100
AcDbEntity
  8
0
 62
     2
100
AcDbCircle
 10
85.56413356683663
 20
160.9131963470648
 30
0.0
 40
2.0
100
AcDbArc
 50
54.0488955085176
 51
180.001754968431
  0
ARC
  5
126
330
1F
100
AcDbEntity
  8
0
 62
     2
100
AcDbCircle
 10
85.56413356683663
 20
160.9131963470648
 30
0.0
 40
2.0
100
AcDbArc
 50
180.0000154152845
 51
296.5328536266095
  0
LWPOLYLINE
  5
127
330
1F
100
AcDbEntity
  8
0
 62
     2
100
AcDbPolyline
 90
       65
 70
     0
 43
0.0
 10
90.52580519212017
 20
124.9132574677316
 10
90.52462730464055
 20
124.8334031852546
 10
90.52104572876067
 20
124.7536304720316
 10
90.51860471917342
 20
124.7172832337907
 10
90.51502960575226
 20
124.67402020511
 10
90.50654807688687
 20
124.5946543452907
 10
90.50342937519315
 20
124.5702341264652
 10
90.49670282241118
 20
124.5229870142675
 10
90.49557028343605
 20
124.5156164833699
 10
90.48206511872809
 20
124.4369923277025
 10
90.465985135538
 20
124.3588666407947
 10
90.45998391720701
 20
124.3327100038957
 10
90.43337876304793
 20
124.230399121301
 10
90.40806151533599
 20
124.1478295957003
 10
90.40155028560167
 20
124.1283248608436
 10
90.37441561322873
 20
124.0530603453512
 10
90.34426031948891
 20
123.9787435101836
 10
90.34064100738442
 20
123.9703775018075
 10
90.30694161156754
 20
123.8972891474558
 10
90.25694588370374
 20
123.8020957021784
 10
90.23387529291938
 20
123.7624727458919
 10
90.18983446318299
 20
123.6929853502563
 10
90.15607991096232
 20
123.6444099605004
 10
90.10206293505905
 20
123.5737248380227
 10
90.03779536231053
 20
123.4990307830744
 10
90.00759911264856
 20
123.4669321158034
 10
89.97219289492443
 20
123.4314400154093
 10
89.90634116550791
 20
123.3709623516787
 10
89.90196431026214
 20
123.3671796232163
 10
89.76719887023381
 20
123.2633233585618
 10
89.74790420759945
 20
123.2502579836064
 10
89.67530967694853
 20
123.2046072394701
 10
89.58558741931608
 20
123.1550532796332
 10
89.57440255063187
 20
123.1493543902284
 10
89.48893222143562
 20
123.1089599798663
 10
89.38510583623003
 20
123.0666802840647
 10
89.3817988534584
 20
123.0654453602017
 10
89.1712433928626
 20
122.9993315669003
 10
89.0375256331705
 20
122.968657823345
 10
88.95251231671637
 20
122.9531128266314
 10
88.94345489025602
 20
122.9516258776252
 10
88.89514739401682
 20
122.9442243936631
 10
88.75463903641423
 20
122.9275099759411
 10
88.69996976899859
 20
122.9228269161756
 10
88.60814103767069
 20
122.917106213753
 10
88.45709897902549
 20
122.9132229123385
 10
88.4434063925599
 20
122.9131963473493
 10
88.17724808853262
 20
122.9228269411971
 10
88.14722061290058
 20
122.9250846827585
 10
87.99121864416782
 20
122.9404873229434
 10
87.90481923655648
 20
122.951626003997
 10
87.83171136505365
 20
122.962487195472
 10
87.7937720604728
 20
122.9686412794445
 10
87.62983759120988
 20
122.9993160686208
 10
87.53430186574525
 20
123.0202874979748
 10
87.38906588356343
 20
123.0566417746158
 10
87.35674055854747
 20
123.0654850222432
 10
87.24840302872042
 20
123.0971875383059
 10
87.11279432586394
 20
123.1415475342995
 10
87.09051592033808
 20
123.1493539700118
 10
86.98249300080357
 20
123.1893715544811
 10
86.85758979801079
 20
123.2403379445008
 10
86.8346918793057
 20
123.2502572867284
 10
86.80527035033134
 20
123.263275548458
 10
86.73816454167832
 20
123.2941517093279
  0
LWPOLYLINE
  5
128
330
1F
100
AcDbEntity
  8
0
 62
     2
100
AcDbPolyline
 90
       76
 70
     0
 43
0.0
 10
86.4575090835134
 20
126.7025571451901
 10
86.587235606413
 20
126.7610019242907
 10
86.59197208415947
 20
126.7629085944325
 10
86.66179337818511
 20
126.7892972106566
 10
86.73327446817848
 20
126.8131465290902
 10
86.77988025348543
 20
126.8270768860918
 10
86.80636485771282
 20
126.8344492561767
 10
86.88101405036161
 20
126.8532008204943
 10
86.95717154969799
 20
126.8693992937375
 10
86.9857707270375
 20
126.8747544928761
 10
87.03478685929542
 20
126.883045313731
 10
87.11380938549496
 20
126.8941420137934
 10
87.19418347075015
 20
126.902695103857
 10
87.20417919547702
 20
126.9035735012498
 10
87.2758460218842
 20
126.9087125693334
 10
87.3587333520864
 20
126.9122041236961
 10
87.43352038684873
 20
126.913196346278
 10
87.44278177454578
 20
126.9131811130596
 10
87.52792760245165
 20
126.9116564587544
 10
87.54817128775915
 20
126.9109334707508
 10
87.67241251471398
 20
126.9035715988302
 10
87.70125587378425
 20
126.9011614587203
 10
87.78929936319929
 20
126.8922240615214
 10
87.87815685723979
 20
126.8808503542354
 10
87.91951825144264
 20
126.8747694199672
 10
87.96774749118339
 20
126.867059196319
 10
88.05799040030769
 20
126.8508703553377
 10
88.1488046570658
 20
126.8323044996443
 10
88.17256471410207
 20
126.8270761054211
 10
88.24010278493614
 20
126.8113829247892
 10
88.33178511856505
 20
126.788127153955
 10
88.42375066345079
 20
126.762559248055
 10
88.42932127523534
 20
126.7609387603433
 10
88.51589842509173
 20
126.7347018877433
 10
88.60812417949938
 20
126.7045782799887
 10
88.68686482893605
 20
126.6770729818136
 10
88.7306580297327
 20
126.6610569575911
 10
88.7923234433174
 20
126.6376252026501
 10
88.88404634459619
 20
126.600843219118
 10
88.94249797680556
 20
126.5761784892376
 10
88.97534737467589
 20
126.5618901960059
 10
89.06607630935292
 20
126.5207906514101
 10
89.15607522597759
 20
126.4775695145523
 10
89.19277404672755
 20
126.4592177933826
 10
89.2451861913043
 20
126.4322525191357
 10
89.33324692039196
 20
126.3848663805133
 10
89.42006800553821
 20
126.3354390960388
 10
89.43380712666294
 20
126.3273573549025
 10
89.50544960771322
 20
126.2840000468366
 10
89.58919186612133
 20
126.2305801264834
 10
89.66131061972959
 20
126.181996602295
 10
89.67108918943302
 20
126.1752120113293
 10
89.75090315941839
 20
126.1179307530722
 10
89.82838368935501
 20
126.0587737491398
 10
89.871260219602
 20
126.024350684665
 10
89.90328067849879
 20
125.9977808084887
 10
89.97534402610546
 20
125.9349943745978
 10
89.99317980095151
 20
125.9187545015539
 10
90.05909999177231
 20
125.8559866493392
 10
90.10991135975905
 20
125.8042424989412
 10
90.17180165686352
 20
125.7364119526792
 10
90.22038172706885
 20
125.6786340495728
 10
90.22967170199138
 20
125.6670473033888
 10
90.28320292819524
 20
125.5962313146504
 10
90.33207676852783
 20
125.5240515206847
 10
90.35085814252659
 20
125.4938148838057
 10
90.37597635701468
 20
125.4506008710802
 10
90.41463962068548
 20
125.3759996766314
 10
90.44668299219143
 20
125.3033533976701
 10
90.4478697254637
 20
125.3004008387784
 10
90.47547364738483
 20
125.2239645292128
 10
90.49725836248399
 20
125.1468557426488
 10
90.50567922250582
 20
125.1092248869448
 10
90.51303084679665
 20
125.0692433518857
 10
90.52259807635807
 20
124.9912991295012
 10
90.52576702720353
 20
124.913196744593
  0
LINE
  5
129
330
1F
100
AcDbEntity
  8
0
 62
     2
100
AcDbLine
 10
115.0084674144445
 20
161.2562562678106
 30
0.0
 11
115.0084674144445
 21
161.2546044105951
 31
0.0
  0
LWPOLYLINE
  5
12A
330
1F
100
AcDbEntity
  8
0
 62
     2
100
AcDbPolyline
 90
       65
 70
     0
 43
0.0
 10
86.73816464966444
 20
162.5322409880728
 10
86.80525944310142
 20
162.5631114487112
 10
86.83469421184168
 20
162.576135403518
 10
86.85758707525116
 20
162.5860524498638
 10
86.98248884337721
 20
162.637018458383
 10
87.09051762026178
 20
162.6770387200858
 10
87.11278887768981
 20
162.6848427649485
 10
87.24839603389586
 20
162.7292029468014
 10
87.35691176366748
 20
162.7609552968666
 10
87.38905692993552
 20
162.7697485680166
 10
87.53429069844759
 20
162.8061026277946
 10
87.62983811132176
 20
162.8270767122302
 10
87.79376929190067
 20
162.8577509104529
 10
87.83169708301011
 20
162.8639032079564
 10
87.90481940441873
 20
162.874766679601
 10
87.99120081441964
 20
162.8859032395351
 10
88.14720066198396
 20
162.9013064277353
 10
88.17724808176257
 20
162.9035657476569
 10
88.44338313275546
 20
162.9131963470024
 10
88.45707561092513
 20
162.9131698729135
 10
88.60811668973889
 20
162.9092876758869
 10
88.70010422941311
 20
162.9035554958038
 10
88.75461366401947
 20
162.8988851630368
 10
88.89512035538951
 20
162.8821721170956
 10
88.94345407576532
 20
162.8747667845422
 10
88.95251191694314
 20
162.8732797535236
 10
89.03752126948848
 20
162.8577354575681
 10
89.17121753417666
 20
162.8270680671233
 10
89.38177892712582
 20
162.7609569685799
 10
89.38508577169125
 20
162.7597220950522
 10
89.48890336071298
 20
162.7174441659267
 10
89.574502299436
 20
162.6769885444092
 10
89.58556661529224
 20
162.6713522116389
 10
89.67535281481372
 20
162.6217978278428
 10
89.7480856877853
 20
162.5761347910898
 10
89.76746085688677
 20
162.5630426850939
 10
89.90254771995262
 20
162.4592094080342
 10
89.90693687586065
 20
162.4554262368497
 10
89.97295036372276
 20
162.3949424618963
 10
90.00788464871061
 20
162.3599917385322
 10
90.03862835671714
 20
162.3273485920448
 10
90.10296521505535
 20
162.252520198491
 10
90.15673403206188
 20
162.1819827268067
 10
90.19035304443037
 20
162.1334128231161
 10
90.23414492616666
 20
162.0639426420675
 10
90.25704875304058
 20
162.0243364649047
 10
90.30663746294482
 20
161.9291728070202
 10
90.34016680789068
 20
161.8558891318731
 10
90.34366617935734
 20
161.8477454848275
 10
90.37367121971994
 20
161.7734447370437
 10
90.40081802875733
 20
161.698182242585
 10
90.40740921829922
 20
161.6785321034094
 10
90.43291254581351
 20
161.5960870196847
 10
90.45992686818943
 20
161.4936607427052
 10
90.46600663948743
 20
161.4675752276459
 10
90.48232924441356
 20
161.3894251352488
 10
90.49595215441542
 20
161.3107864989724
 10
90.49708867599878
 20
161.3034152220257
 10
90.5038173004832
 20
161.2561655648572
 10
90.5069233394263
 20
161.2317454372584
 10
90.51531830849052
 20
161.1523854855009
 10
90.51882883803637
 20
161.109128651015
 10
90.52121298979495
 20
161.0727878572999
 10
90.52468331152619
 20
160.9930320237609
 10
90.52580520187098
 20
160.9131962999901
  0
LWPOLYLINE
  5
12B
330
1F
100
AcDbEntity
  8
0
 62
     2
100
AcDbPolyline
 90
       76
 70
     0
 43
0.0
 10
90.52576702737394
 20
160.9131958086254
 10
90.52259806268677
 20
160.8350933943917
 10
90.51303081490772
 20
160.7571491431813
 10
90.50567917958864
 20
160.7171675935499
 10
90.49725830815117
 20
160.6795367242848
 10
90.47547356653126
 20
160.6024279104672
 10
90.4478696141623
 20
160.525991574708
 10
90.44668287963043
 20
160.5230390148228
 10
90.41463947515842
 20
160.4503927118924
 10
90.37597617363389
 20
160.3757914938726
 10
90.35085793533119
 20
160.3325774680312
 10
90.33207654392214
 20
160.3023408221975
 10
90.28320265983734
 20
160.2301610075972
 10
90.22967138802954
 20
160.1593449997209
 10
90.22038140542179
 20
160.1477582505181
 10
90.17180129607368
 20
160.0899803328642
 10
90.10991095154469
 20
160.022149770675
 10
90.05909954659137
 20
159.9704056090402
 10
89.99317979638596
 20
159.9076381909284
 10
89.9753435237397
 20
159.8913978683067
 10
89.90328012983997
 20
159.8286114236223
 10
89.87125965089291
 20
159.8020415433018
 10
89.8283830940926
 20
159.7676184738577
 10
89.75090251650494
 20
159.7084614625143
 10
89.67108849708455
 20
159.6511801985696
 10
89.66130992125898
 20
159.6443956070348
 10
89.58919112181559
 20
159.5958120794706
 10
89.50544880932017
 20
159.5423921569362
 10
89.43380628437751
 20
159.4990348484274
 10
89.42006715535172
 20
159.4909531073525
 10
89.33324602599083
 20
159.4415258243342
 10
89.24518526553487
 20
159.39413968904
 10
89.19277310893631
 20
159.3671744176387
 10
89.15607428066966
 20
159.3488226988326
 10
89.06607533979093
 20
159.3056015690238
 10
88.9753463572493
 20
159.264502033279
 10
88.9424969326941
 20
159.2502137436741
 10
88.88404523682539
 20
159.2255490207959
 10
88.79232220483198
 20
159.1887670497266
 10
88.73065671069372
 20
159.1653353042707
 10
88.6868634700495
 20
159.1493192873636
 10
88.60812281193324
 20
159.1218140036161
 10
88.51589720115237
 20
159.0916904149449
 10
88.42932033968253
 20
159.0654535623808
 10
88.42374974763163
 20
159.0638330760197
 10
88.33178445619075
 20
159.0382651933228
 10
88.24010205787386
 20
159.0150094470962
 10
88.17256358002385
 20
158.9993162854242
 10
88.14880328372385
 20
158.994087898036
 10
88.05798627385514
 20
158.975522119657
 10
87.96773903316824
 20
158.9593333992322
 10
87.91950841666522
 20
158.9516232177822
 10
87.87814708861231
 20
158.945542296331
 10
87.78929397531721
 20
158.9341685669241
 10
87.70125576447583
 20
158.9252311902153
 10
87.6724132291447
 20
158.9228210766453
 10
87.54816643856043
 20
158.9154593324851
 10
87.52792134290848
 20
158.9147363417576
 10
87.44277196303176
 20
158.9132115952042
 10
87.43351040975011
 20
158.9131963479612
 10
87.35872334824228
 20
158.9141884643954
 10
87.27583811335239
 20
158.9176799682232
 10
87.20417416039533
 20
158.9228190845507
 10
87.19417887314808
 20
158.9236974958035
 10
87.11380824241542
 20
158.9322507487821
 10
87.03478830039006
 20
158.9433476496262
 10
86.98577318877386
 20
158.9516385881205
 10
86.95717441844539
 20
158.9569938492862
 10
86.88101739981289
 20
158.9731924526105
 10
86.80636796001596
 20
158.9919440819206
 10
86.77988313092766
 20
158.9993164584999
 10
86.73327681457823
 20
159.0132468058671
 10
86.66179467902322
 20
159.0370960623427
 10
86.59197226887449
 20
159.0634845792854
 10
86.58723571737585
 20
159.0653912420102
 10
86.45750765260311
 20
159.1238358547531
  0
CIRCLE
  5
12C
330
1F
100
AcDbEntity
  8
0
 62
     2
100
AcDbCircle
 10
85.56413356683657
 20
124.9131963470648
 30
0.0
 40
1.35
  0
CIRCLE
  5
12D
330
1F
100
AcDbEntity
  8
0
 62
     2
100
AcDbCircle
 10
85.56413356683657
 20
136.9131963470648
 30
0.0
 40
1.35
  0
CIRCLE
  5
12E
330
1F
100
AcDbEntity
  8
0
 62
     2
100
AcDbCircle
 10
85.56413356683657
 20
148.9131963470648
 30
0.0
 40
1.35
  0
CIRCLE
  5
12F
330
1F
100
AcDbEntity
  8
0
 62
     2
100
AcDbCircle
 10
85.56413356683657
 20
160.9131963470648
 30
0.0
 40
1.35
  0
LINE
  5
130
330
1F
100
AcDbEntity
  8
0
 62
     2
100
AcDbLine
 10
127.8641298471471
 20
162.267871170525
 30
0.0
 11
127.8641298471471
 21
160.913196347066
 31
0.0
  0
LINE
  5
131
330
1F
100
AcDbEntity
  8
0
 62
     2
100
AcDbLine
 10
127.8641298471471
 20
163.1631963470657
 30
0.0
 11
127.8641298471471
 21
162.267871170525
 31
0.0
  0
LINE
  5
132
330
1F
100
AcDbEntity
  8
0
 62
     2
100
AcDbLine
 10
127.8641298471471
 20
123.1167119684291
 30
0.0
 11
127.8641298471471
 21
122.6631963470658
 31
0.0
  0
LINE
  5
133
330
1F
100
AcDbEntity
  8
0
 62
     2
100
AcDbLine
 10
127.8641298471471
 20
124.9131963470659
 30
0.0
 11
127.8641298471471
 21
123.1167119684291
 31
0.0
  0
LINE
  5
134
330
1F
100
AcDbEntity
  8
0
 62
     2
100
AcDbLine
 10
127.8641298471471
 20
160.9131963470658
 30
0.0
 11
127.8641298471471
 21
124.9131963470657
 31
0.0
  0
LINE
  5
135
330
1F
100
AcDbEntity
  8
0
 62
     2
100
AcDbLine
 10
126.6141298471471
 20
160.9131963470658
 30
0.0
 11
126.6141298471471
 21
124.9131963470658
 31
0.0
  0
LINE
  5
136
330
1F
100
AcDbEntity
  8
0
 62
     2
100
AcDbLine
 10
126.6141298471471
 20
121.4131963470658
 30
0.0
 11
117.8641298471471
 21
121.4131963470658
 31
0.0
  0
LINE
  5
137
330
1F
100
AcDbEntity
  8
0
 62
     2
100
AcDbLine
 10
126.6141298471471
 20
124.9131963470658
 30
0.0
 11
117.8641298471471
 21
124.9131963470658
 31
0.0
  0
LINE
  5
138
330
1F
100
AcDbEntity
  8
0
 62
     2
100
AcDbLine
 10
126.6141298471471
 20
160.9131963470658
 30
0.0
 11
117.8641298471471
 21
160.9131963470658
 31
0.0
  0
LINE
  5
139
330
1F
100
AcDbEntity
  8
0
 62
     2
100
AcDbLine
 10
126.6141298471471
 20
164.4131963470657
 30
0.0
 11
117.8641298471471
 21
164.4131963470657
 31
0.0
  0
LINE
  5
13A
330
1F
100
AcDbEntity
  8
0
 62
     2
100
AcDbLine
 10
83.56413356662455
 20
124.9131962766572
 30
0.0
 11
82.064129847147
 21
124.9131962766572
 31
0.0
  0
LINE
  5
13B
330
1F
100
AcDbEntity
  8
0
 62
     2
100
AcDbLine
 10
90.52576702715987
 20
160.9131962766572
 30
0.0
 11
97.06412984714711
 21
160.9131962766572
 31
0.0
  0
LINE
  5
13C
330
1F
100
AcDbEntity
  8
0
 62
     2
100
AcDbLine
 10
97.06412984714706
 20
124.9131962766572
 30
0.0
 11
90.52576702715987
 21
124.9131962766572
 31
0.0
  0
LINE
  5
13D
330
1F
100
AcDbEntity
  8
0
 62
     2
100
AcDbLine
 10
82.06412984714706
 20
160.9131962766572
 30
0.0
 11
83.5641335666246
 21
160.9131962766572
 31
0.0
  0
LINE
  5
13E
330
1F
100
AcDbEntity
  8
0
 62
     2
100
AcDbLine
 10
97.06412984714706
 20
121.4131962766573
 30
0.0
 11
85.56412984714711
 21
121.4131962766573
 31
0.0
  0
LINE
  5
13F
330
1F
100
AcDbEntity
  8
0
 62
     2
100
AcDbLine
 10
117.8641298471471
 20
121.4131962766572
 30
0.0
 11
97.06412984714706
 21
121.4131962766572
 31
0.0
  0
LINE
  5
140
330
1F
100
AcDbEntity
  8
0
 62
     2
100
AcDbLine
 10
117.8641298471471
 20
124.9131962766572
 30
0.0
 11
97.06412984714706
 21
124.9131962766572
 31
0.0
  0
LINE
  5
141
330
1F
100
AcDbEntity
  8
0
 62
     2
100
AcDbLine
 10
85.56412984714706
 20
164.4131962766573
 30
0.0
 11
97.06412984714842
 21
164.4131962766572
 31
0.0
  0
LINE
  5
142
330
1F
100
AcDbEntity
  8
0
 62
     2
100
AcDbLine
 10
117.8641298471471
 20
160.9131962766571
 30
0.0
 11
97.06412984714711
 21
160.9131962766572
 31
0.0
  0
LINE
  5
143
330
1F
100
AcDbEntity
  8
0
 62
     2
100
AcDbLine
 10
117.8641298471471
 20
164.4131962766571
 30
0.0
 11
97.06412984714694
 21
164.4131962766572
 31
0.0
  0
LINE
  5
144
330
1F
100
AcDbEntity
  8
0
 62
     2
100
AcDbLine
 10
82.06412984714706
 20
160.9131962766572
 30
0.0
 11
82.064129847147
 21
124.9131962766572
 31
0.0
  0
LINE
  5
145
330
1F
100
AcDbEntity
  8
0
 62
     2
100
AcDbLine
 10
97.06412984714711
 20
160.9131962766572
 30
0.0
 11
97.06412984714706
 21
124.9131962766572
 31
0.0
  0
LINE
  5
146
330
1F
100
AcDbEntity
  8
0
 62
     2
100
AcDbLine
 10
126.6141298471471
 20
162.2674090952888
 30
0.0
 11
126.6141298471471
 21
160.9131963470658
 31
0.0
  0
LINE
  5
147
330
1F
100
AcDbEntity
  8
0
 62
     2
100
AcDbLine
 10
126.6141298471471
 20
164.4131963470657
 30
0.0
 11
126.6141298471471
 21
162.2674090952888
 31
0.0
  0
LINE
  5
148
330
1F
100
AcDbEntity
  8
0
 62
     2
100
AcDbLine
 10
97.06412984714717
 20
160.9131962766572
 30
0.0
 11
97.06412984714717
 21
164.4131962766572
 31
0.0
  0
ARC
  5
149
330
1F
100
AcDbEntity
  8
0
 62
     2
100
AcDbCircle
 10
85.56412984714711
 20
160.9131962766572
 30
0.0
 40
3.5
100
AcDbArc
 50
90.00000000000092
 51
180.0000000000009
  0
LINE
  5
14A
330
1F
100
AcDbEntity
  8
0
 62
     2
100
AcDbLine
 10
126.6141298471471
 20
121.6857968005965
 30
0.0
 11
126.6141298471471
 21
121.4131963470658
 31
0.0
  0
LINE
  5
14B
330
1F
100
AcDbEntity
  8
0
 62
     2
100
AcDbLine
 10
126.6141298471471
 20
124.9131963470659
 30
0.0
 11
126.6141298471471
 21
121.6857968005965
 31
0.0
  0
LINE
  5
14C
330
1F
100
AcDbEntity
  8
0
 62
     2
100
AcDbLine
 10
97.06412984714706
 20
121.4131962766572
 30
0.0
 11
97.06412984714706
 21
124.9131962766572
 31
0.0
  0
ARC
  5
14D
330
1F
100
AcDbEntity
  8
0
 62
     2
100
AcDbCircle
 10
85.56412984714706
 20
124.9131962766572
 30
0.0
 40
3.5
100
AcDbArc
 50
180.0
 51
270.0
  0
LINE
  5
14E
330
1F
100
AcDbEntity
  8
0
 62
     2
100
AcDbLine
 10
127.8641298471471
 20
124.9131963470657
 30
0.0
 11
126.6141298471471
 21
124.9131963470657
 31
0.0
  0
LINE
  5
14F
330
1F
100
AcDbEntity
  8
0
 62
     2
100
AcDbLine
 10
126.6141298471471
 20
121.4131963470658
 30
0.0
 11
127.8641298471471
 21
122.6631963470658
 31
0.0
  0
LINE
  5
150
330
1F
100
AcDbEntity
  8
0
 62
     2
100
AcDbLine
 10
126.6141298471471
 20
160.9131963470658
 30
0.0
 11
127.8641298471471
 21
160.9131963470658
 31
0.0
  0
LINE
  5
151
330
1F
100
AcDbEntity
  8
0
 62
     2
100
AcDbLine
 10
127.8641298471471
 20
163.1631963470658
 30
0.0
 11
126.6141298471471
 21
164.4131963470658
 31
0.0
  0
LINE
  5
152
330
1F
100
AcDbEntity
  8
0
 62
     2
100
AcDbLine
 10
120.837730377071
 20
123.1631963470668
 30
0.0
 11
120.8641298471471
 21
123.1631963470668
 31
0.0
  0
LINE
  5
153
330
1F
100
AcDbEntity
  8
0
 62
     2
100
AcDbLine
 10
12.48384994818889
 20
200.313207154313
 30
0.0
 11
12.50728718333573
 21
200.3423094064943
 31
0.0
  0
LWPOLYLINE
  5
154
330
1F
100
AcDbEntity
  8
0
 62
     2
100
AcDbPolyline
 90
       12
 70
     0
 43
0.0
 10
12.5072871664031
 20
200.3423092771738
 10
12.52305923174833
 20
200.3641345558329
 10
12.53908469306947
 20
200.3929108599435
 10
12.55129731068752
 20
200.4238785953664
 10
12.55924379361755
 20
200.4562632022837
 10
12.56277179468606
 20
200.4896275251867
 10
12.56292927173206
 20
200.4961464506548
 10
12.56195655717789
 20
200.5207700247805
 10
12.56173861968819
 20
200.5230607648379
 10
12.55612049790062
 20
200.5560932669648
 10
12.54612671276629
 20
200.5879335425915
 10
12.53487444525035
 20
200.61276669916
  0
LWPOLYLINE
  5
155
330
1F
100
AcDbEntity
  8
0
 62
     2
100
AcDbPolyline
 90
        3
 70
     0
 43
0.0
 10
12.53487340698757
 20
200.6127631233878
 10
12.5069994856795
 20
200.6639233055632
 10
12.47769744729135
 20
200.7132288717919
  0
LWPOLYLINE
  5
156
330
1F
100
AcDbEntity
  8
0
 62
     2
100
AcDbPolyline
 90
        3
 70
     0
 43
0.0
 10
12.4777068055742
 20
235.1132070495035
 10
12.50699652375056
 20
235.1624688857713
 10
12.53487577065857
 20
235.2136181959477
  0
LWPOLYLINE
  5
157
330
1F
100
AcDbEntity
  8
0
 62
     2
100
AcDbPolyline
 90
       12
 70
     0
 43
0.0
 10
12.53486371404938
 20
235.2136194419548
 10
12.54611587410557
 20
235.2384523664032
 10
12.55610956100406
 20
235.270292337018
 10
12.56172762728272
 20
235.3033245220328
 10
12.56194556258674
 20
235.3056152398215
 10
12.56291826738641
 20
235.3302385739569
 10
12.56276079192298
 20
235.3367574358085
 10
12.55923282606136
 20
235.3701214339417
 10
12.55128642124913
 20
235.4025057294418
 10
12.5390739208072
 20
235.4334731734502
 10
12.52304860906332
 20
235.4622492127456
 10
12.50727668721521
 20
235.4840742940232
  0
LINE
  5
158
330
1F
100
AcDbEntity
  8
0
 62
     2
100
AcDbLine
 10
12.50727670417058
 20
235.4840741647178
 30
0.0
 11
12.48382606561665
 21
235.5131930600457
 31
0.0
  0
LINE
  5
159
330
1F
100
AcDbEntity
  8
0
 62
     2
100
AcDbLine
 10
14.80848386777444
 20
202.3132000367705
 30
0.0
 11
12.80745255449784
 21
202.3132000367705
 31
0.0
  0
LINE
  5
15A
330
1F
100
AcDbEntity
  8
0
 62
     2
100
AcDbLine
 10
12.80751862078409
 20
233.5132000367705
 30
0.0
 11
14.81192976665284
 21
233.5132000367705
 31
0.0
  0
LINE
  5
15B
330
1F
100
AcDbEntity
  8
0
 62
     2
100
AcDbLine
 10
8.45317799169868
 20
234.4478506698827
 30
0.0
 11
8.45317799169868
 21
234.7478506698826
 31
0.0
  0
LINE
  5
15C
330
1F
100
AcDbEntity
  8
0
 62
     2
100
AcDbLine
 10
8.45317799169868
 20
234.4478506698827
 30
0.0
 11
8.45317799169868
 21
222.2478506698826
 31
0.0
  0
LINE
  5
15D
330
1F
100
AcDbEntity
  8
0
 62
     2
100
AcDbLine
 10
8.714136460594318
 20
222.2478506698826
 30
0.0
 11
8.45317799169868
 21
222.2478506698826
 31
0.0
  0
LINE
  5
15E
330
1F
100
AcDbEntity
  8
0
 62
     2
100
AcDbLine
 10
8.45317799169868
 20
234.7478506698826
 30
0.0
 11
8.714136460594318
 21
234.7478506698826
 31
0.0
  0
LINE
  5
15F
330
1F
100
AcDbEntity
  8
0
 62
     2
100
AcDbLine
 10
8.45317799169868
 20
201.078542024249
 30
0.0
 11
8.45317799169868
 21
201.378542024249
 31
0.0
  0
LINE
  5
160
330
1F
100
AcDbEntity
  8
0
 62
     2
100
AcDbLine
 10
8.45317799169868
 20
213.578542024249
 30
0.0
 11
8.45317799169868
 21
201.378542024249
 31
0.0
  0
LINE
  5
161
330
1F
100
AcDbEntity
  8
0
 62
     2
100
AcDbLine
 10
8.45317799169868
 20
213.578542024249
 30
0.0
 11
8.714136460594318
 21
213.578542024249
 31
0.0
  0
LINE
  5
162
330
1F
100
AcDbEntity
  8
0
 62
     2
100
AcDbLine
 10
8.714136460594375
 20
201.078542024249
 30
0.0
 11
8.45317799169868
 21
201.078542024249
 31
0.0
  0
LINE
  5
163
330
1F
100
AcDbEntity
  8
0
 62
     2
100
AcDbLine
 10
24.81644464277832
 20
235.8631971397722
 30
0.0
 11
25.11256046295875
 21
235.5920684330227
 31
0.0
  0
LINE
  5
164
330
1F
100
AcDbEntity
  8
0
 62
     2
100
AcDbLine
 10
25.1125604629587
 20
235.5920684330227
 30
0.0
 11
25.12037977175981
 21
235.5631971397715
 31
0.0
  0
LINE
  5
165
330
1F
100
AcDbEntity
  8
0
 62
     2
100
AcDbLine
 10
9.614128322276201
 20
234.7478506698827
 30
0.0
 11
8.714136460594375
 21
234.7478506698827
 31
0.0
  0
ARC
  5
166
330
1F
100
AcDbEntity
  8
0
 62
     2
100
AcDbCircle
 10
9.614128322276201
 20
233.9478432201518
 30
0.0
 40
0.8000000000000153
100
AcDbArc
 50
62.00000000003926
 51
89.99999999999426
  0
LINE
  5
167
330
1F
100
AcDbEntity
  8
0
 62
     2
100
AcDbLine
 10
11.05565783672955
 20
234.0874244218508
 30
0.0
 11
9.98970557250442
 21
234.6542012944392
 31
0.0
  0
ARC
  5
168
330
1F
100
AcDbEntity
  8
0
 62
     2
100
AcDbCircle
 10
11.14955214928659
 20
234.2640139404225
 30
0.0
 40
0.1999999999999909
100
AcDbArc
 50
242.0000000000371
 51
289.5438076527195
  0
ARC
  5
169
330
1F
100
AcDbEntity
  8
0
 62
     2
100
AcDbCircle
 10
10.56412903521442
 20
235.9131894245691
 30
0.0
 40
1.950000000000019
100
AcDbArc
 50
289.5438076527262
 51
340.4561953841451
  0
ARC
  5
16A
330
1F
100
AcDbEntity
  8
0
 62
     2
100
AcDbCircle
 10
12.21330455039043
 20
235.3277663979088
 30
0.0
 40
0.1999999999999828
100
AcDbArc
 50
340.4561953841496
 51
27.99999999972768
  0
LINE
  5
16B
330
1F
100
AcDbEntity
  8
0
 62
     2
100
AcDbLine
 10
11.82311745760717
 20
236.4876124833932
 30
0.0
 11
12.38989406896269
 21
235.4216607104651
 31
0.0
  0
ARC
  5
16C
330
1F
100
AcDbEntity
  8
0
 62
     2
100
AcDbCircle
 10
12.5294755318962
 20
236.8631897336184
 30
0.0
 40
0.7999999999999926
100
AcDbArc
 50
90.00000086700395
 51
207.9999999997176
  0
LINE
  5
16D
330
1F
100
AcDbEntity
  8
0
 62
     2
100
AcDbLine
 10
23.71412997359397
 20
237.663189902866
 30
0.0
 11
12.52947551979048
 21
237.6631897336184
 31
0.0
  0
ARC
  5
16E
330
1F
100
AcDbEntity
  8
0
 62
     2
100
AcDbCircle
 10
23.71412997359397
 20
236.863189902866
 30
0.0
 40
0.8000000000000069
100
AcDbArc
 50
51.2170310943522
 51
89.99999999999717
  0
ARC
  5
16F
330
1F
100
AcDbEntity
  8
0
 62
     2
100
AcDbCircle
 10
23.71412997359397
 20
236.863189902866
 30
0.0
 40
0.8000000000000069
100
AcDbArc
 50
0.0
 51
51.217031094353
  0
LINE
  5
170
330
1F
100
AcDbEntity
  8
0
 62
     2
100
AcDbLine
 10
24.51412997359142
 20
236.0631971397726
 30
0.0
 11
24.51412997359159
 21
236.8631899028653
 31
0.0
  0
ARC
  5
171
330
1F
100
AcDbEntity
  8
0
 62
     2
100
AcDbCircle
 10
24.71412997359329
 20
236.0631971397724
 30
0.0
 40
0.2000000000000082
100
AcDbArc
 50
180.0
 51
269.9999999999166
  0
LINE
  5
172
330
1F
100
AcDbEntity
  8
0
 62
     2
100
AcDbLine
 10
24.81644464277832
 20
235.8631971397722
 30
0.0
 11
24.71412997359278
 21
235.8631971397724
 31
0.0
  0
LINE
  5
173
330
1F
100
AcDbEntity
  8
0
 62
     2
100
AcDbLine
 10
25.11256046295864
 20
200.2343242611249
 30
0.0
 11
24.81644464277827
 21
199.9631955543768
 31
0.0
  0
LINE
  5
174
330
1F
100
AcDbEntity
  8
0
 62
     2
100
AcDbLine
 10
25.12037977175981
 20
200.2631955543761
 30
0.0
 11
25.1125604629587
 21
200.2343242611249
 31
0.0
  0
LINE
  5
175
330
1F
100
AcDbEntity
  8
0
 62
     2
100
AcDbLine
 10
24.71412997356117
 20
199.963195554377
 30
0.0
 11
24.81644464277827
 21
199.9631955543768
 31
0.0
  0
ARC
  5
176
330
1F
100
AcDbEntity
  8
0
 62
     2
100
AcDbCircle
 10
24.71412997356077
 20
199.763195554377
 30
0.0
 40
0.2000000000000262
100
AcDbArc
 50
89.99999999986973
 51
179.9999999999522
  0
LINE
  5
177
330
1F
100
AcDbEntity
  8
0
 62
     2
100
AcDbLine
 10
24.51412997355817
 20
198.9632022888831
 30
0.0
 11
24.5141299735584
 21
199.7631955543772
 31
0.0
  0
ARC
  5
178
330
1F
100
AcDbEntity
  8
0
 62
     2
100
AcDbCircle
 10
23.71412997356003
 20
198.9632022888838
 30
0.0
 40
0.7999999999999845
100
AcDbArc
 50
321.2168202950376
 51
0.0000000000009669
  0
ARC
  5
179
330
1F
100
AcDbEntity
  8
0
 62
     2
100
AcDbCircle
 10
23.71412997356003
 20
198.9632022888838
 30
0.0
 40
0.7999999999999845
100
AcDbArc
 50
270.0000382497353
 51
321.2168202950386
  0
LINE
  5
17A
330
1F
100
AcDbEntity
  8
0
 62
     2
100
AcDbLine
 10
12.52948350812812
 20
198.1631948221952
 30
0.0
 11
23.71413050762703
 21
198.163202288884
 31
0.0
  0
ARC
  5
17B
330
1F
100
AcDbEntity
  8
0
 62
     2
100
AcDbCircle
 10
12.52948297406101
 20
198.963194822195
 30
0.0
 40
0.7999999999999926
100
AcDbArc
 50
152.000000000041
 51
270.0000382497337
  0
LINE
  5
17C
330
1F
100
AcDbEntity
  8
0
 62
     2
100
AcDbLine
 10
12.38990177236201
 20
200.4047243366484
 30
0.0
 11
11.82312489977357
 21
199.3387720724232
 31
0.0
  0
ARC
  5
17D
330
1F
100
AcDbEntity
  8
0
 62
     2
100
AcDbCircle
 10
12.21331225379026
 20
200.4986186492054
 30
0.0
 40
0.2000000000000101
100
AcDbArc
 50
332.0000000000304
 51
19.54380765271386
  0
ARC
  5
17E
330
1F
100
AcDbEntity
  8
0
 62
     2
100
AcDbCircle
 10
10.56413676964365
 20
199.9131955351333
 30
0.0
 40
1.950000000000005
100
AcDbArc
 50
19.54380765272516
 51
70.45619538414563
  0
ARC
  5
17F
330
1F
100
AcDbEntity
  8
0
 62
     2
100
AcDbCircle
 10
11.14955979630395
 20
201.5623710503093
 30
0.0
 40
0.1999999999999815
100
AcDbArc
 50
70.45619538415953
 51
117.9999999997322
  0
LINE
  5
180
330
1F
100
AcDbEntity
  8
0
 62
     2
100
AcDbLine
 10
9.989713710819558
 20
201.172183957526
 30
0.0
 11
11.05566548374759
 21
201.7389605688815
 31
0.0
  0
ARC
  5
181
330
1F
100
AcDbEntity
  8
0
 62
     2
100
AcDbCircle
 10
9.614136460594295
 20
201.878542031815
 30
0.0
 40
0.8000000000000025
100
AcDbArc
 50
270.0
 51
297.9999999997223
  0
LINE
  5
182
330
1F
100
AcDbEntity
  8
0
 62
     2
100
AcDbLine
 10
8.714136460594375
 20
201.078542024249
 30
0.0
 11
9.614136460594352
 21
201.078542024249
 31
0.0
  0
LINE
  5
183
330
1F
100
AcDbEntity
  8
0
 62
     2
100
AcDbLine
 10
24.81644464277827
 20
237.3632000367704
 30
0.0
 11
24.81644464277827
 21
235.8631971397722
 31
0.0
  0
LINE
  5
184
330
1F
100
AcDbEntity
  8
0
 62
     2
100
AcDbLine
 10
24.81644464277827
 20
237.3632000367704
 30
0.0
 11
24.81644464277827
 21
237.6632000367705
 31
0.0
  0
LINE
  5
185
330
1F
100
AcDbEntity
  8
0
 62
     2
100
AcDbLine
 10
24.81644464277827
 20
237.6632000367704
 30
0.0
 11
25.03912976955445
 21
237.6632000367705
 31
0.0
  0
LINE
  5
186
330
1F
100
AcDbEntity
  8
0
 62
     2
100
AcDbLine
 10
24.81644464277827
 20
198.1632000367704
 30
0.0
 11
24.81644464277827
 21
198.4632000367704
 31
0.0
  0
LINE
  5
187
330
1F
100
AcDbEntity
  8
0
 62
     2
100
AcDbLine
 10
24.81644464277827
 20
199.9631955543768
 30
0.0
 11
24.81644464277827
 21
198.4632000367704
 31
0.0
  0
LINE
  5
188
330
1F
100
AcDbEntity
  8
0
 62
     2
100
AcDbLine
 10
25.03912976955451
 20
198.1632000367704
 30
0.0
 11
24.81644464277827
 21
198.1632000367704
 31
0.0
  0
LINE
  5
189
330
1F
100
AcDbEntity
  8
0
 62
     2
100
AcDbLine
 10
26.36412978806834
 20
237.6632000367704
 30
0.0
 11
25.03912976955451
 21
237.6632000367704
 31
0.0
  0
LINE
  5
18A
330
1F
100
AcDbEntity
  8
0
 62
     2
100
AcDbLine
 10
30.76412984715228
 20
237.6631904470262
 30
0.0
 11
26.36412978806908
 21
237.6631901220682
 31
0.0
  0
ARC
  5
18B
330
1F
100
AcDbEntity
  8
0
 62
     2
100
AcDbCircle
 10
30.76412984715228
 20
236.8631904470263
 30
0.0
 40
0.7999999999999968
100
AcDbArc
 50
51.21703109438462
 51
90.00000000000016
  0
ARC
  5
18C
330
1F
100
AcDbEntity
  8
0
 62
     2
100
AcDbCircle
 10
30.76412984715228
 20
236.8631904470263
 30
0.0
 40
0.7999999999999968
100
AcDbArc
 50
0.0
 51
51.21703109438449
  0
LINE
  5
18D
330
1F
100
AcDbEntity
  8
0
 62
     2
100
AcDbLine
 10
31.56412984715149
 20
236.0631971397561
 30
0.0
 11
31.56412984715155
 21
236.8631904470261
 31
0.0
  0
ARC
  5
18E
330
1F
100
AcDbEntity
  8
0
 62
     2
100
AcDbCircle
 10
31.76412984715205
 20
236.0631971397561
 30
0.0
 40
0.2000000000000062
100
AcDbArc
 50
180.0
 51
269.9999999998901
  0
LINE
  5
18F
330
1F
100
AcDbEntity
  8
0
 62
     2
100
AcDbLine
 10
32.41412972073272
 20
235.8631971397546
 30
0.0
 11
31.76412984715154
 21
235.8631971397561
 31
0.0
  0
ARC
  5
190
330
1F
100
AcDbEntity
  8
0
 62
     2
100
AcDbCircle
 10
32.41412972073317
 20
236.0631971397545
 30
0.0
 40
0.1999999999999918
100
AcDbArc
 50
269.9999999998698
 51
0.0
  0
LINE
  5
191
330
1F
100
AcDbEntity
  8
0
 62
     2
100
AcDbLine
 10
32.61412972073572
 20
236.8631904052485
 30
0.0
 11
32.61412972073555
 21
236.0631971397544
 31
0.0
  0
ARC
  5
192
330
1F
100
AcDbEntity
  8
0
 62
     2
100
AcDbCircle
 10
33.41412972073385
 20
236.8631904052478
 30
0.0
 40
0.7999999999999845
100
AcDbArc
 50
141.2170693441356
 51
179.9999999999479
  0
ARC
  5
193
330
1F
100
AcDbEntity
  8
0
 62
     2
100
AcDbCircle
 10
33.41412972073385
 20
236.8631904052478
 30
0.0
 40
0.7999999999999845
100
AcDbArc
 50
90.00003824973533
 51
141.2170693441361
  0
LINE
  5
194
330
1F
100
AcDbEntity
  8
0
 62
     2
100
AcDbLine
 10
44.59877618616599
 20
237.6631978719364
 30
0.0
 11
33.41412918666697
 21
237.6631904052476
 31
0.0
  0
ARC
  5
195
330
1F
100
AcDbEntity
  8
0
 62
     2
100
AcDbCircle
 10
44.59877672023288
 20
236.8631978719366
 30
0.0
 40
0.8000000000000052
100
AcDbArc
 50
332.0000000000412
 51
90.00003824973608
  0
LINE
  5
196
330
1F
100
AcDbEntity
  8
0
 62
     2
100
AcDbLine
 10
44.73835792193194
 20
235.4216683574832
 30
0.0
 11
45.30513479452037
 21
236.4876206217083
 31
0.0
  0
ARC
  5
197
330
1F
100
AcDbEntity
  8
0
 62
     2
100
AcDbCircle
 10
44.91494744050368
 20
235.3277740449262
 30
0.0
 40
0.1999999999999882
100
AcDbArc
 50
152.0000000000448
 51
199.5438076527313
  0
ARC
  5
198
330
1F
100
AcDbEntity
  8
0
 62
     2
100
AcDbCircle
 10
46.56412292465023
 20
235.9131971589983
 30
0.0
 40
1.950000000000033
100
AcDbArc
 50
199.5438076527267
 51
250.4561953841482
  0
ARC
  5
199
330
1F
100
AcDbEntity
  8
0
 62
     2
100
AcDbCircle
 10
45.97869989799
 20
234.2640216438223
 30
0.0
 40
0.2000000000000043
100
AcDbArc
 50
250.4561953841288
 51
297.9999999997057
  0
LINE
  5
19A
330
1F
100
AcDbEntity
  8
0
 62
     2
100
AcDbLine
 10
47.13854598347433
 20
234.6542087366055
 30
0.0
 11
46.07259421054636
 21
234.0874321252501
 31
0.0
  0
ARC
  5
19B
330
1F
100
AcDbEntity
  8
0
 62
     2
100
AcDbCircle
 10
47.51412323369959
 20
233.9478506623166
 30
0.0
 40
0.7999999999999965
100
AcDbArc
 50
0.0000008537736463
 51
117.9999999864847
  0
LINE
  5
19C
330
1F
100
AcDbEntity
  8
0
 62
     2
100
AcDbLine
 10
48.31412347743111
 20
222.7631962206188
 30
0.0
 11
48.31412343263025
 21
233.9478506744222
 31
0.0
  0
ARC
  5
19D
330
1F
100
AcDbEntity
  8
0
 62
     2
100
AcDbCircle
 10
47.51412340294712
 20
222.7631962206188
 30
0.0
 40
0.8000000000000125
100
AcDbArc
 50
321.2170310943522
 51
359.9999999999989
  0
ARC
  5
19E
330
1F
100
AcDbEntity
  8
0
 62
     2
100
AcDbCircle
 10
47.51412340294712
 20
222.7631962206188
 30
0.0
 40
0.8000000000000125
100
AcDbArc
 50
269.9999999999471
 51
321.2170310943533
  0
LINE
  5
19F
330
1F
100
AcDbEntity
  8
0
 62
     2
100
AcDbLine
 10
46.71413063985381
 20
221.9631962206195
 30
0.0
 11
47.5141234029465
 21
221.9631962206188
 31
0.0
  0
ARC
  5
1A0
330
1F
100
AcDbEntity
  8
0
 62
     2
100
AcDbCircle
 10
46.71413063985358
 20
221.7631962206195
 30
0.0
 40
0.199999999999987
100
AcDbArc
 50
89.99999999993486
 51
179.9999999998617
  0
LINE
  5
1A1
330
1F
100
AcDbEntity
  8
0
 62
     2
100
AcDbLine
 10
46.51413063984739
 20
221.1131963470611
 30
0.0
 11
46.51413063984779
 21
221.76319622062
 31
0.0
  0
ARC
  5
1A2
330
1F
100
AcDbEntity
  8
0
 62
     2
100
AcDbCircle
 10
46.71413063985204
 20
221.1131963470606
 30
0.0
 40
0.2000000000000117
100
AcDbArc
 50
180.0
 51
270.0000000001164
  0
LINE
  5
1A3
330
1F
100
AcDbEntity
  8
0
 62
     2
100
AcDbLine
 10
47.51412362214955
 20
220.9131963470604
 30
0.0
 11
46.71413063985199
 21
220.9131963470606
 31
0.0
  0
ARC
  5
1A4
330
1F
100
AcDbEntity
  8
0
 62
     2
100
AcDbCircle
 10
47.51412362214933
 20
220.1131963470604
 30
0.0
 40
0.800000000000002
100
AcDbArc
 50
51.21703532593452
 51
89.999999999984
  0
ARC
  5
1A5
330
1F
100
AcDbEntity
  8
0
 62
     2
100
AcDbCircle
 10
47.51412362214933
 20
220.1131963470604
 30
0.0
 40
0.800000000000002
100
AcDbArc
 50
0.0000042688682313
 51
51.2170353632728
  0
LINE
  5
1A6
330
1F
100
AcDbEntity
  8
0
 62
     2
100
AcDbLine
 10
48.31412417247105
 20
215.7131963470605
 30
0.0
 11
48.31412408645258
 21
220.1131964061437
 31
0.0
  0
ARC
  5
1A7
330
1F
100
AcDbEntity
  8
0
 62
     2
100
AcDbCircle
 10
47.51412394710741
 20
215.7131963470605
 30
0.0
 40
0.8000000000000379
100
AcDbArc
 50
321.2170310943954
 51
0.0000000000001018
  0
ARC
  5
1A8
330
1F
100
AcDbEntity
  8
0
 62
     2
100
AcDbCircle
 10
47.51412394710741
 20
215.7131963470605
 30
0.0
 40
0.8000000000000379
100
AcDbArc
 50
269.9999999999797
 51
321.2170310943953
  0
LINE
  5
1A9
330
1F
100
AcDbEntity
  8
0
 62
     2
100
AcDbLine
 10
46.71413063983732
 20
214.9131963470607
 30
0.0
 11
47.51412394710735
 21
214.9131963470605
 31
0.0
  0
ARC
  5
1AA
330
1F
100
AcDbEntity
  8
0
 62
     2
100
AcDbCircle
 10
46.71413063983721
 20
214.7131963470607
 30
0.0
 40
0.1999999999999995
100
AcDbArc
 50
89.99999999998371
 51
179.9999999998654
  0
LINE
  5
1AB
330
1F
100
AcDbEntity
  8
0
 62
     2
100
AcDbLine
 10
46.51413063983102
 20
214.06319647348
 30
0.0
 11
46.51413063983142
 21
214.7131963470612
 31
0.0
  0
ARC
  5
1AC
330
1F
100
AcDbEntity
  8
0
 62
     2
100
AcDbCircle
 10
46.71413063983573
 20
214.0631964734796
 30
0.0
 40
0.2000000000000162
100
AcDbArc
 50
180.0
 51
270.0000000000808
  0
LINE
  5
1AD
330
1F
100
AcDbEntity
  8
0
 62
     2
100
AcDbLine
 10
47.51412390532965
 20
213.8631964734788
 30
0.0
 11
46.71413063983556
 21
213.8631964734795
 31
0.0
  0
ARC
  5
1AE
330
1F
100
AcDbEntity
  8
0
 62
     2
100
AcDbCircle
 10
47.51412390532897
 20
213.0631964734789
 30
0.0
 40
0.8000000000000067
100
AcDbArc
 50
51.21706934413372
 51
89.99999999994985
  0
ARC
  5
1AF
330
1F
100
AcDbEntity
  8
0
 62
     2
100
AcDbCircle
 10
47.51412390532897
 20
213.0631964734789
 30
0.0
 40
0.8000000000000067
100
AcDbArc
 50
0.0000382486782012
 51
51.21706934293279
  0
LINE
  5
1B0
330
1F
100
AcDbEntity
  8
0
 62
     2
100
AcDbLine
 10
48.31413465799733
 20
201.8785500080469
 30
0.0
 11
48.31413268147759
 21
213.0631970075434
 31
0.0
  0
ARC
  5
1B1
330
1F
100
AcDbEntity
  8
0
 62
     2
100
AcDbCircle
 10
47.51413137201774
 20
201.8785494739799
 30
0.0
 40
0.7999999999999801
100
AcDbArc
 50
242.0000000000438
 51
0.0000382497346576
  0
LINE
  5
1B2
330
1F
100
AcDbEntity
  8
0
 62
     2
100
AcDbLine
 10
46.07260185756434
 20
201.7389682722808
 30
0.0
 11
47.13855412178947
 21
201.1721913996924
 31
0.0
  0
ARC
  5
1B3
330
1F
100
AcDbEntity
  8
0
 62
     2
100
AcDbCircle
 10
45.97870754500735
 20
201.5623787537091
 30
0.0
 40
0.2000000000000043
100
AcDbArc
 50
62.00000000004476
 51
109.5438076527272
  0
ARC
  5
1B4
330
1F
100
AcDbEntity
  8
0
 62
     2
100
AcDbCircle
 10
46.56413065907947
 20
199.9132032695625
 30
0.0
 40
1.950000000000019
100
AcDbArc
 50
109.543807652723
 51
160.4561953841437
  0
ARC
  5
1B5
330
1F
100
AcDbEntity
  8
0
 62
     2
100
AcDbCircle
 10
44.91495514390351
 20
200.4986262962228
 30
0.0
 40
0.2000000000000085
100
AcDbArc
 50
160.456195384142
 51
207.9999999997175
  0
LINE
  5
1B6
330
1F
100
AcDbEntity
  8
0
 62
     2
100
AcDbLine
 10
45.30514223668666
 20
199.3387802107385
 30
0.0
 11
44.73836562533126
 21
200.4047319836665
 31
0.0
  0
ARC
  5
1B7
330
1F
100
AcDbEntity
  8
0
 62
     2
100
AcDbCircle
 10
44.59878416239769
 20
198.9632029605131
 30
0.0
 40
0.7999999999999985
100
AcDbArc
 50
270.000000867008
 51
27.99999999972056
  0
LINE
  5
1B8
330
1F
100
AcDbEntity
  8
0
 62
     2
100
AcDbLine
 10
33.41412972069992
 20
198.1632027912656
 30
0.0
 11
44.59878417450335
 21
198.1632029605132
 31
0.0
  0
ARC
  5
1B9
330
1F
100
AcDbEntity
  8
0
 62
     2
100
AcDbCircle
 10
33.41412972069998
 20
198.9632027912656
 30
0.0
 40
0.8000000000000047
100
AcDbArc
 50
231.2170310943567
 51
269.9999999999956
  0
ARC
  5
1BA
330
1F
100
AcDbEntity
  8
0
 62
     2
100
AcDbCircle
 10
33.41412972069998
 20
198.9632027912656
 30
0.0
 40
0.8000000000000047
100
AcDbArc
 50
180.0
 51
231.2170310944116
  0
LINE
  5
1BB
330
1F
100
AcDbEntity
  8
0
 62
     2
100
AcDbLine
 10
32.61412972070252
 20
199.763195554359
 30
0.0
 11
32.61412972070229
 21
198.9632027912663
 31
0.0
  0
ARC
  5
1BC
330
1F
100
AcDbEntity
  8
0
 62
     2
100
AcDbCircle
 10
32.41412972070066
 20
199.7631955543592
 30
0.0
 40
0.2000000000000037
100
AcDbArc
 50
0.0
 51
89.99999999987791
  0
LINE
  5
1BD
330
1F
100
AcDbEntity
  8
0
 62
     2
100
AcDbLine
 10
31.76412984714216
 20
199.9631955543607
 30
0.0
 11
32.41412972070111
 21
199.9631955543592
 31
0.0
  0
ARC
  5
1BE
330
1F
100
AcDbEntity
  8
0
 62
     2
100
AcDbCircle
 10
31.76412984714176
 20
199.7631955543607
 30
0.0
 40
0.1999999999999873
100
AcDbArc
 50
89.99999999986973
 51
179.9999999999868
  0
LINE
  5
1BF
330
1F
100
AcDbEntity
  8
0
 62
     2
100
AcDbLine
 10
31.56412984714098
 20
198.9632025720632
 30
0.0
 11
31.56412984714103
 21
199.7631955543607
 31
0.0
  0
ARC
  5
1C0
330
1F
100
AcDbEntity
  8
0
 62
     2
100
AcDbCircle
 10
30.76412984714153
 20
198.9632025720634
 30
0.0
 40
0.8000000000000076
100
AcDbArc
 50
321.217035325933
 51
0.0000000000005089
  0
ARC
  5
1C1
330
1F
100
AcDbEntity
  8
0
 62
     2
100
AcDbCircle
 10
30.76412984714153
 20
198.9632025720634
 30
0.0
 40
0.8000000000000076
100
AcDbArc
 50
270.000004231528
 51
321.2170353259324
  0
LINE
  5
1C2
330
1F
100
AcDbEntity
  8
0
 62
     2
100
AcDbLine
 10
26.36412988406869
 20
198.1632022471053
 30
0.0
 11
30.76412990622492
 21
198.1632025720634
 31
0.0
  0
LINE
  5
1C3
330
1F
100
AcDbEntity
  8
0
 62
     2
100
AcDbLine
 10
25.03912976955451
 20
198.1632000367704
 30
0.0
 11
26.36412988406869
 21
198.1632000367704
 31
0.0
  0
ARC
  5
1C4
330
1F
100
AcDbEntity
  8
0
 62
     2
100
AcDbCircle
 10
25.36412984715218
 20
236.0631971397709
 30
0.0
 40
0.4999999999999982
100
AcDbArc
 50
269.9999400830185
 51
347.1609815104661
  0
LINE
  5
1C5
330
1F
100
AcDbEntity
  8
0
 62
     2
100
AcDbLine
 10
25.36412984715099
 20
235.5631971397709
 30
0.0
 11
25.12037977175981
 21
235.5631971397714
 31
0.0
  0
LINE
  5
1C6
330
1F
100
AcDbEntity
  8
0
 62
     2
100
AcDbLine
 10
25.12037977175976
 20
200.2631955543761
 30
0.0
 11
25.36412984714303
 21
200.2631955543755
 31
0.0
  0
ARC
  5
1C7
330
1F
100
AcDbEntity
  8
0
 62
     2
100
AcDbCircle
 10
25.3641298471419
 20
199.7631955543755
 30
0.0
 40
0.5
100
AcDbArc
 50
12.83901848426723
 51
90.00005991671279
  0
LINE
  5
1C8
330
1F
100
AcDbEntity
  8
0
 62
     2
100
AcDbLine
 10
28.56412967679279
 20
237.3631902845472
 30
0.0
 11
28.56412967679279
 21
237.2631939742521
 31
0.0
  0
LINE
  5
1C9
330
1F
100
AcDbEntity
  8
0
 62
     2
100
AcDbLine
 10
25.85162979160776
 20
199.8742982282665
 30
0.0
 11
25.85162979160776
 21
200.2975013198748
 31
0.0
  0
LINE
  5
1CA
330
1F
100
AcDbEntity
  8
0
 62
     2
100
AcDbLine
 10
28.56412967679279
 20
198.5632060992889
 30
0.0
 11
28.56412967679279
 21
198.4632024095843
 31
0.0
  0
LINE
  5
1CB
330
1F
100
AcDbEntity
  8
0
 62
     2
100
AcDbLine
 10
25.85162979160782
 20
235.5288913742636
 30
0.0
 11
25.85162979160782
 21
235.9520944658348
 31
0.0
  0
ARC
  5
1CC
330
1F
100
AcDbEntity
  8
0
 62
     2
100
AcDbCircle
 10
26.66412977673423
 20
236.7631941145748
 30
0.0
 40
0.4999999999999998
100
AcDbArc
 50
89.99999571215714
 51
180.0001161643926
  0
LINE
  5
1CD
330
1F
100
AcDbEntity
  8
0
 62
     2
100
AcDbLine
 10
26.16412977673417
 20
236.7631941145747
 30
0.0
 11
26.1641297767377
 21
232.879829583867
 31
0.0
  0
ARC
  5
1CE
330
1F
100
AcDbEntity
  8
0
 62
     2
100
AcDbCircle
 10
24.16412977674099
 20
232.879829583867
 30
0.0
 40
2.0
100
AcDbArc
 50
342.4479274755545
 51
0.0000000000008142
  0
ARC
  5
1CF
330
1F
100
AcDbEntity
  8
0
 62
     2
100
AcDbCircle
 10
24.16412977674651
 20
202.9465704896722
 30
0.0
 40
2.000000000000011
100
AcDbArc
 50
0.0
 51
17.55207252500912
  0
LINE
  5
1D0
330
1F
100
AcDbEntity
  8
0
 62
     2
100
AcDbLine
 10
26.16412977674577
 20
202.9465704896731
 30
0.0
 11
26.16412977674423
 21
199.0632062396111
 31
0.0
  0
ARC
  5
1D1
330
1F
100
AcDbEntity
  8
0
 62
     2
100
AcDbCircle
 10
26.66412977674418
 20
199.0632062396114
 30
0.0
 40
0.5000000000000013
100
AcDbArc
 50
179.999883836573
 51
270.0000042876592
  0
LINE
  5
1D2
330
1F
100
AcDbEntity
  8
0
 62
     2
100
AcDbLine
 10
25.85162979160776
 20
202.4632001437956
 30
0.0
 11
26.07100479756218
 21
202.4632001351402
 31
0.0
  0
LINE
  5
1D3
330
1F
100
AcDbEntity
  8
0
 62
     2
100
AcDbLine
 10
26.07100479756218
 20
202.4632001351402
 30
0.0
 11
26.07100479756218
 21
203.5497517683847
 31
0.0
  0
LINE
  5
1D4
330
1F
100
AcDbEntity
  8
0
 62
     2
100
AcDbLine
 10
26.07100479756218
 20
232.2766483051722
 30
0.0
 11
26.07100479756218
 21
233.3632001351327
 31
0.0
  0
LINE
  5
1D5
330
1F
100
AcDbEntity
  8
0
 62
     2
100
AcDbLine
 10
26.07100479756218
 20
233.3632001351327
 30
0.0
 11
25.85162979160782
 21
233.3632001437881
 31
0.0
  0
LINE
  5
1D6
330
1F
100
AcDbEntity
  8
0
 62
     2
100
AcDbLine
 10
25.85162979160776
 20
200.2975013198749
 30
0.0
 11
25.85162979160776
 21
202.4632001437956
 31
0.0
  0
LINE
  5
1D7
330
1F
100
AcDbEntity
  8
0
 62
     2
100
AcDbLine
 10
25.85162979160782
 20
233.3632001437881
 30
0.0
 11
25.85162979160782
 21
235.5288913742636
 31
0.0
  0
LINE
  5
1D8
330
1F
100
AcDbEntity
  8
0
 62
     2
100
AcDbLine
 10
9.614136460594352
 20
222.2478506698826
 30
0.0
 11
9.114129776742345
 21
222.2478506698826
 31
0.0
  0
LINE
  5
1D9
330
1F
100
AcDbEntity
  8
0
 62
     2
100
AcDbLine
 10
9.614136460594352
 20
222.2631961760003
 30
0.0
 11
9.614136460594352
 21
222.2478506698826
 31
0.0
  0
LINE
  5
1DA
330
1F
100
AcDbEntity
  8
0
 62
     2
100
AcDbLine
 10
8.714136460594318
 20
222.2478506698826
 30
0.0
 11
9.114129776742345
 21
222.2478506698826
 31
0.0
  0
LINE
  5
1DB
330
1F
100
AcDbEntity
  8
0
 62
     2
100
AcDbLine
 10
9.614136460594352
 20
213.578542024249
 30
0.0
 11
9.614136460594352
 21
213.5631964735128
 31
0.0
  0
LINE
  5
1DC
330
1F
100
AcDbEntity
  8
0
 62
     2
100
AcDbLine
 10
9.114129776742345
 20
213.578542024249
 30
0.0
 11
9.614136460594352
 21
213.578542024249
 31
0.0
  0
LINE
  5
1DD
330
1F
100
AcDbEntity
  8
0
 62
     2
100
AcDbLine
 10
9.114129776742345
 20
213.578542024249
 30
0.0
 11
8.714136460594318
 21
213.578542024249
 31
0.0
  0
LINE
  5
1DE
330
1F
100
AcDbEntity
  8
0
 62
     2
100
AcDbLine
 10
9.614135788964518
 20
222.2631962206527
 30
0.0
 11
10.41412905445867
 21
222.263196220652
 31
0.0
  0
ARC
  5
1DF
330
1F
100
AcDbEntity
  8
0
 62
     2
100
AcDbCircle
 10
10.41412905445821
 20
221.763196220652
 30
0.0
 40
0.4999999999999987
100
AcDbArc
 50
0.0000012074182697
 51
89.99898350503692
  0
ARC
  5
1E0
330
1F
100
AcDbEntity
  8
0
 62
     2
100
AcDbCircle
 10
10.41412905445668
 20
221.1131963470709
 30
0.0
 40
0.5
100
AcDbArc
 50
269.999999999987
 51
0.0000000000048853
  0
LINE
  5
1E1
330
1F
100
AcDbEntity
  8
0
 62
     2
100
AcDbLine
 10
10.41412905445657
 20
220.6131963470709
 30
0.0
 11
9.614126878582624
 21
220.6131963915944
 31
0.0
  0
ARC
  5
1E2
330
1F
100
AcDbEntity
  8
0
 62
     2
100
AcDbCircle
 10
9.61413574718648
 20
220.1131963470711
 30
0.0
 40
0.5
100
AcDbArc
 50
90.00101680490017
 51
180.0000000000018
  0
ARC
  5
1E3
330
1F
100
AcDbEntity
  8
0
 62
     2
100
AcDbCircle
 10
9.614136072144618
 20
215.7131963470712
 30
0.0
 40
0.5
100
AcDbArc
 50
180.0
 51
269.9989831754216
  0
LINE
  5
1E4
330
1F
100
AcDbEntity
  8
0
 62
     2
100
AcDbLine
 10
9.614136072144447
 20
215.2131963470712
 30
0.0
 11
10.41412905444201
 21
215.213196347071
 31
0.0
  0
ARC
  5
1E5
330
1F
100
AcDbEntity
  8
0
 62
     2
100
AcDbCircle
 10
10.4141290544419
 20
214.713196347071
 30
0.0
 40
0.5000000000000018
100
AcDbArc
 50
0.0000012074182697
 51
89.99898350507677
  0
ARC
  5
1E6
330
1F
100
AcDbEntity
  8
0
 62
     2
100
AcDbCircle
 10
10.41412905444037
 20
214.0631964735121
 30
0.0
 40
0.5000000000000036
100
AcDbArc
 50
269.9999999999479
 51
0.0
  0
LINE
  5
1E7
330
1F
100
AcDbEntity
  8
0
 62
     2
100
AcDbLine
 10
10.41412905443991
 20
213.5631964735121
 30
0.0
 11
9.614136291347222
 21
213.5631964735128
 31
0.0
  0
LINE
  5
1E8
330
1F
100
AcDbEntity
  8
0
 62
     2
100
AcDbLine
 10
9.114129776742345
 20
215.7131963101442
 30
0.0
 11
9.114129776742345
 21
213.578542024249
 31
0.0
  0
LINE
  5
1E9
330
1F
100
AcDbEntity
  8
0
 62
     2
100
AcDbLine
 10
9.114129776742345
 20
222.2478506698826
 30
0.0
 11
9.114129776742345
 21
220.113196310144
 31
0.0
  0
LINE
  5
1EA
330
1F
100
AcDbEntity
  8
0
 62
     2
100
AcDbLine
 10
9.11413574718648
 20
220.113196310144
 30
0.0
 11
9.11413574718648
 21
215.7131963101442
 31
0.0
  0
LINE
  5
1EB
330
1F
100
AcDbEntity
  8
0
 62
     2
100
AcDbLine
 10
45.14724878437875
 20
232.0481413907992
 30
0.0
 11
45.14996640649724
 21
232.0435213619122
 31
0.0
  0
LINE
  5
1EC
330
1F
100
AcDbEntity
  8
0
 62
     2
100
AcDbLine
 10
25.85162979160782
 20
202.4632001437956
 30
0.0
 11
22.56412619839
 21
202.463200273504
 31
0.0
  0
LINE
  5
1ED
330
1F
100
AcDbEntity
  8
0
 62
     2
100
AcDbLine
 10
30.96412977673327
 20
233.3631999420745
 30
0.0
 11
34.56413335508671
 21
233.3631998000364
 31
0.0
  0
ARC
  5
1EE
330
1F
100
AcDbEntity
  8
0
 62
     2
100
AcDbCircle
 10
32.9641297767331
 20
232.8798295838677
 30
0.0
 40
2.000000000000003
100
AcDbArc
 50
220.4351409321347
 51
253.6173301459188
  0
ARC
  5
1EF
330
1F
100
AcDbEntity
  8
0
 62
     2
100
AcDbCircle
 10
28.56412977673801
 20
217.9132000367704
 30
0.0
 40
13.60000000000001
100
AcDbArc
 50
286.3826698540915
 51
73.61733014591817
  0
ARC
  5
1F0
330
1F
100
AcDbEntity
  8
0
 62
     2
100
AcDbCircle
 10
32.9641297767356
 20
202.9465704896739
 30
0.0
 40
2.0
100
AcDbArc
 50
106.3826698540915
 51
139.5542758188007
  0
ARC
  5
1F1
330
1F
100
AcDbEntity
  8
0
 62
     2
100
AcDbCircle
 10
24.16412977674651
 20
202.9465704896722
 30
0.0
 40
2.000000000000011
100
AcDbArc
 50
40.43514093217391
 51
73.61733014593132
  0
ARC
  5
1F2
330
1F
100
AcDbEntity
  8
0
 62
     2
100
AcDbCircle
 10
28.56412977673807
 20
217.9132000367704
 30
0.0
 40
13.59999999999999
100
AcDbArc
 50
106.3826698540896
 51
253.6173301459315
  0
ARC
  5
1F3
330
1F
100
AcDbEntity
  8
0
 62
     2
100
AcDbCircle
 10
24.16412977674099
 20
232.879829583867
 30
0.0
 40
2.0
100
AcDbArc
 50
286.3826698540886
 51
319.5542758187954
  0
ARC
  5
1F4
330
1F
100
AcDbEntity
  8
0
 62
     2
100
AcDbCircle
 10
32.9641297767356
 20
202.9465704896739
 30
0.0
 40
2.0
100
AcDbArc
 50
139.5542758188018
 51
180.0000000000432
  0
LINE
  5
1F5
330
1F
100
AcDbEntity
  8
0
 62
     2
100
AcDbLine
 10
30.96412977674231
 20
202.9465704896724
 30
0.0
 11
30.96412977674231
 21
202.463199942082
 31
0.0
  0
LINE
  5
1F6
330
1F
100
AcDbEntity
  8
0
 62
     2
100
AcDbLine
 10
30.96412977673333
 20
233.3631999420745
 30
0.0
 11
30.96412977673333
 21
232.879829583867
 31
0.0
  0
ARC
  5
1F7
330
1F
100
AcDbEntity
  8
0
 62
     2
100
AcDbCircle
 10
32.9641297767331
 20
232.8798295838677
 30
0.0
 40
2.000000000000003
100
AcDbArc
 50
180.0
 51
220.4351409321146
  0
ARC
  5
1F8
330
1F
100
AcDbEntity
  8
0
 62
     2
100
AcDbCircle
 10
24.16412977674099
 20
232.879829583867
 30
0.0
 40
2.0
100
AcDbArc
 50
319.5542758187962
 51
342.446834316827
  0
ARC
  5
1F9
330
1F
100
AcDbEntity
  8
0
 62
     2
100
AcDbCircle
 10
24.16412977674651
 20
202.9465704896722
 30
0.0
 40
2.000000000000011
100
AcDbArc
 50
17.55316568370106
 51
40.43514093217301
  0
LINE
  5
1FA
330
1F
100
AcDbEntity
  8
0
 62
     2
100
AcDbLine
 10
30.96412977674231
 20
202.463199942082
 30
0.0
 11
30.96412977674231
 21
199.6631955543609
 31
0.0
  0
LINE
  5
1FB
330
1F
100
AcDbEntity
  8
0
 62
     2
100
AcDbLine
 10
30.96412977673333
 20
236.1631971397563
 30
0.0
 11
30.96412977673333
 21
233.3631999420745
 31
0.0
  0
LINE
  5
1FC
330
1F
100
AcDbEntity
  8
0
 62
     2
100
AcDbLine
 10
8.862751179650502
 20
205.1044255236408
 30
0.0
 11
8.864117479392178
 21
205.1056765501754
 31
0.0
  0
LINE
  5
1FD
330
1F
100
AcDbEntity
  8
0
 62
     2
100
AcDbLine
 10
12.85278002878749
 20
202.4579819636895
 30
0.0
 11
12.85346284626365
 21
202.4537712557586
 31
0.0
  0
LINE
  5
1FE
330
1F
100
AcDbEntity
  8
0
 62
     2
100
AcDbLine
 10
24.22576621153161
 20
204.2182262461666
 30
0.0
 11
24.22626353559849
 21
204.2173135220515
 31
0.0
  0
LINE
  5
1FF
330
1F
100
AcDbEntity
  8
0
 62
     2
100
AcDbLine
 10
36.56469000308499
 20
203.4840704710248
 30
0.0
 11
36.56504714387358
 21
203.4831141047373
 31
0.0
  0
CIRCLE
  5
200
330
1F
100
AcDbEntity
  8
0
 62
     2
100
AcDbCircle
 10
10.56412984714808
 20
235.9131930600457
 30
0.0
 40
1.35
  0
CIRCLE
  5
201
330
1F
100
AcDbEntity
  8
0
 62
     2
100
AcDbCircle
 10
46.56412984714603
 20
235.9131926491681
 30
0.0
 40
1.35
  0
CIRCLE
  5
202
330
1F
100
AcDbEntity
  8
0
 62
     2
100
AcDbCircle
 10
10.56413025802533
 20
199.9132000449629
 30
0.0
 40
1.35
  0
CIRCLE
  5
203
330
1F
100
AcDbEntity
  8
0
 62
     2
100
AcDbCircle
 10
46.56412984714586
 20
199.9131996340859
 30
0.0
 40
1.35
  0
ARC
  5
204
330
1F
100
AcDbEntity
  8
0
 62
     2
100
AcDbCircle
 10
46.56412984714694
 20
235.9131963470658
 30
0.0
 40
2.249999999999992
100
AcDbArc
 50
52.98115272716543
 51
89.99999999999406
  0
ARC
  5
205
330
1F
100
AcDbEntity
  8
0
 62
     2
100
AcDbCircle
 10
46.56412984714694
 20
235.9131963470658
 30
0.0
 40
2.249999999999992
100
AcDbArc
 50
0.0
 51
52.98115272716542
  0
LINE
  5
206
330
1F
100
AcDbEntity
  8
0
 62
     2
100
AcDbLine
 10
48.81412984714694
 20
199.9131963470658
 30
0.0
 11
48.814129847147
 21
235.9131963470658
 31
0.0
  0
LINE
  5
207
330
1F
100
AcDbEntity
  8
0
 62
     2
100
AcDbLine
 10
50.06412984714694
 20
199.9131963470658
 30
0.0
 11
50.06412984714694
 21
235.9131963470658
 31
0.0
  0
ARC
  5
208
330
1F
100
AcDbEntity
  8
0
 62
     2
100
AcDbCircle
 10
46.564129847147
 20
199.9131963470658
 30
0.0
 40
2.249999999999937
100
AcDbArc
 50
322.9811527271666
 51
359.9999999999997
  0
ARC
  5
209
330
1F
100
AcDbEntity
  8
0
 62
     2
100
AcDbCircle
 10
46.564129847147
 20
199.9131963470658
 30
0.0
 40
2.249999999999937
100
AcDbArc
 50
270.0000000000014
 51
322.9811527271669
  0
LINE
  5
20A
330
1F
100
AcDbEntity
  8
0
 62
     2
100
AcDbLine
 10
10.56412984714694
 20
197.6631963470658
 30
0.0
 11
46.564129847147
 21
197.6631963470658
 31
0.0
  0
LINE
  5
20B
330
1F
100
AcDbEntity
  8
0
 62
     2
100
AcDbLine
 10
10.56412984714694
 20
196.4131963470658
 30
0.0
 11
46.564129847147
 21
196.4131963470658
 31
0.0
  0
ARC
  5
20C
330
1F
100
AcDbEntity
  8
0
 62
     2
100
AcDbCircle
 10
10.564129847147
 20
199.9131963470658
 30
0.0
 40
2.250000000000004
100
AcDbArc
 50
232.9811527271659
 51
270.0000000000044
  0
ARC
  5
20D
330
1F
100
AcDbEntity
  8
0
 62
     2
100
AcDbCircle
 10
10.564129847147
 20
199.9131963470658
 30
0.0
 40
2.250000000000004
100
AcDbArc
 50
180.0
 51
232.9811527271665
  0
LINE
  5
20E
330
1F
100
AcDbEntity
  8
0
 62
     2
100
AcDbLine
 10
8.314129847147
 20
235.9131963470658
 30
0.0
 11
8.314129847147
 21
199.9131963470658
 31
0.0
  0
LINE
  5
20F
330
1F
100
AcDbEntity
  8
0
 62
     2
100
AcDbLine
 10
7.064129847147001
 20
235.9131963470658
 30
0.0
 11
7.064129847147001
 21
199.9131963470658
 31
0.0
  0
ARC
  5
210
330
1F
100
AcDbEntity
  8
0
 62
     2
100
AcDbCircle
 10
10.564129847147
 20
235.9131963470658
 30
0.0
 40
2.250000000000006
100
AcDbArc
 50
142.9811527271663
 51
179.9999999999982
  0
ARC
  5
211
330
1F
100
AcDbEntity
  8
0
 62
     2
100
AcDbCircle
 10
10.564129847147
 20
235.9131963470658
 30
0.0
 40
2.250000000000006
100
AcDbArc
 50
89.99999999999855
 51
142.981152727168
  0
LINE
  5
212
330
1F
100
AcDbEntity
  8
0
 62
     2
100
AcDbLine
 10
46.564129847147
 20
238.1631963470658
 30
0.0
 11
10.56412984714694
 21
238.1631963470658
 31
0.0
  0
LINE
  5
213
330
1F
100
AcDbEntity
  8
0
 62
     2
100
AcDbLine
 10
46.564129847147
 20
239.4131963470658
 30
0.0
 11
10.56412984714694
 21
239.4131963470658
 31
0.0
  0
ARC
  5
214
330
1F
100
AcDbEntity
  8
0
 62
     2
100
AcDbCircle
 10
41.73399063829243
 20
231.0819696659319
 30
0.0
 40
3.549999999999955
100
AcDbArc
 50
0.0
 51
89.99027195996588
  0
LINE
  5
215
330
1F
100
AcDbEntity
  8
0
 62
     2
100
AcDbLine
 10
35.3141333866173
 20
234.6330597211087
 30
0.0
 11
41.73459337975521
 21
234.6319696147637
 31
0.0
  0
LINE
  5
216
330
1F
100
AcDbEntity
  8
0
 62
     2
100
AcDbLine
 10
35.3141333866173
 20
234.1131998000364
 30
0.0
 11
35.3141333866173
 21
234.6330597211087
 31
0.0
  0
ARC
  5
217
330
1F
100
AcDbEntity
  8
0
 62
     2
100
AcDbCircle
 10
34.56413338467871
 20
234.1131998000364
 30
0.0
 40
0.7499999999998869
100
AcDbArc
 50
269.9999977393375
 51
0.0
  0
LINE
  5
218
330
1F
100
AcDbEntity
  8
0
 62
     2
100
AcDbLine
 10
22.56412626019846
 20
233.3632002734965
 30
0.0
 11
25.85162979160782
 21
233.3632001437881
 31
0.0
  0
ARC
  5
219
330
1F
100
AcDbEntity
  8
0
 62
     2
100
AcDbCircle
 10
22.56412628978921
 20
234.1132002734968
 30
0.0
 40
0.7500000000000071
100
AcDbArc
 50
180.0
 51
269.9999979533835
  0
LINE
  5
21A
330
1F
100
AcDbEntity
  8
0
 62
     2
100
AcDbLine
 10
21.81412628978921
 20
234.6330640927234
 30
0.0
 11
21.81412628978921
 21
234.1132002734968
 31
0.0
  0
LINE
  5
21B
330
1F
100
AcDbEntity
  8
0
 62
     2
100
AcDbLine
 10
15.39536014757664
 20
234.6330608983243
 30
0.0
 11
21.81412617063609
 21
234.6330640927234
 31
0.0
  0
ARC
  5
21C
330
1F
100
AcDbEntity
  8
0
 62
     2
100
AcDbCircle
 10
15.39536014757664
 20
231.0830608983243
 30
0.0
 40
3.549999999999955
100
AcDbArc
 50
90.0
 51
136.8000683606716
  0
ARC
  5
21D
330
1F
100
AcDbEntity
  8
0
 62
     2
100
AcDbCircle
 10
15.39426891518428
 20
204.7444304076085
 30
0.0
 40
3.549999999999955
100
AcDbArc
 50
223.2240967188202
 51
269.9902719599661
  0
LINE
  5
21E
330
1F
100
AcDbEntity
  8
0
 62
     2
100
AcDbLine
 10
21.81412616685941
 20
201.1933403524317
 30
0.0
 11
15.3936661737215
 21
201.1944304587767
 31
0.0
  0
LINE
  5
21F
330
1F
100
AcDbEntity
  8
0
 62
     2
100
AcDbLine
 10
21.81412616685941
 20
201.713200273504
 30
0.0
 11
21.81412616685941
 21
201.1933403524317
 31
0.0
  0
ARC
  5
220
330
1F
100
AcDbEntity
  8
0
 62
     2
100
AcDbCircle
 10
22.564126168798
 20
201.713200273504
 30
0.0
 40
0.7499999999998869
100
AcDbArc
 50
89.99999773933759
 51
180.0
  0
LINE
  5
221
330
1F
100
AcDbEntity
  8
0
 62
     2
100
AcDbLine
 10
34.56413329327825
 20
202.463199800044
 30
0.0
 11
30.96412977673879
 21
202.463199942082
 31
0.0
  0
ARC
  5
222
330
1F
100
AcDbEntity
  8
0
 62
     2
100
AcDbCircle
 10
34.56413326368749
 20
201.7131998000437
 30
0.0
 40
0.75
100
AcDbArc
 50
0.0
 51
89.9999977394375
  0
LINE
  5
223
330
1F
100
AcDbEntity
  8
0
 62
     2
100
AcDbLine
 10
35.31413326368749
 20
201.1933359808171
 30
0.0
 11
35.31413326368749
 21
201.7131998000437
 31
0.0
  0
LINE
  5
224
330
1F
100
AcDbEntity
  8
0
 62
     2
100
AcDbLine
 10
41.73289940590013
 20
201.1933391752162
 30
0.0
 11
35.31413338284062
 21
201.1933359808171
 31
0.0
  0
ARC
  5
225
330
1F
100
AcDbEntity
  8
0
 62
     2
100
AcDbCircle
 10
41.73289940590013
 20
204.7433391752162
 30
0.0
 40
3.549999999999955
100
AcDbArc
 50
270.0
 51
359.9902719599659
  0
LINE
  5
226
330
1F
100
AcDbEntity
  8
0
 62
     2
100
AcDbLine
 10
45.28398946107757
 20
211.1631964268913
 30
0.0
 11
45.28289935473185
 21
204.7427364337534
 31
0.0
  0
LINE
  5
227
330
1F
100
AcDbEntity
  8
0
 62
     2
100
AcDbLine
 10
44.7641295400046
 20
211.1631964288322
 30
0.0
 11
45.28398946107689
 21
211.1631964268913
 31
0.0
  0
ARC
  5
228
330
1F
100
AcDbEntity
  8
0
 62
     2
100
AcDbCircle
 10
44.7641295400046
 20
211.9131964288299
 30
0.0
 40
0.7500000000000006
100
AcDbArc
 50
179.9999977411273
 51
270.0000000017897
  0
LINE
  5
229
330
1F
100
AcDbEntity
  8
0
 62
     2
100
AcDbLine
 10
44.01412954000455
 20
223.9132035533101
 30
0.0
 11
44.01412954000455
 21
211.9131964584219
 31
0.0
  0
ARC
  5
22A
330
1F
100
AcDbEntity
  8
0
 62
     2
100
AcDbCircle
 10
44.76413001346486
 20
223.9132035237193
 30
0.0
 40
0.75
100
AcDbArc
 50
89.99999978604852
 51
179.9999977394326
  0
LINE
  5
22B
330
1F
100
AcDbEntity
  8
0
 62
     2
100
AcDbLine
 10
45.28399383269152
 20
224.6632036428725
 30
0.0
 11
44.76413001346486
 21
224.6632035237193
 31
0.0
  0
LINE
  5
22C
330
1F
100
AcDbEntity
  8
0
 62
     2
100
AcDbLine
 10
45.28399383269152
 20
231.0819696659327
 30
0.0
 11
45.28399383269152
 21
224.6632036428725
 31
0.0
  0
LINE
  5
22D
330
1F
100
AcDbEntity
  8
0
 62
     2
100
AcDbLine
 10
22.06412984714819
 20
200.713207154313
 30
0.0
 11
22.06412984714819
 21
200.313207154313
 31
0.0
  0
LINE
  5
22E
330
1F
100
AcDbEntity
  8
0
 62
     2
100
AcDbLine
 10
22.06412984714802
 20
235.5131930600457
 30
0.0
 11
22.06412984714802
 21
235.1131930600457
 31
0.0
  0
LINE
  5
22F
330
1F
100
AcDbEntity
  8
0
 62
     2
100
AcDbLine
 10
10.91412977673718
 20
222.3923456638768
 30
0.0
 11
10.91412977673718
 21
233.5132000367705
 31
0.0
  0
LINE
  5
230
330
1F
100
AcDbEntity
  8
0
 62
     2
100
AcDbLine
 10
10.91412977673718
 20
215.2423457902769
 30
0.0
 11
10.91412977673718
 21
220.5840469038482
 31
0.0
  0
LINE
  5
231
330
1F
100
AcDbEntity
  8
0
 62
     2
100
AcDbLine
 10
10.91412977673718
 20
202.3132000367705
 30
0.0
 11
10.91412977673718
 21
213.4340470303083
 31
0.0
  0
LINE
  5
232
330
1F
100
AcDbEntity
  8
0
 62
     2
100
AcDbLine
 10
11.32176833839242
 20
202.3132000367705
 30
0.0
 11
10.91412977673701
 21
202.3132000367705
 31
0.0
  0
LINE
  5
233
330
1F
100
AcDbEntity
  8
0
 62
     2
100
AcDbLine
 10
12.80745255449801
 20
202.3132000367705
 30
0.0
 11
11.40636257138908
 21
202.3132000367705
 31
0.0
  0
LINE
  5
234
330
1F
100
AcDbEntity
  8
0
 62
     2
100
AcDbLine
 10
11.4064606868842
 20
233.5132000367705
 30
0.0
 11
12.80751862078409
 21
233.5132000367705
 31
0.0
  0
LINE
  5
235
330
1F
100
AcDbEntity
  8
0
 62
     2
100
AcDbLine
 10
10.91412977673701
 20
233.5132000367705
 30
0.0
 11
11.32165492400907
 21
233.5132000367705
 31
0.0
  0
LINE
  5
236
330
1F
100
AcDbEntity
  8
0
 62
     2
100
AcDbLine
 10
25.6864110891679
 20
204.2437441888554
 30
0.0
 11
18.55761588891141
 21
204.2433959503077
 31
0.0
  0
LINE
  5
237
330
1F
100
AcDbEntity
  8
0
 62
     2
100
AcDbLine
 10
31.44184846431085
 20
231.5826558846854
 30
0.0
 11
38.57064366456206
 21
231.5830041232333
 31
0.0
  0
ARC
  5
238
330
1F
100
AcDbEntity
  8
0
 62
     2
100
AcDbCircle
 10
43.23295618313188
 20
227.920810170586
 30
0.0
 40
1.000000000000002
100
AcDbArc
 50
115.3779622487363
 51
180.0027988737309
  0
ARC
  5
239
330
1F
100
AcDbEntity
  8
0
 62
     2
100
AcDbCircle
 10
41.73289940590013
 20
231.0830608983243
 30
0.0
 40
2.500000000000004
100
AcDbArc
 50
295.3779622487348
 51
154.6240951726049
  0
ARC
  5
23A
330
1F
100
AcDbEntity
  8
0
 62
     2
100
AcDbCircle
 10
38.57059481499709
 20
232.5830041220343
 30
0.0
 40
0.9999999999999909
100
AcDbArc
 50
270.0027988739143
 51
334.624095172608
  0
LINE
  5
23B
330
1F
100
AcDbEntity
  8
0
 62
     2
100
AcDbLine
 10
18.55656849249021
 20
231.5820264443581
 30
0.0
 11
25.68617145894427
 21
231.5823747223648
 31
0.0
  0
ARC
  5
23C
330
1F
100
AcDbEntity
  8
0
 62
     2
100
AcDbCircle
 10
18.55651964292264
 20
232.5820264431635
 30
0.0
 40
1.000000000000052
100
AcDbArc
 50
205.3779622487349
 51
270.0027988740138
  0
ARC
  5
23D
330
1F
100
AcDbEntity
  8
0
 62
     2
100
AcDbCircle
 10
15.39426891518428
 20
231.081969665932
 30
0.0
 40
2.500000000000011
100
AcDbArc
 50
25.37796224872842
 51
103.4699681399494
  0
ARC
  5
23E
330
1F
100
AcDbEntity
  8
0
 62
     2
100
AcDbCircle
 10
15.39536014757664
 20
204.7433391752162
 30
0.0
 40
2.500000000000004
100
AcDbArc
 50
256.4230832329468
 51
334.6240951724814
  0
ARC
  5
23F
330
1F
100
AcDbEntity
  8
0
 62
     2
100
AcDbCircle
 10
18.55766473847643
 20
203.2433959514993
 30
0.0
 40
0.9999999999999997
100
AcDbArc
 50
90.00279887391751
 51
154.6240951724846
  0
LINE
  5
240
330
1F
100
AcDbEntity
  8
0
 62
     2
100
AcDbLine
 10
38.5716910609886
 20
204.2443736291828
 30
0.0
 11
31.44208809453221
 21
204.244025351176
 31
0.0
  0
ARC
  5
241
330
1F
100
AcDbEntity
  8
0
 62
     2
100
AcDbCircle
 10
38.57173991055623
 20
203.2443736303725
 30
0.0
 40
1.000000000000052
100
AcDbArc
 50
25.37796224881351
 51
90.00279887401315
  0
ARC
  5
242
330
1F
100
AcDbEntity
  8
0
 62
     2
100
AcDbCircle
 10
41.73399063829243
 20
204.7444304076085
 30
0.0
 40
2.500000000000009
100
AcDbArc
 50
205.3779622488123
 51
64.62409517247093
  0
ARC
  5
243
330
1F
100
AcDbEntity
  8
0
 62
     2
100
AcDbCircle
 10
43.23393386200991
 20
207.906734998508
 30
0.0
 40
0.9999999999999529
100
AcDbArc
 50
180.002798873942
 51
244.6240951724965
  0
LINE
  5
244
330
1F
100
AcDbEntity
  8
0
 62
     2
100
AcDbLine
 10
42.23295618432144
 20
227.9207613210259
 30
0.0
 11
42.233933863201
 21
207.9066861489429
 31
0.0
  0
LINE
  5
245
330
1F
100
AcDbEntity
  8
0
 62
     2
100
AcDbLine
 10
8.863011366763885
 20
205.1131963470658
 30
0.0
 11
8.864339375038128
 21
205.1131963470658
 31
0.0
  0
LINE
  5
246
330
1F
100
AcDbEntity
  8
0
 62
     2
100
AcDbLine
 10
26.28984157507904
 20
230.7131963470658
 30
0.0
 11
26.2914641863083
 21
230.7131963470658
 31
0.0
  0
LINE
  5
247
330
1F
100
AcDbEntity
  8
0
 62
     2
100
AcDbLine
 10
18.58869338288639
 20
217.4131963470658
 30
0.0
 11
38.53956617058975
 21
217.4131963470658
 31
0.0
  0
LINE
  5
248
330
1F
100
AcDbEntity
  8
0
 62
     2
100
AcDbLine
 10
18.58869302035924
 20
218.4131963470658
 30
0.0
 11
38.53956653311695
 21
218.4131963470658
 31
0.0
  0
ARC
  5
249
330
1F
100
AcDbEntity
  8
0
 62
     2
100
AcDbCircle
 10
46.564129847147
 20
199.9131963470658
 30
0.0
 40
3.5
100
AcDbArc
 50
337.2371406978837
 51
0.0000000000003562
  0
ARC
  5
24A
330
1F
100
AcDbEntity
  8
0
 62
     2
100
AcDbCircle
 10
46.564129847147
 20
199.9131963470658
 30
0.0
 40
3.5
100
AcDbArc
 50
270.0000000000028
 51
337.2371406978839
  0
ARC
  5
24B
330
1F
100
AcDbEntity
  8
0
 62
     2
100
AcDbCircle
 10
46.56412984714689
 20
235.9131963470658
 30
0.0
 40
3.5
100
AcDbArc
 50
67.23714069788255
 51
89.99999999999807
  0
ARC
  5
24C
330
1F
100
AcDbEntity
  8
0
 62
     2
100
AcDbCircle
 10
46.56412984714689
 20
235.9131963470658
 30
0.0
 40
3.5
100
AcDbArc
 50
0.0
 51
67.23714069788252
  0
ARC
  5
24D
330
1F
100
AcDbEntity
  8
0
 62
     2
100
AcDbCircle
 10
10.564129847147
 20
235.9131963470658
 30
0.0
 40
3.5
100
AcDbArc
 50
157.2371406978826
 51
180.0000000000002
  0
ARC
  5
24E
330
1F
100
AcDbEntity
  8
0
 62
     2
100
AcDbCircle
 10
10.564129847147
 20
235.9131963470658
 30
0.0
 40
3.5
100
AcDbArc
 50
89.99999999999814
 51
157.2371406978823
  0
ARC
  5
24F
330
1F
100
AcDbEntity
  8
0
 62
     2
100
AcDbCircle
 10
10.564129847147
 20
199.9131963470658
 30
0.0
 40
3.5
100
AcDbArc
 50
247.2371406978755
 51
269.9999999999993
  0
ARC
  5
250
330
1F
100
AcDbEntity
  8
0
 62
     2
100
AcDbCircle
 10
10.564129847147
 20
199.9131963470658
 30
0.0
 40
3.5
100
AcDbArc
 50
180.0
 51
247.2371406978757
  0
LINE
  5
251
330
1F
100
AcDbEntity
  8
0
 62
     2
100
AcDbLine
 10
10.56412984714694
 20
238.1631963470658
 30
0.0
 11
10.56412984714694
 21
239.4131963470658
 31
0.0
  0
LINE
  5
252
330
1F
100
AcDbEntity
  8
0
 62
     2
100
AcDbLine
 10
7.064129847147001
 20
235.9131963470658
 30
0.0
 11
8.314129847147
 21
235.9131963470658
 31
0.0
  0
LINE
  5
253
330
1F
100
AcDbEntity
  8
0
 62
     2
100
AcDbLine
 10
8.314129847147
 20
199.9131963470658
 30
0.0
 11
7.064129847146944
 21
199.9131963470658
 31
0.0
  0
LINE
  5
254
330
1F
100
AcDbEntity
  8
0
 62
     2
100
AcDbLine
 10
10.564129847147
 20
196.4131963470658
 30
0.0
 11
10.56412984714706
 21
197.6631963470658
 31
0.0
  0
LINE
  5
255
330
1F
100
AcDbEntity
  8
0
 62
     2
100
AcDbLine
 10
46.564129847147
 20
197.6631963470658
 30
0.0
 11
46.564129847147
 21
196.4131963470658
 31
0.0
  0
LINE
  5
256
330
1F
100
AcDbEntity
  8
0
 62
     2
100
AcDbLine
 10
50.064129847147
 20
199.9131963470658
 30
0.0
 11
48.81412984714694
 21
199.9131963470658
 31
0.0
  0
LINE
  5
257
330
1F
100
AcDbEntity
  8
0
 62
     2
100
AcDbLine
 10
46.56412984714694
 20
239.4131963470658
 30
0.0
 11
46.564129847147
 21
238.1631963470658
 31
0.0
  0
LINE
  5
258
330
1F
100
AcDbEntity
  8
0
 62
     2
100
AcDbLine
 10
48.814129847147
 20
235.9131963470658
 30
0.0
 11
50.06412984714694
 21
235.9131963470658
 31
0.0
  0
ARC
  5
259
330
1F
100
AcDbEntity
  8
0
 62
     2
100
AcDbCircle
 10
28.56412977673807
 20
217.9132000367704
 30
0.0
 40
10.0
100
AcDbArc
 50
180.0
 51
0.0
  0
ARC
  5
25A
330
1F
100
AcDbEntity
  8
0
 62
     2
100
AcDbCircle
 10
28.56412977673807
 20
217.9132000367704
 30
0.0
 40
10.0
100
AcDbArc
 50
0.0
 51
180.0
  0
LINE
  5
25B
330
1F
100
AcDbEntity
  8
0
 62
     2
100
AcDbLine
 10
32.21412984714601
 20
204.800322637412
 30
0.0
 11
32.21412984714601
 21
204.8026165111552
 31
0.0
  0
LINE
  5
25C
330
1F
100
AcDbEntity
  8
0
 62
     2
100
AcDbLine
 10
30.96412977674231
 20
199.0632025499071
 30
0.0
 11
30.96412977674169
 21
199.663195554361
 31
0.0
  0
ARC
  5
25D
330
1F
100
AcDbEntity
  8
0
 62
     2
100
AcDbCircle
 10
30.46412977674237
 20
199.0632059589661
 30
0.0
 40
0.4999999999999998
100
AcDbArc
 50
269.9999957684362
 51
359.9999999999968
  0
LINE
  5
25E
330
1F
100
AcDbEntity
  8
0
 62
     2
100
AcDbLine
 10
28.56412972676543
 20
198.5632060992889
 30
0.0
 11
30.46412988406888
 21
198.5632059589661
 31
0.0
  0
LINE
  5
25F
330
1F
100
AcDbEntity
  8
0
 62
     2
100
AcDbLine
 10
30.46412981022547
 20
237.2631938339294
 30
0.0
 11
28.56412972676543
 21
237.2631939742521
 31
0.0
  0
ARC
  5
260
330
1F
100
AcDbEntity
  8
0
 62
     2
100
AcDbCircle
 10
30.46412977673288
 20
236.7631938339291
 30
0.0
 40
0.5000000000000013
100
AcDbArc
 50
0.0
 51
89.99999576851351
  0
LINE
  5
261
330
1F
100
AcDbEntity
  8
0
 62
     2
100
AcDbLine
 10
30.96412977673299
 20
236.1631971397563
 30
0.0
 11
30.96412977673288
 21
236.7631904248699
 31
0.0
  0
CIRCLE
  5
262
330
1F
100
AcDbEntity
  8
0
 62
     2
100
AcDbCircle
 10
28.56412977673807
 20
217.9132000367704
 30
0.0
 40
11.5
  0
LINE
  5
263
330
1F
100
AcDbEntity
  8
0
 62
     2
100
AcDbLine
 10
10.91412977673718
 20
220.5840469038482
 30
0.0
 11
10.91412977673718
 21
221.1131963470697
 31
0.0
  0
LINE
  5
264
330
1F
100
AcDbEntity
  8
0
 62
     2
100
AcDbLine
 10
10.91412977673718
 20
221.7631962206509
 30
0.0
 11
10.91412977673718
 21
222.3923456638768
 31
0.0
  0
LINE
  5
265
330
1F
100
AcDbEntity
  8
0
 62
     2
100
AcDbLine
 10
10.91412977673718
 20
214.7131963470698
 30
0.0
 11
10.91412977673718
 21
215.2423457902769
 31
0.0
  0
LINE
  5
266
330
1F
100
AcDbEntity
  8
0
 62
     2
100
AcDbLine
 10
10.91412977673718
 20
213.4340470303083
 30
0.0
 11
10.91412977673718
 21
214.0631964735109
 31
0.0
  0
LINE
  5
267
330
1F
100
AcDbEntity
  8
0
 62
     2
100
AcDbLine
 10
11.40636257138908
 20
202.3132000367705
 30
0.0
 11
11.32176833839242
 21
202.3132000367705
 31
0.0
  0
LINE
  5
268
330
1F
100
AcDbEntity
  8
0
 62
     2
100
AcDbLine
 10
11.32165492400907
 20
233.5132000367705
 30
0.0
 11
11.4064606868842
 21
233.5132000367705
 31
0.0
  0
ARC
  5
269
330
1F
100
AcDbEntity
  8
0
 62
     2
100
AcDbCircle
 10
9.614128322276201
 20
233.9478432201518
 30
0.0
 40
0.4999999999999977
100
AcDbArc
 50
62.00000000004171
 51
89.99999999999588
  0
LINE
  5
26A
330
1F
100
AcDbEntity
  8
0
 62
     2
100
AcDbLine
 10
10.91481636789399
 20
233.8225401439929
 30
0.0
 11
9.84886410366886
 21
234.3893170165813
 31
0.0
  0
ARC
  5
26B
330
1F
100
AcDbEntity
  8
0
 62
     2
100
AcDbCircle
 10
11.14955214928659
 20
234.2640139404225
 30
0.0
 40
0.500000000000002
100
AcDbArc
 50
242.000000000039
 51
289.5438076527217
  0
ARC
  5
26C
330
1F
100
AcDbEntity
  8
0
 62
     2
100
AcDbCircle
 10
10.56412903521448
 20
235.9131894245691
 30
0.0
 40
2.250000000000012
100
AcDbArc
 50
289.5438076527237
 51
339.172602116947
  0
ARC
  5
26D
330
1F
100
AcDbEntity
  8
0
 62
     2
100
AcDbCircle
 10
12.21330455039043
 20
235.3277663979088
 30
0.0
 40
0.4999999999999992
100
AcDbArc
 50
21.76825362420295
 51
27.99999999972149
  0
LINE
  5
26E
330
1F
100
AcDbEntity
  8
0
 62
     2
100
AcDbLine
 10
12.08800173546558
 20
236.6284539522276
 30
0.0
 11
12.65477834682105
 21
235.5625021792996
 31
0.0
  0
ARC
  5
26F
330
1F
100
AcDbEntity
  8
0
 62
     2
100
AcDbCircle
 10
12.5294755318962
 20
236.8631897336184
 30
0.0
 40
0.4999999999999988
100
AcDbArc
 50
90.00000086700312
 51
207.9999999997163
  0
LINE
  5
270
330
1F
100
AcDbEntity
  8
0
 62
     2
100
AcDbLine
 10
23.71412997359391
 20
237.363189902866
 30
0.0
 11
12.52947552433017
 21
237.3631897336184
 31
0.0
  0
ARC
  5
271
330
1F
100
AcDbEntity
  8
0
 62
     2
100
AcDbCircle
 10
23.71412997359397
 20
236.863189902866
 30
0.0
 40
0.5000000000000036
100
AcDbArc
 50
0.0
 51
90.0
  0
LINE
  5
272
330
1F
100
AcDbEntity
  8
0
 62
     2
100
AcDbLine
 10
24.21412997359323
 20
236.0631971397729
 30
0.0
 11
24.21412997359323
 21
236.8631899028655
 31
0.0
  0
ARC
  5
273
330
1F
100
AcDbEntity
  8
0
 62
     2
100
AcDbCircle
 10
24.71412997359329
 20
236.0631971397724
 30
0.0
 40
0.5000000000000036
100
AcDbArc
 50
180.0
 51
269.9999999999173
  0
LINE
  5
274
330
1F
100
AcDbEntity
  8
0
 62
     2
100
AcDbLine
 10
25.12037977175981
 20
235.5631971397715
 30
0.0
 11
24.71412997359209
 21
235.5631971397724
 31
0.0
  0
LINE
  5
275
330
1F
100
AcDbEntity
  8
0
 62
     2
100
AcDbLine
 10
24.71412997356197
 20
200.263195554377
 30
0.0
 11
25.12037977175987
 21
200.2631955543761
 31
0.0
  0
ARC
  5
276
330
1F
100
AcDbEntity
  8
0
 62
     2
100
AcDbCircle
 10
24.71412997356077
 20
199.763195554377
 30
0.0
 40
0.5000000000000004
100
AcDbArc
 50
89.9999999998632
 51
179.9999999999467
  0
LINE
  5
277
330
1F
100
AcDbEntity
  8
0
 62
     2
100
AcDbLine
 10
24.21412997356003
 20
198.9632022888833
 30
0.0
 11
24.21412997356003
 21
199.7631955543775
 31
0.0
  0
ARC
  5
278
330
1F
100
AcDbEntity
  8
0
 62
     2
100
AcDbCircle
 10
23.71412997356003
 20
198.9632022888838
 30
0.0
 40
0.5
100
AcDbArc
 50
270.0000382497329
 51
0.0
  0
LINE
  5
279
330
1F
100
AcDbEntity
  8
0
 62
     2
100
AcDbLine
 10
12.52948330785296
 20
198.4631948221951
 30
0.0
 11
23.71413030735187
 21
198.4632022888839
 31
0.0
  0
ARC
  5
27A
330
1F
100
AcDbEntity
  8
0
 62
     2
100
AcDbCircle
 10
12.52948297406101
 20
198.963194822195
 30
0.0
 40
0.5000000000000012
100
AcDbArc
 50
152.0000000000389
 51
270.000038249733
  0
LINE
  5
27B
330
1F
100
AcDbEntity
  8
0
 62
     2
100
AcDbLine
 10
12.65478605021985
 20
200.2638828678128
 30
0.0
 11
12.08800917763142
 21
199.1979306035877
 31
0.0
  0
ARC
  5
27C
330
1F
100
AcDbEntity
  8
0
 62
     2
100
AcDbCircle
 10
12.21331225379026
 20
200.4986186492054
 30
0.0
 40
0.4999999999999981
100
AcDbArc
 50
332.0000000000419
 51
338.2336178551275
  0
ARC
  5
27D
330
1F
100
AcDbEntity
  8
0
 62
     2
100
AcDbCircle
 10
10.56413676964365
 20
199.9131955351333
 30
0.0
 40
2.250000000000008
100
AcDbArc
 50
20.82781349828122
 51
70.45619538414435
  0
ARC
  5
27E
330
1F
100
AcDbEntity
  8
0
 62
     2
100
AcDbCircle
 10
11.14955979630395
 20
201.5623710503093
 30
0.0
 40
0.5000000000000054
100
AcDbArc
 50
70.45619538414329
 51
117.9999999997187
  0
LINE
  5
27F
330
1F
100
AcDbEntity
  8
0
 62
     2
100
AcDbLine
 10
9.848872241985134
 20
201.4370682353844
 30
0.0
 11
10.91482401491317
 21
202.0038448467399
 31
0.0
  0
ARC
  5
280
330
1F
100
AcDbEntity
  8
0
 62
     2
100
AcDbCircle
 10
9.614136460594295
 20
201.878542031815
 30
0.0
 40
0.5000000000000004
100
AcDbArc
 50
270.0
 51
297.9999999997224
  0
LINE
  5
281
330
1F
100
AcDbEntity
  8
0
 62
     2
100
AcDbLine
 10
30.76412984715228
 20
237.3631904470263
 30
0.0
 11
26.36412981022528
 21
237.3631901220681
 31
0.0
  0
ARC
  5
282
330
1F
100
AcDbEntity
  8
0
 62
     2
100
AcDbCircle
 10
30.76412984715228
 20
236.8631904470263
 30
0.0
 40
0.5
100
AcDbArc
 50
0.0
 51
90.0
  0
LINE
  5
283
330
1F
100
AcDbEntity
  8
0
 62
     2
100
AcDbLine
 10
31.26412984715205
 20
236.0631971397562
 30
0.0
 11
31.26412984715205
 21
236.8631904470261
 31
0.0
  0
ARC
  5
284
330
1F
100
AcDbEntity
  8
0
 62
     2
100
AcDbCircle
 10
31.76412984715205
 20
236.0631971397561
 30
0.0
 40
0.5
100
AcDbArc
 50
180.0
 51
269.999999999884
  0
LINE
  5
285
330
1F
100
AcDbEntity
  8
0
 62
     2
100
AcDbLine
 10
32.41412972073203
 20
235.5631971397545
 30
0.0
 11
31.76412984715091
 21
235.5631971397561
 31
0.0
  0
ARC
  5
286
330
1F
100
AcDbEntity
  8
0
 62
     2
100
AcDbCircle
 10
32.41412972073317
 20
236.0631971397545
 30
0.0
 40
0.5000000000000049
100
AcDbArc
 50
269.9999999998698
 51
0.0
  0
LINE
  5
287
330
1F
100
AcDbEntity
  8
0
 62
     2
100
AcDbLine
 10
32.91412972073391
 20
236.8631904052482
 30
0.0
 11
32.91412972073391
 21
236.0631971397541
 31
0.0
  0
ARC
  5
288
330
1F
100
AcDbEntity
  8
0
 62
     2
100
AcDbCircle
 10
33.41412972073385
 20
236.8631904052478
 30
0.0
 40
0.4999999999999973
100
AcDbArc
 50
90.00003824973288
 51
179.999999999945
  0
LINE
  5
289
330
1F
100
AcDbEntity
  8
0
 62
     2
100
AcDbLine
 10
44.59877638644105
 20
237.3631978719364
 30
0.0
 11
33.41412938694208
 21
237.3631904052477
 31
0.0
  0
ARC
  5
28A
330
1F
100
AcDbEntity
  8
0
 62
     2
100
AcDbCircle
 10
44.59877672023288
 20
236.8631978719366
 30
0.0
 40
0.5000000000000012
100
AcDbArc
 50
332.000000000039
 51
90.0000382497315
  0
LINE
  5
28B
330
1F
100
AcDbEntity
  8
0
 62
     2
100
AcDbLine
 10
44.47347364407409
 20
235.5625098263188
 30
0.0
 11
45.04025051666258
 21
236.628462090544
 31
0.0
  0
ARC
  5
28C
330
1F
100
AcDbEntity
  8
0
 62
     2
100
AcDbCircle
 10
44.91494744050368
 20
235.3277740449262
 30
0.0
 40
0.5000000000000008
100
AcDbArc
 50
152.000000000039
 51
199.5438076527212
  0
ARC
  5
28D
330
1F
100
AcDbEntity
  8
0
 62
     2
100
AcDbCircle
 10
46.56412292465023
 20
235.9131971589983
 30
0.0
 40
2.250000000000012
100
AcDbArc
 50
199.5438076527256
 51
250.4561953841446
  0
ARC
  5
28E
330
1F
100
AcDbEntity
  8
0
 62
     2
100
AcDbCircle
 10
45.97869989799
 20
234.2640216438223
 30
0.0
 40
0.4999999999999975
100
AcDbArc
 50
250.4561953841433
 51
297.9999999997198
  0
LINE
  5
28F
330
1F
100
AcDbEntity
  8
0
 62
     2
100
AcDbLine
 10
47.27938745230881
 20
234.3893244587472
 30
0.0
 11
46.21343567938084
 21
233.8225478473917
 31
0.0
  0
ARC
  5
290
330
1F
100
AcDbEntity
  8
0
 62
     2
100
AcDbCircle
 10
47.51412323369959
 20
233.9478506623166
 30
0.0
 40
0.4999999999999877
100
AcDbArc
 50
0.0
 51
117.9999991327128
  0
LINE
  5
291
330
1F
100
AcDbEntity
  8
0
 62
     2
100
AcDbLine
 10
48.01412340294718
 20
222.7631962206188
 30
0.0
 11
48.01412340294718
 21
233.9478506698826
 31
0.0
  0
ARC
  5
292
330
1F
100
AcDbEntity
  8
0
 62
     2
100
AcDbCircle
 10
47.51412340294712
 20
222.7631962206188
 30
0.0
 40
0.5000000000000036
100
AcDbArc
 50
269.9999999999479
 51
0.0
  0
LINE
  5
293
330
1F
100
AcDbEntity
  8
0
 62
     2
100
AcDbLine
 10
46.71413063985409
 20
222.2631962206195
 30
0.0
 11
47.51412340294678
 21
222.2631962206188
 31
0.0
  0
ARC
  5
294
330
1F
100
AcDbEntity
  8
0
 62
     2
100
AcDbCircle
 10
46.71413063985358
 20
221.7631962206195
 30
0.0
 40
0.5
100
AcDbArc
 50
89.99999999994789
 51
179.9999999998661
  0
LINE
  5
295
330
1F
100
AcDbEntity
  8
0
 62
     2
100
AcDbLine
 10
46.21413063985204
 20
221.1131963470618
 30
0.0
 11
46.21413063985204
 21
221.7631962206207
 31
0.0
  0
ARC
  5
296
330
1F
100
AcDbEntity
  8
0
 62
     2
100
AcDbCircle
 10
46.71413063985204
 20
221.1131963470606
 30
0.0
 40
0.5000000000000058
100
AcDbArc
 50
180.0
 51
270.0000000001165
  0
LINE
  5
297
330
1F
100
AcDbEntity
  8
0
 62
     2
100
AcDbLine
 10
47.5141236221495
 20
220.6131963470604
 30
0.0
 11
46.71413063985193
 21
220.6131963470606
 31
0.0
  0
ARC
  5
298
330
1F
100
AcDbEntity
  8
0
 62
     2
100
AcDbCircle
 10
47.51412362214933
 20
220.1131963470604
 30
0.0
 40
0.5000000000000084
100
AcDbArc
 50
0.0000041826195783
 51
89.99999995107345
  0
LINE
  5
299
330
1F
100
AcDbEntity
  8
0
 62
     2
100
AcDbLine
 10
48.01412394710746
 20
215.7131963470605
 30
0.0
 11
48.01412394710746
 21
220.1131963839875
 31
0.0
  0
ARC
  5
29A
330
1F
100
AcDbEntity
  8
0
 62
     2
100
AcDbCircle
 10
47.51412394710741
 20
215.7131963470605
 30
0.0
 40
0.5000000000000036
100
AcDbArc
 50
269.9999999999804
 51
0.0
  0
LINE
  5
29B
330
1F
100
AcDbEntity
  8
0
 62
     2
100
AcDbLine
 10
46.71413063983738
 20
215.2131963470607
 30
0.0
 11
47.51412394710735
 21
215.2131963470605
 31
0.0
  0
ARC
  5
29C
330
1F
100
AcDbEntity
  8
0
 62
     2
100
AcDbCircle
 10
46.71413063983721
 20
214.7131963470607
 30
0.0
 40
0.5
100
AcDbArc
 50
89.99999999998046
 51
179.9999999998649
  0
LINE
  5
29D
330
1F
100
AcDbEntity
  8
0
 62
     2
100
AcDbLine
 10
46.21413063983573
 20
214.0631964734807
 30
0.0
 11
46.21413063983573
 21
214.7131963470619
 31
0.0
  0
ARC
  5
29E
330
1F
100
AcDbEntity
  8
0
 62
     2
100
AcDbCircle
 10
46.71413063983573
 20
214.0631964734796
 30
0.0
 40
0.4999999999999862
100
AcDbArc
 50
180.0
 51
270.0000000000829
  0
LINE
  5
29F
330
1F
100
AcDbEntity
  8
0
 62
     2
100
AcDbLine
 10
47.51412390532937
 20
213.5631964734789
 30
0.0
 11
46.71413063983528
 21
213.5631964734796
 31
0.0
  0
ARC
  5
2A0
330
1F
100
AcDbEntity
  8
0
 62
     2
100
AcDbCircle
 10
47.51412390532897
 20
213.0631964734789
 30
0.0
 40
0.4999999999999973
100
AcDbArc
 50
0.0000382486782012
 51
89.99999999875328
  0
LINE
  5
2A1
330
1F
100
AcDbEntity
  8
0
 62
     2
100
AcDbLine
 10
48.01413137201763
 20
201.8785498077717
 30
0.0
 11
48.01413137201763
 21
213.0631968072732
 31
0.0
  0
ARC
  5
2A2
330
1F
100
AcDbEntity
  8
0
 62
     2
100
AcDbCircle
 10
47.51413137201774
 20
201.8785494739799
 30
0.0
 40
0.5000000000000012
100
AcDbArc
 50
242.000000000039
 51
0.0000382497324185
  0
LINE
  5
2A3
330
1F
100
AcDbEntity
  8
0
 62
     2
100
AcDbLine
 10
46.21344332639995
 20
202.0038525501386
 30
0.0
 11
47.27939559062509
 21
201.4370756775502
 31
0.0
  0
ARC
  5
2A4
330
1F
100
AcDbEntity
  8
0
 62
     2
100
AcDbCircle
 10
45.97870754500735
 20
201.5623787537091
 30
0.0
 40
0.4999999999999981
100
AcDbArc
 50
62.00000000004476
 51
109.5438076527256
  0
ARC
  5
2A5
330
1F
100
AcDbEntity
  8
0
 62
     2
100
AcDbCircle
 10
46.56413065907947
 20
199.9132032695625
 30
0.0
 40
2.250000000000008
100
AcDbArc
 50
109.5438076527224
 51
160.4561953841432
  0
ARC
  5
2A6
330
1F
100
AcDbEntity
  8
0
 62
     2
100
AcDbCircle
 10
44.91495514390351
 20
200.4986262962228
 30
0.0
 40
0.5000000000000008
100
AcDbArc
 50
160.4561953841433
 51
207.9999999997214
  0
LINE
  5
2A7
330
1F
100
AcDbEntity
  8
0
 62
     2
100
AcDbLine
 10
45.04025795882836
 20
199.197938741904
 30
0.0
 11
44.4734813474729
 21
200.263890514832
 31
0.0
  0
ARC
  5
2A8
330
1F
100
AcDbEntity
  8
0
 62
     2
100
AcDbCircle
 10
44.59878416239769
 20
198.9632029605131
 30
0.0
 40
0.5000000000000004
100
AcDbArc
 50
270.0000008670096
 51
27.99999999971995
  0
LINE
  5
2A9
330
1F
100
AcDbEntity
  8
0
 62
     2
100
AcDbLine
 10
33.41412972069998
 20
198.4632027912656
 30
0.0
 11
44.59878416996372
 21
198.4632029605131
 31
0.0
  0
ARC
  5
2AA
330
1F
100
AcDbEntity
  8
0
 62
     2
100
AcDbCircle
 10
33.41412972069998
 20
198.9632027912656
 30
0.0
 40
0.5
100
AcDbArc
 50
180.0
 51
270.0000000000521
  0
LINE
  5
2AB
330
1F
100
AcDbEntity
  8
0
 62
     2
100
AcDbLine
 10
32.91412972070066
 20
199.7631955543587
 30
0.0
 11
32.91412972070066
 21
198.963202791266
 31
0.0
  0
ARC
  5
2AC
330
1F
100
AcDbEntity
  8
0
 62
     2
100
AcDbCircle
 10
32.41412972070066
 20
199.7631955543592
 30
0.0
 40
0.5
100
AcDbArc
 50
0.0
 51
89.99999999986647
  0
LINE
  5
2AD
330
1F
100
AcDbEntity
  8
0
 62
     2
100
AcDbLine
 10
31.7641298471429
 20
200.2631955543607
 30
0.0
 11
32.41412972070179
 21
200.2631955543592
 31
0.0
  0
ARC
  5
2AE
330
1F
100
AcDbEntity
  8
0
 62
     2
100
AcDbCircle
 10
31.76412984714176
 20
199.7631955543607
 30
0.0
 40
0.5
100
AcDbArc
 50
89.9999999998632
 51
179.9999999999797
  0
LINE
  5
2AF
330
1F
100
AcDbEntity
  8
0
 62
     2
100
AcDbLine
 10
31.26412984714153
 20
198.9632025720633
 30
0.0
 11
31.26412984714153
 21
199.7631955543608
 31
0.0
  0
ARC
  5
2B0
330
1F
100
AcDbEntity
  8
0
 62
     2
100
AcDbCircle
 10
30.76412984714153
 20
198.9632025720634
 30
0.0
 40
0.5
100
AcDbArc
 50
270.0000042315313
 51
0.0000000000032569
  0
LINE
  5
2B1
330
1F
100
AcDbEntity
  8
0
 62
     2
100
AcDbLine
 10
26.36412986191249
 20
198.4632022471053
 30
0.0
 11
30.76412988406861
 21
198.4632025720634
 31
0.0
  0
LINE
  5
2B2
330
1F
100
AcDbEntity
  8
0
 62
     2
100
AcDbLine
 10
9.114128322276315
 20
233.9478428863599
 30
0.0
 11
9.114135788965086
 21
222.7631958868608
 31
0.0
  0
LINE
  5
2B3
330
1F
100
AcDbEntity
  8
0
 62
     2
100
AcDbLine
 10
9.114136291346767
 20
213.0631964659468
 30
0.0
 11
9.114136460594295
 21
201.878542024249
 31
0.0
  0
LINE
  5
2B4
330
1F
100
AcDbEntity
  8
0
 62
     2
100
AcDbLine
 10
10.91412977674213
 20
221.7631962206509
 30
0.0
 11
10.91412977674213
 21
221.1131963470697
 31
0.0
  0
LINE
  5
2B5
330
1F
100
AcDbEntity
  8
0
 62
     2
100
AcDbLine
 10
10.91412977674213
 20
214.7131963470698
 30
0.0
 11
10.91412977674213
 21
214.0631964735109
 31
0.0
  0
LINE
  5
2B6
330
1F
100
AcDbEntity
  8
0
 62
     2
100
AcDbLine
 10
8.752222575259566
 20
201.950053861917
 30
0.0
 11
8.752222575259566
 21
201.378542024249
 31
0.0
  0
LINE
  5
2B7
330
1F
100
AcDbEntity
  8
0
 62
     2
100
AcDbLine
 10
8.752222575259566
 20
213.578542024249
 30
0.0
 11
8.752222575259566
 21
201.950053861917
 31
0.0
  0
LINE
  5
2B8
330
1F
100
AcDbEntity
  8
0
 62
     2
100
AcDbLine
 10
8.754136460594339
 20
201.378542024249
 30
0.0
 11
9.614136460594352
 21
201.378542024249
 31
0.0
  0
LINE
  5
2B9
330
1F
100
AcDbEntity
  8
0
 62
     2
100
AcDbLine
 10
9.114136460594352
 20
201.378542024249
 30
0.0
 11
9.114136460594352
 21
201.878542024249
 31
0.0
  0
LINE
  5
2BA
330
1F
100
AcDbEntity
  8
0
 62
     2
100
AcDbLine
 10
9.114136460594352
 20
213.0631964659467
 30
0.0
 11
9.114136460594352
 21
213.578542024249
 31
0.0
  0
LINE
  5
2BB
330
1F
100
AcDbEntity
  8
0
 62
     2
100
AcDbLine
 10
8.752222575259566
 20
233.8717384928816
 30
0.0
 11
8.752222575259566
 21
222.2478506698826
 31
0.0
  0
LINE
  5
2BC
330
1F
100
AcDbEntity
  8
0
 62
     2
100
AcDbLine
 10
8.752222575259566
 20
234.4478506698827
 30
0.0
 11
8.752222575259566
 21
233.8717384928816
 31
0.0
  0
LINE
  5
2BD
330
1F
100
AcDbEntity
  8
0
 62
     2
100
AcDbLine
 10
9.614128322276201
 20
234.4478506698827
 30
0.0
 11
8.754136460594339
 21
234.4478506698827
 31
0.0
  0
LINE
  5
2BE
330
1F
100
AcDbEntity
  8
0
 62
     2
100
AcDbLine
 10
9.114136460594352
 20
234.4478506698827
 30
0.0
 11
9.114136460594352
 21
233.9478428863599
 31
0.0
  0
LINE
  5
2BF
330
1F
100
AcDbEntity
  8
0
 62
     2
100
AcDbLine
 10
9.114136460594352
 20
222.7631958868608
 30
0.0
 11
9.114136460594352
 21
222.2478506698826
 31
0.0
  0
LINE
  5
2C0
330
1F
100
AcDbEntity
  8
0
 62
     2
100
AcDbLine
 10
25.1125604629587
 20
237.3632000367704
 30
0.0
 11
25.1125604629587
 21
235.5920684330227
 31
0.0
  0
LINE
  5
2C1
330
1F
100
AcDbEntity
  8
0
 62
     2
100
AcDbLine
 10
25.11256046295864
 20
200.2343242611249
 30
0.0
 11
25.11256046295864
 21
198.4632000367705
 31
0.0
  0
LINE
  5
2C2
330
1F
100
AcDbEntity
  8
0
 62
     2
100
AcDbLine
 10
26.36412978806834
 20
237.3632000367704
 30
0.0
 11
25.12037977175981
 21
237.3632000367704
 31
0.0
  0
LINE
  5
2C3
330
1F
100
AcDbEntity
  8
0
 62
     2
100
AcDbLine
 10
25.12037977175981
 20
198.4632000367704
 30
0.0
 11
26.36412988406875
 21
198.4632000367704
 31
0.0
  0
LINE
  5
2C4
330
1F
100
AcDbEntity
  8
0
 62
     2
100
AcDbLine
 10
26.66412981366108
 20
198.5632062396115
 30
0.0
 11
26.66412981366108
 21
198.4632000367704
 31
0.0
  0
LINE
  5
2C5
330
1F
100
AcDbEntity
  8
0
 62
     2
100
AcDbLine
 10
26.66412981366113
 20
237.3632000367704
 30
0.0
 11
26.66412981366113
 21
237.2631941145748
 31
0.0
  0
LINE
  5
2C6
330
1F
100
AcDbEntity
  8
0
 62
     2
100
AcDbLine
 10
25.1125604629587
 20
237.3632000367704
 30
0.0
 11
25.1125604629587
 21
237.3920713300217
 31
0.0
  0
LINE
  5
2C7
330
1F
100
AcDbEntity
  8
0
 62
     2
100
AcDbLine
 10
25.1125604629587
 20
198.4343287435192
 30
0.0
 11
25.1125604629587
 21
198.4632000367705
 31
0.0
  0
LINE
  5
2C8
330
1F
100
AcDbEntity
  8
0
 62
     2
100
AcDbLine
 10
25.12037977175981
 20
198.4632000367704
 30
0.0
 11
25.1125604629587
 21
198.4343287435192
 31
0.0
  0
LINE
  5
2C9
330
1F
100
AcDbEntity
  8
0
 62
     2
100
AcDbLine
 10
25.1125604629587
 20
237.3920713300217
 30
0.0
 11
25.12037977175981
 21
237.3632000367705
 31
0.0
  0
LINE
  5
2CA
330
1F
100
AcDbEntity
  8
0
 62
     2
100
AcDbLine
 10
30.76412988406861
 20
198.4632025720634
 30
0.0
 11
30.76412990622492
 21
198.1632025720634
 31
0.0
  0
LINE
  5
2CB
330
1F
100
AcDbEntity
  8
0
 62
     2
100
AcDbLine
 10
31.56412984714154
 20
198.9632025720632
 30
0.0
 11
31.26412984714153
 21
198.9632025720633
 31
0.0
  0
LINE
  5
2CC
330
1F
100
AcDbEntity
  8
0
 62
     2
100
AcDbLine
 10
31.26412984714153
 20
199.7631955543608
 30
0.0
 11
31.56412984714103
 21
199.7631955543607
 31
0.0
  0
LINE
  5
2CD
330
1F
100
AcDbEntity
  8
0
 62
     2
100
AcDbLine
 10
31.76412984714295
 20
200.2631955543607
 30
0.0
 11
31.76412984714221
 21
199.9631955543607
 31
0.0
  0
LINE
  5
2CE
330
1F
100
AcDbEntity
  8
0
 62
     2
100
AcDbLine
 10
32.41412972070179
 20
200.2631955543592
 30
0.0
 11
32.41412972070106
 21
199.9631955543592
 31
0.0
  0
LINE
  5
2CF
330
1F
100
AcDbEntity
  8
0
 62
     2
100
AcDbLine
 10
32.91412972070066
 20
199.7631955543587
 30
0.0
 11
32.61412972070065
 21
199.763195554359
 31
0.0
  0
LINE
  5
2D0
330
1F
100
AcDbEntity
  8
0
 62
     2
100
AcDbLine
 10
32.91412972070066
 20
198.963202791266
 30
0.0
 11
32.61412972070229
 21
198.9632027912663
 31
0.0
  0
LINE
  5
2D1
330
1F
100
AcDbEntity
  8
0
 62
     2
100
AcDbLine
 10
33.41412972069998
 20
198.1632027912656
 30
0.0
 11
33.41412972069998
 21
198.4632027912656
 31
0.0
  0
LINE
  5
2D2
330
1F
100
AcDbEntity
  8
0
 62
     2
100
AcDbLine
 10
44.59878416996372
 20
198.4632029605132
 30
0.0
 11
44.59878417450329
 21
198.1632029605132
 31
0.0
  0
LINE
  5
2D3
330
1F
100
AcDbEntity
  8
0
 62
     2
100
AcDbLine
 10
45.30514223668666
 20
199.3387802107384
 30
0.0
 11
45.04025795882831
 21
199.197938741904
 31
0.0
  0
LINE
  5
2D4
330
1F
100
AcDbEntity
  8
0
 62
     2
100
AcDbLine
 10
44.47348134747284
 20
200.263890514832
 30
0.0
 11
44.7383656253312
 21
200.4047319836665
 31
0.0
  0
LINE
  5
2D5
330
1F
100
AcDbEntity
  8
0
 62
     2
100
AcDbLine
 10
44.44376213956753
 20
200.6658900181257
 30
0.0
 11
44.72647794216908
 21
200.565531784984
 31
0.0
  0
LINE
  5
2D6
330
1F
100
AcDbEntity
  8
0
 62
     2
100
AcDbLine
 10
45.81144379812957
 20
202.0335717491795
 30
0.0
 11
45.91180204625624
 21
201.7508559518973
 31
0.0
  0
LINE
  5
2D7
330
1F
100
AcDbEntity
  8
0
 62
     2
100
AcDbLine
 10
46.21344332639995
 20
202.0038525501387
 30
0.0
 11
46.07260185756439
 21
201.7389682722809
 31
0.0
  0
LINE
  5
2D8
330
1F
100
AcDbEntity
  8
0
 62
     2
100
AcDbLine
 10
47.27939559062503
 20
201.4370756775502
 30
0.0
 11
47.13855412178947
 21
201.1721913996924
 31
0.0
  0
LINE
  5
2D9
330
1F
100
AcDbEntity
  8
0
 62
     2
100
AcDbLine
 10
48.31413137201753
 20
201.8785500080469
 30
0.0
 11
48.01413137201763
 21
201.8785498077717
 31
0.0
  0
LINE
  5
2DA
330
1F
100
AcDbEntity
  8
0
 62
     2
100
AcDbLine
 10
48.01413137201763
 20
213.0631968072732
 30
0.0
 11
48.31413268147759
 21
213.0631970075492
 31
0.0
  0
LINE
  5
2DB
330
1F
100
AcDbEntity
  8
0
 62
     2
100
AcDbLine
 10
47.51412390532971
 20
213.8631964734789
 30
0.0
 11
47.51412390532937
 21
213.5631964734789
 31
0.0
  0
LINE
  5
2DC
330
1F
100
AcDbEntity
  8
0
 62
     2
100
AcDbLine
 10
46.71413063983528
 20
213.5631964734796
 30
0.0
 11
46.71413063983556
 21
213.8631964734795
 31
0.0
  0
LINE
  5
2DD
330
1F
100
AcDbEntity
  8
0
 62
     2
100
AcDbLine
 10
46.21413063983573
 20
214.0631964734807
 30
0.0
 11
46.51413063983574
 21
214.06319647348
 31
0.0
  0
LINE
  5
2DE
330
1F
100
AcDbEntity
  8
0
 62
     2
100
AcDbLine
 10
46.21413063983573
 20
214.7131963470619
 30
0.0
 11
46.51413063983142
 21
214.7131963470612
 31
0.0
  0
LINE
  5
2DF
330
1F
100
AcDbEntity
  8
0
 62
     2
100
AcDbLine
 10
46.71413063983732
 20
215.2131963470607
 30
0.0
 11
46.71413063983726
 21
214.9131963470607
 31
0.0
  0
LINE
  5
2E0
330
1F
100
AcDbEntity
  8
0
 62
     2
100
AcDbLine
 10
47.51412394710741
 20
215.2131963470605
 30
0.0
 11
47.51412394710729
 21
214.9131963470605
 31
0.0
  0
LINE
  5
2E1
330
1F
100
AcDbEntity
  8
0
 62
     2
100
AcDbLine
 10
48.31412394710748
 20
215.7131963470605
 30
0.0
 11
48.01412394710746
 21
215.7131963470605
 31
0.0
  0
LINE
  5
2E2
330
1F
100
AcDbEntity
  8
0
 62
     2
100
AcDbLine
 10
48.01412394710746
 20
220.1131963839874
 30
0.0
 11
48.31412408645258
 21
220.1131964061437
 31
0.0
  0
LINE
  5
2E3
330
1F
100
AcDbEntity
  8
0
 62
     2
100
AcDbLine
 10
47.51412362214961
 20
220.9131963470604
 30
0.0
 11
47.5141236221495
 21
220.6131963470604
 31
0.0
  0
LINE
  5
2E4
330
1F
100
AcDbEntity
  8
0
 62
     2
100
AcDbLine
 10
46.71413063985199
 20
220.6131963470606
 30
0.0
 11
46.71413063985204
 21
220.9131963470606
 31
0.0
  0
LINE
  5
2E5
330
1F
100
AcDbEntity
  8
0
 62
     2
100
AcDbLine
 10
46.21413063985204
 20
221.1131963470618
 30
0.0
 11
46.51413063985206
 21
221.1131963470611
 31
0.0
  0
LINE
  5
2E6
330
1F
100
AcDbEntity
  8
0
 62
     2
100
AcDbLine
 10
46.21413063985204
 20
221.7631962206207
 30
0.0
 11
46.51413063984779
 21
221.76319622062
 31
0.0
  0
LINE
  5
2E7
330
1F
100
AcDbEntity
  8
0
 62
     2
100
AcDbLine
 10
46.71413063985403
 20
222.2631962206195
 30
0.0
 11
46.71413063985375
 21
221.9631962206195
 31
0.0
  0
LINE
  5
2E8
330
1F
100
AcDbEntity
  8
0
 62
     2
100
AcDbLine
 10
47.51412340294678
 20
222.2631962206188
 30
0.0
 11
47.5141234029465
 21
221.9631962206188
 31
0.0
  0
LINE
  5
2E9
330
1F
100
AcDbEntity
  8
0
 62
     2
100
AcDbLine
 10
48.31412340294713
 20
222.7631962206188
 30
0.0
 11
48.01412340294712
 21
222.7631962206188
 31
0.0
  0
LINE
  5
2EA
330
1F
100
AcDbEntity
  8
0
 62
     2
100
AcDbLine
 10
48.01412340294718
 20
233.9478506698826
 30
0.0
 11
48.31412343263025
 21
233.9478506744222
 31
0.0
  0
LINE
  5
2EB
330
1F
100
AcDbEntity
  8
0
 62
     2
100
AcDbLine
 10
47.13854598347433
 20
234.6542087366055
 30
0.0
 11
47.27938745230881
 21
234.3893244587472
 31
0.0
  0
LINE
  5
2EC
330
1F
100
AcDbEntity
  8
0
 62
     2
100
AcDbLine
 10
46.21343567938084
 20
233.8225478473917
 30
0.0
 11
46.07259421054636
 21
234.0874321252501
 31
0.0
  0
LINE
  5
2ED
330
1F
100
AcDbEntity
  8
0
 62
     2
100
AcDbLine
 10
45.81143617608706
 20
233.7928286394863
 30
0.0
 11
45.91179440922878
 21
234.075544442088
 31
0.0
  0
LINE
  5
2EE
330
1F
100
AcDbEntity
  8
0
 62
     2
100
AcDbLine
 10
44.44375444503322
 20
235.1605102980485
 30
0.0
 11
44.72647024231543
 21
235.2608685461751
 31
0.0
  0
LINE
  5
2EF
330
1F
100
AcDbEntity
  8
0
 62
     2
100
AcDbLine
 10
44.47347364407403
 20
235.5625098263188
 30
0.0
 11
44.73835792193182
 21
235.4216683574832
 31
0.0
  0
LINE
  5
2F0
330
1F
100
AcDbEntity
  8
0
 62
     2
100
AcDbLine
 10
45.04025051666258
 20
236.628462090544
 30
0.0
 11
45.30513479452037
 21
236.4876206217084
 31
0.0
  0
LINE
  5
2F1
330
1F
100
AcDbEntity
  8
0
 62
     2
100
AcDbLine
 10
44.59877618616582
 20
237.6631978719364
 30
0.0
 11
44.59877638644099
 21
237.3631978719364
 31
0.0
  0
LINE
  5
2F2
330
1F
100
AcDbEntity
  8
0
 62
     2
100
AcDbLine
 10
33.41412938694208
 20
237.3631904052477
 30
0.0
 11
33.41412918666697
 21
237.6631904052476
 31
0.0
  0
LINE
  5
2F3
330
1F
100
AcDbEntity
  8
0
 62
     2
100
AcDbLine
 10
32.6141297207339
 20
236.8631904052485
 30
0.0
 11
32.91412972073391
 21
236.8631904052482
 31
0.0
  0
LINE
  5
2F4
330
1F
100
AcDbEntity
  8
0
 62
     2
100
AcDbLine
 10
32.91412972073391
 20
236.0631971397541
 30
0.0
 11
32.61412972073555
 21
236.0631971397544
 31
0.0
  0
LINE
  5
2F5
330
1F
100
AcDbEntity
  8
0
 62
     2
100
AcDbLine
 10
32.41412972073203
 20
235.5631971397545
 30
0.0
 11
32.41412972073272
 21
235.8631971397546
 31
0.0
  0
LINE
  5
2F6
330
1F
100
AcDbEntity
  8
0
 62
     2
100
AcDbLine
 10
31.76412984715085
 20
235.563197139756
 30
0.0
 11
31.76412984715154
 21
235.8631971397561
 31
0.0
  0
LINE
  5
2F7
330
1F
100
AcDbEntity
  8
0
 62
     2
100
AcDbLine
 10
31.26412984715205
 20
236.0631971397562
 30
0.0
 11
31.564129847152
 21
236.0631971397561
 31
0.0
  0
LINE
  5
2F8
330
1F
100
AcDbEntity
  8
0
 62
     2
100
AcDbLine
 10
31.26412984715205
 20
236.8631904470261
 30
0.0
 11
31.56412984715155
 21
236.8631904470261
 31
0.0
  0
LINE
  5
2F9
330
1F
100
AcDbEntity
  8
0
 62
     2
100
AcDbLine
 10
30.76412984715228
 20
237.6631904470262
 30
0.0
 11
30.76412984715228
 21
237.3631904470263
 31
0.0
  0
LINE
  5
2FA
330
1F
100
AcDbEntity
  8
0
 62
     2
100
AcDbLine
 10
24.81644464277827
 20
198.1632000367704
 30
0.0
 11
25.11256046295875
 21
198.4343287435192
 31
0.0
  0
LINE
  5
2FB
330
1F
100
AcDbEntity
  8
0
 62
     2
100
AcDbLine
 10
25.1125604629587
 20
237.3920713300217
 30
0.0
 11
24.81644464277827
 21
237.6632000367705
 31
0.0
  0
LINE
  5
2FC
330
1F
100
AcDbEntity
  8
0
 62
     2
100
AcDbLine
 10
12.50728722374089
 20
200.3423093850105
 30
0.0
 11
12.38990177236212
 21
200.4047243366483
 31
0.0
  0
LINE
  5
2FD
330
1F
100
AcDbEntity
  8
0
 62
     2
100
AcDbLine
 10
8.752222575259566
 20
201.3641878842381
 30
0.0
 11
8.752222575259566
 21
201.378542024249
 31
0.0
  0
LINE
  5
2FE
330
1F
100
AcDbEntity
  8
0
 62
     2
100
AcDbLine
 10
9.614136460594352
 20
201.378542024249
 30
0.0
 11
9.614136460594352
 21
201.078542024249
 31
0.0
  0
LINE
  5
2FF
330
1F
100
AcDbEntity
  8
0
 62
     2
100
AcDbLine
 10
9.989713710819615
 20
201.172183957526
 30
0.0
 11
9.848872241985134
 21
201.4370682353844
 31
0.0
  0
LINE
  5
300
330
1F
100
AcDbEntity
  8
0
 62
     2
100
AcDbLine
 10
10.91482401491317
 20
202.0038448467399
 30
0.0
 11
11.05566548374759
 21
201.7389605688815
 31
0.0
  0
LINE
  5
301
330
1F
100
AcDbEntity
  8
0
 62
     2
100
AcDbLine
 10
11.31682351820689
 20
202.0335640546452
 30
0.0
 11
11.21646528506511
 21
201.7508482520436
 31
0.0
  0
LINE
  5
302
330
1F
100
AcDbEntity
  8
0
 62
     2
100
AcDbLine
 10
12.53487243911604
 20
200.6127658499518
 30
0.0
 11
12.4017894519784
 21
200.5655241479565
 31
0.0
  0
LINE
  5
303
330
1F
100
AcDbEntity
  8
0
 62
     2
100
AcDbLine
 10
12.65478605021991
 20
200.2638828678128
 30
0.0
 11
12.56199197346496
 21
200.3132223536256
 31
0.0
  0
LINE
  5
304
330
1F
100
AcDbEntity
  8
0
 62
     2
100
AcDbLine
 10
12.08800917763142
 20
199.1979306035877
 30
0.0
 11
11.82312489977357
 21
199.3387720724232
 31
0.0
  0
LINE
  5
305
330
1F
100
AcDbEntity
  8
0
 62
     2
100
AcDbLine
 10
12.52948350812807
 20
198.1631948221952
 30
0.0
 11
12.52948330785296
 21
198.4631948221951
 31
0.0
  0
LINE
  5
306
330
1F
100
AcDbEntity
  8
0
 62
     2
100
AcDbLine
 10
23.71413030735187
 20
198.4632022888839
 30
0.0
 11
23.71413050762703
 21
198.163202288884
 31
0.0
  0
LINE
  5
307
330
1F
100
AcDbEntity
  8
0
 62
     2
100
AcDbLine
 10
24.51412997356005
 20
198.9632022888831
 30
0.0
 11
24.21412997356003
 21
198.9632022888834
 31
0.0
  0
LINE
  5
308
330
1F
100
AcDbEntity
  8
0
 62
     2
100
AcDbLine
 10
24.21412997356003
 20
199.7631955543775
 30
0.0
 11
24.5141299735584
 21
199.7631955543772
 31
0.0
  0
LINE
  5
309
330
1F
100
AcDbEntity
  8
0
 62
     2
100
AcDbLine
 10
24.71412997356191
 20
200.263195554377
 30
0.0
 11
24.71412997356128
 21
199.9631955543771
 31
0.0
  0
LINE
  5
30A
330
1F
100
AcDbEntity
  8
0
 62
     2
100
AcDbLine
 10
12.50727670417058
 20
235.4840741647177
 30
0.0
 11
12.38989406896269
 21
235.4216607104651
 31
0.0
  0
LINE
  5
30B
330
1F
100
AcDbEntity
  8
0
 62
     2
100
AcDbLine
 10
8.752222575259566
 20
234.4478506698827
 30
0.0
 11
8.752222575259566
 21
234.4622048098936
 31
0.0
  0
LINE
  5
30C
330
1F
100
AcDbEntity
  8
0
 62
     2
100
AcDbLine
 10
8.752222575259566
 20
234.4622048098936
 30
0.0
 11
8.754136460594339
 21
234.4478506698827
 31
0.0
  0
LINE
  5
30D
330
1F
100
AcDbEntity
  8
0
 62
     2
100
AcDbLine
 10
24.71412997359209
 20
235.5631971397724
 30
0.0
 11
24.71412997359283
 21
235.8631971397724
 31
0.0
  0
LINE
  5
30E
330
1F
100
AcDbEntity
  8
0
 62
     2
100
AcDbLine
 10
24.21412997359329
 20
236.0631971397729
 30
0.0
 11
24.5141299735933
 21
236.0631971397726
 31
0.0
  0
LINE
  5
30F
330
1F
100
AcDbEntity
  8
0
 62
     2
100
AcDbLine
 10
24.21412997359329
 20
236.8631899028655
 30
0.0
 11
24.51412997359159
 21
236.8631899028653
 31
0.0
  0
LINE
  5
310
330
1F
100
AcDbEntity
  8
0
 62
     2
100
AcDbLine
 10
23.71412997359397
 20
237.663189902866
 30
0.0
 11
23.71412997359403
 21
237.363189902866
 31
0.0
  0
LINE
  5
311
330
1F
100
AcDbEntity
  8
0
 62
     2
100
AcDbLine
 10
12.52947552433017
 20
237.3631897336184
 30
0.0
 11
12.52947551979048
 21
237.6631897336184
 31
0.0
  0
LINE
  5
312
330
1F
100
AcDbEntity
  8
0
 62
     2
100
AcDbLine
 10
11.82311745760722
 20
236.4876124833932
 30
0.0
 11
12.08800173546558
 21
236.6284539522276
 31
0.0
  0
LINE
  5
313
330
1F
100
AcDbEntity
  8
0
 62
     2
100
AcDbLine
 10
12.65477834682099
 20
235.5625021792996
 30
0.0
 11
12.56204138125622
 21
235.5131930600457
 31
0.0
  0
LINE
  5
314
330
1F
100
AcDbEntity
  8
0
 62
     2
100
AcDbLine
 10
12.53486375726106
 20
235.2136195636851
 30
0.0
 11
12.40178175212486
 21
235.2608609091477
 31
0.0
  0
LINE
  5
315
330
1F
100
AcDbEntity
  8
0
 62
     2
100
AcDbLine
 10
11.31681589616431
 20
233.792820944952
 30
0.0
 11
11.21645764803765
 21
234.0755367422343
 31
0.0
  0
LINE
  5
316
330
1F
100
AcDbEntity
  8
0
 62
     2
100
AcDbLine
 10
10.91481636789399
 20
233.8225401439929
 30
0.0
 11
11.05565783672949
 21
234.0874244218507
 31
0.0
  0
LINE
  5
317
330
1F
100
AcDbEntity
  8
0
 62
     2
100
AcDbLine
 10
9.84886410366886
 20
234.3893170165814
 30
0.0
 11
9.98970557250442
 21
234.6542012944392
 31
0.0
  0
LINE
  5
318
330
1F
100
AcDbEntity
  8
0
 62
     2
100
AcDbLine
 10
9.614128322276201
 20
234.7478432201518
 30
0.0
 11
9.614128322276201
 21
234.4478432201517
 31
0.0
  0
LINE
  5
319
330
1F
100
AcDbEntity
  8
0
 62
     2
100
AcDbLine
 10
8.45317799169868
 20
201.078542024249
 30
0.0
 11
8.752222575259566
 21
201.364187884238
 31
0.0
  0
LINE
  5
31A
330
1F
100
AcDbEntity
  8
0
 62
     2
100
AcDbLine
 10
8.752222575259566
 20
234.4622048098935
 30
0.0
 11
8.453177991698624
 21
234.7478506698827
 31
0.0
  0
LINE
  5
31B
330
1F
100
AcDbEntity
  8
0
 62
     2
100
AcDbLine
 10
12.84825317852238
 20
202.3132000367705
 30
0.0
 11
12.84825317852238
 21
233.5132000367705
 31
0.0
  0
LINE
  5
31C
330
1F
100
AcDbEntity
  8
0
 62
     2
100
AcDbLine
 10
22.06412984714808
 20
235.5131930600457
 30
0.0
 11
12.48382606561665
 21
235.5131930600457
 31
0.0
  0
LINE
  5
31D
330
1F
100
AcDbEntity
  8
0
 62
     2
100
AcDbLine
 10
22.06412984714808
 20
235.1131930600457
 30
0.0
 11
12.47770050222567
 21
235.1131930600457
 31
0.0
  0
LINE
  5
31E
330
1F
100
AcDbEntity
  8
0
 62
     2
100
AcDbLine
 10
22.06412984714802
 20
200.313207154313
 30
0.0
 11
12.48384994818889
 21
200.313207154313
 31
0.0
  0
LINE
  5
31F
330
1F
100
AcDbEntity
  8
0
 62
     2
100
AcDbLine
 10
22.06412984714802
 20
200.713207154313
 30
0.0
 11
12.4777025115344
 21
200.713207154313
 31
0.0
  0
LWPOLYLINE
  5
320
330
1F
100
AcDbEntity
  8
0
 62
     2
100
AcDbPolyline
 90
      112
 70
     0
 43
0.0
 10
175.6154982200536
 20
236.0083848646609
 10
175.6753413726537
 20
236.0014006144476
 10
175.7521400129944
 20
235.9901792299336
 10
175.7543460548853
 20
235.9898187813125
 10
175.8282694171266
 20
235.9764834910474
 10
175.9036001090318
 20
235.9603212204769
 10
175.9446334799975
 20
235.9503864769727
 10
175.9780053571788
 20
235.9417008016557
 10
176.0513639757282
 20
235.920637486186
 10
176.1235596487846
 20
235.8971511285561
 10
176.1295777179165
 20
235.8950650442059
 10
176.1944794303213
 20
235.8712616680708
 10
176.2640139959326
 20
235.8429890440352
 10
176.3069712946758
 20
235.8240039524125
 10
176.3320579138204
 20
235.8123531957539
 10
176.3985099006897
 20
235.779374062532
 10
176.4632730732149
 20
235.7440716060996
 10
176.4753504406405
 20
235.7371201195704
 10
176.5262568240851
 20
235.7064691167411
 10
176.5873784960487
 20
235.6665967097908
 10
176.6329157480817
 20
235.6345193220082
 10
176.6465602234304
 20
235.6244853375087
 10
176.7037285921415
 20
235.5801659521548
 10
176.7588147277106
 20
235.5336695059892
 10
176.778413568316
 20
235.5161403605073
 10
176.8117543708953
 20
235.4850269512719
 10
176.8624879408775
 20
235.4342692402629
 10
176.9101690713499
 20
235.382328372688
 10
176.9109607993088
 20
235.3814277960627
 10
176.9571253505427
 20
235.3265393993134
 10
177.0009396886406
 20
235.2696442328511
 10
177.0271131755131
 20
235.2330835698788
 10
177.0423659091323
 20
235.2107825338252
 10
177.0813700456018
 20
235.1499945393854
 10
177.1179220270574
 20
235.0873204866811
 10
177.1279450354421
 20
235.0690102908296
 10
177.1534851658694
 20
235.0198246858556
 10
177.2118597241903
 20
234.8902743513543
 10
177.2126220208251
 20
234.8883858051094
 10
177.2391427955322
 20
234.8185811447607
 10
177.2631205082704
 20
234.7471117937757
 10
177.2780036738955
 20
234.6974657302816
 10
177.2845477290312
 20
234.6740283722071
 10
177.3034197622365
 20
234.5993815001074
 10
177.3197345673145
 20
234.5232217975291
 10
177.3257005908839
 20
234.491481683853
 10
177.333492681313
 20
234.4455998845251
 10
177.3446971466765
 20
234.3665664500846
 10
177.3533535859013
 20
234.2861769196563
 10
177.3544918491742
 20
234.2733188320227
 10
177.3594699317564
 20
234.2044944278657
 10
177.3630558596083
 20
234.1215828174085
 10
177.3641297754572
 20
234.0437834705546
 10
177.3641226850242
 20
234.0375059309802
 10
177.3626833058983
 20
233.9523276112765
 10
177.3618679535148
 20
233.929177890411
 10
177.3544870016084
 20
233.8046817139364
 10
177.3523451156185
 20
233.7789227774537
 10
177.3434792561912
 20
233.6908350218952
 10
177.3321725266319
 20
233.6019293573112
 10
177.3256829539161
 20
233.5576736680547
 10
177.3184438038475
 20
233.5122868463292
 10
177.3023128761008
 20
233.4219885515769
 10
177.2838004361227
 20
233.3311155803615
 10
177.2780249451854
 20
233.3048260794515
 10
177.2629278231469
 20
233.2397552246846
 10
177.2397166023288
 20
233.1480072314143
 10
177.2141888722155
 20
233.0559728422728
 10
177.2119019202955
 20
233.0481022409615
 10
177.1863673519825
 20
232.963753298982
 10
177.1562752989847
 20
232.8714528238789
 10
177.1279675959747
 20
232.7903486611293
 10
177.1119898366006
 20
232.7466618081405
 10
177.0893726940476
 20
232.6870954250205
 10
177.0526097170107
 20
232.5952897207313
 10
177.0271225522101
 20
232.5348478742311
 10
177.0136716157369
 20
232.5039035479367
 10
176.9725829695612
 20
232.4130870566232
 10
176.9293687537463
 20
232.3229985494987
 10
176.9101586075579
 20
232.2845614596402
 10
176.8840547474313
 20
232.2337963465143
 10
176.836667709914
 20
232.1456428508679
 10
176.7872356817861
 20
232.0587274402392
 10
176.7784168204898
 20
232.0437268670073
 10
176.7357880911335
 20
231.9732504335899
 10
176.6823558802644
 20
231.8894121811533
 10
176.6329842793605
 20
231.8160883047563
 10
176.6269717727383
 20
231.80741848221
 10
176.5696708684952
 20
231.727507866137
 10
176.5104906235002
 20
231.649931026004
 10
176.4752207060642
 20
231.6059824942905
 10
176.4494709101621
 20
231.5749386751357
 10
176.3866542410379
 20
231.5027815268567
 10
176.3696927750959
 20
231.4841455712338
 10
176.306944705508
 20
231.4182449705736
 10
176.2558315231823
 20
231.3680327410929
 10
176.1879604411329
 20
231.3060557248389
 10
176.1294517182852
 20
231.2568445561296
 10
176.1185520318191
 20
231.2481026619604
 10
176.0476892202421
 20
231.1944928999915
 10
175.9754597179938
 20
231.145545786466
 10
175.9447235067542
 20
231.1264465437365
 10
175.9019566406628
 20
231.1015790342485
 10
175.8273003285162
 20
231.0628559260385
 10
175.7543438841151
 20
231.030659598844
 10
175.7516439745575
 20
231.0295739020136
 10
175.6751481188115
 20
231.0019264592552
 10
175.5979781438548
 20
230.9801070948449
 10
175.560189023651
 20
230.9716465517311
 10
175.5203033261582
 20
230.964309305864
 10
175.4422958538696
 20
230.9547265893943
 10
175.3641298195016
 20
230.951552442517
  0
LWPOLYLINE
  5
321
330
1F
100
AcDbEntity
  8
0
 62
     2
100
AcDbPolyline
 90
      120
 70
     0
 43
0.0
 10
175.3641297339775
 20
230.951552442517
 10
175.2859636901659
 20
230.9547265898807
 10
175.2079562084933
 20
230.9643093083309
 10
175.1680705062317
 20
230.9716465557928
 10
175.1302813815348
 20
230.9801071007853
 10
175.0531113974997
 20
231.0019264701612
 10
174.9766155329182
 20
231.0295739193761
 10
174.9739156230522
 20
231.0306596164631
 10
174.9009591704242
 20
231.0628559513476
 10
174.8263028500969
 20
231.101579068993
 10
174.7835359794443
 20
231.1264465846316
 10
174.7527997649827
 20
231.1455458321032
 10
174.6805702553536
 20
231.1944929576815
 10
174.6097074368246
 20
231.2481027324745
 10
174.5988077493171
 20
231.2568446286841
 10
174.5402990210152
 20
231.3060558085648
 10
174.4724279329517
 20
231.368032838035
 10
174.421314746342
 20
231.4182450774441
 10
174.3585667787289
 20
231.4841455736254
 10
174.3416052046001
 20
231.5027816487206
 10
174.2787885310041
 20
231.5749388084848
 10
174.2530387333832
 20
231.6059826324747
 10
174.2177688137076
 20
231.6499311711204
 10
174.1585885652732
 20
231.7275080242342
 10
174.1012876581153
 20
231.8074186554327
 10
174.0952751512128
 20
231.8160884797614
 10
174.0459035482042
 20
231.8894123725761
 10
173.99247133549
 20
231.9732506458201
 10
173.9498426050351
 20
232.0437270952613
 10
173.9410237435577
 20
232.0587276714413
 10
173.8915917147409
 20
232.1456430940635
 10
173.8442046771477
 20
232.2337965896017
 10
173.8181008172541
 20
232.284561696866
 10
173.7988906713665
 20
232.322998781626
 10
173.7556764566415
 20
232.4130872836879
 10
173.7145878120614
 20
232.5039037948967
 10
173.7011368762375
 20
232.534848136985
 10
173.6756497128517
 20
232.5952900315584
 10
173.6388867383882
 20
232.6870958402989
 10
173.6162695978617
 20
232.7466622842062
 10
173.600291840187
 20
232.790349164981
 10
173.5719841408693
 20
232.871453313624
 10
173.5418920930077
 20
232.9637536166474
 10
173.5163575301991
 20
233.0481022557948
 10
173.5140705788182
 20
233.0559728274245
 10
173.4885428551469
 20
233.148006946797
 10
173.4653316407497
 20
233.2397549971835
 10
173.4502345231369
 20
233.3048262371722
 10
173.4444590339544
 20
233.3311160011204
 10
173.4259466530042
 20
233.4219918046257
 10
173.4098158226797
 20
233.5122943952798
 10
173.4025766997627
 20
233.5576824770512
 10
173.396087127864
 20
233.6019380370954
 10
173.3847803501599
 20
233.6908391765201
 10
173.3759144869942
 20
233.778921717142
 10
173.3737653754863
 20
233.8047714684662
 10
173.3663917510755
 20
233.9291816662642
 10
173.3655763865506
 20
233.9523329818307
 10
173.3641368805407
 20
234.0375147138715
 10
173.3641297781901
 20
234.0437923608738
 10
173.3652035539765
 20
234.1215916864801
 10
173.3687894006324
 20
234.2045011316636
 10
173.3737675015186
 20
234.2733227578141
 10
173.3749057772043
 20
234.286180281429
 10
173.3835623451789
 20
234.3665663677835
 10
173.3947669729051
 20
234.4455972614816
 10
173.4025591498104
 20
234.4914781178271
 10
173.4085252252793
 20
234.5232177878154
 10
173.4248401168713
 20
234.5993770449434
 10
173.4437121697288
 20
234.6740241932156
 10
173.4502562163412
 20
234.6974617550217
 10
173.4651393407812
 20
234.7471083929823
 10
173.4891169443484
 20
234.8185788045938
 10
173.5156375725346
 20
234.8883845884
 10
173.5163998649263
 20
234.8902731642203
 10
173.5747741649896
 20
235.0198250586203
 10
173.6003142329025
 20
235.0690109585737
 10
173.6103372239945
 20
235.0873212256993
 10
173.6468891715676
 20
235.1499953806252
 10
173.6858933120623
 20
235.2107832951004
 10
173.7011460556711
 20
235.2330842663427
 10
173.7273195676579
 20
235.2696447914819
 10
173.7711339619859
 20
235.3265396921266
 10
173.8172985776389
 20
235.3814278193915
 10
173.8180903066583
 20
235.3823283918193
 10
173.8657714930357
 20
235.4342690495034
 10
173.9165051018543
 20
235.4850266331563
 10
173.9498459197954
 20
235.5161400012039
 10
173.9694447662206
 20
235.5336691349636
 10
174.0245309075915
 20
235.5801655865495
 10
174.0816992697964
 20
235.6244850195384
 10
174.0953437422472
 20
235.6345190195158
 10
174.1408809821789
 20
235.6665964655545
 10
174.2020026351523
 20
235.7064689562222
 10
174.252909003781
 20
235.7371200231491
 10
174.264986368165
 20
235.7440715231659
 10
174.3297495291175
 20
235.7793740364835
 10
174.396201511893
 20
235.8123532039842
 10
174.4212881312264
 20
235.8240039684762
 10
174.4642454321626
 20
235.8429890682241
 10
174.533780005432
 20
235.8712616942262
 10
174.5986817283213
 20
235.8950650635771
 10
174.6046997985416
 20
235.8971511470137
 10
174.6768954855829
 20
235.9206374916098
 10
174.7502541189074
 20
235.9417007930376
 10
174.7836260025427
 20
235.9503864628583
 10
174.8246593809167
 20
235.9603212010979
 10
174.8999900848021
 20
235.9764834663912
 10
174.9739134570802
 20
235.9898187559351
 10
174.9761194992485
 20
235.9901792045902
 10
175.0529181485806
 20
236.0014005918619
 10
175.1127613411675
 20
236.008384849355
 10
175.1680858741511
 20
236.0134958228865
 10
175.2079950607651
 20
236.0163890182926
 10
175.2860054373015
 20
236.020140409786
 10
175.3641094236224
 20
236.0213861550197
 10
175.4422541067644
 20
236.0201404148753
 10
175.5202644759836
 20
236.0163890296064
 10
175.5601736588094
 20
236.0134958374603
 10
175.6154982200536
 20
236.0083848646609
  0
LWPOLYLINE
  5
322
330
1F
100
AcDbEntity
  8
0
 62
     2
100
AcDbPolyline
 90
      112
 70
     0
 43
0.0
 10
187.6154982200537
 20
236.0083848646609
 10
187.6753413726537
 20
236.0014006144476
 10
187.7521400129945
 20
235.9901792299336
 10
187.7543460548853
 20
235.9898187813125
 10
187.8282694171266
 20
235.9764834910474
 10
187.9036001090318
 20
235.9603212204769
 10
187.9446334799975
 20
235.9503864769727
 10
187.9780053571789
 20
235.9417008016557
 10
188.0513639757283
 20
235.920637486186
 10
188.1235596487847
 20
235.8971511285561
 10
188.1295777179165
 20
235.8950650442059
 10
188.1944794303213
 20
235.8712616680708
 10
188.2640139959326
 20
235.8429890440352
 10
188.3069712946758
 20
235.8240039524125
 10
188.3320579138205
 20
235.8123531957539
 10
188.3985099006898
 20
235.779374062532
 10
188.4632730732149
 20
235.7440716060996
 10
188.4753504406405
 20
235.7371201195704
 10
188.5262568240851
 20
235.7064691167411
 10
188.5873784960488
 20
235.6665967097908
 10
188.6329157480817
 20
235.6345193220082
 10
188.6465602234304
 20
235.6244853375087
 10
188.7037285921415
 20
235.5801659521548
 10
188.7588147277106
 20
235.5336695059892
 10
188.778413568316
 20
235.5161403605073
 10
188.8117543708953
 20
235.4850269512719
 10
188.8624879408775
 20
235.4342692402629
 10
188.9101690713499
 20
235.382328372688
 10
188.9109607993088
 20
235.3814277960627
 10
188.9571253505428
 20
235.3265393993134
 10
189.0009396886407
 20
235.2696442328511
 10
189.0271131755132
 20
235.2330835698788
 10
189.0423659091323
 20
235.2107825338252
 10
189.0813700456019
 20
235.1499945393854
 10
189.1179220270574
 20
235.0873204866811
 10
189.1279450354421
 20
235.0690102908296
 10
189.1534851658694
 20
235.0198246858556
 10
189.2118597241903
 20
234.8902743513543
 10
189.2126220208251
 20
234.8883858051094
 10
189.2391427955322
 20
234.8185811447607
 10
189.2631205082704
 20
234.7471117937757
 10
189.2780036738955
 20
234.6974657302816
 10
189.2845477290312
 20
234.674028372207
 10
189.3034197622366
 20
234.5993815001073
 10
189.3197345673146
 20
234.5232217975291
 10
189.3257005908839
 20
234.491481683853
 10
189.333492681313
 20
234.445599884525
 10
189.3446971466765
 20
234.3665664500846
 10
189.3533535859013
 20
234.2861769196563
 10
189.3544918491742
 20
234.2733188320227
 10
189.3594699317564
 20
234.2044944278658
 10
189.3630558596084
 20
234.1215828174086
 10
189.3641297754572
 20
234.0437834705547
 10
189.3641226850242
 20
234.0375059309804
 10
189.3626833058983
 20
233.9523276112767
 10
189.3618679535148
 20
233.9291778904112
 10
189.3544870016085
 20
233.8046817139366
 10
189.3523451156186
 20
233.7789227774539
 10
189.3434792561912
 20
233.6908350218953
 10
189.3321725266319
 20
233.6019293573113
 10
189.3256829539162
 20
233.5576736680548
 10
189.3184438038476
 20
233.5122868463293
 10
189.3023128761009
 20
233.4219885515769
 10
189.2838004361228
 20
233.3311155803615
 10
189.2780249451854
 20
233.3048260794515
 10
189.2629278231469
 20
233.2397552246845
 10
189.2397166023289
 20
233.1480072314143
 10
189.2141888722155
 20
233.0559728422728
 10
189.2119019202955
 20
233.0481022409615
 10
189.1863673519825
 20
232.9637532989819
 10
189.1562752989848
 20
232.8714528238788
 10
189.1279675959748
 20
232.7903486611293
 10
189.1119898366007
 20
232.7466618081405
 10
189.0893726940476
 20
232.6870954250205
 10
189.0526097170108
 20
232.5952897207313
 10
189.0271225522101
 20
232.5348478742312
 10
189.013671615737
 20
232.5039035479367
 10
188.9725829695612
 20
232.4130870566232
 10
188.9293687537463
 20
232.3229985494987
 10
188.9101586075579
 20
232.2845614596401
 10
188.8840547474313
 20
232.2337963465142
 10
188.836667709914
 20
232.1456428508679
 10
188.7872356817861
 20
232.0587274402392
 10
188.7784168204899
 20
232.0437268670073
 10
188.7357880911335
 20
231.9732504335899
 10
188.6823558802644
 20
231.8894121811533
 10
188.6329842793605
 20
231.8160883047563
 10
188.6269717727383
 20
231.80741848221
 10
188.5696708684953
 20
231.727507866137
 10
188.5104906235002
 20
231.649931026004
 10
188.4752207060642
 20
231.6059824942905
 10
188.4494709101621
 20
231.5749386751356
 10
188.3866542410379
 20
231.5027815268566
 10
188.369692775096
 20
231.4841455712338
 10
188.3069447055081
 20
231.4182449705735
 10
188.2558315231823
 20
231.3680327410928
 10
188.1879604411329
 20
231.3060557248388
 10
188.1294517182852
 20
231.2568445561296
 10
188.1185520318191
 20
231.2481026619603
 10
188.0476892202421
 20
231.1944928999914
 10
187.9754597179938
 20
231.1455457864659
 10
187.9447235067543
 20
231.1264465437364
 10
187.9019566406628
 20
231.1015790342485
 10
187.8273003285162
 20
231.0628559260384
 10
187.7543438841152
 20
231.030659598844
 10
187.7516439745575
 20
231.0295739020135
 10
187.6751481188115
 20
231.0019264592552
 10
187.5979781438549
 20
230.9801070948448
 10
187.5601890236511
 20
230.971646551731
 10
187.5203033261583
 20
230.964309305864
 10
187.4422958538696
 20
230.9547265893942
 10
187.3641298195016
 20
230.9515524425169
  0
LWPOLYLINE
  5
323
330
1F
100
AcDbEntity
  8
0
 62
     2
100
AcDbPolyline
 90
      120
 70
     0
 43
0.0
 10
187.3641297339776
 20
230.951552442517
 10
187.285963690166
 20
230.9547265898807
 10
187.2079562084933
 20
230.9643093083309
 10
187.1680705062317
 20
230.9716465557928
 10
187.1302813815348
 20
230.9801071007853
 10
187.0531113974997
 20
231.0019264701612
 10
186.9766155329182
 20
231.0295739193761
 10
186.9739156230523
 20
231.0306596164631
 10
186.9009591704242
 20
231.0628559513476
 10
186.8263028500969
 20
231.101579068993
 10
186.7835359794444
 20
231.1264465846316
 10
186.7527997649827
 20
231.1455458321032
 10
186.6805702553537
 20
231.1944929576815
 10
186.6097074368247
 20
231.2481027324745
 10
186.5988077493171
 20
231.2568446286841
 10
186.5402990210152
 20
231.3060558085648
 10
186.4724279329518
 20
231.368032838035
 10
186.421314746342
 20
231.4182450774441
 10
186.3585667787289
 20
231.4841455736254
 10
186.3416052046002
 20
231.5027816487207
 10
186.2787885310042
 20
231.5749388084848
 10
186.2530387333832
 20
231.6059826324747
 10
186.2177688137076
 20
231.6499311711204
 10
186.1585885652732
 20
231.7275080242342
 10
186.1012876581153
 20
231.8074186554327
 10
186.0952751512129
 20
231.8160884797614
 10
186.0459035482043
 20
231.8894123725761
 10
185.9924713354901
 20
231.9732506458201
 10
185.9498426050351
 20
232.0437270952613
 10
185.9410237435577
 20
232.0587276714413
 10
185.8915917147409
 20
232.1456430940635
 10
185.8442046771478
 20
232.2337965896017
 10
185.8181008172542
 20
232.284561696866
 10
185.7988906713666
 20
232.322998781626
 10
185.7556764566415
 20
232.4130872836879
 10
185.7145878120615
 20
232.5039037948967
 10
185.7011368762375
 20
232.534848136985
 10
185.6756497128518
 20
232.5952900315584
 10
185.6388867383882
 20
232.6870958402989
 10
185.6162695978617
 20
232.7466622842062
 10
185.600291840187
 20
232.790349164981
 10
185.5719841408694
 20
232.871453313624
 10
185.5418920930077
 20
232.9637536166474
 10
185.5163575301991
 20
233.0481022557948
 10
185.5140705788182
 20
233.0559728274244
 10
185.488542855147
 20
233.148006946797
 10
185.4653316407497
 20
233.2397549971835
 10
185.450234523137
 20
233.3048262371722
 10
185.4444590339544
 20
233.3311160011204
 10
185.4259466530042
 20
233.4219918046258
 10
185.4098158226797
 20
233.5122943952799
 10
185.4025766997628
 20
233.5576824770512
 10
185.396087127864
 20
233.6019380370955
 10
185.3847803501599
 20
233.6908391765201
 10
185.3759144869942
 20
233.7789217171419
 10
185.3737653754864
 20
233.8047714684661
 10
185.3663917510755
 20
233.9291816662639
 10
185.3655763865506
 20
233.9523329818304
 10
185.3641368805407
 20
234.0375147138711
 10
185.3641297781901
 20
234.0437923608735
 10
185.3652035539765
 20
234.1215916864798
 10
185.3687894006324
 20
234.2045011316634
 10
185.3737675015186
 20
234.273322757814
 10
185.3749057772044
 20
234.2861802814289
 10
185.383562345179
 20
234.3665663677834
 10
185.3947669729051
 20
234.4455972614817
 10
185.4025591498104
 20
234.4914781178272
 10
185.4085252252793
 20
234.5232177878156
 10
185.4248401168713
 20
234.5993770449435
 10
185.4437121697288
 20
234.6740241932158
 10
185.4502562163412
 20
234.6974617550218
 10
185.4651393407813
 20
234.7471083929825
 10
185.4891169443484
 20
234.8185788045938
 10
185.5156375725347
 20
234.8883845884001
 10
185.5163998649263
 20
234.8902731642203
 10
185.5747741649897
 20
235.0198250586203
 10
185.6003142329026
 20
235.0690109585738
 10
185.6103372239945
 20
235.0873212256993
 10
185.6468891715676
 20
235.1499953806252
 10
185.6858933120624
 20
235.2107832951004
 10
185.7011460556711
 20
235.2330842663427
 10
185.727319567658
 20
235.2696447914819
 10
185.771133961986
 20
235.3265396921266
 10
185.8172985776389
 20
235.3814278193915
 10
185.8180903066584
 20
235.3823283918193
 10
185.8657714930357
 20
235.4342690495034
 10
185.9165051018544
 20
235.4850266331564
 10
185.9498459197954
 20
235.5161400012039
 10
185.9694447662206
 20
235.5336691349636
 10
186.0245309075916
 20
235.5801655865496
 10
186.0816992697964
 20
235.6244850195384
 10
186.0953437422472
 20
235.6345190195159
 10
186.1408809821789
 20
235.6665964655546
 10
186.2020026351523
 20
235.7064689562223
 10
186.252909003781
 20
235.7371200231491
 10
186.264986368165
 20
235.7440715231659
 10
186.3297495291175
 20
235.7793740364835
 10
186.396201511893
 20
235.8123532039843
 10
186.4212881312265
 20
235.8240039684763
 10
186.4642454321627
 20
235.8429890682241
 10
186.533780005432
 20
235.8712616942262
 10
186.5986817283213
 20
235.8950650635772
 10
186.6046997985416
 20
235.8971511470137
 10
186.676895485583
 20
235.9206374916099
 10
186.7502541189075
 20
235.9417007930376
 10
186.7836260025427
 20
235.9503864628583
 10
186.8246593809167
 20
235.960321201098
 10
186.8999900848021
 20
235.9764834663912
 10
186.9739134570803
 20
235.9898187559351
 10
186.9761194992485
 20
235.9901792045902
 10
187.0529181485806
 20
236.0014005918619
 10
187.1127613411674
 20
236.008384849355
 10
187.1680858741511
 20
236.0134958228865
 10
187.2079950607651
 20
236.0163890182926
 10
187.2860054373015
 20
236.020140409786
 10
187.3641094236224
 20
236.0213861550197
 10
187.4422541067644
 20
236.0201404148753
 10
187.5202644759837
 20
236.0163890296064
 10
187.5601736588094
 20
236.0134958374603
 10
187.6154982200537
 20
236.0083848646609
  0
LWPOLYLINE
  5
324
330
1F
100
AcDbEntity
  8
0
 62
     2
100
AcDbPolyline
 90
       45
 70
     0
 43
0.0
 10
197.5747733568778
 20
235.0198234402637
 10
197.60028456103
 20
234.9704000963651
 10
197.6326588615938
 20
234.9121856857542
 10
197.6970635866794
 20
234.8082591050353
 10
197.701213660708
 20
234.8020236650451
 10
197.8181174025709
 20
234.6444037973318
 10
197.8445165128385
 20
234.6128997123026
 10
197.9270504063169
 20
234.5222176531824
 10
197.949881276507
 20
234.4990107456979
 10
198.0952897151205
 20
234.3672280657772
 10
198.1082735002889
 20
234.3566631500605
 10
198.206306019402
 20
234.2824223414989
 10
198.2529713529344
 20
234.2502698888841
 10
198.3088119772198
 20
234.2142781065579
 10
198.4154115673723
 20
234.1525326263762
 10
198.4213600973568
 20
234.1493412724304
 10
198.5986917180041
 20
234.0654898651408
 10
198.6392697000969
 20
234.0491960769228
 10
198.7556723548598
 20
234.0080035072918
 10
198.7836082024083
 20
233.9993015700559
 10
198.9740478912349
 20
233.9516049505499
 10
198.9951815266551
 20
233.947521828615
 10
199.1173532170981
 20
233.9284798265169
 10
199.168116114926
 20
233.92282100973
 10
199.3641303400744
 20
233.9131893702045
 10
199.5601248689533
 20
233.9228191791913
 10
199.6003427646081
 20
233.9271941777176
 10
199.717382748251
 20
233.9446415280376
 10
199.7542527170295
 20
233.9516131121765
 10
199.9445916648738
 20
233.9992834573277
 10
199.9472222854349
 20
234.0000836941051
 10
200.0591990209336
 20
234.037880935935
 10
200.1295615858497
 20
234.0654872762055
 10
200.1686823239406
 20
234.0821812987926
 10
200.2752870228258
 20
234.1328112369148
 10
200.3069596022211
 20
234.1493734109879
 10
200.4752662967047
 20
234.2502552503177
 10
200.4783837164788
 20
234.2523428566238
 10
200.5741778313055
 20
234.3207917037819
 10
200.6329150099101
 20
234.367183071319
 10
200.6656987747942
 20
234.3946771379086
 10
200.7526394907222
 20
234.47373259092
 10
200.7783692628082
 20
234.4990017314017
 10
200.9102185397995
 20
234.6444968889222
 10
200.9831664651645
 20
234.7391752180475
  0
LINE
  5
325
330
1F
100
AcDbEntity
  8
0
 62
     2
100
AcDbLine
 10
199.7071898383007
 20
228.2688552311649
 30
0.0
 11
199.7055378402679
 21
228.2688552311649
 31
0.0
  0
LWPOLYLINE
  5
326
330
1F
100
AcDbEntity
  8
0
 62
     2
100
AcDbPolyline
 90
       65
 70
     0
 43
0.0
 10
200.9831664651645
 20
234.7391752180475
 10
201.0140449603475
 20
234.6720634073538
 10
201.027068820098
 20
234.6426288446434
 10
201.0369784813589
 20
234.6197531816688
 10
201.0879450655622
 20
234.4948517244025
 10
201.1279721393464
 20
234.3868053010699
 10
201.1357699707327
 20
234.3645519326309
 10
201.1801307743005
 20
234.2289449659635
 10
201.2118887148586
 20
234.1204110008315
 10
201.2206770412303
 20
234.0882841804753
 10
201.25703177024
 20
233.9430504329898
 10
201.2780102992892
 20
233.8474836955896
 10
201.3086842710171
 20
233.6835535877778
 10
201.3148340441107
 20
233.6456418197682
 10
201.3257001945722
 20
233.5725023786302
 10
201.3368345260559
 20
233.4861396470119
 10
201.3522384583447
 20
233.3301392679844
 10
201.3544991727761
 20
233.3000741903493
 10
201.3641297767361
 20
233.0339553451002
 10
201.3641033659093
 20
233.0202627858593
 10
201.3602218523403
 20
232.8692207256954
 10
201.3544900722865
 20
232.7772325077581
 10
201.3498199693464
 20
232.7227226409696
 10
201.3331074865216
 20
232.5822147416637
 10
201.3257002193374
 20
232.5338675497048
 10
201.3242139099359
 20
232.5248140485565
 10
201.30866922516
 20
232.4398019243976
 10
201.2780043910934
 20
232.3061149789484
 10
201.2118938469788
 20
232.0955514879863
 10
201.2106589807835
 20
232.0922446100531
 10
201.1683812595074
 20
231.9884259697728
 10
201.1279257759497
 20
231.902826162106
 10
201.1222894586636
 20
231.8917617339008
 10
201.0727351792184
 20
231.8019746235743
 10
201.0270681067639
 20
231.729234869511
 10
201.0139801009601
 20
231.7098656563064
 10
200.9101468299691
 20
231.5747774608315
 10
200.9063636570407
 20
231.5703882620521
 10
200.8458798398121
 20
231.504374131704
 10
200.8109300699321
 20
231.4694404647644
 10
200.7782858959307
 20
231.4386954986298
 10
200.7035197981873
 20
231.3744083836418
 10
200.6329161630506
 20
231.3205860648276
 10
200.584349805321
 20
231.28696936019
 10
200.5148794809135
 20
231.2431770968255
 10
200.4752699040649
 20
231.220271227996
 10
200.3801093367566
 20
231.170684002286
 10
200.3068254794521
 20
231.1371544031035
 10
200.2986818116573
 20
231.1336550036278
 10
200.2243808704525
 20
231.1036496985157
 10
200.1491181733587
 20
231.0765025850004
 10
200.1294679802103
 20
231.0699113099389
 10
200.0470226655698
 20
231.0444076559651
 10
199.9445960930034
 20
231.0173931714794
 10
199.9185105013403
 20
231.0113134320193
 10
199.8403601766717
 20
230.9949911689982
 10
199.7617213030022
 20
230.9813690483268
 10
199.7543500036383
 20
230.980232621898
 10
199.7071002021843
 20
230.9735046677724
 10
199.6826799996444
 20
230.9703990057981
 10
199.6033198028723
 20
230.9620053125737
 10
199.5600628340479
 20
230.9584954538166
 10
199.523721927134
 20
230.9561118187037
 10
199.4439658443565
 20
230.9526423742381
 10
199.3641298704502
 20
230.9515208292272
  0
LWPOLYLINE
  5
327
330
1F
100
AcDbEntity
  8
0
 62
     2
100
AcDbPolyline
 90
       76
 70
     0
 43
0.0
 10
199.3641293792109
 20
230.9515524420877
 10
199.2860267823139
 20
230.9547214142355
 10
199.2080823493325
 20
230.9642887075092
 10
199.1681007069664
 20
230.9716403804404
 10
199.1304697508821
 20
230.9800612959244
 10
199.0533607610293
 20
231.0018461534969
 10
198.976924254018
 20
231.0294502542423
 10
198.9739716875956
 20
231.0306369951648
 10
198.9013252259485
 20
231.0626805721764
 10
198.8267238498262
 20
231.1013440813148
 10
198.7835097350388
 20
231.1264624539119
 10
198.7532730281392
 20
231.1452439451151
 10
198.681093071773
 20
231.1941180859219
 10
198.6102769307799
 20
231.2476496340766
 10
198.5986901604026
 20
231.2569396641329
 10
198.5409121398786
 20
231.3055200191632
 10
198.4730814630934
 20
231.3674106707655
 10
198.4213372189226
 20
231.4182223228514
 10
198.3585660431618
 20
231.484146374137
 10
198.3423293611347
 20
231.5019787432641
 10
198.2795428315275
 20
231.5740424709012
 10
198.2529729175585
 20
231.6060630958945
 10
198.2185498066788
 20
231.6489398460903
 10
198.1593927302066
 20
231.7264207668356
 10
198.1021114111917
 20
231.8062351311415
 10
198.0953268136954
 20
231.8160137486129
 10
198.0467432471744
 20
231.88813285105
 10
197.9933232899459
 20
231.9718755073188
 10
197.9499659602483
 20
232.0435183199389
 10
197.9418842159732
 20
232.0572575034446
 10
197.892456918961
 20
232.144078971847
 10
197.8450707801569
 20
232.2321400667512
 10
197.8181055116322
 20
232.2845524182865
 10
197.7997537970089
 20
232.3212513813768
 10
197.7565326849258
 20
232.411250646924
 10
197.7154331776783
 20
232.5019799479095
 10
197.7011449010063
 20
232.534829485495
 10
197.6764802045741
 20
232.5932813794353
 10
197.6396982839213
 20
232.6850047152885
 10
197.6162665785199
 20
232.7466704090497
 10
197.600250593086
 20
232.7904637891087
 10
197.5727453723097
 20
232.8692046928196
 10
197.5426218679663
 20
232.9614305826381
 10
197.5163851051855
 20
233.0480076980369
 10
197.5147646249597
 20
233.0535783061739
 10
197.4891968499207
 20
233.145543858612
 10
197.4659412232093
 20
233.2372265082164
 10
197.4502481575851
 20
233.3047651651907
 10
197.4450198056387
 20
233.3285255232519
 10
197.426454170862
 20
233.4193427635302
 10
197.4102656062746
 20
233.509590224151
 10
197.4025555136519
 20
233.5578209543184
 10
197.3964746715357
 20
233.5991823776111
 10
197.3851011227062
 20
233.6880356886425
 10
197.3761639390636
 20
233.7760740859474
 10
197.3737538919121
 20
233.8049166802226
 10
197.3663924525105
 20
233.9291637119197
 10
197.365669514401
 20
233.9494088448049
 10
197.3641449986398
 20
234.0345583750403
 10
197.3641297774437
 20
234.0438199440626
 10
197.3651221112145
 20
234.1186071280662
 10
197.3686138709746
 20
234.2014924886822
 10
197.3737532219683
 20
234.2731565412716
 10
197.3746316669727
 20
234.2831518417136
 10
197.3831852007698
 20
234.3635225719858
 10
197.3942823947125
 20
234.4425426000985
 10
197.4025735238808
 20
234.491557759223
 10
197.4079288995493
 20
234.5201565550888
 10
197.4241278199098
 20
234.5963136334421
 10
197.4428797778669
 20
234.6709631192855
 10
197.4502522755017
 20
234.6974479615311
 10
197.4641828417905
 20
234.7440542967461
 10
197.4880324492573
 20
234.8155364499509
 10
197.5144213278547
 20
234.8853588630271
 10
197.5163280158175
 20
234.8900954141775
 10
197.5747733568778
 20
235.0198234402637
  0
LWPOLYLINE
  5
328
330
1F
100
AcDbEntity
  8
0
 62
     2
100
AcDbPolyline
 90
       45
 70
     0
 43
0.0
 10
161.7450931599877
 20
234.7391752626547
 10
161.8180410265185
 20
234.6444968732751
 10
161.9498903034026
 20
234.4990017186699
 10
161.9756200754208
 20
234.4737325787057
 10
162.062560791028
 20
234.3946771273304
 10
162.0953445557586
 20
234.3671830613162
 10
162.1540817340492
 20
234.3207916947575
 10
162.2498758482699
 20
234.2523428490617
 10
162.2529932680225
 20
234.2502552428005
 10
162.4212999612089
 20
234.1493734056705
 10
162.4529725403333
 20
234.1328112319628
 10
162.5595772382553
 20
234.0821812949631
 10
162.5986979759749
 20
234.0654872727484
 10
162.6690605402023
 20
234.0378809330963
 10
162.7810372745565
 20
234.0000836921191
 10
162.7836678950901
 20
233.9992834553599
 10
162.9740068408816
 20
233.9516131112953
 10
163.0108768092507
 20
233.9446415273159
 10
163.127916791576
 20
233.9271941773957
 10
163.1681346867729
 20
233.9228191789697
 10
163.3641303400744
 20
233.9131893702045
 10
163.5601434797375
 20
233.92282101379
 10
163.6109063881307
 20
233.9284798329546
 10
163.7330781036827
 20
233.9475218430363
 10
163.754211743389
 20
233.9516049666805
 10
163.9446514697905
 20
233.9993016060853
 10
163.9725873226595
 20
234.0080035469281
 10
164.0889899989235
 20
234.0491961335294
 10
164.1295679882255
 20
234.0654899284186
 10
164.3068996382281
 20
234.1493413697331
 10
164.3128481691276
 20
234.1525327249647
 10
164.4194477747637
 20
234.2142782298803
 10
164.4752884063929
 20
234.2502700264566
 10
164.5219537456005
 20
234.2824224916978
 10
164.6199862750663
 20
234.3566633290653
 10
164.6329700614278
 20
234.3672282488435
 10
164.7783785099501
 20
234.4990109786806
 10
164.8012093810291
 20
234.5222178948113
 10
164.8837432758501
 20
234.6128999872113
 10
164.9101423858425
 20
234.6444040836178
 10
165.027046121196
 20
234.8020240068618
 10
165.0311961948028
 20
234.8082594490017
 10
165.0956009111602
 20
234.9121860650237
 10
165.127975205497
 20
234.970400494956
 10
165.1534865023882
 20
235.0198220093162
  0
LINE
  5
329
330
1F
100
AcDbEntity
  8
0
 62
     2
100
AcDbLine
 10
163.0227217132114
 20
228.2688552311649
 30
0.0
 11
163.0210698559938
 21
228.2688552311649
 31
0.0
  0
LWPOLYLINE
  5
32A
330
1F
100
AcDbEntity
  8
0
 62
     2
100
AcDbPolyline
 90
       65
 70
     0
 43
0.0
 10
163.3641910366944
 20
230.9514718595234
 10
163.2843365226455
 20
230.9526521034797
 10
163.204563577387
 20
230.9562396124756
 10
163.1682162329994
 20
230.9586841296627
 10
163.1249530775071
 20
230.9622638203245
 10
163.0455869833986
 20
230.9707541608399
 10
163.0211666919782
 20
230.9738755061153
 10
162.9739194385545
 20
230.9806068385188
 10
162.9665488855283
 20
230.9817400678353
 10
162.887924492032
 20
230.9952512352426
 10
162.8097985661408
 20
231.0113344977948
 10
162.7836418489914
 20
231.0173363186868
 10
162.6813306536043
 20
231.0439421611912
 10
162.5987630236887
 20
231.0692582086541
 10
162.5792560870617
 20
231.0757700047379
 10
162.5039913530063
 20
231.1029044103947
 10
162.4296743093358
 20
231.1330599045656
 10
162.4213082779853
 20
231.136679261981
 10
162.3482197276473
 20
231.1703791907208
 10
162.2529897471586
 20
231.2203962834454
 10
162.2134029905569
 20
231.243446720531
 10
162.1439154374619
 20
231.2874880519255
 10
162.095343383996
 20
231.3212404188794
 10
162.0246583833738
 20
231.3752572828245
 10
161.9499605069765
 20
231.4395282773447
 10
161.9178605650817
 20
231.469725926712
 10
161.8823696500831
 20
231.5051312208467
 10
161.8218919301371
 20
231.5709835053871
 10
161.818109199046
 20
231.5753603999443
 10
161.714256856987
 20
231.7101214098695
 10
161.701191381257
 20
231.7294162452413
 10
161.6555368457568
 20
231.802017270303
 10
161.605982977035
 20
231.891740444204
 10
161.6002877862179
 20
231.902918131204
 10
161.5598898178939
 20
231.9883966217005
 10
161.5176103176348
 20
232.0922240546994
 10
161.5163754007341
 20
232.0955310707749
 10
161.4502621407134
 20
232.3060886349165
 10
161.419591174763
 20
232.4397959260589
 10
161.404045493658
 20
232.5248135274878
 10
161.4025593022204
 20
232.5338663972119
 10
161.39515590131
 20
232.5821872417006
 10
161.3784420390971
 20
232.722696824468
 10
161.3737714480538
 20
232.7772071323133
 10
161.3680389008401
 20
232.8691959554648
 10
161.3641562788456
 20
233.0202390212742
 10
161.3641297768532
 20
233.0339316912904
 10
161.3737603754174
 20
233.3000738687515
 10
161.3760195095269
 20
233.3301189801001
 10
161.3914228955874
 20
233.4861215112443
 10
161.4025594451024
 20
233.572502939003
 10
161.4134232484223
 20
233.6456274307587
 10
161.4195750413668
 20
233.6835521023359
 10
161.4502494159751
 20
233.84748429671
 10
161.4712252291957
 20
233.943039056411
 10
161.5075801822112
 20
234.0882750486519
 10
161.5163708334409
 20
234.1204105343814
 10
161.5481265996235
 20
234.2289378142598
 10
161.5924872261047
 20
234.364546333378
 10
161.6002874101694
 20
234.3868067373116
 10
161.6403118543835
 20
234.494847418219
 10
161.6912788301627
 20
234.6197503334724
 10
161.7011907295821
 20
234.6426309242092
 10
161.7142091736357
 20
234.672052878217
 10
161.7450931599877
 20
234.7391752626547
  0
LWPOLYLINE
  5
32B
330
1F
100
AcDbEntity
  8
0
 62
     2
100
AcDbPolyline
 90
       76
 70
     0
 43
0.0
 10
165.1534865023882
 20
235.0198220093162
 10
165.2119320063402
 20
234.8900955336254
 10
165.2138387016195
 20
234.8853590565473
 10
165.2402276782111
 20
234.8155377643776
 10
165.2640773466806
 20
234.7440566617462
 10
165.278007922166
 20
234.6974508608954
 10
165.2853804131196
 20
234.6709662454152
 10
165.3041323057894
 20
234.5963170121461
 10
165.3203310961014
 20
234.5201594587006
 10
165.3256864098377
 20
234.4915602579478
 10
165.3339774216297
 20
234.4425440818405
 10
165.3450744154705
 20
234.3635214754859
 10
165.3536277873492
 20
234.2831472966749
 10
165.3545062186383
 20
234.2731515594924
 10
165.3596455225577
 20
234.2014846387224
 10
165.3631373344865
 20
234.1185971888279
 10
165.3641297761302
 20
234.0438100369639
 10
165.3641145691885
 20
234.0345486341911
 10
165.3625901479519
 20
233.9494026620112
 10
165.3618672131501
 20
233.9291589409399
 10
165.3545056498866
 20
233.8049174827933
 10
165.3520955771754
 20
233.776074067111
 10
165.3431583762121
 20
233.6880303980115
 10
165.3317848529724
 20
233.5991727125839
 10
165.3257039997443
 20
233.5578112260097
 10
165.3179938669797
 20
233.5095818760187
 10
165.3018051858757
 20
233.4193387535064
 10
165.2832394780994
 20
233.3285242730173
 10
165.2780111204906
 20
233.3047641558998
 10
165.2623180393316
 20
233.2372259107072
 10
165.2390623928779
 20
233.1455433322086
 10
165.2134945997644
 20
233.0535775326579
 10
165.2118741185067
 20
233.0480069051663
 10
165.1856373407588
 20
232.9614295071912
 10
165.1555138229747
 20
232.8692034797335
 10
165.1280085927891
 20
232.7904625896312
 10
165.1119926029116
 20
232.7466692520866
 10
165.0885608921676
 20
232.6850036425416
 10
165.0517789654302
 20
232.5932804426462
 10
165.0271142661981
 20
232.5348286155655
 10
165.0128259883089
 20
232.5019791064039
 10
164.9717264790508
 20
232.4112498578492
 10
164.928505366982
 20
232.3212506207155
 10
164.9101536529575
 20
232.284551666724
 10
164.883188385904
 20
232.2321393293478
 10
164.8358022512593
 20
232.1440782690252
 10
164.786374960479
 20
232.0572568474527
 10
164.7782932173884
 20
232.0435176722078
 10
164.7349358947672
 20
231.9718749050988
 10
164.6815159477811
 20
231.888132304221
 10
164.6329323918655
 20
231.8160132481423
 10
164.6261477959401
 20
231.8062346368129
 10
164.5688664910023
 20
231.726420321606
 10
164.5097094304751
 20
231.6489394472468
 10
164.4752863294714
 20
231.6060627224538
 10
164.4487164234047
 20
231.5740421164193
 10
164.3859299133709
 20
231.5019784318075
 10
164.3696935096997
 20
231.484146370697
 10
164.306922081883
 20
231.4182220630456
 10
164.2551778558756
 20
231.3674104433672
 10
164.1873472038989
 20
231.3055198321072
 10
164.1295692053073
 20
231.2569395092093
 10
164.1179824394096
 20
231.247649485325
 10
164.0471663263349
 20
231.1941179727474
 10
163.9749863992873
 20
231.1452438641014
 10
163.9447497048991
 20
231.1264623850413
 10
163.9015356082109
 20
231.1013440283456
 10
163.8269342638956
 20
231.0626805425338
 10
163.7542878337775
 20
231.03063698328
 10
163.7513352686461
 20
231.0294502429765
 10
163.674898795259
 20
231.001846155471
 10
163.5977898396172
 20
230.980061305815
 10
163.5601589002882
 20
230.9716403921988
 10
163.5201772757405
 20
230.9642887198057
 10
163.4422328774666
 20
230.9547214232406
 10
163.3641303151795
 20
230.9515524419172
  0
ARC
  5
32C
330
1F
100
AcDbEntity
  8
0
 62
     2
100
AcDbCircle
 10
163.3641297767376
 20
199.9131893703412
 30
0.0
 40
2.0
100
AcDbArc
 50
13.88034071124698
 51
152.2448391482724
  0
CIRCLE
  5
32D
330
1F
100
AcDbEntity
  8
0
 62
     2
100
AcDbCircle
 10
163.3641297767376
 20
199.9131893703412
 30
0.0
 40
1.75
  0
ARC
  5
32E
330
1F
100
AcDbEntity
  8
0
 62
     2
100
AcDbCircle
 10
163.3641297767376
 20
199.9131893703412
 30
0.0
 40
2.0
100
AcDbArc
 50
152.2448391482734
 51
270.0017549696692
  0
ARC
  5
32F
330
1F
100
AcDbEntity
  8
0
 62
     2
100
AcDbCircle
 10
163.3641297767376
 20
199.9131893703412
 30
0.0
 40
2.0
100
AcDbArc
 50
270.000015425281
 51
13.88034071124757
  0
ARC
  5
330
330
1F
100
AcDbEntity
  8
0
 62
     2
100
AcDbCircle
 10
199.3641297767376
 20
199.9131893703412
 30
0.0
 40
2.0
100
AcDbArc
 50
27.72764923071469
 51
166.1197121481881
  0
CIRCLE
  5
331
330
1F
100
AcDbEntity
  8
0
 62
     2
100
AcDbCircle
 10
199.3641297767376
 20
199.9131893703412
 30
0.0
 40
1.75
  0
ARC
  5
332
330
1F
100
AcDbEntity
  8
0
 62
     2
100
AcDbCircle
 10
199.3641297767376
 20
199.9131893703412
 30
0.0
 40
2.0
100
AcDbArc
 50
270.0000026846707
 51
27.72764923071403
  0
ARC
  5
333
330
1F
100
AcDbEntity
  8
0
 62
     2
100
AcDbCircle
 10
199.3641297767376
 20
199.9131893703412
 30
0.0
 40
2.0
100
AcDbArc
 50
166.1197121481881
 51
269.9999886116437
  0
CIRCLE
  5
334
330
1F
100
AcDbEntity
  8
0
 62
     2
100
AcDbCircle
 10
199.3641297767376
 20
235.9131893703412
 30
0.0
 40
1.75
  0
ARC
  5
335
330
1F
100
AcDbEntity
  8
0
 62
     2
100
AcDbCircle
 10
199.3641297767376
 20
235.9131893703412
 30
0.0
 40
2.0
100
AcDbArc
 50
324.0492869027148
 51
90.00175097806643
  0
ARC
  5
336
330
1F
100
AcDbEntity
  8
0
 62
     2
100
AcDbCircle
 10
199.3641297767376
 20
235.9131893703412
 30
0.0
 40
2.0
100
AcDbArc
 50
90.00001138828533
 51
206.5325924645893
  0
CIRCLE
  5
337
330
1F
100
AcDbEntity
  8
0
 62
     2
100
AcDbCircle
 10
163.3641297767376
 20
235.9131893703412
 30
0.0
 40
1.75
  0
ARC
  5
338
330
1F
100
AcDbEntity
  8
0
 62
     2
100
AcDbCircle
 10
163.3641297767376
 20
235.9131893703412
 30
0.0
 40
2.0
100
AcDbArc
 50
89.99999865135037
 51
215.9507129378635
  0
ARC
  5
339
330
1F
100
AcDbEntity
  8
0
 62
     2
100
AcDbCircle
 10
163.3641297767376
 20
235.9131893703412
 30
0.0
 40
2.0
100
AcDbArc
 50
333.4673879234589
 51
89.99998457478708
  0
LWPOLYLINE
  5
33A
330
1F
100
AcDbEntity
  8
0
 62
     2
100
AcDbPolyline
 90
       58
 70
     0
 43
0.0
 10
201.1352014025719
 20
200.8426850918398
 10
201.1806916282578
 20
200.9325132390209
 10
201.190384277098
 20
200.9523149252162
 10
201.2439109455907
 20
201.0659515401765
 10
201.2730190819677
 20
201.1311218960871
 10
201.3087012948889
 20
201.2147667663019
 10
201.3180828291183
 20
201.2375151679868
 10
201.3454432549074
 20
201.3058457651932
 10
201.3930634293692
 20
201.4327733195732
 10
201.436656754399
 20
201.5596918769741
 10
201.4383194920432
 20
201.5647650003473
 10
201.4810410235798
 20
201.7017296669964
 10
201.5210570642165
 20
201.8433393957202
 10
201.535245945525
 20
201.8972731010024
 10
201.5844936955559
 20
202.1041843346855
 10
201.6129392330315
 20
202.2425194400138
 10
201.6297126588382
 20
202.333428680969
 10
201.6689751320257
 20
202.5901050192336
 10
201.6718407914795
 20
202.6125209864274
 10
201.6899526557852
 20
202.7756055029566
 10
201.7028019058411
 20
202.9330981563819
 10
201.7032424724248
 20
202.9397566395882
 10
201.7113812282626
 20
203.1035923196739
 10
201.7141297767374
 20
203.2656538655818
 10
201.7094381132582
 20
203.471465316342
 10
201.7028029500344
 20
203.5822949090837
 10
201.6689746697812
 20
203.8787999805039
 10
201.612937519131
 20
204.152195568986
 10
201.5845385000915
 20
204.2540609652839
 10
201.5352465917442
 20
204.4000843803276
 10
201.4739207090124
 20
204.5464373686307
 10
201.4366423808635
 20
204.6222144883965
 10
201.3180821958867
 20
204.8190202863306
 10
201.3085750988076
 20
204.8325699140723
 10
201.1807028739765
 20
204.9917556243669
 10
201.1257256032147
 20
205.0492851304537
 10
201.0266929730699
 20
205.1399624864753
 10
201.0257995472714
 20
205.1407134392555
 10
201.0140028836481
 20
205.1505262398172
 10
200.8549529483718
 20
205.2665558813393
 10
200.8169590034495
 20
205.2904789710044
 10
200.7069512094358
 20
205.3533165847976
 10
200.7037269774164
 20
205.3550308939324
 10
200.6697195449933
 20
205.3727076988043
 10
200.5938826221612
 20
205.4095357086183
 10
200.4781344676441
 20
205.4591694096761
 10
200.4719289088387
 20
205.4616140907794
 10
200.3801130831848
 20
205.4953420920124
 10
200.2633475227287
 20
205.5321816062095
 10
200.1772490620347
 20
205.5555043880489
 10
200.0470347133214
 20
205.585382213397
 10
200.0462985639756
 20
205.5855342530361
 10
199.9948432810056
 20
205.5957136233239
 10
199.8702077368231
 20
205.6167753726541
 10
199.8226114607992
 20
205.6235026730672
 10
199.7072366616783
 20
205.6368552497194
 10
199.5945244408463
 20
205.6459672336992
 10
199.3641298481953
 20
205.6513567370431
  0
LWPOLYLINE
  5
33B
330
1F
100
AcDbEntity
  8
0
 62
     2
100
AcDbPolyline
 90
       75
 70
     0
 43
0.0
 10
199.3641298481953
 20
205.6513567370431
 10
199.2732635385686
 20
205.6473275262718
 10
199.1826934513649
 20
205.6352398812907
 10
199.1337481688369
 20
205.6253017201496
 10
199.0927132130624
 20
205.6150938020997
 10
199.0036111671381
 20
205.5868899617128
 10
198.9156373683248
 20
205.5507852482468
 10
198.9055577592808
 20
205.5461288045356
 10
198.8289636696056
 20
205.5072919807125
 10
198.7437442906124
 20
205.4569716572199
 10
198.6819603438778
 20
205.4158480480903
 10
198.6601249609182
 20
205.4003857758794
 10
198.5782423567926
 20
205.3380958348013
 10
198.4982235965815
 20
205.2706633141528
 10
198.4647260679661
 20
205.2405063593798
 10
198.4201664753664
 20
205.1986102592774
 10
198.3441003104332
 20
205.1223356399699
 10
198.2700380942483
 20
205.042214482403
 10
198.2563063098926
 20
205.0267155563417
 10
198.1979892771416
 20
204.9586218127494
 10
198.1279604226321
 20
204.8719326571819
 10
198.0599564482449
 20
204.7825147817279
 10
198.0584961124274
 20
204.7805368585156
 10
197.9939858671846
 20
204.6906721271565
 10
197.9300581670146
 20
204.5966754998513
 10
197.8733715009525
 20
204.5090285170261
 10
197.8681813075857
 20
204.5007954241615
 10
197.8083620715936
 20
204.4033000680274
 10
197.772370827728
 20
204.3422472148944
 10
197.7024934350127
 20
204.2182225979087
 10
197.6949170315253
 20
204.204317849493
 10
197.6413003073447
 20
204.1031969520694
 10
197.5897607203866
 20
204.0012325708745
 10
197.5475821431669
 20
203.9140146135024
 10
197.5403049803206
 20
203.8985995164312
 10
197.4929445706681
 20
203.7954373446537
 10
197.4476926083087
 20
203.6918752219061
 10
197.410236586378
 20
203.6020112603011
 10
197.4045627817604
 20
203.5880423130789
 10
197.3635696323958
 20
203.4840668115305
 10
197.3247300585404
 20
203.3800606053944
 10
197.2915958171508
 20
203.2864072188669
 10
197.288062837445
 20
203.2761220603419
 10
197.253587392792
 20
203.1723491331811
 10
197.2245953068734
 20
203.0796544875255
 10
197.1930148802138
 20
202.9718029485882
 10
197.1912937269963
 20
202.965686421047
 10
197.1635203247856
 20
202.862968058482
 10
197.1380275979516
 20
202.7607615891654
 10
197.1153477129753
 20
202.6614766122696
 10
197.1148398955866
 20
202.6591439248489
 10
197.0939820214361
 20
202.5581919288649
 10
197.0754795950981
 20
202.4579782739851
 10
197.0593590537969
 20
202.3585682654829
 10
197.0592615838269
 20
202.3579213123556
 10
197.0456468483923
 20
202.2600264606967
 10
197.0343693526823
 20
202.1624174169647
 10
197.0255528624605
 20
202.0658046251039
 10
197.0254546666623
 20
202.0645567255706
 10
197.0160547743303
 20
201.8972234905229
 10
197.0141297767522
 20
201.7825025902907
 10
197.025435121509
 20
201.5140769434212
 10
197.0299926636433
 20
201.4660669106965
 10
197.0500005758429
 20
201.3141620171599
 10
197.0592625284191
 20
201.2602601447248
 10
197.0782007641743
 20
201.1668233644771
 10
197.1146791727219
 20
201.024317585056
 10
197.1153287712176
 20
201.0220841761349
 10
197.1905898641196
 20
200.806573619658
 10
197.1929791974958
 20
200.8007862460508
 10
197.2127031804901
 20
200.7548191980819
 10
197.2742937564245
 20
200.6283028435386
 10
197.2915592079223
 20
200.5965656859847
 10
197.4101543819171
 20
200.4098611851573
 10
197.4225187052726
 20
200.392919247915
  0
LWPOLYLINE
  5
33C
330
1F
100
AcDbEntity
  8
0
 62
     2
100
AcDbPolyline
 90
       74
 70
     0
 43
0.0
 10
185.0160547742646
 20
201.8972234885479
 10
185.0141297767522
 20
201.7825025902907
 10
185.0254456571208
 20
201.5139551389858
 10
185.0291836001007
 20
201.473995232788
 10
185.0481672684348
 20
201.3257176824582
 10
185.0592663578507
 20
201.2602392029046
 10
185.0749205453587
 20
201.1817551064748
 10
185.1095243665367
 20
201.0423541296135
 10
185.1153092601361
 20
201.0221511327588
 10
185.1906021458967
 20
200.8065437427012
 10
185.1929862604833
 20
200.8007692122327
 10
185.2025106893806
 20
200.7781830247334
 10
185.260943072985
 20
200.6538546944207
 10
185.2916146621606
 20
200.5964659934897
 10
185.3273240425979
 20
200.5349898598578
 10
185.4016098176839
 20
200.4218074641245
 10
185.4101486739809
 20
200.4098690995016
 10
185.5475550899255
 20
200.2410821479466
 10
185.5735137287444
 20
200.2133148769343
 10
185.6708189417204
 20
200.1183900405942
 10
185.702428473833
 20
200.0903084360434
 10
185.8732101368861
 20
199.9576412184859
 10
185.8870262971323
 20
199.948140344734
 10
186.0053264149384
 20
199.8731741184596
 10
186.0585395093302
 20
199.842862389675
 10
186.1048678035636
 20
199.818033604163
 10
186.2563343540282
 20
199.7460500720666
 10
186.2603201599556
 20
199.7443324764212
 10
186.3960568794954
 20
199.6907589809565
 10
186.4647094539263
 20
199.6670902621693
 10
186.5365606998727
 20
199.6446041643709
 10
186.6811970817896
 20
199.6059619579801
 10
186.6819139837883
 20
199.6057914586564
 10
186.9056273512118
 20
199.5620825657111
 10
186.9801049414237
 20
199.5515587263327
 10
187.1329129246313
 20
199.5359647569257
 10
187.1339083719312
 20
199.5358890966804
 10
187.3641346718266
 20
199.5271927848663
 10
187.5943570044186
 20
199.5358890648727
 10
187.5953524173681
 20
199.5359647260838
 10
187.7481534701153
 20
199.5515588016198
 10
187.8226269179419
 20
199.5620818522033
 10
188.046327726097
 20
199.6057855985945
 10
188.0470445916936
 20
199.6059560791162
 10
188.1916748255641
 20
199.6445949650054
 10
188.2635242186302
 20
199.6670801419625
 10
188.3321760336597
 20
199.6907487715742
 10
188.4679154028786
 20
199.7443236456724
 10
188.4719013697035
 20
199.7460412935342
 10
188.6233882465916
 20
199.8180334941672
 10
188.6697200210269
 20
199.8428637862201
 10
188.7229241952856
 20
199.8731697909819
 10
188.8412310127519
 20
199.9481387801932
 10
188.8550477732033
 20
199.957639997599
 10
189.0258310854081
 20
200.0903088621994
 10
189.0574426490961
 20
200.1183923055524
 10
189.1547475878042
 20
200.2133169759061
 10
189.1807044653733
 20
200.2410823429692
 10
189.3181110702425
 20
200.4098693642499
 10
189.3266498519058
 20
200.4218076268908
 10
189.4009351954234
 20
200.5349893722059
 10
189.4366448904373
 20
200.5964660545352
 10
189.4673160915756
 20
200.6538540222519
 10
189.5257485857319
 20
200.7781824776639
 10
189.5352730425572
 20
200.8007687076581
 10
189.5376571644074
 20
200.8065432495959
 10
189.612950280542
 20
201.0221510988835
 10
189.6187351866949
 20
201.0423541290711
 10
189.6533390473349
 20
201.1817552404403
 10
189.668993234115
 20
201.2602393552229
 10
189.6800923172121
 20
201.3257178289052
 10
189.6990759670268
 20
201.4739953261158
 10
189.7028138963665
 20
201.5139551039963
 10
189.7141297767271
 20
201.7825025909633
  0
LWPOLYLINE
  5
33D
330
1F
100
AcDbEntity
  8
0
 62
     2
100
AcDbPolyline
 90
      120
 70
     0
 43
0.0
 10
189.7141297767395
 20
201.7825128033226
 10
189.7122047792146
 20
201.8972234885478
 10
189.702804887202
 20
202.0645567206668
 10
189.7027066914071
 20
202.0658046201781
 10
189.6938902014839
 20
202.1624174103269
 10
189.6826127061548
 20
202.2600264523171
 10
189.6689979711787
 20
202.3579213022195
 10
189.668900501212
 20
202.3585682553351
 10
189.6527799604522
 20
202.4579782620461
 10
189.6342775347338
 20
202.5581919151149
 10
189.6134196612799
 20
202.659143909272
 10
189.612911843908
 20
202.6614765966505
 10
189.5902319596871
 20
202.7607615717506
 10
189.5647392337
 20
202.8629680392223
 10
189.5369658324096
 20
202.9656863999393
 10
189.535244679249
 20
202.9718029273706
 10
189.5036642536329
 20
203.0796544643777
 10
189.4746721686702
 20
203.1723491083859
 10
189.4401967251517
 20
203.2761220337206
 10
189.436663745562
 20
203.2864071920658
 10
189.4035295052606
 20
203.3800605769665
 10
189.3646899326786
 20
203.4840667813203
 10
189.3236967846556
 20
203.588042281117
 10
189.3180229802235
 20
203.6020112281067
 10
189.2805669595172
 20
203.6918751882355
 10
189.2353149986357
 20
203.7954373093255
 10
189.1879545905285
 20
203.8985994795033
 10
189.1806774279196
 20
203.9140145763402
 10
189.1384988520749
 20
204.0012325324113
 10
189.0869592667969
 20
204.1031969121535
 10
189.0333425443654
 20
204.2043178082249
 10
189.0257661411252
 20
204.2182225564621
 10
188.95588872583
 20
204.3422472147589
 10
188.9198975080016
 20
204.4033000243936
 10
188.8600782739645
 20
204.5007953795372
 10
188.8548880807674
 20
204.509028472325
 10
188.7982014165581
 20
204.5966754544106
 10
188.7342737184772
 20
204.6906720810931
 10
188.6697634753413
 20
204.780536812044
 10
188.6683031395715
 20
204.7825147352495
 10
188.6002991674031
 20
204.8719326105118
 10
188.5302703151787
 20
204.9586217661644
 10
188.4719532843307
 20
205.0267155100533
 10
188.4582215004231
 20
205.0422144362138
 10
188.3841592866536
 20
205.1223355945067
 10
188.3080931241979
 20
205.1986102148894
 10
188.2635335330471
 20
205.2405063157742
 10
188.2300360055193
 20
205.2706632712085
 10
188.150017247875
 20
205.3380957937381
 10
188.0681346463028
 20
205.4003857372277
 10
188.0462992097827
 20
205.4158480479639
 10
187.9845153191357
 20
205.456971621539
 10
187.8992959426299
 20
205.5072919485906
 10
187.8227018551113
 20
205.5461287760751
 10
187.8126222463454
 20
205.5507852203011
 10
187.7246484499003
 20
205.5868899385891
 10
187.6355464062373
 20
205.6150937843382
 10
187.5945114514384
 20
205.6253017049341
 10
187.5455661700182
 20
205.6352398691743
 10
187.4549960846988
 20
205.6473275200759
 10
187.3641297767396
 20
205.6513567370431
 10
187.2732634687804
 20
205.6473275200759
 10
187.182693383461
 20
205.6352398691743
 10
187.1337481020408
 20
205.6253017049341
 10
187.092713147242
 20
205.6150937843382
 10
187.003611103579
 20
205.5868899385891
 10
186.9156373071339
 20
205.5507852203011
 10
186.905557698368
 20
205.5461287760751
 10
186.8289636108493
 20
205.5072919485906
 10
186.7437442343436
 20
205.4569716215389
 10
186.6819603436966
 20
205.4158480479639
 10
186.6601249071765
 20
205.4003857372277
 10
186.5782423056042
 20
205.3380957937381
 10
186.4982235479599
 20
205.2706632712085
 10
186.4647260204322
 20
205.2405063157742
 10
186.4201664292814
 20
205.1986102148894
 10
186.3441002668256
 20
205.1223355945067
 10
186.2700380530562
 20
205.0422144362138
 10
186.2563062691485
 20
205.0267155100533
 10
186.1979892383006
 20
204.9586217661644
 10
186.1279603860761
 20
204.8719326105119
 10
186.0599564139077
 20
204.7825147352495
 10
186.058496078138
 20
204.780536812044
 10
185.9939858350021
 20
204.6906720810931
 10
185.9300581369212
 20
204.5966754544106
 10
185.8733714727119
 20
204.509028472325
 10
185.8681812795147
 20
204.5007953795372
 10
185.8083620454777
 20
204.4033000243936
 10
185.7723708276493
 20
204.3422472147589
 10
185.702493412354
 20
204.2182225564621
 10
185.6949170091139
 20
204.2043178082249
 10
185.6413002866824
 20
204.1031969121536
 10
185.5897607014044
 20
204.0012325324113
 10
185.5475821255597
 20
203.9140145763402
 10
185.5403049629507
 20
203.8985994795033
 10
185.4929445548436
 20
203.7954373093256
 10
185.4476925939621
 20
203.6918751882355
 10
185.4102365732558
 20
203.6020112281068
 10
185.4045627688237
 20
203.588042281117
 10
185.3635696208007
 20
203.4840667813203
 10
185.3247300482186
 20
203.3800605769665
 10
185.2915958079173
 20
203.2864071920658
 10
185.2880628283276
 20
203.2761220337206
 10
185.2535873848091
 20
203.1723491083859
 10
185.2245952998464
 20
203.0796544643777
 10
185.1930148742302
 20
202.9718029273706
 10
185.1912937210697
 20
202.9656863999392
 10
185.1635203197793
 20
202.8629680392222
 10
185.1380275937921
 20
202.7607615717506
 10
185.1153477095712
 20
202.6614765966505
 10
185.1148398921994
 20
202.659143909272
 10
185.0939820187455
 20
202.558191915115
 10
185.0754795930271
 20
202.4579782620462
 10
185.0593590522673
 20
202.3585682553353
 10
185.0592615823006
 20
202.3579213022197
 10
185.0456468473245
 20
202.2600264523174
 10
185.0343693519953
 20
202.1624174103272
 10
185.0255528620721
 20
202.0658046201784
 10
185.0254546662773
 20
202.0645567206671
 10
185.0160547742646
 20
201.8972234885479
  0
LWPOLYLINE
  5
33E
330
1F
100
AcDbEntity
  8
0
 62
     2
100
AcDbPolyline
 90
       74
 70
     0
 43
0.0
 10
173.0160547742646
 20
201.8972234885479
 10
173.0141297767522
 20
201.7825025902907
 10
173.0254456571208
 20
201.5139551389857
 10
173.0291836001006
 20
201.4739952327879
 10
173.0481672684347
 20
201.3257176824581
 10
173.0592663578507
 20
201.2602392029046
 10
173.0749205453587
 20
201.1817551064747
 10
173.1095243665367
 20
201.0423541296135
 10
173.1153092601361
 20
201.0221511327588
 10
173.1906021458967
 20
200.8065437427013
 10
173.1929862604833
 20
200.8007692122327
 10
173.2025106893806
 20
200.7781830247334
 10
173.260943072985
 20
200.6538546944207
 10
173.2916146621606
 20
200.5964659934897
 10
173.3273240425979
 20
200.5349898598578
 10
173.4016098176839
 20
200.4218074641245
 10
173.4101486739809
 20
200.4098690995016
 10
173.5475550899255
 20
200.2410821479466
 10
173.5735137287444
 20
200.2133148769343
 10
173.6708189417204
 20
200.1183900405942
 10
173.702428473833
 20
200.0903084360434
 10
173.873210136886
 20
199.9576412184859
 10
173.8870262971323
 20
199.948140344734
 10
174.0053264149383
 20
199.8731741184596
 10
174.0585395093302
 20
199.842862389675
 10
174.1048678035636
 20
199.818033604163
 10
174.2563343540281
 20
199.7460500720666
 10
174.2603201599556
 20
199.7443324764212
 10
174.3960568794954
 20
199.6907589809565
 10
174.4647094539263
 20
199.6670902621693
 10
174.5365606998727
 20
199.6446041643709
 10
174.6811970817896
 20
199.6059619579801
 10
174.6819139837883
 20
199.6057914586564
 10
174.9056273512117
 20
199.5620825657111
 10
174.9801049414236
 20
199.5515587263327
 10
175.1329129246313
 20
199.5359647569257
 10
175.1339083719312
 20
199.5358890966804
 10
175.3641346718265
 20
199.5271927848663
 10
175.5943570044185
 20
199.5358890648727
 10
175.5953524173681
 20
199.5359647260838
 10
175.7481534701153
 20
199.5515588016198
 10
175.8226269179419
 20
199.5620818522033
 10
176.046327726097
 20
199.6057855985945
 10
176.0470445916935
 20
199.6059560791162
 10
176.1916748255641
 20
199.6445949650054
 10
176.2635242186302
 20
199.6670801419625
 10
176.3321760336597
 20
199.6907487715742
 10
176.4679154028786
 20
199.7443236456724
 10
176.4719013697035
 20
199.7460412935342
 10
176.6233882465915
 20
199.8180334941672
 10
176.6697200210268
 20
199.8428637862201
 10
176.7229241952855
 20
199.8731697909819
 10
176.8412310127519
 20
199.9481387801932
 10
176.8550477732033
 20
199.957639997599
 10
177.025831085408
 20
200.0903088621994
 10
177.0574426490961
 20
200.1183923055524
 10
177.1547475878041
 20
200.2133169759061
 10
177.1807044653733
 20
200.2410823429693
 10
177.3181110702425
 20
200.4098693642499
 10
177.3266498519058
 20
200.4218076268909
 10
177.4009351954234
 20
200.5349893722059
 10
177.4366448904373
 20
200.5964660545351
 10
177.4673160915756
 20
200.6538540222519
 10
177.5257485857319
 20
200.7781824776639
 10
177.5352730425572
 20
200.8007687076581
 10
177.5376571644074
 20
200.8065432495959
 10
177.612950280542
 20
201.0221510988835
 10
177.6187351866949
 20
201.0423541290711
 10
177.6533390473348
 20
201.1817552404403
 10
177.668993234115
 20
201.260239355223
 10
177.6800923172121
 20
201.3257178289052
 10
177.6990759670267
 20
201.4739953261159
 10
177.7028138963664
 20
201.5139551039964
 10
177.7141297767271
 20
201.7825025909633
  0
LWPOLYLINE
  5
33F
330
1F
100
AcDbEntity
  8
0
 62
     2
100
AcDbPolyline
 90
      120
 70
     0
 43
0.0
 10
177.7141297767395
 20
201.7825128033226
 10
177.7122047792146
 20
201.8972234885477
 10
177.702804887202
 20
202.0645567206667
 10
177.7027066914071
 20
202.065804620178
 10
177.6938902014839
 20
202.1624174103268
 10
177.6826127061548
 20
202.260026452317
 10
177.6689979711786
 20
202.3579213022194
 10
177.668900501212
 20
202.358568255335
 10
177.6527799604521
 20
202.457978262046
 10
177.6342775347338
 20
202.5581919151149
 10
177.6134196612799
 20
202.659143909272
 10
177.612911843908
 20
202.6614765966505
 10
177.5902319596871
 20
202.7607615717506
 10
177.5647392337
 20
202.8629680392223
 10
177.5369658324096
 20
202.9656863999393
 10
177.535244679249
 20
202.9718029273707
 10
177.5036642536329
 20
203.0796544643777
 10
177.4746721686701
 20
203.1723491083859
 10
177.4401967251517
 20
203.2761220337206
 10
177.436663745562
 20
203.2864071920658
 10
177.4035295052606
 20
203.3800605769665
 10
177.3646899326786
 20
203.4840667813203
 10
177.3236967846556
 20
203.588042281117
 10
177.3180229802234
 20
203.6020112281067
 10
177.2805669595172
 20
203.6918751882355
 10
177.2353149986356
 20
203.7954373093255
 10
177.1879545905285
 20
203.8985994795033
 10
177.1806774279196
 20
203.9140145763401
 10
177.1384988520748
 20
204.0012325324113
 10
177.0869592667968
 20
204.1031969121535
 10
177.0333425443654
 20
204.2043178082249
 10
177.0257661411252
 20
204.2182225564621
 10
176.9558887258299
 20
204.3422472147589
 10
176.9198975080016
 20
204.4033000243936
 10
176.8600782739645
 20
204.5007953795372
 10
176.8548880807674
 20
204.509028472325
 10
176.7982014165581
 20
204.5966754544106
 10
176.7342737184772
 20
204.6906720810931
 10
176.6697634753413
 20
204.780536812044
 10
176.6683031395715
 20
204.7825147352495
 10
176.6002991674031
 20
204.8719326105118
 10
176.5302703151787
 20
204.9586217661644
 10
176.4719532843307
 20
205.0267155100533
 10
176.458221500423
 20
205.0422144362138
 10
176.3841592866536
 20
205.1223355945067
 10
176.3080931241978
 20
205.1986102148894
 10
176.2635335330471
 20
205.2405063157742
 10
176.2300360055193
 20
205.2706632712085
 10
176.150017247875
 20
205.3380957937381
 10
176.0681346463027
 20
205.4003857372277
 10
176.0462992097827
 20
205.4158480479639
 10
175.9845153191356
 20
205.456971621539
 10
175.8992959426299
 20
205.5072919485906
 10
175.8227018551112
 20
205.5461287760751
 10
175.8126222463454
 20
205.5507852203011
 10
175.7246484499002
 20
205.5868899385891
 10
175.6355464062372
 20
205.6150937843382
 10
175.5945114514384
 20
205.6253017049341
 10
175.5455661700182
 20
205.6352398691743
 10
175.4549960846988
 20
205.6473275200759
 10
175.3641297767396
 20
205.6513567370431
 10
175.2732634687803
 20
205.6473275200759
 10
175.182693383461
 20
205.6352398691743
 10
175.1337481020407
 20
205.6253017049341
 10
175.092713147242
 20
205.6150937843382
 10
175.003611103579
 20
205.5868899385891
 10
174.9156373071338
 20
205.5507852203011
 10
174.9055576983679
 20
205.5461287760751
 10
174.8289636108493
 20
205.5072919485906
 10
174.7437442343436
 20
205.456971621539
 10
174.6819603436965
 20
205.4158480479639
 10
174.6601249071764
 20
205.4003857372277
 10
174.5782423056042
 20
205.3380957937381
 10
174.4982235479599
 20
205.2706632712085
 10
174.4647260204321
 20
205.2405063157742
 10
174.4201664292814
 20
205.1986102148894
 10
174.3441002668255
 20
205.1223355945067
 10
174.2700380530562
 20
205.0422144362138
 10
174.2563062691485
 20
205.0267155100533
 10
174.1979892383006
 20
204.9586217661643
 10
174.127960386076
 20
204.8719326105118
 10
174.0599564139076
 20
204.7825147352495
 10
174.0584960781379
 20
204.780536812044
 10
173.993985835002
 20
204.6906720810931
 10
173.9300581369211
 20
204.5966754544105
 10
173.8733714727118
 20
204.509028472325
 10
173.8681812795146
 20
204.5007953795371
 10
173.8083620454776
 20
204.4033000243936
 10
173.7723708276492
 20
204.3422472147589
 10
173.702493412354
 20
204.2182225564621
 10
173.6949170091137
 20
204.2043178082249
 10
173.6413002866823
 20
204.1031969121535
 10
173.5897607014043
 20
204.0012325324113
 10
173.5475821255596
 20
203.9140145763401
 10
173.5403049629506
 20
203.8985994795032
 10
173.4929445548436
 20
203.7954373093255
 10
173.4476925939621
 20
203.6918751882355
 10
173.4102365732557
 20
203.6020112281067
 10
173.4045627688236
 20
203.588042281117
 10
173.3635696208006
 20
203.4840667813203
 10
173.3247300482186
 20
203.3800605769665
 10
173.2915958079172
 20
203.2864071920658
 10
173.2880628283275
 20
203.2761220337206
 10
173.2535873848091
 20
203.1723491083859
 10
173.2245952998463
 20
203.0796544643777
 10
173.1930148742301
 20
202.9718029273706
 10
173.1912937210697
 20
202.9656863999392
 10
173.1635203197792
 20
202.8629680392222
 10
173.1380275937921
 20
202.7607615717505
 10
173.1153477095711
 20
202.6614765966505
 10
173.1148398921993
 20
202.659143909272
 10
173.0939820187455
 20
202.5581919151149
 10
173.075479593027
 20
202.4579782620462
 10
173.0593590522672
 20
202.3585682553354
 10
173.0592615823006
 20
202.3579213022197
 10
173.0456468473244
 20
202.2600264523174
 10
173.0343693519952
 20
202.1624174103273
 10
173.025552862072
 20
202.0658046201785
 10
173.0254546662771
 20
202.0645567206672
 10
173.0160547742646
 20
201.8972234885479
  0
LWPOLYLINE
  5
340
330
1F
100
AcDbEntity
  8
0
 62
     2
100
AcDbPolyline
 90
       58
 70
     0
 43
0.0
 10
163.3641298481953
 20
205.6513567370431
 10
163.1337381985169
 20
205.6459595785134
 10
163.0210270077827
 20
205.6368559385719
 10
162.905652733485
 20
205.623498722986
 10
162.8580565956759
 20
205.616766368379
 10
162.733421661256
 20
205.5956912422605
 10
162.6819609986018
 20
205.5855080045642
 10
162.6812249186362
 20
205.5853559603158
 10
162.5510634842434
 20
205.5554984553588
 10
162.4649219728328
 20
205.5321758663166
 10
162.3481466917514
 20
205.4953450742757
 10
162.2563429701232
 20
205.461620049799
 10
162.2501373957682
 20
205.4591747452891
 10
162.1343883306091
 20
205.4095212445106
 10
162.0585400304392
 20
205.3726755997772
 10
162.0245426709239
 20
205.3550016186196
 10
162.0213194022875
 20
205.3532877500723
 10
161.9113137178737
 20
205.290464778134
 10
161.8733066840617
 20
205.2665429489529
 10
161.7143706519257
 20
205.1506454311497
 10
161.7024824695621
 20
205.1407589916116
 10
161.7015890910761
 20
205.1400081949064
 10
161.602561390214
 20
205.0493338563332
 10
161.5475568396372
 20
204.9917655046246
 10
161.4197066044479
 20
204.8325958802223
 10
161.4101776391789
 20
204.819016612025
 10
161.2916172090213
 20
204.6222412984587
 10
161.254326614142
 20
204.54644257857
 10
161.1930310020656
 20
204.4001414842731
 10
161.1437159956542
 20
204.2540172867086
 10
161.115322345869
 20
204.1521755171939
 10
161.0592849952093
 20
203.8790046839555
 10
161.0254456969282
 20
203.5824010446138
 10
161.0188163088054
 20
203.4715196162851
 10
161.0141297767419
 20
203.2656540498002
 10
161.0168777281299
 20
203.1035645059807
 10
161.0250170141236
 20
202.939726559519
 10
161.0254576498138
 20
202.9330682724
 10
161.038309321124
 20
202.7755809413397
 10
161.0564237454485
 20
202.6124947145816
 10
161.0592844287755
 20
202.5901184209773
 10
161.0985469961081
 20
202.3334306940908
 10
161.1153201797481
 20
202.2425194425357
 10
161.1437673563207
 20
202.1041753395085
 10
161.1930133250388
 20
201.8972754350114
 10
161.2072186686627
 20
201.8432818001801
 10
161.2472324422228
 20
201.7016894832463
 10
161.2899520594336
 20
201.5647374132955
 10
161.291614832413
 20
201.5596643381952
 10
161.3352144953162
 20
201.4327289423572
 10
161.3828482852693
 20
201.3057645649074
 10
161.4101765471659
 20
201.2375153793817
 10
161.4195722605382
 20
201.2147337100345
 10
161.4552572267693
 20
201.1310953957921
 10
161.4843393314571
 20
201.0660050018304
 10
161.5377513916687
 20
200.9526819495027
 10
161.5476014729258
 20
200.9325789030158
 10
161.5927451638601
 20
200.843533880753
  0
LWPOLYLINE
  5
341
330
1F
100
AcDbEntity
  8
0
 62
     2
100
AcDbPolyline
 90
       75
 70
     0
 43
0.0
 10
165.3057434974828
 20
200.3929228399152
 10
165.3181076358646
 20
200.4098646022987
 10
165.4367015548161
 20
200.5965679227543
 10
165.453966899961
 20
200.6283049931918
 10
165.5155572099718
 20
200.7548211872478
 10
165.5352811349189
 20
200.8007882240352
 10
165.5376704618135
 20
200.8065755972227
 10
165.6129313512079
 20
201.0220861385808
 10
165.6135809474458
 20
201.0243195461633
 10
165.6500591951313
 20
201.1668251404816
 10
165.6689973223646
 20
201.260261712473
 10
165.6782592167012
 20
201.3141634429744
 10
165.6982669950877
 20
201.4660678842541
 10
165.7028245061207
 20
201.5140777658431
 10
165.7141297767395
 20
201.7825128033226
 10
165.7122047792802
 20
201.8972234865726
 10
165.702804887587
 20
202.0645567157631
 10
165.7027066917955
 20
202.0658046152523
 10
165.6938902021708
 20
202.1624174036891
 10
165.6826127072226
 20
202.2600264439374
 10
165.668997972705
 20
202.3579212920833
 10
165.6689005027416
 20
202.3585682451873
 10
165.6527799625231
 20
202.457978250107
 10
165.6342775374244
 20
202.5581919013649
 10
165.613419664667
 20
202.6591438936951
 10
165.6129118473121
 20
202.6614765810314
 10
165.5902319638466
 20
202.7607615543358
 10
165.5647392387063
 20
202.8629680199625
 10
165.5369658383361
 20
202.9656863788315
 10
165.5352446852326
 20
202.9718029061532
 10
165.5036642606599
 20
203.0796544412299
 10
165.474672176653
 20
203.1723490835907
 10
165.4401967342691
 20
203.2761220070993
 10
165.4366637547955
 20
203.2864071652646
 10
165.4035295155824
 20
203.3800605485385
 10
165.3646899442736
 20
203.4840667511102
 10
165.3236967975922
 20
203.5880422491551
 10
165.3180229933457
 20
203.6020111959124
 10
165.2805669738638
 20
203.6918751545648
 10
165.2353150144601
 20
203.7954372739974
 10
165.1879546078984
 20
203.8985994425753
 10
165.1806774455267
 20
203.9140145391779
 10
165.138498871057
 20
204.0012324939481
 10
165.0869592874593
 20
204.1031968722377
 10
165.0333425667768
 20
204.2043177669568
 10
165.0257661637838
 20
204.2182225150154
 10
164.9558887259086
 20
204.3422472146234
 10
164.9198975341175
 20
204.4032999807598
 10
164.8600783020355
 20
204.5007953349128
 10
164.854888109008
 20
204.5090284276239
 10
164.7982014466515
 20
204.5966754089698
 10
164.7342737506597
 20
204.6906720350297
 10
164.6697635096308
 20
204.7805367655724
 10
164.6683031739087
 20
204.7825146887712
 10
164.6002992039591
 20
204.8719325638418
 10
164.5302703540196
 20
204.9586217195793
 10
164.4719533250748
 20
205.0267154637648
 10
164.4582215416151
 20
205.0422143900246
 10
164.3841593302612
 20
205.1223355490434
 10
164.3080931702829
 20
205.1986101705014
 10
164.263533580581
 20
205.2405062721685
 10
164.2300360541408
 20
205.2706632282643
 10
164.1500172990633
 20
205.338095752675
 10
164.0681347000445
 20
205.4003856985759
 10
164.046299209964
 20
205.4158480478376
 10
163.9845153754044
 20
205.456971585858
 10
163.8992960013862
 20
205.5072919164687
 10
163.8227019160241
 20
205.5461287476147
 10
163.8126223075362
 20
205.5507851923554
 10
163.7246485134593
 20
205.5868899154653
 10
163.6355464720576
 20
205.6150937665767
 10
163.5945115182346
 20
205.6253016897186
 10
163.545566237922
 20
205.6352398570579
 10
163.454996154487
 20
205.64732751388
 10
163.3641298481953
 20
205.6513567370431
  0
CIRCLE
  5
342
330
1F
100
AcDbEntity
  8
0
 62
     2
100
AcDbCircle
 10
163.3641297767397
 20
199.9131959443814
 30
0.0
 40
1.35
  0
CIRCLE
  5
343
330
1F
100
AcDbEntity
  8
0
 62
     2
100
AcDbCircle
 10
163.3641297767396
 20
235.9131889594637
 30
0.0
 40
1.35
  0
CIRCLE
  5
344
330
1F
100
AcDbEntity
  8
0
 62
     2
100
AcDbCircle
 10
199.3641293658603
 20
199.9131963552585
 30
0.0
 40
1.35
  0
CIRCLE
  5
345
330
1F
100
AcDbEntity
  8
0
 62
     2
100
AcDbCircle
 10
199.3641297767376
 20
235.9131893703412
 30
0.0
 40
1.35
  0
ARC
  5
346
330
1F
100
AcDbEntity
  8
0
 62
     2
100
AcDbCircle
 10
181.3641298471475
 20
217.913196347066
 30
0.0
 40
10.0
100
AcDbArc
 50
177.1305789323501
 51
180.0003576058998
  0
ARC
  5
347
330
1F
100
AcDbEntity
  8
0
 62
     2
100
AcDbCircle
 10
181.3641298471475
 20
217.913196347066
 30
0.0
 40
10.0
100
AcDbArc
 50
359.9996423941794
 51
2.869421067729276
  0
ARC
  5
348
330
1F
100
AcDbEntity
  8
0
 62
     2
100
AcDbCircle
 10
181.3641298471475
 20
217.913196347066
 30
0.0
 40
10.0
100
AcDbArc
 50
357.1305369802666
 51
0.0
  0
ARC
  5
349
330
1F
100
AcDbEntity
  8
0
 62
     2
100
AcDbCircle
 10
181.3641298471475
 20
217.913196347066
 30
0.0
 40
10.0
100
AcDbArc
 50
180.0
 51
182.8694630190782
  0
LINE
  5
34A
330
1F
100
AcDbEntity
  8
0
 62
     2
100
AcDbLine
 10
202.8641298471472
 20
217.4131926573613
 30
0.0
 11
199.3641298471472
 21
217.4131926573613
 31
0.0
  0
LINE
  5
34B
330
1F
100
AcDbEntity
  8
0
 62
     2
100
AcDbLine
 10
199.3641298471472
 20
218.4131926573613
 30
0.0
 11
202.8641298471472
 21
218.4131926573613
 31
0.0
  0
LINE
  5
34C
330
1F
100
AcDbEntity
  8
0
 62
     2
100
AcDbLine
 10
159.8641298471473
 20
218.4131926573613
 30
0.0
 11
163.3641298471473
 21
218.4131926573613
 31
0.0
  0
LINE
  5
34D
330
1F
100
AcDbEntity
  8
0
 62
     2
100
AcDbLine
 10
163.3641298471472
 20
217.4131926573613
 30
0.0
 11
159.8641298471472
 21
217.4131926573613
 31
0.0
  0
LINE
  5
34E
330
1F
100
AcDbEntity
  8
0
 62
     2
100
AcDbLine
 10
184.2984705802024
 20
230.7131926573613
 30
0.0
 11
184.278077008014
 21
230.7131926573613
 31
0.0
  0
LINE
  5
34F
330
1F
100
AcDbEntity
  8
0
 62
     2
100
AcDbLine
 10
199.3641298471472
 20
230.9515524421312
 30
0.0
 11
199.3641298471472
 21
224.4131963470593
 31
0.0
  0
LINE
  5
350
330
1F
100
AcDbEntity
  8
0
 62
     2
100
AcDbLine
 10
163.3641298471472
 20
237.9131893705532
 30
0.0
 11
163.3641298471472
 21
239.4131963470658
 31
0.0
  0
LINE
  5
351
330
1F
100
AcDbEntity
  8
0
 62
     2
100
AcDbLine
 10
199.3641298471472
 20
239.4131963470658
 30
0.0
 11
199.3641298471472
 21
237.9131893705533
 31
0.0
  0
LINE
  5
352
330
1F
100
AcDbEntity
  8
0
 62
     2
100
AcDbLine
 10
163.3641298471472
 20
224.4131963470673
 30
0.0
 11
163.3641298471472
 21
230.9515524421312
 31
0.0
  0
LINE
  5
353
330
1F
100
AcDbEntity
  8
0
 62
     2
100
AcDbLine
 10
199.3641298471472
 20
197.9131893701292
 30
0.0
 11
199.3641298471472
 21
196.4131963470658
 31
0.0
  0
LINE
  5
354
330
1F
100
AcDbEntity
  8
0
 62
     2
100
AcDbLine
 10
163.3641298471472
 20
205.6514569861107
 30
0.0
 11
163.3641298471472
 21
211.4131963470649
 31
0.0
  0
LINE
  5
355
330
1F
100
AcDbEntity
  8
0
 62
     2
100
AcDbLine
 10
199.3641298471472
 20
211.4131963470619
 30
0.0
 11
199.3641298471472
 21
205.6514569861107
 31
0.0
  0
LINE
  5
356
330
1F
100
AcDbEntity
  8
0
 62
     2
100
AcDbLine
 10
163.3641298471472
 20
196.4131963470658
 30
0.0
 11
163.3641298471472
 21
197.9131893701292
 31
0.0
  0
LINE
  5
357
330
1F
100
AcDbEntity
  8
0
 62
     2
100
AcDbLine
 10
199.3641298471472
 20
217.4131926573613
 30
0.0
 11
199.3641298471472
 21
211.4131963470658
 31
0.0
  0
LINE
  5
358
330
1F
100
AcDbEntity
  8
0
 62
     2
100
AcDbLine
 10
202.8641298471472
 20
217.4131926573613
 30
0.0
 11
202.8641298471472
 21
211.4131963470657
 31
0.0
  0
LINE
  5
359
330
1F
100
AcDbEntity
  8
0
 62
     2
100
AcDbLine
 10
202.8641298471472
 20
211.4131963470634
 30
0.0
 11
202.8641298471472
 21
199.9131963470658
 31
0.0
  0
LINE
  5
35A
330
1F
100
AcDbEntity
  8
0
 62
     2
100
AcDbLine
 10
199.3641298471472
 20
224.4131963470658
 30
0.0
 11
199.3641298471472
 21
218.4131926573613
 31
0.0
  0
LINE
  5
35B
330
1F
100
AcDbEntity
  8
0
 62
     2
100
AcDbLine
 10
202.8641298471472
 20
224.4131963470657
 30
0.0
 11
202.8641298471472
 21
218.4131926573613
 31
0.0
  0
LINE
  5
35C
330
1F
100
AcDbEntity
  8
0
 62
     2
100
AcDbLine
 10
202.8641298471472
 20
235.9131963470657
 30
0.0
 11
202.8641298471472
 21
224.4131963470614
 31
0.0
  0
LINE
  5
35D
330
1F
100
AcDbEntity
  8
0
 62
     2
100
AcDbLine
 10
163.3641298471473
 20
218.4131926573613
 30
0.0
 11
163.3641298471473
 21
224.4131963470658
 31
0.0
  0
LINE
  5
35E
330
1F
100
AcDbEntity
  8
0
 62
     2
100
AcDbLine
 10
159.8641298471473
 20
218.4131926573613
 30
0.0
 11
159.8641298471473
 21
224.4131963470658
 31
0.0
  0
LINE
  5
35F
330
1F
100
AcDbEntity
  8
0
 62
     2
100
AcDbLine
 10
159.8641298471472
 20
224.4131963470672
 30
0.0
 11
159.8641298471472
 21
235.9131963470658
 31
0.0
  0
LINE
  5
360
330
1F
100
AcDbEntity
  8
0
 62
     2
100
AcDbLine
 10
163.3641298471472
 20
211.4131963470658
 30
0.0
 11
163.3641298471472
 21
217.4131926573613
 31
0.0
  0
LINE
  5
361
330
1F
100
AcDbEntity
  8
0
 62
     2
100
AcDbLine
 10
159.8641298471473
 20
211.4131963470658
 30
0.0
 11
159.8641298471473
 21
217.4131926573613
 31
0.0
  0
LINE
  5
362
330
1F
100
AcDbEntity
  8
0
 62
     2
100
AcDbLine
 10
159.8641298471473
 20
199.9131963470658
 30
0.0
 11
159.8641298471473
 21
211.4131963470654
 31
0.0
  0
LINE
  5
363
330
1F
100
AcDbEntity
  8
0
 62
     2
100
AcDbLine
 10
199.3641298471472
 20
211.4131963470657
 30
0.0
 11
163.3641298471472
 21
211.4131963470657
 31
0.0
  0
LINE
  5
364
330
1F
100
AcDbEntity
  8
0
 62
     2
100
AcDbLine
 10
199.3641298471472
 20
196.4131963470658
 30
0.0
 11
163.3641298471472
 21
196.4131963470658
 31
0.0
  0
LINE
  5
365
330
1F
100
AcDbEntity
  8
0
 62
     2
100
AcDbLine
 10
163.3641298471472
 20
224.4131963470658
 30
0.0
 11
199.3641298471472
 21
224.4131963470658
 31
0.0
  0
LINE
  5
366
330
1F
100
AcDbEntity
  8
0
 62
     2
100
AcDbLine
 10
163.3641298471472
 20
239.4131963470658
 30
0.0
 11
199.3641298471472
 21
239.4131963470658
 31
0.0
  0
LINE
  5
367
330
1F
100
AcDbEntity
  8
0
 62
     2
100
AcDbLine
 10
159.8641298471472
 20
218.4131926573613
 30
0.0
 11
159.8641298471472
 21
217.4131926573613
 31
0.0
  0
LINE
  5
368
330
1F
100
AcDbEntity
  8
0
 62
     2
100
AcDbLine
 10
202.8641297767387
 20
217.4131926573613
 30
0.0
 11
202.8641297767387
 21
218.4132177235322
 31
0.0
  0
LINE
  5
369
330
1F
100
AcDbEntity
  8
0
 62
     2
100
AcDbLine
 10
163.3641298471472
 20
217.4131926573613
 30
0.0
 11
199.3641298471472
 21
217.4131926573613
 31
0.0
  0
LINE
  5
36A
330
1F
100
AcDbEntity
  8
0
 62
     2
100
AcDbLine
 10
199.3641298471472
 20
218.4131926573613
 30
0.0
 11
163.3641298471472
 21
218.4131926573613
 31
0.0
  0
ARC
  5
36B
330
1F
100
AcDbEntity
  8
0
 62
     2
100
AcDbCircle
 10
163.3641298471472
 20
199.9131963470658
 30
0.0
 40
3.5
100
AcDbArc
 50
180.0
 51
269.9999999999991
  0
LINE
  5
36C
330
1F
100
AcDbEntity
  8
0
 62
     2
100
AcDbLine
 10
163.3641298471472
 20
211.4131963470657
 30
0.0
 11
159.8641298471473
 21
211.4131963470658
 31
0.0
  0
ARC
  5
36D
330
1F
100
AcDbEntity
  8
0
 62
     2
100
AcDbCircle
 10
163.3641298471473
 20
235.9131963470658
 30
0.0
 40
3.5
100
AcDbArc
 50
90.00000000000092
 51
180.0000000000006
  0
LINE
  5
36E
330
1F
100
AcDbEntity
  8
0
 62
     2
100
AcDbLine
 10
163.3641298471472
 20
224.4131963470658
 30
0.0
 11
159.8641298471472
 21
224.4131963470658
 31
0.0
  0
ARC
  5
36F
330
1F
100
AcDbEntity
  8
0
 62
     2
100
AcDbCircle
 10
199.3641298471472
 20
235.9131963470658
 30
0.0
 40
3.5
100
AcDbArc
 50
0.0
 51
89.99999999999994
  0
LINE
  5
370
330
1F
100
AcDbEntity
  8
0
 62
     2
100
AcDbLine
 10
199.3641298471472
 20
224.4131963470658
 30
0.0
 11
202.8641298471472
 21
224.4131963470658
 31
0.0
  0
ARC
  5
371
330
1F
100
AcDbEntity
  8
0
 62
     2
100
AcDbCircle
 10
199.3641298471472
 20
199.9131963470658
 30
0.0
 40
3.5
100
AcDbArc
 50
270.0
 51
0.0
  0
LINE
  5
372
330
1F
100
AcDbEntity
  8
0
 62
     2
100
AcDbLine
 10
199.3641298471472
 20
211.4131963470658
 30
0.0
 11
202.8641298471472
 21
211.4131963470658
 31
0.0
  0
LINE
  5
373
330
1F
100
AcDbEntity
  8
0
 62
     2
100
AcDbLine
 10
165.7141297767396
 20
204.7302506435741
 30
0.0
 11
165.7141297767396
 21
204.7319391159398
 31
0.0
  0
LINE
  5
374
330
1F
100
AcDbEntity
  8
0
 62
     2
100
AcDbLine
 10
165.7141297767396
 20
204.3302797813278
 30
0.0
 11
165.7141297767396
 21
204.3314955469187
 31
0.0
  0
LINE
  5
375
330
1F
100
AcDbEntity
  8
0
 62
     2
100
AcDbLine
 10
165.7141297767396
 20
204.3030608662932
 30
0.0
 11
165.7141297767396
 21
204.3044544826732
 31
0.0
  0
LINE
  5
376
330
1F
100
AcDbEntity
  8
0
 62
     2
100
AcDbLine
 10
173.0141297767397
 20
204.4361728985985
 30
0.0
 11
173.0141297767397
 21
205.6253016897186
 31
0.0
  0
LINE
  5
377
330
1F
100
AcDbEntity
  8
0
 62
     2
100
AcDbLine
 10
173.0141297767397
 20
204.3980502928785
 30
0.0
 11
173.0141297767397
 21
204.3992297507133
 31
0.0
  0
LINE
  5
378
330
1F
100
AcDbEntity
  8
0
 62
     2
100
AcDbLine
 10
177.7141297767396
 20
204.7302506832523
 30
0.0
 11
177.7141297767396
 21
204.7319391556093
 31
0.0
  0
LINE
  5
379
330
1F
100
AcDbEntity
  8
0
 62
     2
100
AcDbLine
 10
177.7141297767396
 20
204.3302797814504
 30
0.0
 11
177.7141297767396
 21
204.3314955470414
 31
0.0
  0
LINE
  5
37A
330
1F
100
AcDbEntity
  8
0
 62
     2
100
AcDbLine
 10
177.7141297767396
 20
204.303060866413
 30
0.0
 11
177.7141297767396
 21
204.3044544827931
 31
0.0
  0
LINE
  5
37B
330
1F
100
AcDbEntity
  8
0
 62
     2
100
AcDbLine
 10
185.0141297767397
 20
204.4361728997494
 30
0.0
 11
185.0141297767397
 21
204.4381129462287
 31
0.0
  0
LINE
  5
37C
330
1F
100
AcDbEntity
  8
0
 62
     2
100
AcDbLine
 10
185.0141297767397
 20
204.3980502964078
 30
0.0
 11
185.0141297767397
 21
204.3992297542214
 31
0.0
  0
LINE
  5
37D
330
1F
100
AcDbEntity
  8
0
 62
     2
100
AcDbLine
 10
189.7141297767396
 20
204.7302506832683
 30
0.0
 11
189.7141297767396
 21
204.7319391556253
 31
0.0
  0
LINE
  5
37E
330
1F
100
AcDbEntity
  8
0
 62
     2
100
AcDbLine
 10
189.7141297767396
 20
204.3302797850617
 30
0.0
 11
189.7141297767396
 21
204.3314955506623
 31
0.0
  0
LINE
  5
37F
330
1F
100
AcDbEntity
  8
0
 62
     2
100
AcDbLine
 10
189.7141297767396
 20
204.3030608697541
 30
0.0
 11
189.7141297767396
 21
204.3044544861502
 31
0.0
  0
LINE
  5
380
330
1F
100
AcDbEntity
  8
0
 62
     2
100
AcDbLine
 10
197.0141297767397
 20
204.4361728998837
 30
0.0
 11
197.0141297767397
 21
204.4381129463634
 31
0.0
  0
LINE
  5
381
330
1F
100
AcDbEntity
  8
0
 62
     2
100
AcDbLine
 10
197.0141297767397
 20
204.3980502965376
 30
0.0
 11
197.0141297767397
 21
204.3992297543513
 31
0.0
  0
LINE
  5
382
330
1F
100
AcDbEntity
  8
0
 62
     2
100
AcDbLine
 10
126.6141298471471
 20
239.4131963470658
 30
0.0
 11
127.8641298471471
 21
238.1631963470658
 31
0.0
  0
LINE
  5
383
330
1F
100
AcDbEntity
  8
0
 62
     2
100
AcDbLine
 10
126.6141298471471
 20
196.4131963470658
 30
0.0
 11
127.8641298471471
 21
197.6631963470658
 31
0.0
  0
LWPOLYLINE
  5
384
330
1F
100
AcDbEntity
  8
0
 62
     2
100
AcDbPolyline
 90
        6
 70
     0
 43
0.0
 10
86.45755597684177
 20
235.0198271299681
 10
86.50692201342378
 20
234.9704037860695
 10
86.56513729810052
 20
234.9121893754586
 10
86.66907262305568
 20
234.8082627947397
 10
86.67530861652153
 20
234.8020273547495
 10
86.73816454167832
 20
234.7391722462107
  0
LWPOLYLINE
  5
385
330
1F
100
AcDbEntity
  8
0
 62
     2
100
AcDbPolyline
 90
       66
 70
     0
 43
0.0
 10
86.73832273453246
 20
234.7391789077519
 10
86.69452283027647
 20
234.6720670970582
 10
86.67527430413071
 20
234.6426325343479
 10
86.66029834069752
 20
234.6197568713733
 10
86.57826415508521
 20
234.494855414107
 10
86.50692735122107
 20
234.3868089907743
 10
86.49219122831465
 20
234.3645556223354
 10
86.40207173690527
 20
234.2289486556679
 10
86.32950073793904
 20
234.1204146905359
 10
86.30792940892775
 20
234.0882878701798
 10
86.20982857456255
 20
233.9430541226942
 10
86.14470341225149
 20
233.8474873852941
 10
86.03179564439375
 20
233.6835572774822
 10
85.95431492964622
 20
233.5725060683346
 10
85.94349293844328
 20
233.5570960090299
 10
85.89342974359096
 20
233.4861433367163
 10
85.78190379006884
 20
233.3301429576888
 10
85.76016842935252
 20
233.3000778800538
 10
85.56412985761
 20
233.0339590348047
 10
85.55385530707258
 20
233.0202664755637
 10
85.43916786864702
 20
232.8692244153999
 10
85.368006327753
 20
232.7772361974626
 10
85.32531468361071
 20
232.722726330674
 10
85.21323931156633
 20
232.5822184313682
 10
85.17395232852971
 20
232.5338712394093
 10
85.0976500171609
 20
232.4412969677788
 10
85.0964089325305
 20
232.439805614102
 10
84.98354424508477
 20
232.3061186686529
 10
84.79877878588002
 20
232.0955551776908
 10
84.79580427635426
 20
232.0922482997575
 10
84.70118711025293
 20
231.9884296594773
 10
84.62125304780437
 20
231.9028298518105
 10
84.61078445299796
 20
231.8917654236052
 10
84.52458194300044
 20
231.8019783132788
 10
84.4529917619638
 20
231.7292385592154
 10
84.43364964051591
 20
231.7098693460109
 10
84.29534230302545
 20
231.5747811505359
 10
84.29074648568206
 20
231.5703919517565
 10
84.22084776307605
 20
231.5043778214085
 10
84.1548483996508
 20
231.4432673506769
 10
84.1498625636147
 20
231.4386991883342
 10
84.09732154121616
 20
231.3909867756669
 10
84.07886107653513
 20
231.3744120733463
 10
84.01811251073423
 20
231.320589754532
 10
83.97950014492199
 20
231.2869730498944
 10
83.92835390002824
 20
231.24318078653
 10
83.90119411591013
 20
231.2202749177005
 10
83.84140737453919
 20
231.1706876919904
 10
83.80023878196778
 20
231.1371580928079
 10
83.79591059050387
 20
231.1336586933322
 10
83.75859540446902
 20
231.1036533882201
 10
83.72462460595239
 20
231.0765062747048
 10
83.71636263019207
 20
231.0699149996433
 10
83.6843311031758
 20
231.0444113456695
 10
83.65022164209108
 20
231.0173968611838
 10
83.64250352643052
 20
231.0113171217238
 10
83.62165973015811
 20
230.9949948587027
 10
83.60405168634179
 20
230.9813727380313
 10
83.602570879967
 20
230.9802363116025
 10
83.59376017905697
 20
230.9735083574768
 10
83.58966509266759
 20
230.9704026955026
 10
83.57848804676041
 20
230.9620090022781
 10
83.57375414646123
 20
230.9584991435211
 10
83.57051114884155
 20
230.9561155084081
 10
83.56572765153624
 20
230.9526460639426
 10
83.56413356683663
 20
230.9515245189316
  0
LWPOLYLINE
  5
386
330
1F
100
AcDbEntity
  8
0
 62
     2
100
AcDbPolyline
 90
       76
 70
     0
 43
0.0
 10
83.56413356683663
 20
230.9515561317921
 10
83.565659168136
 20
230.9547251039399
 10
83.57023056006835
 20
230.9642923972136
 10
83.57376360027166
 20
230.9716440701448
 10
83.57782971487535
 20
230.9800649856289
 10
83.58842543584296
 20
231.0018498432013
 10
83.60197356235841
 20
231.0294539439467
 10
83.60255851971874
 20
231.0306406848692
 10
83.61841725972317
 20
231.0626842618809
 10
83.63768739065665
 20
231.1013477710193
 10
83.65026827189672
 20
231.1264661436163
 10
83.65970345977325
 20
231.1452476348196
 10
83.68438335479556
 20
231.1941217756263
 10
83.7116471602364
 20
231.247653323781
 10
83.71640463819426
 20
231.2569433538373
 10
83.74141232584532
 20
231.3055237088676
 10
83.77359373127075
 20
231.36741436047
 10
83.8002905486162
 20
231.4182260125558
 10
83.8353069191611
 20
231.4841500638415
 10
83.84485351092093
 20
231.5019824329686
 10
83.88375528850895
 20
231.5740461606057
 10
83.90120529589564
 20
231.6060667855989
 10
83.92472924446963
 20
231.6489435357948
 10
83.96769733299863
 20
231.7264244565401
 10
84.01258284416599
 20
231.8062388208459
 10
84.01812611505312
 20
231.8160174383173
 10
84.05931041054214
 20
231.8881365407544
 10
84.10780613944803
 20
231.9718791970233
 10
84.14987026033151
 20
232.0435220096433
 10
84.15799788174775
 20
232.0572611931491
 10
84.20981491907395
 20
232.1440826615514
 10
84.26318784740744
 20
232.2321437564556
 10
84.29535109072066
 20
232.284556107991
 10
84.3180485801517
 20
232.3212550710813
 10
84.374330393874
 20
232.4112543366284
 10
84.43196771138798
 20
232.5019836376139
 10
84.45306142557746
 20
232.5348331751995
 10
84.49089597824337
 20
232.5932850691397
 10
84.55105112864288
 20
232.6850084049929
 10
84.59203571152096
 20
232.7466740987542
 10
84.62140867299246
 20
232.7904674788131
 10
84.67478441404842
 20
232.8692083825241
 10
84.73823469997927
 20
232.9614342723426
 10
84.79873195412392
 20
233.0480113877413
 10
84.80265570413667
 20
233.0535819958783
 10
84.86798234768219
 20
233.1455475483165
 10
84.93414926921781
 20
233.2372301979208
 10
84.98356733645238
 20
233.3047688548951
 10
85.00109101176537
 20
233.3285292129563
 10
85.06874155399538
 20
233.4193464532346
 10
85.13703310632064
 20
233.5095939138554
 10
85.17397153589059
 20
233.5578246440228
 10
85.2058970709781
 20
233.5991860673155
 10
85.27526406945981
 20
233.6880393783469
 10
85.34506319404937
 20
233.7760777756519
 10
85.36816459710587
 20
233.8049203699271
 10
85.46902529494787
 20
233.9291674016242
 10
85.48566969073164
 20
233.9494125345093
 10
85.55633053095369
 20
234.0345620647447
 10
85.56408049507934
 20
234.0438236337671
 10
85.62712843307008
 20
234.1186108177707
 10
85.69798523787131
 20
234.2014961783867
 10
85.76009573210524
 20
234.2731602309761
 10
85.76882179618548
 20
234.2831555314181
 10
85.83955794291109
 20
234.3635262616903
 10
85.91011231115613
 20
234.442546289803
 10
85.95438613488773
 20
234.4915614489274
 10
85.98040046208519
 20
234.5201602447933
 10
86.05033559017284
 20
234.5963173231465
 10
86.11982992442034
 20
234.6709668089899
 10
86.14471337207885
 20
234.6974516512355
 10
86.18879479052293
 20
234.7440579864505
 10
86.25714065036016
 20
234.8155401396554
 10
86.32477714573781
 20
234.8853625527316
 10
86.32939734641394
 20
234.8900991038819
 10
86.45755597684177
 20
235.0198271299681
  0
LINE
  5
387
330
1F
100
AcDbEntity
  8
0
 62
     2
100
AcDbLine
 10
90.52543400738756
 20
197.9137946618594
 30
0.0
 11
90.52469407460262
 21
197.9147882451063
 31
0.0
  0
LWPOLYLINE
  5
388
330
1F
100
AcDbEntity
  8
0
 62
     2
100
AcDbPolyline
 90
        7
 70
     0
 43
0.0
 10
86.88796508218883
 20
200.3929811823157
 10
86.92597916279288
 20
200.4937721602534
 10
86.93768805134323
 20
200.520497108691
 10
86.99606573748548
 20
200.6413599989729
 10
87.0156493692383
 20
200.6785606948169
 10
87.05496401186741
 20
200.7498427706907
 10
87.10924182675086
 20
200.842356120096
  0
LWPOLYLINE
  5
389
330
1F
100
AcDbEntity
  8
0
 62
     2
100
AcDbPolyline
 90
       61
 70
     0
 43
0.0
 10
87.10904077476278
 20
200.8437315722138
 10
87.35692701658195
 20
200.6785602274596
 10
87.38521257072483
 20
200.659570445863
 10
87.53042673635053
 20
200.5615093752113
 10
87.58158013505044
 20
200.5267202240308
 10
87.62985491987098
 20
200.4937628757896
 10
87.67973335840384
 20
200.4595775493463
 10
87.83243801282259
 20
200.3539852299638
 10
87.90483628778912
 20
200.303374774934
 10
87.92014249844522
 20
200.2926257977603
 10
87.98742560540279
 20
200.2451621733369
 10
88.14351729741759
 20
200.1336205130119
 10
88.177158243387
 20
200.109305685454
 10
88.44333237832149
 20
199.9132288894187
 10
88.45367182858092
 20
199.9054723052707
 10
88.60489637917362
 20
199.7907023141611
 10
88.70000182048574
 20
199.7171490873633
 10
88.75160305161478
 20
199.6767467760655
 10
88.89233925389073
 20
199.5645525939672
 10
88.94347407860056
 20
199.5230120082796
 10
89.03600504631947
 20
199.4467459679609
 10
89.17120459567616
 20
199.3326234379629
 10
89.20955060737094
 20
199.299633776714
 10
89.38192207263296
 20
199.1477211425149
 10
89.38319550939127
 20
199.1465759433922
 10
89.48720932692714
 20
199.0518235806924
 10
89.57442722858764
 20
198.9703981330974
 10
89.58405464917433
 20
198.9612912612332
 10
89.67400926087487
 20
198.8749649926507
 10
89.74810629921006
 20
198.8020547250286
 10
89.82774175217855
 20
198.7217562963184
 10
89.90254269521813
 20
198.6444280704503
 10
89.90601244017648
 20
198.6407955700632
 10
89.97213860581934
 20
198.5707980788331
 10
90.03335023001046
 20
198.5047060640642
 10
90.03859181862737
 20
198.4989860038692
 10
90.08634836923
 20
198.446397277268
 10
90.13835011995616
 20
198.3880944353217
 10
90.15676039905208
 20
198.3671719440636
 10
90.18989710766607
 20
198.3291149334573
 10
90.23375800032545
 20
198.277898898934
 10
90.25711554693618
 20
198.2502060582284
 10
90.27381458803438
 20
198.2302231199495
 10
90.31029764256442
 20
198.1860321395335
 10
90.32857834747978
 20
198.1636224619491
 10
90.34014024417769
 20
198.1493633273496
 10
90.34344435362755
 20
198.1452769221442
 10
90.37349192841549
 20
198.107911904678
 10
90.40067594467854
 20
198.0738959344986
 10
90.40742921915529
 20
198.0654310136298
 10
90.44631351211092
 20
198.0165362279023
 10
90.45992262255413
 20
197.9993218662905
 10
90.46595340817976
 20
197.9916661287507
 10
90.48229799281671
 20
197.9707948425707
 10
90.49593881422311
 20
197.9531636130657
 10
90.49711432996048
 20
197.951631918288
 10
90.50980482343391
 20
197.9349413733731
 10
90.51884348395907
 20
197.9228262596831
 10
90.5212303205866
 20
197.9195790067803
 10
90.52470440555709
 20
197.9147892350805
 10
90.52582745142337
 20
197.9131930600457
  0
LWPOLYLINE
  5
38A
330
1F
100
AcDbEntity
  8
0
 62
     2
100
AcDbPolyline
 90
       67
 70
     0
 43
0.0
 10
90.5257958374703
 20
197.9131930600457
 10
90.52263860989638
 20
197.9147130572936
 10
90.51310619007847
 20
197.9192676789048
 10
90.50570576889913
 20
197.9228240783497
 10
90.49739054280855
 20
197.9268390325962
 10
90.47568363287849
 20
197.937396153026
 10
90.44817742508036
 20
197.9508952045833
 10
90.44669791569243
 20
197.9516244414305
 10
90.41506388420612
 20
197.9672797680197
 10
90.37653497504772
 20
197.9864812078991
 10
90.350915646683
 20
197.9993124463975
 10
90.33278618389647
 20
198.0084195738458
 10
90.28407687098564
 20
198.0330131417574
 10
90.23072199760088
 20
198.0601824633784
 10
90.2204956945422
 20
198.0654188754678
 10
90.17303838196335
 20
198.0898454896908
 10
90.11134284229433
 20
198.1219176157528
 10
90.05917692697443
 20
198.1493221686151
 10
89.99317991914279
 20
198.1843770548693
 10
89.97718307543369
 20
198.1929395245279
 10
89.90533042541904
 20
198.2317135360177
 10
89.87125681805946
 20
198.2502789196048
 10
89.83064766386099
 20
198.2725542731771
 10
89.75338351635816
 20
198.3153840823758
 10
89.67378670850934
 20
198.3601266356879
 10
89.66124242845189
 20
198.3672360294729
 10
89.59210596097574
 20
198.4067069377873
 10
89.50857940796624
 20
198.4550514456191
 10
89.43361638656239
 20
198.4990535926282
 10
89.42341221599577
 20
198.5050883502285
 10
89.336803152414
 20
198.5567472724413
 10
89.24895097675011
 20
198.6099591399755
 10
89.19271396829998
 20
198.6444581520852
 10
89.16004512343011
 20
198.6646561843148
 10
89.07024764041114
 20
198.7207719954229
 10
88.97971557371199
 20
198.7782413092334
 10
88.94262178649046
 20
198.8020510687783
 10
88.8886059670345
 20
198.8369998819626
 10
88.79706916477011
 20
198.8969840121625
 10
88.73066240478835
 20
198.9411014782258
 10
88.68690775083263
 20
198.9704483331886
 10
88.61322550544611
 20
199.0203726846471
 10
88.52116802100909
 20
199.0836500346191
 10
88.42918206545909
 20
199.1478981962167
 10
88.33737170872558
 20
199.213052500972
 10
88.24583712782828
 20
199.2790479502151
 10
88.17255023471603
 20
199.3326454702271
 10
88.15467849978688
 20
199.3458194562235
 10
88.0639938881256
 20
199.4133014430392
 10
87.97387132364133
 20
199.4814265929183
 10
87.91946432899363
 20
199.5230731897179
 10
87.88439586322585
 20
199.550126719279
 10
87.79565096201975
 20
199.6193329112748
 10
87.70771267224796
 20
199.6889747474559
 10
87.67259367629327
 20
199.7170869126415
 10
87.54822238534405
 20
199.8180463240653
 10
87.53455158431103
 20
199.8292790317037
 10
87.44947520527109
 20
199.8997959775172
 10
87.43336368218394
 20
199.9132700835131
 10
87.36549062665182
 20
199.9704555991312
 10
87.28266012068843
 20
200.0411802458401
 10
87.20418366814584
 20
200.1091536973385
 10
87.20104595760625
 20
200.111891285927
 10
87.12071040763067
 20
200.182509081248
 10
87.04171539619364
 20
200.2529528591128
 10
86.9859493091123
 20
200.3032922245629
 10
86.88796508218883
 20
200.3929811823157
  0
LINE
  5
38B
330
1F
100
AcDbEntity
  8
0
 62
     2
100
AcDbLine
 10
115.0084674144445
 20
236.2562600279236
 30
0.0
 11
115.0084674144445
 21
236.2546011235739
 31
0.0
  0
LWPOLYLINE
  5
38C
330
1F
100
AcDbEntity
  8
0
 62
     2
100
AcDbPolyline
 90
       66
 70
     0
 43
0.0
 10
90.52580519212017
 20
237.9131930591117
 10
90.52462730464055
 20
237.9116006889662
 10
90.52104572876067
 20
237.9068175812442
 10
90.51860471917342
 20
237.9035744436118
 10
90.51502960575226
 20
237.8988402525546
 10
90.50654807688687
 20
237.8876628605502
 10
90.50342937519315
 20
237.8835678759729
 10
90.49670282241118
 20
237.8747579140834
 10
90.49557028343605
 20
237.8732773061899
 10
90.48206511872809
 20
237.8556733641778
 10
90.465985135538
 20
237.8348378182526
 10
90.45998391720701
 20
237.8270989107583
 10
90.43337876304793
 20
237.7930302733401
 10
90.40806151533599
 20
237.760952172025
 10
90.40155028560167
 20
237.7527519066483
 10
90.37441561322873
 20
237.7187860536499
 10
90.34426031948891
 20
237.6814684615714
 10
90.34064100738442
 20
237.6770220271011
 10
90.30694161156754
 20
237.6359619249195
 10
90.25694588370374
 20
237.5761588916034
 10
90.23387529291938
 20
237.5489910896627
 10
90.18983446318299
 20
237.4978334366809
 10
90.15607991096232
 20
237.4592141159384
 10
90.10206293505905
 20
237.3983920623544
 10
90.0860661884688
 20
237.3805965809579
 10
90.03779536231053
 20
237.3274546191704
 10
90.03322885476592
 20
237.3224687883684
 10
89.97219289492443
 20
237.2564719490306
 10
89.90634116550791
 20
237.1865800018151
 10
89.90196431026214
 20
237.1819847252037
 10
89.76719887023381
 20
237.0436439089557
 10
89.74790420759945
 20
237.0243348148778
 10
89.67530967694853
 20
236.9527714656514
 10
89.58558741931608
 20
236.8665728135726
 10
89.57440255063187
 20
236.8559876035683
 10
89.48893222143562
 20
236.7761711195993
 10
89.38510583623003
 20
236.6815539316908
 10
89.3817988534584
 20
236.678579426882
 10
89.1712433928626
 20
236.4938147985623
 10
89.0375256331705
 20
236.3809215387185
 10
89.03604015346423
 20
236.3796853376192
 10
88.94345489025602
 20
236.3033741633994
 10
88.89514739401682
 20
236.2641196146257
 10
88.75463903641423
 20
236.1520437153206
 10
88.69996976899859
 20
236.1092275686748
 10
88.60814103767069
 20
236.0381897787506
 10
88.45709897902549
 20
235.9235013276563
 10
88.4434063925599
 20
235.9132266728268
 10
88.17724808853262
 20
235.7171582973688
 10
88.14722061290058
 20
235.6954500687899
 10
87.99121864416782
 20
235.5839224932744
 10
87.9201369761339
 20
235.5337684283813
 10
87.90481923655648
 20
235.523011321379
 10
87.7937720604728
 20
235.445533366482
 10
87.62983759120988
 20
235.3326224099303
 10
87.53430186574525
 20
235.2675181503356
 10
87.38906588356343
 20
235.1694154592058
 10
87.35674055854747
 20
235.1477109504452
 10
87.24840302872042
 20
235.0752718188167
 10
87.11279432586394
 20
234.9851518517902
 10
87.09051592033808
 20
234.9703993026921
 10
86.98249300080357
 20
234.8990786264305
 10
86.85758979801079
 20
234.8170430862903
 10
86.8346918793057
 20
234.8020523481641
 10
86.80527035033134
 20
234.7828119922999
 10
86.73816454167832
 20
234.7390148533798
  0
LWPOLYLINE
  5
38D
330
1F
100
AcDbEntity
  8
0
 62
     2
100
AcDbPolyline
 90
       76
 70
     0
 43
0.0
 10
86.4575090835134
 20
235.0197794189254
 10
86.587235606413
 20
235.1479384953547
 10
86.59197208415947
 20
235.1525587182326
 10
86.66179337818511
 20
235.2201955494889
 10
86.73327446817848
 20
235.288541712629
 10
86.77988025348543
 20
235.3326232689425
 10
86.80636485771282
 20
235.3575067643383
 10
86.88101405036161
 20
235.4270010783332
 10
86.95717154969799
 20
235.496935890213
 10
86.9857707270375
 20
235.5229500067962
 10
87.03478685929542
 20
235.5672233380583
 10
87.11380938549496
 20
235.637776529174
 10
87.19418347075015
 20
235.7085111196345
 10
87.20417919547702
 20
235.7172369830625
 10
87.2758460218842
 20
235.7793461076304
 10
87.3587333520864
 20
235.8502017195648
 10
87.43352038684873
 20
235.9132492311662
 10
87.44278177454578
 20
235.9209991984513
 10
87.52792760245165
 20
235.9916607731122
 10
87.54817128775915
 20
236.0083055442675
 10
87.67241251471398
 20
236.1091684594406
 10
87.70125587378425
 20
236.1322700210629
 10
87.78929936319929
 20
236.2020689943512
 10
87.87815685723979
 20
236.2714355869371
 10
87.91951825144264
 20
236.3033610747169
 10
87.96774749118339
 20
236.3402995646932
 10
88.05799040030769
 20
236.4085913217215
 10
88.1488046570658
 20
236.4762418134506
 10
88.17256471410207
 20
236.4937654246669
 10
88.24010278493614
 20
236.5431833108867
 10
88.33178511856505
 20
236.6093499887491
 10
88.42375066345079
 20
236.6746763891139
 10
88.42932127523534
 20
236.6786001244104
 10
88.51589842509173
 20
236.7390971496862
 10
88.60812417949938
 20
236.8025471910874
 10
88.68686482893605
 20
236.8559227229896
 10
88.7306580297327
 20
236.8852955681062
 10
88.7923234433174
 20
236.92627998723
 10
88.88404634459619
 20
236.9864348945155
 10
88.94249797680556
 20
237.0242692927233
 10
88.97534737467589
 20
237.045362920301
 10
89.06607630935292
 20
237.1029999992771
 10
89.15607522597759
 20
237.1592815773074
 10
89.19277404672755
 20
237.18197897088
 10
89.2451861913043
 20
237.2141420775323
 10
89.33324692039196
 20
237.2675147768676
 10
89.42006800553821
 20
237.3193315891376
 10
89.43380712666294
 20
237.3274591750032
 10
89.50544960771322
 20
237.3695231107889
 10
89.58919186612133
 20
237.4180186239334
 10
89.66131061972959
 20
237.4592027341204
 10
89.67108918943302
 20
237.4647459799154
 10
89.75090315941839
 20
237.509631286532
 10
89.82838368935501
 20
237.5525991768635
 10
89.871260219602
 20
237.5761230158877
 10
89.90328067849879
 20
237.5935729415136
 10
89.97534402610546
 20
237.6324745352363
 10
89.99317980095151
 20
237.6420229527606
 10
90.05909999177231
 20
237.6770372838765
 10
90.10991135975905
 20
237.703733971399
 10
90.17180165686352
 20
237.735915218433
 10
90.22038172706885
 20
237.7609227815099
 10
90.22967170199138
 20
237.765680235616
 10
90.28320292819524
 20
237.7929439033912
 10
90.33207676852783
 20
237.8176236722929
 10
90.35085814252659
 20
237.8270588115537
 10
90.37597635701468
 20
237.8396396275813
 10
90.41463962068548
 20
237.8589096576374
 10
90.44668299219143
 20
237.8747683137295
 10
90.4478697254637
 20
237.8753532679794
 10
90.47547364738483
 20
237.8889013221547
 10
90.49725836248399
 20
237.8994969861497
 10
90.50567922250582
 20
237.9035630787993
 10
90.51303084679665
 20
237.9070960998866
 10
90.52259807635807
 20
237.9116674670312
 10
90.52576702720353
 20
237.9131930600456
  0
LWPOLYLINE
  5
38E
330
1F
100
AcDbEntity
  8
0
 62
     2
100
AcDbPolyline
 90
       62
 70
     0
 43
0.0
 10
87.10873879024223
 20
200.8426887815442
 10
87.05497327639932
 20
200.9325169287253
 10
87.04308403927325
 20
200.9523186149206
 10
86.97442529454156
 20
201.0659552298809
 10
86.94234303603366
 20
201.1186997399541
 10
86.87688332375734
 20
201.2258323238428
 10
86.86972441740966
 20
201.2375188576913
 10
86.82781742810522
 20
201.3058494548977
 10
86.74985201285455
 20
201.4327770092776
 10
86.67189343561427
 20
201.5596955666786
 10
86.66877695948824
 20
201.5647686900518
 10
86.5845191669905
 20
201.7017333567008
 10
86.49695974385878
 20
201.8433430854246
 10
86.46344140158442
 20
201.8972767907069
 10
86.43616259688753
 20
201.9410483806727
 10
86.40600352687545
 20
201.9893113050294
 10
86.31161250564168
 20
202.1394567327345
 10
86.24630365507875
 20
202.2425231297183
 10
86.13072337771985
 20
202.423254012797
 10
86.02259609334902
 20
202.590108708938
 10
86.00794644683037
 20
202.6125246761318
 10
85.90035958502727
 20
202.7756091926611
 10
85.79459543475394
 20
202.9331018460864
 10
85.7900800137765
 20
202.9397603292926
 10
85.67775849070335
 20
203.1035960093784
 10
85.56413681759483
 20
203.2656575552863
 10
85.35294435574752
 20
203.5564639865207
 10
85.33368229539059
 20
203.5822985987881
 10
85.10566871647177
 20
203.8788036702084
 10
84.88195782865728
 20
204.1521992586904
 10
84.6921112233357
 20
204.369874157161
 10
84.66482729219786
 20
204.400088070032
 10
84.4563468067841
 20
204.622218178101
 10
84.45223055718503
 20
204.6264497953979
 10
84.25854176856689
 20
204.819023976035
 10
84.18598636085596
 20
204.8879939191954
 10
84.073307560089
 20
204.9917593140714
 10
84.00873003586923
 20
205.0492888201582
 10
83.90329533925143
 20
205.1399661761797
 10
83.90240146637615
 20
205.1407171289599
 10
83.84885635235986
 20
205.1851652360659
 10
83.74755814287954
 20
205.2665595710438
 10
83.7170311771414
 20
205.2904826607088
 10
83.6355769563396
 20
205.353320274502
 10
83.61017979127502
 20
205.3727113885088
 10
83.60264169099429
 20
205.3784497942268
 10
83.5615832081246
 20
205.4095393983227
 10
83.49495654477136
 20
205.4591730993805
 10
83.4916275757908
 20
205.4616177804838
 10
83.4231615483443
 20
205.5109741573384
 10
83.39298008416932
 20
205.532185295914
 10
83.38346360741423
 20
205.5388087630021
 10
83.33840136974771
 20
205.5698145657421
 10
83.31532371588855
 20
205.5855379427405
 10
83.30145162394217
 20
205.5949711218693
 10
83.30035343715605
 20
205.5957173130283
 10
83.26927298320243
 20
205.6167790623585
 10
83.25929202230867
 20
205.6235063627716
 10
83.24920382481497
 20
205.6302739929868
 10
83.23261777355839
 20
205.6412819777911
 10
83.2254548161846
 20
205.6459709234036
 10
83.21413356683661
 20
205.6513604267476
  0
LWPOLYLINE
  5
38F
330
1F
100
AcDbEntity
  8
0
 62
     2
100
AcDbPolyline
 90
       75
 70
     0
 43
0.0
 10
83.21413356683661
 20
205.6513604267476
 10
83.21589096293883
 20
205.6473312159762
 10
83.22114810810353
 20
205.6352435709951
 10
83.225453529991
 20
205.625305409854
 10
83.22986000768338
 20
205.6150974918041
 10
83.24195219318574
 20
205.5868936514173
 10
83.25732742855922
 20
205.5507889379513
 10
83.25930999337078
 20
205.5461324942401
 10
83.27588156197021
 20
205.5072956704169
 10
83.29750129657248
 20
205.4569753469244
 10
83.31532391173704
 20
205.4158517377947
 10
83.32206371527082
 20
205.4003894655839
 10
83.34943698193632
 20
205.3380995245057
 10
83.37948108024659
 20
205.2706670038572
 10
83.39305711294458
 20
205.2405100490842
 10
83.41205706130512
 20
205.1986139489819
 10
83.44705069461202
 20
205.1223393296744
 10
83.48435872558491
 20
205.0422181721074
 10
83.49164058342194
 20
205.0267192460462
 10
83.52388448027943
 20
204.9586255024538
 10
83.5655377277622
 20
204.8719363468863
 10
83.60923409902682
 20
204.7825184714324
 10
83.61020912238774
 20
204.78054054822
 10
83.65489139594541
 20
204.690675816861
 10
83.70243041698137
 20
204.5966791895557
 10
83.74750488623835
 20
204.5090322067305
 10
83.7517764889858
 20
204.5007991138659
 10
83.8028593554701
 20
204.4033037577318
 10
83.83531794675406
 20
204.3422509045989
 10
83.90236803949756
 20
204.2182262876131
 10
83.90997855257285
 20
204.2043215391975
 10
83.96589747057783
 20
204.1032006417739
 10
84.02331740263759
 20
204.001236260579
 10
84.07327653312706
 20
203.9140183032068
 10
84.08218784854364
 20
203.8986032061356
 10
84.1424564148154
 20
203.7954410343582
 10
84.2040715905074
 20
203.6918789116106
 10
84.25845313094942
 20
203.6020149500056
 10
84.26698392543517
 20
203.5880460027834
 10
84.33114568820082
 20
203.4840705012349
 10
84.39650828901472
 20
203.3800642950989
 10
84.45638676076982
 20
203.2864109085714
 10
84.46302228110403
 20
203.2761257500464
 10
84.53063908423843
 20
203.1723528228855
 10
84.59207788311556
 20
203.07965817723
 10
84.66482266059592
 20
202.9718066382926
 10
84.66898916455523
 20
202.9656901107514
 10
84.73962277856845
 20
202.8629717481865
 10
84.81116006823584
 20
202.7607652788699
 10
84.88187318421723
 20
202.6614803019741
 10
84.88354923661558
 20
202.6591476145533
 10
84.95673816918321
 20
202.5581956185693
 10
85.0306728409418
 20
202.4579819636895
 10
85.10529599790169
 20
202.3585719551874
 10
85.10578586770481
 20
202.3579250020601
 10
85.18054927236955
 20
202.2600301504011
 10
85.25637332493375
 20
202.1624211066691
 10
85.33270751817156
 20
202.0658083148084
 10
85.33370195115691
 20
202.064560415275
 10
85.4690347600075
 20
201.8972271802273
 10
85.56414124836988
 20
201.7825062799952
 10
85.79436673038043
 20
201.5140806331256
 10
85.83672105236377
 20
201.4660706004009
 10
85.97316417884156
 20
201.3141657068643
 10
86.02248601596199
 20
201.2602638344292
 10
86.10913682326009
 20
201.1668270541815
 10
86.24418649130962
 20
201.0243212747605
 10
86.24633151286338
 20
201.0220878658393
 10
86.45756753095912
 20
200.8065773093624
 10
86.46335832308449
 20
200.8007899357552
 10
86.50957716692591
 20
200.7548228877863
 10
86.63888256460001
 20
200.6283065332431
 10
86.67181187630746
 20
200.5965693756891
 10
86.8696909789897
 20
200.4098648748618
 10
86.88800910749626
 20
200.3929229376195
  0
LINE
  5
390
330
1F
100
AcDbEntity
  8
0
 62
     2
100
AcDbLine
 10
127.8641298471471
 20
198.1167119684291
 30
0.0
 11
127.8641298471471
 21
197.6631963470658
 31
0.0
  0
LINE
  5
391
330
1F
100
AcDbEntity
  8
0
 62
     2
100
AcDbLine
 10
127.8641298471471
 20
199.9131963470658
 30
0.0
 11
127.8641298471471
 21
198.1167119684291
 31
0.0
  0
LINE
  5
392
330
1F
100
AcDbEntity
  8
0
 62
     2
100
AcDbLine
 10
127.8641298471471
 20
235.9131963470658
 30
0.0
 11
127.8641298471471
 21
199.9131963470658
 31
0.0
  0
LINE
  5
393
330
1F
100
AcDbEntity
  8
0
 62
     2
100
AcDbLine
 10
126.6141298471471
 20
235.9131963470658
 30
0.0
 11
126.6141298471471
 21
199.9131963470658
 31
0.0
  0
LINE
  5
394
330
1F
100
AcDbEntity
  8
0
 62
     2
100
AcDbLine
 10
127.8641298471471
 20
237.267871170525
 30
0.0
 11
127.8641298471471
 21
235.9131963470658
 31
0.0
  0
LINE
  5
395
330
1F
100
AcDbEntity
  8
0
 62
     2
100
AcDbLine
 10
127.8641298471471
 20
238.1631963470658
 30
0.0
 11
127.8641298471471
 21
237.267871170525
 31
0.0
  0
LINE
  5
396
330
1F
100
AcDbEntity
  8
0
 62
     2
100
AcDbLine
 10
85.56412984714706
 20
217.4131963470658
 30
0.0
 11
82.06412984714711
 21
217.4131963470658
 31
0.0
  0
LINE
  5
397
330
1F
100
AcDbEntity
  8
0
 62
     2
100
AcDbLine
 10
126.6141298471471
 20
199.9131963470658
 30
0.0
 11
117.8641298471471
 21
199.9131963470658
 31
0.0
  0
LINE
  5
398
330
1F
100
AcDbEntity
  8
0
 62
     2
100
AcDbLine
 10
126.6141298471471
 20
196.4131963470658
 30
0.0
 11
117.8641298471471
 21
196.4131963470658
 31
0.0
  0
LINE
  5
399
330
1F
100
AcDbEntity
  8
0
 62
     2
100
AcDbLine
 10
82.06412984714706
 20
218.4131963470658
 30
0.0
 11
85.56412984714706
 21
218.4131963470658
 31
0.0
  0
LINE
  5
39A
330
1F
100
AcDbEntity
  8
0
 62
     2
100
AcDbLine
 10
126.6141298471471
 20
235.9131963470658
 30
0.0
 11
117.8641298471471
 21
235.9131963470658
 31
0.0
  0
LINE
  5
39B
330
1F
100
AcDbEntity
  8
0
 62
     2
100
AcDbLine
 10
126.6141298471471
 20
239.4131963470658
 30
0.0
 11
117.8641298471471
 21
239.4131963470658
 31
0.0
  0
ARC
  5
39C
330
1F
100
AcDbEntity
  8
0
 62
     2
100
AcDbCircle
 10
97.064129847147
 20
224.4132000367702
 30
0.0
 40
15.0
100
AcDbArc
 50
154.1580346429381
 51
180.0000000000247
  0
ARC
  5
39D
330
1F
100
AcDbEntity
  8
0
 62
     2
100
AcDbCircle
 10
97.064129847147
 20
224.4132000367702
 30
0.0
 40
15.0
100
AcDbArc
 50
89.99999999999979
 51
115.841993898527
  0
ARC
  5
39E
330
1F
100
AcDbEntity
  8
0
 62
     2
100
AcDbCircle
 10
97.06412984714711
 20
211.4132000367702
 30
0.0
 40
15.0
100
AcDbArc
 50
244.1581283760429
 51
269.9999999999998
  0
ARC
  5
39F
330
1F
100
AcDbEntity
  8
0
 62
     2
100
AcDbCircle
 10
97.06412984714711
 20
211.4132000367702
 30
0.0
 40
15.0
100
AcDbArc
 50
180.0
 51
202.5888687788421
  0
LINE
  5
3A0
330
1F
100
AcDbEntity
  8
0
 62
     2
100
AcDbLine
 10
82.06412984714711
 20
217.4131963470658
 30
0.0
 11
82.06412984714711
 21
211.4132000367702
 31
0.0
  0
LINE
  5
3A1
330
1F
100
AcDbEntity
  8
0
 62
     2
100
AcDbLine
 10
85.56412984714706
 20
217.4131963470657
 30
0.0
 11
85.56412984714706
 21
211.4132000367702
 31
0.0
  0
ARC
  5
3A2
330
1F
100
AcDbEntity
  8
0
 62
     2
100
AcDbCircle
 10
97.06412984714711
 20
211.4132000367702
 30
0.0
 40
11.50000000000001
100
AcDbArc
 50
180.0
 51
269.9999999999914
  0
LINE
  5
3A3
330
1F
100
AcDbEntity
  8
0
 62
     2
100
AcDbLine
 10
117.8641298471471
 20
196.4132000367702
 30
0.0
 11
97.06412984714706
 21
196.4132000367702
 31
0.0
  0
LINE
  5
3A4
330
1F
100
AcDbEntity
  8
0
 62
     2
100
AcDbLine
 10
117.8641298471471
 20
199.9132000367702
 30
0.0
 11
97.06412984714706
 21
199.9132000367702
 31
0.0
  0
LINE
  5
3A5
330
1F
100
AcDbEntity
  8
0
 62
     2
100
AcDbLine
 10
82.06412984714706
 20
224.4132000367702
 30
0.0
 11
82.06412984714706
 21
218.4131963470658
 31
0.0
  0
LINE
  5
3A6
330
1F
100
AcDbEntity
  8
0
 62
     2
100
AcDbLine
 10
85.56412984714706
 20
224.4132000367701
 30
0.0
 11
85.56412984714706
 21
218.4131963470658
 31
0.0
  0
ARC
  5
3A7
330
1F
100
AcDbEntity
  8
0
 62
     2
100
AcDbCircle
 10
97.06412984714706
 20
224.4132000367702
 30
0.0
 40
11.49999999999999
100
AcDbArc
 50
90.0
 51
180.0000000000216
  0
LINE
  5
3A8
330
1F
100
AcDbEntity
  8
0
 62
     2
100
AcDbLine
 10
117.8641298471471
 20
235.9132000367702
 30
0.0
 11
97.06412984714706
 21
235.9132000367702
 31
0.0
  0
LINE
  5
3A9
330
1F
100
AcDbEntity
  8
0
 62
     2
100
AcDbLine
 10
117.8641298471471
 20
239.4132000367702
 30
0.0
 11
97.06412984714706
 21
239.4132000367702
 31
0.0
  0
ARC
  5
3AA
330
1F
100
AcDbEntity
  8
0
 62
     2
100
AcDbCircle
 10
103.5641298471471
 20
217.9131963470658
 30
0.0
 40
12.8
100
AcDbArc
 50
182.2386859608434
 51
177.761314039158
  0
LINE
  5
3AB
330
1F
100
AcDbEntity
  8
0
 62
     2
100
AcDbLine
 10
85.56412984714706
 20
217.4131963470658
 30
0.0
 11
90.77389920028224
 21
217.4131963470658
 31
0.0
  0
LINE
  5
3AC
330
1F
100
AcDbEntity
  8
0
 62
     2
100
AcDbLine
 10
90.77389920028224
 20
218.4131963470658
 30
0.0
 11
85.56412984714706
 21
218.4131963470658
 31
0.0
  0
LINE
  5
3AD
330
1F
100
AcDbEntity
  8
0
 62
     2
100
AcDbLine
 10
126.6141298471471
 20
237.2674090952889
 30
0.0
 11
126.6141298471471
 21
235.9131963470658
 31
0.0
  0
LINE
  5
3AE
330
1F
100
AcDbEntity
  8
0
 62
     2
100
AcDbLine
 10
126.6141298471471
 20
239.4131963470658
 30
0.0
 11
126.6141298471471
 21
237.2674090952889
 31
0.0
  0
LINE
  5
3AF
330
1F
100
AcDbEntity
  8
0
 62
     2
100
AcDbLine
 10
97.06412984714706
 20
235.9132000367702
 30
0.0
 11
97.06412984714706
 21
239.4132000367702
 31
0.0
  0
LINE
  5
3B0
330
1F
100
AcDbEntity
  8
0
 62
     2
100
AcDbLine
 10
82.06412984714711
 20
224.4132000367703
 30
0.0
 11
85.56412984714711
 21
224.4132000367702
 31
0.0
  0
LINE
  5
3B1
330
1F
100
AcDbEntity
  8
0
 62
     2
100
AcDbLine
 10
126.6141298471471
 20
196.6857968005967
 30
0.0
 11
126.6141298471471
 21
196.4131963470658
 31
0.0
  0
LINE
  5
3B2
330
1F
100
AcDbEntity
  8
0
 62
     2
100
AcDbLine
 10
126.6141298471471
 20
199.9131963470658
 30
0.0
 11
126.6141298471471
 21
196.6857968005967
 31
0.0
  0
LINE
  5
3B3
330
1F
100
AcDbEntity
  8
0
 62
     2
100
AcDbLine
 10
97.06412984714706
 20
196.4132000367702
 30
0.0
 11
97.06412984714706
 21
199.9132000367702
 31
0.0
  0
LINE
  5
3B4
330
1F
100
AcDbEntity
  8
0
 62
     2
100
AcDbLine
 10
82.06412984714711
 20
211.4132000367702
 30
0.0
 11
85.56412984714706
 21
211.4132000367702
 31
0.0
  0
LINE
  5
3B5
330
1F
100
AcDbEntity
  8
0
 62
     2
100
AcDbLine
 10
127.8641298471471
 20
238.1631963470658
 30
0.0
 11
126.6141298471471
 21
239.4131963470658
 31
0.0
  0
LINE
  5
3B6
330
1F
100
AcDbEntity
  8
0
 62
     2
100
AcDbLine
 10
126.6141298471471
 20
235.9131963470658
 30
0.0
 11
127.8641298471471
 21
235.9131963470658
 31
0.0
  0
LINE
  5
3B7
330
1F
100
AcDbEntity
  8
0
 62
     2
100
AcDbLine
 10
127.8641298471471
 20
199.9131963470658
 30
0.0
 11
126.6141298471471
 21
199.9131963470658
 31
0.0
  0
LINE
  5
3B8
330
1F
100
AcDbEntity
  8
0
 62
     2
100
AcDbLine
 10
126.6141298471471
 20
196.4131963470658
 30
0.0
 11
127.8641298471471
 21
197.6631963470658
 31
0.0
  0
LINE
  5
3B9
330
1F
100
AcDbEntity
  8
0
 62
     2
100
AcDbLine
 10
90.52814635146069
 20
237.9131930600457
 30
0.0
 11
90.52580520188332
 21
237.9131930600457
 31
0.0
  0
LINE
  5
3BA
330
1F
100
AcDbEntity
  8
0
 62
     2
100
AcDbLine
 10
90.58214852927836
 20
237.9131930600457
 30
0.0
 11
90.58029184387152
 21
237.9131930600457
 31
0.0
  0
LINE
  5
3BB
330
1F
100
AcDbEntity
  8
0
 62
     2
100
AcDbLine
 10
90.52837826494965
 20
197.9131930600457
 30
0.0
 11
90.52582745139165
 21
197.9131930600457
 31
0.0
  0
LINE
  5
3BC
330
1F
100
AcDbEntity
  8
0
 62
     2
100
AcDbLine
 10
83.56413356683663
 20
230.9491234804079
 30
0.0
 11
83.56413356683663
 21
230.9515245189634
 31
0.0
  0
ENDSEC
  0
SECTION
  2
OBJECTS
  0
DICTIONARY
  5
C
330
0
100
AcDbDictionary
281
     1
  3
ACAD_DETAILVIEWSTYLE
350
3C4
  3
ACAD_GROUP
350
D
  3
ACAD_LAYOUT
350
1A
  3
ACAD_MATERIAL
350
43
  3
ACAD_MLEADERSTYLE
350
6B
  3
ACAD_MLINESTYLE
350
17
  3
ACAD_PLOTSETTINGS
350
19
  3
ACAD_PLOTSTYLENAME
350
E
  3
ACAD_SCALELIST
350
47
  3
ACAD_SECTIONVIEWSTYLE
350
3C5
  3
ACAD_TABLESTYLE
350
69
  3
ACAD_VISUALSTYLE
350
2A
  3
ACDB_RECOMPOSE_DATA
350
3C1
  3
AcDbVariableDictionary
350
3BD
  0
SUN
  5
6D
330
29
100
AcDbSun
 90
        1
290
     0
 63
     7
421
 16777215
 40
1.0
291
     1
 91
  2455826
 92
 54000000
292
     0
 70
     2
 71
   256
280
     1
  0
DICTIONARY
  5
3C4
102
{ACAD_REACTORS
330
C
102
}
330
C
100
AcDbDictionary
281
     1
  0
DICTIONARY
  5
D
102
{ACAD_REACTORS
330
C
102
}
330
C
100
AcDbDictionary
281
     1
  0
DICTIONARY
  5
1A
102
{ACAD_REACTORS
330
C
102
}
330
C
100
AcDbDictionary
281
     1
  3
Layout1
350
1E
  3
Layout2
350
26
  3
Model
350
22
  0
DICTIONARY
  5
43
102
{ACAD_REACTORS
330
C
102
}
330
C
100
AcDbDictionary
281
     1
  3
ByBlock
350
45
  3
ByLayer
350
44
  3
Global
350
46
  0
DICTIONARY
  5
6B
102
{ACAD_REACTORS
330
C
102
}
330
C
100
AcDbDictionary
281
     1
  3
Standard
350
6C
  0
DICTIONARY
  5
17
102
{ACAD_REACTORS
330
C
102
}
330
C
100
AcDbDictionary
281
     1
  3
Standard
350
18
  0
DICTIONARY
  5
19
102
{ACAD_REACTORS
330
C
102
}
330
C
100
AcDbDictionary
281
     1
  0
ACDBDICTIONARYWDFLT
  5
E
102
{ACAD_REACTORS
330
C
102
}
330
C
100
AcDbDictionary
281
     1
  3
Normal
350
F
100
AcDbDictionaryWithDefault
340
F
  0
DICTIONARY
  5
47
102
{ACAD_REACTORS
330
C
102
}
330
C
100
AcDbDictionary
281
     1
  3
A0
350
48
  3
A1
350
49
  3
A2
350
4A
  3
A3
350
4B
  3
A4
350
4C
  3
A5
350
4D
  3
A6
350
4E
  3
A7
350
4F
  3
A8
350
50
  3
A9
350
51
  3
B0
350
52
  3
B1
350
53
  3
B2
350
54
  3
B3
350
55
  3
B4
350
56
  3
B5
350
57
  3
B6
350
58
  3
B7
350
59
  3
B8
350
5A
  3
B9
350
5B
  3
C0
350
5C
  3
C1
350
5D
  3
C2
350
5E
  3
C3
350
5F
  3
C4
350
60
  3
C5
350
61
  3
C6
350
62
  3
C7
350
63
  3
C8
350
64
  3
C9
350
65
  3
D0
350
66
  3
D1
350
67
  3
D2
350
68
  0
DICTIONARY
  5
3C5
102
{ACAD_REACTORS
330
C
102
}
330
C
100
AcDbDictionary
281
     1
  0
DICTIONARY
  5
69
102
{ACAD_REACTORS
330
C
102
}
330
C
100
AcDbDictionary
281
     1
  3
Standard
350
6A
  0
DICTIONARY
  5
2A
102
{ACAD_REACTORS
330
C
102
}
330
C
100
AcDbDictionary
281
     1
  3
2dWireframe
350
2F
  3
Basic
350
32
  3
Brighten
350
36
  3
ColorChange
350
3A
  3
Conceptual
350
34
  3
Dim
350
35
  3
EdgeColorOff
350
3D
  3
Facepattern
350
39
  3
Flat
350
2B
  3
FlatWithEdges
350
2C
  3
Gouraud
350
2D
  3
GouraudWithEdges
350
2E
  3
Hidden
350
31
  3
JitterOff
350
3B
  3
Linepattern
350
38
  3
OverhangOff
350
3C
  3
Realistic
350
33
  3
Shaded
350
42
  3
Shaded with edges
350
41
  3
Shades of Gray
350
3E
  3
Sketchy
350
3F
  3
Thicken
350
37
  3
Wireframe
350
30
  3
X-Ray
350
40
  0
XRECORD
  5
3C1
102
{ACAD_REACTORS
330
C
102
}
330
C
100
AcDbXrecord
280
     1
 90
        1
330
6A
  0
DICTIONARY
  5
3BD
102
{ACAD_REACTORS
330
C
102
}
330
C
100
AcDbDictionary
281
     1
  3
CANNOSCALE
350
3BE
  3
CMLEADERSTYLE
350
3C3
  3
CTABLESTYLE
350
3C2
  0
LAYOUT
  5
1E
102
{ACAD_REACTORS
330
1A
102
}
330
1A
100
AcDbPlotSettings
  1

  2
none_device
  4

  6

 40
0.0
 41
0.0
 42
0.0
 43
0.0
 44
0.0
 45
0.0
 46
0.0
 47
0.0
 48
0.0
 49
0.0
140
0.0
141
0.0
142
1.0
143
1.0
 70
   688
 72
     1
 73
     0
 74
     5
  7

 75
    16
 76
     0
 77
     2
 78
   300
147
1.0
148
0.0
149
0.0
100
AcDbLayout
  1
Layout1
 70
     1
 71
     1
 10
0.0
 20
0.0
 11
420.0
 21
297.0
 12
0.0
 22
0.0
 32
0.0
 14
1.000000000000000E+20
 24
1.000000000000000E+20
 34
1.000000000000000E+20
 15
-1.000000000000000E+20
 25
-1.000000000000000E+20
 35
-1.000000000000000E+20
146
0.0
 13
0.0
 23
0.0
 33
0.0
 16
1.0
 26
0.0
 36
0.0
 17
0.0
 27
1.0
 37
0.0
 76
     0
330
1B
  0
LAYOUT
  5
26
102
{ACAD_REACTORS
330
1A
102
}
330
1A
100
AcDbPlotSettings
  1

  2
none_device
  4

  6

 40
0.0
 41
0.0
 42
0.0
 43
0.0
 44
0.0
 45
0.0
 46
0.0
 47
0.0
 48
0.0
 49
0.0
140
0.0
141
0.0
142
1.0
143
1.0
 70
   688
 72
     1
 73
     0
 74
     5
  7

 75
    16
 76
     0
 77
     2
 78
   300
147
1.0
148
0.0
149
0.0
100
AcDbLayout
  1
Layout2
 70
     1
 71
     2
 10
0.0
 20
0.0
 11
0.0
 21
0.0
 12
0.0
 22
0.0
 32
0.0
 14
0.0
 24
0.0
 34
0.0
 15
0.0
 25
0.0
 35
0.0
146
0.0
 13
0.0
 23
0.0
 33
0.0
 16
1.0
 26
0.0
 36
0.0
 17
0.0
 27
1.0
 37
0.0
 76
     0
330
23
  0
LAYOUT
  5
22
102
{ACAD_REACTORS
330
1A
102
}
330
1A
100
AcDbPlotSettings
  1

  2
none_device
  4
Letter_(8.50_x_11.00_Inches)
  6

 40
6.35
 41
6.35
 42
6.35000508
 43
6.35000508
 44
215.9
 45
279.4
 46
0.0
 47
0.0
 48
0.0
 49
0.0
140
0.0
141
0.0
142
1.0
143
1.0
 70
  1712
 72
     1
 73
     0
 74
     0
  7

 75
     0
 76
     0
 77
     2
 78
   300
147
1.0
148
0.0
149
0.0
100
AcDbLayout
  1
Model
 70
     1
 71
     0
 10
0.0
 20
0.0
 11
210.0
 21
297.0
 12
0.0
 22
0.0
 32
0.0
 14
0.0
 24
0.0
 34
0.0
 15
210.0
 25
297.0
 35
0.0
146
0.0
 13
0.0
 23
0.0
 33
0.0
 16
1.0
 26
0.0
 36
0.0
 17
0.0
 27
1.0
 37
0.0
 76
     0
330
1F
331
29
  0
MATERIAL
  5
45
102
{ACAD_REACTORS
330
43
102
}
330
43
100
AcDbMaterial
  1
ByBlock
 72
     1
 94
      127
  0
MATERIAL
  5
44
102
{ACAD_REACTORS
330
43
102
}
330
43
100
AcDbMaterial
  1
ByLayer
 72
     1
 94
      127
  0
MATERIAL
  5
46
102
{ACAD_REACTORS
330
43
102
}
330
43
100
AcDbMaterial
  1
Global
 72
     1
 94
      127
  0
MLEADERSTYLE
  5
6C
102
{ACAD_REACTORS
330
6B
102
}
330
6B
100
AcDbMLeaderStyle
179
     2
170
     2
171
     1
172
     0
 90
        2
 40
0.0
 41
0.0
173
     1
 91
-1056964608
340
14
 92
       -2
290
     1
 42
2.0
291
     1
 43
8.0
  3
Standard
341
0
 44
4.0
300

342
11
174
     1
178
     6
175
     1
176
     0
 93
-1056964608
 45
4.0
292
     0
297
     0
 46
4.0
343
0
 94
-1056964608
 47
1.0
 49
1.0
140
1.0
293
     1
141
0.0
294
     1
177
     0
142
1.0
295
     0
296
     0
143
3.75
271
     0
272
     9
273
     9
298
     0
  0
MLINESTYLE
  5
18
102
{ACAD_REACTORS
330
17
102
}
330
17
100
AcDbMlineStyle
  2
Standard
 70
     0
  3

 62
   256
 51
90.0
 52
90.0
 71
     2
 49
0.5
 62
   256
  6
BYLAYER
 49
-0.5
 62
   256
  6
BYLAYER
  0
ACDBPLACEHOLDER
  5
F
102
{ACAD_REACTORS
330
E
102
}
330
E
  0
SCALE
  5
48
102
{ACAD_REACTORS
330
47
102
}
330
47
100
AcDbScale
 70
     0
300
1:1
140
1.0
141
1.0
290
     1
  0
SCALE
  5
49
102
{ACAD_REACTORS
330
47
102
}
330
47
100
AcDbScale
 70
     0
300
1:2
140
1.0
141
2.0
290
     0
  0
SCALE
  5
4A
102
{ACAD_REACTORS
330
47
102
}
330
47
100
AcDbScale
 70
     0
300
1:4
140
1.0
141
4.0
290
     0
  0
SCALE
  5
4B
102
{ACAD_REACTORS
330
47
102
}
330
47
100
AcDbScale
 70
     0
300
1:5
140
1.0
141
5.0
290
     0
  0
SCALE
  5
4C
102
{ACAD_REACTORS
330
47
102
}
330
47
100
AcDbScale
 70
     0
300
1:8
140
1.0
141
8.0
290
     0
  0
SCALE
  5
4D
102
{ACAD_REACTORS
330
47
102
}
330
47
100
AcDbScale
 70
     0
300
1:10
140
1.0
141
10.0
290
     0
  0
SCALE
  5
4E
102
{ACAD_REACTORS
330
47
102
}
330
47
100
AcDbScale
 70
     0
300
1:16
140
1.0
141
16.0
290
     0
  0
SCALE
  5
4F
102
{ACAD_REACTORS
330
47
102
}
330
47
100
AcDbScale
 70
     0
300
1:20
140
1.0
141
20.0
290
     0
  0
SCALE
  5
50
102
{ACAD_REACTORS
330
47
102
}
330
47
100
AcDbScale
 70
     0
300
1:30
140
1.0
141
30.0
290
     0
  0
SCALE
  5
51
102
{ACAD_REACTORS
330
47
102
}
330
47
100
AcDbScale
 70
     0
300
1:40
140
1.0
141
40.0
290
     0
  0
SCALE
  5
52
102
{ACAD_REACTORS
330
47
102
}
330
47
100
AcDbScale
 70
     0
300
1:50
140
1.0
141
50.0
290
     0
  0
SCALE
  5
53
102
{ACAD_REACTORS
330
47
102
}
330
47
100
AcDbScale
 70
     0
300
1:100
140
1.0
141
100.0
290
     0
  0
SCALE
  5
54
102
{ACAD_REACTORS
330
47
102
}
330
47
100
AcDbScale
 70
     0
300
2:1
140
2.0
141
1.0
290
     0
  0
SCALE
  5
55
102
{ACAD_REACTORS
330
47
102
}
330
47
100
AcDbScale
 70
     0
300
4:1
140
4.0
141
1.0
290
     0
  0
SCALE
  5
56
102
{ACAD_REACTORS
330
47
102
}
330
47
100
AcDbScale
 70
     0
300
8:1
140
8.0
141
1.0
290
     0
  0
SCALE
  5
57
102
{ACAD_REACTORS
330
47
102
}
330
47
100
AcDbScale
 70
     0
300
10:1
140
10.0
141
1.0
290
     0
  0
SCALE
  5
58
102
{ACAD_REACTORS
330
47
102
}
330
47
100
AcDbScale
 70
     0
300
100:1
140
100.0
141
1.0
290
     0
  0
SCALE
  5
59
102
{ACAD_REACTORS
330
47
102
}
330
47
100
AcDbScale
 70
     0
300
1/128" = 1'-0"
140
0.0078125
141
12.0
290
     0
  0
SCALE
  5
5A
102
{ACAD_REACTORS
330
47
102
}
330
47
100
AcDbScale
 70
     0
300
1/64" = 1'-0"
140
0.015625
141
12.0
290
     0
  0
SCALE
  5
5B
102
{ACAD_REACTORS
330
47
102
}
330
47
100
AcDbScale
 70
     0
300
1/32" = 1'-0"
140
0.03125
141
12.0
290
     0
  0
SCALE
  5
5C
102
{ACAD_REACTORS
330
47
102
}
330
47
100
AcDbScale
 70
     0
300
1/16" = 1'-0"
140
0.0625
141
12.0
290
     0
  0
SCALE
  5
5D
102
{ACAD_REACTORS
330
47
102
}
330
47
100
AcDbScale
 70
     0
300
3/32" = 1'-0"
140
0.09375
141
12.0
290
     0
  0
SCALE
  5
5E
102
{ACAD_REACTORS
330
47
102
}
330
47
100
AcDbScale
 70
     0
300
1/8" = 1'-0"
140
0.125
141
12.0
290
     0
  0
SCALE
  5
5F
102
{ACAD_REACTORS
330
47
102
}
330
47
100
AcDbScale
 70
     0
300
3/16" = 1'-0"
140
0.1875
141
12.0
290
     0
  0
SCALE
  5
60
102
{ACAD_REACTORS
330
47
102
}
330
47
100
AcDbScale
 70
     0
300
1/4" = 1'-0"
140
0.25
141
12.0
290
     0
  0
SCALE
  5
61
102
{ACAD_REACTORS
330
47
102
}
330
47
100
AcDbScale
 70
     0
300
3/8" = 1'-0"
140
0.375
141
12.0
290
     0
  0
SCALE
  5
62
102
{ACAD_REACTORS
330
47
102
}
330
47
100
AcDbScale
 70
     0
300
1/2" = 1'-0"
140
0.5
141
12.0
290
     0
  0
SCALE
  5
63
102
{ACAD_REACTORS
330
47
102
}
330
47
100
AcDbScale
 70
     0
300
3/4" = 1'-0"
140
0.75
141
12.0
290
     0
  0
SCALE
  5
64
102
{ACAD_REACTORS
330
47
102
}
330
47
100
AcDbScale
 70
     0
300
1" = 1'-0"
140
1.0
141
12.0
290
     0
  0
SCALE
  5
65
102
{ACAD_REACTORS
330
47
102
}
330
47
100
AcDbScale
 70
     0
300
1-1/2" = 1'-0"
140
1.5
141
12.0
290
     0
  0
SCALE
  5
66
102
{ACAD_REACTORS
330
47
102
}
330
47
100
AcDbScale
 70
     0
300
3" = 1'-0"
140
3.0
141
12.0
290
     0
  0
SCALE
  5
67
102
{ACAD_REACTORS
330
47
102
}
330
47
100
AcDbScale
 70
     0
300
6" = 1'-0"
140
6.0
141
12.0
290
     0
  0
SCALE
  5
68
102
{ACAD_REACTORS
330
47
102
}
330
47
100
AcDbScale
 70
     0
300
1'-0" = 1'-0"
140
12.0
141
12.0
290
     0
  0
TABLESTYLE
  5
6A
102
{ACAD_REACTORS
330
69
102
}
102
{ACAD_XDICTIONARY
360
3BF
102
}
330
69
100
AcDbTableStyle
  3
Standard
 70
     0
 71
     0
 40
0.06
 41
0.06
280
     0
281
     0
  7
Standard
140
4.5
170
     2
 62
     0
 63
   257
283
     0
 90
        4
 91
        0
  1

274
    -2
284
     1
 64
     0
275
    -2
285
     1
 65
     0
276
    -2
286
     1
 66
     0
277
    -2
287
     1
 67
     0
278
    -2
288
     1
 68
     0
279
    -2
289
     1
 69
     0
  7
Standard
140
6.0
170
     5
 62
     0
 63
   257
283
     0
 90
        4
 91
        0
  1

274
    -2
284
     1
 64
     0
275
    -2
285
     1
 65
     0
276
    -2
286
     1
 66
     0
277
    -2
287
     1
 67
     0
278
    -2
288
     1
 68
     0
279
    -2
289
     1
 69
     0
  7
Standard
140
4.5
170
     5
 62
     0
 63
   257
283
     0
 90
        4
 91
        0
  1

274
    -2
284
     1
 64
     0
275
    -2
285
     1
 65
     0
276
    -2
286
     1
 66
     0
277
    -2
287
     1
 67
     0
278
    -2
288
     1
 68
     0
279
    -2
289
     1
 69
     0
  0
VISUALSTYLE
  5
2F
102
{ACAD_REACTORS
330
2A
102
}
330
2A
100
AcDbVisualStyle
  2
2dWireframe
 70
     4
177
     3
291
     0
 70
    58
 90
        0
176
     1
 90
        2
176
     1
 90
        0
176
     1
 90
        0
176
     1
 40
0.6
176
     1
 40
30.0
176
     1
 62
     7
420
 16777215
176
     1
 90
        1
176
     1
 90
        4
176
     1
 62
     7
176
     1
 62
   257
176
     1
 90
        1
176
     1
 90
        1
176
     1
 40
1.0
176
     1
 90
        0
176
     1
 62
   257
176
     1
 40
1.0
176
     1
 90
        1
176
     1
 90
        6
176
     1
 90
        2
176
     1
 62
     7
176
     1
 90
        5
176
     1
 90
        0
176
     1
 90
        0
176
     1
290
     0
176
     1
 90
        1
176
     1
 40
0.0
176
     1
 90
        0
176
     1
290
     1
176
     1
290
     1
176
     1
290
     0
176
     1
290
     0
176
     1
290
     0
176
     1
290
     0
176
     1
290
     0
176
     1
290
     0
176
     1
290
     0
176
     1
 90
       50
176
     1
 40
0.0
176
     1
 40
1.0
176
     1
 90
        0
176
     1
 62
   178
420
        0
176
     1
 90
       50
176
     1
 90
        3
176
     1
 62
     5
420
      255
176
     1
290
     0
176
     1
 90
       50
176
     1
 90
       50
176
     1
 90
       50
176
     1
290
     0
176
     1
 90
       50
176
     1
 62
   256
176
     0
 40
1.0
176
     0
 90
        2
176
     1
  1
strokes_ogs.tif
176
     1
290
     0
176
     1
 40
1.0
176
     1
 40
1.0
176
     1
  0
VISUALSTYLE
  5
32
102
{ACAD_REACTORS
330
2A
102
}
330
2A
100
AcDbVisualStyle
  2
Basic
 70
     7
177
     3
291
     1
 70
    58
 90
        1
176
     1
 90
        0
176
     1
 90
        1
176
     1
 90
        0
176
     1
 40
0.6
176
     1
 40
30.0
176
     1
 62
     7
420
 16777215
176
     1
 90
        0
176
     1
 90
        4
176
     1
 62
     7
176
     1
 62
   257
176
     1
 90
        1
176
     1
 90
        1
176
     1
 40
1.0
176
     1
 90
        8
176
     1
 62
     7
176
     1
 40
1.0
176
     1
 90
        1
176
     1
 90
        6
176
     1
 90
        2
176
     1
 62
     7
176
     1
 90
        5
176
     1
 90
        0
176
     1
 90
        0
176
     1
290
     0
176
     1
 90
        1
176
     1
 40
0.0
176
     1
 90
        0
176
     1
290
     0
176
     1
290
     1
176
     1
290
     1
176
     1
290
     0
176
     1
290
     0
176
     1
290
     0
176
     1
290
     0
176
     1
290
     0
176
     1
290
     0
176
     1
 90
       50
176
     1
 40
0.0
176
     1
 40
1.0
176
     1
 90
        0
176
     1
 62
   178
420
        0
176
     1
 90
       50
176
     1
 90
        3
176
     1
 62
     5
420
      255
176
     1
290
     0
176
     1
 90
       50
176
     1
 90
       50
176
     1
 90
       50
176
     1
290
     0
176
     1
 90
       50
176
     1
 62
   256
176
     0
 40
1.0
176
     0
 90
        2
176
     1
  1
strokes_ogs.tif
176
     1
290
     0
176
     1
 40
1.0
176
     1
 40
1.0
176
     1
  0
VISUALSTYLE
  5
36
102
{ACAD_REACTORS
330
2A
102
}
330
2A
100
AcDbVisualStyle
  2
Brighten
 70
    12
177
     3
291
     1
 70
    58
 90
        2
176
     1
 90
        2
176
     1
 90
        0
176
     1
 90
        0
176
     1
 40
0.6
176
     1
 40
30.0
176
     1
 62
     7
420
 16777215
176
     1
 90
        1
176
     1
 90
        4
176
     1
 62
     7
176
     1
 62
   257
176
     1
 90
        1
176
     1
 90
        1
176
     1
 40
1.0
176
     1
 90
        8
176
     1
 62
     7
176
     1
 40
1.0
176
     1
 90
        1
176
     1
 90
        6
176
     1
 90
        2
176
     1
 62
     7
176
     1
 90
        5
176
     1
 90
        0
176
     1
 90
        0
176
     1
290
     0
176
     1
 90
        1
176
     1
 40
50.0
176
     1
 90
        0
176
     1
290
     0
176
     1
290
     1
176
     1
290
     1
176
     1
290
     0
176
     1
290
     0
176
     1
290
     0
176
     1
290
     0
176
     1
290
     0
176
     1
290
     0
176
     1
 90
       50
176
     1
 40
0.0
176
     1
 40
1.0
176
     1
 90
        0
176
     1
 62
   178
420
        0
176
     1
 90
       50
176
     1
 90
        3
176
     1
 62
     5
420
      255
176
     1
290
     0
176
     1
 90
       50
176
     1
 90
       50
176
     1
 90
       50
176
     1
290
     0
176
     1
 90
       50
176
     1
 62
   256
176
     0
 40
1.0
176
     0
 90
        2
176
     1
  1
strokes_ogs.tif
176
     1
290
     0
176
     1
 40
1.0
176
     1
 40
1.0
176
     1
  0
VISUALSTYLE
  5
3A
102
{ACAD_REACTORS
330
2A
102
}
330
2A
100
AcDbVisualStyle
  2
ColorChange
 70
    16
177
     3
291
     1
 70
    58
 90
        2
176
     1
 90
        2
176
     1
 90
        3
176
     1
 90
        0
176
     1
 40
0.6
176
     1
 40
30.0
176
     1
 62
     8
420
  8421504
176
     1
 90
        1
176
     1
 90
        4
176
     1
 62
     7
176
     1
 62
   257
176
     1
 90
        1
176
     1
 90
        1
176
     1
 40
1.0
176
     1
 90
        8
176
     1
 62
     8
420
  8421504
176
     1
 40
1.0
176
     1
 90
        1
176
     1
 90
        6
176
     1
 90
        2
176
     1
 62
     7
176
     1
 90
        5
176
     1
 90
        0
176
     1
 90
        0
176
     1
290
     0
176
     1
 90
        1
176
     1
 40
0.0
176
     1
 90
        0
176
     1
290
     0
176
     1
290
     1
176
     1
290
     1
176
     1
290
     0
176
     1
290
     0
176
     1
290
     0
176
     1
290
     0
176
     1
290
     0
176
     1
290
     0
176
     1
 90
       50
176
     1
 40
0.0
176
     1
 40
1.0
176
     1
 90
        0
176
     1
 62
   178
420
        0
176
     1
 90
       50
176
     1
 90
        3
176
     1
 62
     5
420
      255
176
     1
290
     0
176
     1
 90
       50
176
     1
 90
       50
176
     1
 90
       50
176
     1
290
     0
176
     1
 90
       50
176
     1
 62
   256
176
     0
 40
1.0
176
     0
 90
        2
176
     1
  1
strokes_ogs.tif
176
     1
290
     0
176
     1
 40
1.0
176
     1
 40
1.0
176
     1
  0
VISUALSTYLE
  5
34
102
{ACAD_REACTORS
330
2A
102
}
330
2A
100
AcDbVisualStyle
  2
Conceptual
 70
     9
177
     3
291
     0
 70
    58
 90
        3
176
     1
 90
        2
176
     1
 90
        0
176
     1
 90
        0
176
     1
 40
0.6
176
     1
 40
30.0
176
     1
 62
     7
420
 16777215
176
     1
 90
        2
176
     1
 90
        2
176
     1
 62
     7
176
     1
 62
   257
176
     1
 90
        1
176
     1
 90
        1
176
     1
 40
179.0
176
     1
 90
        8
176
     1
 62
     7
176
     1
 40
1.0
176
     1
 90
        1
176
     1
 90
        6
176
     1
 90
        2
176
     1
 62
     7
176
     1
 90
        3
176
     1
 90
        0
176
     1
 90
        0
176
     1
290
     0
176
     1
 90
        1
176
     1
 40
0.0
176
     1
 90
        0
176
     1
290
     0
176
     1
290
     1
176
     1
290
     1
176
     1
290
     0
176
     1
290
     0
176
     1
290
     0
176
     1
290
     0
176
     1
290
     0
176
     1
290
     0
176
     1
 90
       50
176
     1
 40
0.0
176
     1
 40
1.0
176
     1
 90
        0
176
     1
 62
   178
420
        0
176
     1
 90
       50
176
     1
 90
        3
176
     1
 62
     5
420
      255
176
     1
290
     0
176
     1
 90
       50
176
     1
 90
       50
176
     1
 90
       50
176
     1
290
     0
176
     1
 90
       50
176
     1
 62
   256
176
     0
 40
1.0
176
     0
 90
        2
176
     1
  1
strokes_ogs.tif
176
     1
290
     0
176
     1
 40
1.0
176
     1
 40
1.0
176
     1
  0
VISUALSTYLE
  5
35
102
{ACAD_REACTORS
330
2A
102
}
330
2A
100
AcDbVisualStyle
  2
Dim
 70
    11
177
     3
291
     1
 70
    58
 90
        2
176
     1
 90
        2
176
     1
 90
        0
176
     1
 90
        0
176
     1
 40
0.6
176
     1
 40
30.0
176
     1
 62
     7
420
 16777215
176
     1
 90
        1
176
     1
 90
        4
176
     1
 62
     7
176
     1
 62
   257
176
     1
 90
        1
176
     1
 90
        1
176
     1
 40
1.0
176
     1
 90
        8
176
     1
 62
     7
176
     1
 40
1.0
176
     1
 90
        1
176
     1
 90
        6
176
     1
 90
        2
176
     1
 62
     7
176
     1
 90
        5
176
     1
 90
        0
176
     1
 90
        0
176
     1
290
     0
176
     1
 90
        1
176
     1
 40
-50.0
176
     1
 90
        0
176
     1
290
     0
176
     1
290
     1
176
     1
290
     1
176
     1
290
     0
176
     1
290
     0
176
     1
290
     0
176
     1
290
     0
176
     1
290
     0
176
     1
290
     0
176
     1
 90
       50
176
     1
 40
0.0
176
     1
 40
1.0
176
     1
 90
        0
176
     1
 62
   178
420
        0
176
     1
 90
       50
176
     1
 90
        3
176
     1
 62
     5
420
      255
176
     1
290
     0
176
     1
 90
       50
176
     1
 90
       50
176
     1
 90
       50
176
     1
290
     0
176
     1
 90
       50
176
     1
 62
   256
176
     0
 40
1.0
176
     0
 90
        2
176
     1
  1
strokes_ogs.tif
176
     1
290
     0
176
     1
 40
1.0
176
     1
 40
1.0
176
     1
  0
VISUALSTYLE
  5
3D
102
{ACAD_REACTORS
330
2A
102
}
330
2A
100
AcDbVisualStyle
  2
EdgeColorOff
 70
    22
177
     3
291
     1
 70
    58
 90
        2
176
     0
 90
        2
176
     0
 90
        0
176
     0
 90
        0
176
     0
 40
0.6
176
     0
 40
30.0
176
     0
 62
     7
420
 16777215
176
     0
 90
        1
176
     0
 90
        4
176
     0
 62
     7
176
     0
 62
   257
176
     0
 90
        1
176
     0
 90
        1
176
     0
 40
1.0
176
     0
 90
        8
176
     2
 62
     7
176
     0
 40
1.0
176
     0
 90
        1
176
     0
 90
        6
176
     0
 90
        2
176
     0
 62
     7
176
     0
 90
        5
176
     0
 90
        0
176
     0
 90
        0
176
     0
290
     0
176
     0
 90
        1
176
     0
 40
0.0
176
     0
 90
        0
176
     0
290
     0
176
     0
290
     1
176
     0
290
     1
176
     0
290
     0
176
     0
290
     0
176
     0
290
     0
176
     0
290
     0
176
     0
290
     0
176
     0
290
     0
176
     0
 90
       50
176
     0
 40
0.0
176
     0
 40
1.0
176
     0
 90
        0
176
     0
 62
   178
420
        0
176
     0
 90
       50
176
     0
 90
        3
176
     0
 62
     5
420
      255
176
     0
290
     0
176
     0
 90
       50
176
     0
 90
       50
176
     0
 90
       50
176
     0
290
     0
176
     0
 90
       50
176
     0
 62
   256
176
     0
 40
1.0
176
     0
 90
        2
176
     0
  1
strokes_ogs.tif
176
     0
290
     0
176
     0
 40
1.0
176
     0
 40
1.0
176
     0
  0
VISUALSTYLE
  5
39
102
{ACAD_REACTORS
330
2A
102
}
330
2A
100
AcDbVisualStyle
  2
Facepattern
 70
    15
177
     3
291
     1
 70
    58
 90
        2
176
     1
 90
        2
176
     1
 90
        0
176
     1
 90
        0
176
     1
 40
0.6
176
     1
 40
30.0
176
     1
 62
     7
420
 16777215
176
     1
 90
        1
176
     1
 90
        4
176
     1
 62
     7
176
     1
 62
   257
176
     1
 90
        1
176
     1
 90
        1
176
     1
 40
1.0
176
     1
 90
        8
176
     1
 62
     7
176
     1
 40
1.0
176
     1
 90
        1
176
     1
 90
        6
176
     1
 90
        2
176
     1
 62
     7
176
     1
 90
        5
176
     1
 90
        0
176
     1
 90
        0
176
     1
290
     0
176
     1
 90
        1
176
     1
 40
0.0
176
     1
 90
        0
176
     1
290
     0
176
     1
290
     1
176
     1
290
     1
176
     1
290
     0
176
     1
290
     0
176
     1
290
     0
176
     1
290
     0
176
     1
290
     0
176
     1
290
     0
176
     1
 90
       50
176
     1
 40
0.0
176
     1
 40
1.0
176
     1
 90
        0
176
     1
 62
   178
420
        0
176
     1
 90
       50
176
     1
 90
        3
176
     1
 62
     5
420
      255
176
     1
290
     0
176
     1
 90
       50
176
     1
 90
       50
176
     1
 90
       50
176
     1
290
     0
176
     1
 90
       50
176
     1
 62
   256
176
     0
 40
1.0
176
     0
 90
        2
176
     1
  1
strokes_ogs.tif
176
     1
290
     0
176
     1
 40
1.0
176
     1
 40
1.0
176
     1
  0
VISUALSTYLE
  5
2B
102
{ACAD_REACTORS
330
2A
102
}
330
2A
100
AcDbVisualStyle
  2
Flat
 70
     0
177
     3
291
     1
 70
    58
 90
        2
176
     1
 90
        1
176
     1
 90
        1
176
     1
 90
        2
176
     1
 40
0.6
176
     1
 40
30.0
176
     1
 62
     7
420
 16777215
176
     1
 90
        0
176
     1
 90
        0
176
     1
 62
     7
176
     1
 62
   257
176
     1
 90
        1
176
     1
 90
        1
176
     1
 40
1.0
176
     1
 90
        8
176
     1
 62
     7
176
     1
 40
1.0
176
     1
 90
        1
176
     1
 90
        6
176
     1
 90
        2
176
     1
 62
     7
176
     1
 90
        5
176
     1
 90
        0
176
     1
 90
        0
176
     1
290
     0
176
     1
 90
       13
176
     1
 40
0.0
176
     1
 90
        0
176
     1
290
     0
176
     1
290
     1
176
     1
290
     1
176
     1
290
     0
176
     1
290
     0
176
     1
290
     0
176
     1
290
     0
176
     1
290
     0
176
     1
290
     0
176
     1
 90
       50
176
     1
 40
0.0
176
     1
 40
1.0
176
     1
 90
        0
176
     1
 62
   178
420
        0
176
     1
 90
       50
176
     1
 90
        3
176
     1
 62
     5
420
      255
176
     1
290
     0
176
     1
 90
       50
176
     1
 90
       50
176
     1
 90
       50
176
     1
290
     0
176
     1
 90
       50
176
     1
 62
   256
176
     0
 40
1.0
176
     0
 90
        2
176
     1
  1
strokes_ogs.tif
176
     1
290
     0
176
     1
 40
1.0
176
     1
 40
1.0
176
     1
  0
VISUALSTYLE
  5
2C
102
{ACAD_REACTORS
330
2A
102
}
330
2A
100
AcDbVisualStyle
  2
FlatWithEdges
 70
     1
177
     3
291
     1
 70
    58
 90
        2
176
     1
 90
        1
176
     1
 90
        1
176
     1
 90
        2
176
     1
 40
0.6
176
     1
 40
30.0
176
     1
 62
     7
420
 16777215
176
     1
 90
        1
176
     1
 90
        0
176
     1
 62
     7
176
     1
 62
   257
176
     1
 90
        1
176
     1
 90
        1
176
     1
 40
1.0
176
     1
 90
        0
176
     1
 62
   257
176
     1
 40
1.0
176
     1
 90
        1
176
     1
 90
        6
176
     1
 90
        2
176
     1
 62
     7
176
     1
 90
        5
176
     1
 90
        0
176
     1
 90
        0
176
     1
290
     0
176
     1
 90
       13
176
     1
 40
0.0
176
     1
 90
        0
176
     1
290
     0
176
     1
290
     1
176
     1
290
     1
176
     1
290
     0
176
     1
290
     0
176
     1
290
     0
176
     1
290
     0
176
     1
290
     0
176
     1
290
     0
176
     1
 90
       50
176
     1
 40
0.0
176
     1
 40
1.0
176
     1
 90
        0
176
     1
 62
   178
420
        0
176
     1
 90
       50
176
     1
 90
        3
176
     1
 62
     5
420
      255
176
     1
290
     0
176
     1
 90
       50
176
     1
 90
       50
176
     1
 90
       50
176
     1
290
     0
176
     1
 90
       50
176
     1
 62
   256
176
     0
 40
1.0
176
     0
 90
        2
176
     1
  1
strokes_ogs.tif
176
     1
290
     0
176
     1
 40
1.0
176
     1
 40
1.0
176
     1
  0
VISUALSTYLE
  5
2D
102
{ACAD_REACTORS
330
2A
102
}
330
2A
100
AcDbVisualStyle
  2
Gouraud
 70
     2
177
     3
291
     1
 70
    58
 90
        2
176
     1
 90
        2
176
     1
 90
        1
176
     1
 90
        2
176
     1
 40
0.6
176
     1
 40
30.0
176
     1
 62
     7
420
 16777215
176
     1
 90
        0
176
     1
 90
        0
176
     1
 62
     7
176
     1
 62
   257
176
     1
 90
        1
176
     1
 90
        1
176
     1
 40
1.0
176
     1
 90
        0
176
     1
 62
     7
176
     1
 40
1.0
176
     1
 90
        1
176
     1
 90
        6
176
     1
 90
        2
176
     1
 62
     7
176
     1
 90
        5
176
     1
 90
        0
176
     1
 90
        0
176
     1
290
     0
176
     1
 90
       13
176
     1
 40
0.0
176
     1
 90
        0
176
     1
290
     0
176
     1
290
     1
176
     1
290
     1
176
     1
290
     0
176
     1
290
     0
176
     1
290
     0
176
     1
290
     0
176
     1
290
     0
176
     1
290
     0
176
     1
 90
       50
176
     1
 40
0.0
176
     1
 40
1.0
176
     1
 90
        0
176
     1
 62
   178
420
        0
176
     1
 90
       50
176
     1
 90
        3
176
     1
 62
     5
420
      255
176
     1
290
     0
176
     1
 90
       50
176
     1
 90
       50
176
     1
 90
       50
176
     1
290
     0
176
     1
 90
       50
176
     1
 62
   256
176
     0
 40
1.0
176
     0
 90
        2
176
     1
  1
strokes_ogs.tif
176
     1
290
     0
176
     1
 40
1.0
176
     1
 40
1.0
176
     1
  0
VISUALSTYLE
  5
2E
102
{ACAD_REACTORS
330
2A
102
}
330
2A
100
AcDbVisualStyle
  2
GouraudWithEdges
 70
     3
177
     3
291
     1
 70
    58
 90
        2
176
     1
 90
        2
176
     1
 90
        1
176
     1
 90
        2
176
     1
 40
0.6
176
     1
 40
30.0
176
     1
 62
     7
420
 16777215
176
     1
 90
        1
176
     1
 90
        0
176
     1
 62
     7
176
     1
 62
   257
176
     1
 90
        1
176
     1
 90
        1
176
     1
 40
1.0
176
     1
 90
        0
176
     1
 62
   257
176
     1
 40
1.0
176
     1
 90
        1
176
     1
 90
        6
176
     1
 90
        2
176
     1
 62
     7
176
     1
 90
        5
176
     1
 90
        0
176
     1
 90
        0
176
     1
290
     0
176
     1
 90
       13
176
     1
 40
0.0
176
     1
 90
        0
176
     1
290
     0
176
     1
290
     1
176
     1
290
     1
176
     1
290
     0
176
     1
290
     0
176
     1
290
     0
176
     1
290
     0
176
     1
290
     0
176
     1
290
     0
176
     1
 90
       50
176
     1
 40
0.0
176
     1
 40
1.0
176
     1
 90
        0
176
     1
 62
   178
420
        0
176
     1
 90
       50
176
     1
 90
        3
176
     1
 62
     5
420
      255
176
     1
290
     0
176
     1
 90
       50
176
     1
 90
       50
176
     1
 90
       50
176
     1
290
     0
176
     1
 90
       50
176
     1
 62
   256
176
     0
 40
1.0
176
     0
 90
        2
176
     1
  1
strokes_ogs.tif
176
     1
290
     0
176
     1
 40
1.0
176
     1
 40
1.0
176
     1
  0
VISUALSTYLE
  5
31
102
{ACAD_REACTORS
330
2A
102
}
330
2A
100
AcDbVisualStyle
  2
Hidden
 70
     6
177
     3
291
     0
 70
    58
 90
        1
176
     1
 90
        2
176
     1
 90
        2
176
     1
 90
        0
176
     1
 40
0.6
176
     1
 40
30.0
176
     1
 62
     7
420
 16777215
176
     1
 90
        2
176
     1
 90
        2
176
     1
 62
     7
176
     1
 62
   257
176
     1
 90
        2
176
     1
 90
        1
176
     1
 40
40.0
176
     1
 90
        0
176
     1
 62
   257
176
     1
 40
1.0
176
     1
 90
        1
176
     1
 90
        6
176
     1
 90
        2
176
     1
 62
     7
176
     1
 90
        3
176
     1
 90
        0
176
     1
 90
        0
176
     1
290
     0
176
     1
 90
        1
176
     1
 40
0.0
176
     1
 90
        0
176
     1
290
     0
176
     1
290
     1
176
     1
290
     1
176
     1
290
     0
176
     1
290
     0
176
     1
290
     0
176
     1
290
     0
176
     1
290
     0
176
     1
290
     0
176
     1
 90
       50
176
     1
 40
0.0
176
     1
 40
1.0
176
     1
 90
        0
176
     1
 62
   178
420
        0
176
     1
 90
       50
176
     1
 90
        3
176
     1
 62
     5
420
      255
176
     1
290
     0
176
     1
 90
       50
176
     1
 90
       50
176
     1
 90
       50
176
     1
290
     0
176
     1
 90
       50
176
     1
 62
   256
176
     0
 40
1.0
176
     0
 90
        2
176
     1
  1
strokes_ogs.tif
176
     1
290
     0
176
     1
 40
1.0
176
     1
 40
1.0
176
     1
  0
VISUALSTYLE
  5
3B
102
{ACAD_REACTORS
330
2A
102
}
330
2A
100
AcDbVisualStyle
  2
JitterOff
 70
    20
177
     3
291
     1
 70
    58
 90
        2
176
     0
 90
        2
176
     0
 90
        0
176
     0
 90
        0
176
     0
 40
0.6
176
     0
 40
30.0
176
     0
 62
     7
420
 16777215
176
     0
 90
        1
176
     0
 90
        4
176
     0
 62
     7
176
     0
 62
   257
176
     0
 90
        1
176
     0
 90
        1
176
     0
 40
1.0
176
     0
 90
       10
176
     2
 62
     7
176
     0
 40
1.0
176
     0
 90
        1
176
     0
 90
        6
176
     0
 90
        2
176
     0
 62
     7
176
     0
 90
        5
176
     0
 90
        0
176
     0
 90
        0
176
     0
290
     0
176
     0
 90
        1
176
     0
 40
0.0
176
     0
 90
        0
176
     0
290
     0
176
     0
290
     1
176
     0
290
     1
176
     0
290
     0
176
     0
290
     0
176
     0
290
     0
176
     0
290
     0
176
     0
290
     0
176
     0
290
     0
176
     0
 90
       50
176
     0
 40
0.0
176
     0
 40
1.0
176
     0
 90
        0
176
     0
 62
   178
420
        0
176
     0
 90
       50
176
     0
 90
        3
176
     0
 62
     5
420
      255
176
     0
290
     0
176
     0
 90
       50
176
     0
 90
       50
176
     0
 90
       50
176
     0
290
     0
176
     0
 90
       50
176
     0
 62
   256
176
     0
 40
1.0
176
     0
 90
        2
176
     0
  1
strokes_ogs.tif
176
     0
290
     0
176
     0
 40
1.0
176
     0
 40
1.0
176
     0
  0
VISUALSTYLE
  5
38
102
{ACAD_REACTORS
330
2A
102
}
330
2A
100
AcDbVisualStyle
  2
Linepattern
 70
    14
177
     3
291
     1
 70
    58
 90
        2
176
     1
 90
        2
176
     1
 90
        0
176
     1
 90
        0
176
     1
 40
0.6
176
     1
 40
30.0
176
     1
 62
     7
420
 16777215
176
     1
 90
        1
176
     1
 90
        4
176
     1
 62
     7
176
     1
 62
   257
176
     1
 90
        7
176
     1
 90
        7
176
     1
 40
1.0
176
     1
 90
        8
176
     1
 62
     7
176
     1
 40
1.0
176
     1
 90
        1
176
     1
 90
        6
176
     1
 90
        2
176
     1
 62
     7
176
     1
 90
        5
176
     1
 90
        0
176
     1
 90
        0
176
     1
290
     0
176
     1
 90
        1
176
     1
 40
0.0
176
     1
 90
        0
176
     1
290
     0
176
     1
290
     1
176
     1
290
     1
176
     1
290
     0
176
     1
290
     0
176
     1
290
     0
176
     1
290
     0
176
     1
290
     0
176
     1
290
     0
176
     1
 90
       50
176
     1
 40
0.0
176
     1
 40
1.0
176
     1
 90
        0
176
     1
 62
   178
420
        0
176
     1
 90
       50
176
     1
 90
        3
176
     1
 62
     5
420
      255
176
     1
290
     0
176
     1
 90
       50
176
     1
 90
       50
176
     1
 90
       50
176
     1
290
     0
176
     1
 90
       50
176
     1
 62
   256
176
     0
 40
1.0
176
     0
 90
        2
176
     1
  1
strokes_ogs.tif
176
     1
290
     0
176
     1
 40
1.0
176
     1
 40
1.0
176
     1
  0
VISUALSTYLE
  5
3C
102
{ACAD_REACTORS
330
2A
102
}
330
2A
100
AcDbVisualStyle
  2
OverhangOff
 70
    21
177
     3
291
     1
 70
    58
 90
        2
176
     0
 90
        2
176
     0
 90
        0
176
     0
 90
        0
176
     0
 40
0.6
176
     0
 40
30.0
176
     0
 62
     7
420
 16777215
176
     0
 90
        1
176
     0
 90
        4
176
     0
 62
     7
176
     0
 62
   257
176
     0
 90
        1
176
     0
 90
        1
176
     0
 40
1.0
176
     0
 90
        9
176
     2
 62
     7
176
     0
 40
1.0
176
     0
 90
        1
176
     0
 90
        6
176
     0
 90
        2
176
     0
 62
     7
176
     0
 90
        5
176
     0
 90
        0
176
     0
 90
        0
176
     0
290
     0
176
     0
 90
        1
176
     0
 40
0.0
176
     0
 90
        0
176
     0
290
     0
176
     0
290
     1
176
     0
290
     1
176
     0
290
     0
176
     0
290
     0
176
     0
290
     0
176
     0
290
     0
176
     0
290
     0
176
     0
290
     0
176
     0
 90
       50
176
     0
 40
0.0
176
     0
 40
1.0
176
     0
 90
        0
176
     0
 62
   178
420
        0
176
     0
 90
       50
176
     0
 90
        3
176
     0
 62
     5
420
      255
176
     0
290
     0
176
     0
 90
       50
176
     0
 90
       50
176
     0
 90
       50
176
     0
290
     0
176
     0
 90
       50
176
     0
 62
   256
176
     0
 40
1.0
176
     0
 90
        2
176
     0
  1
strokes_ogs.tif
176
     0
290
     0
176
     0
 40
1.0
176
     0
 40
1.0
176
     0
  0
VISUALSTYLE
  5
33
102
{ACAD_REACTORS
330
2A
102
}
330
2A
100
AcDbVisualStyle
  2
Realistic
 70
     8
177
     3
291
     0
 70
    58
 90
        2
176
     1
 90
        3
176
     1
 90
        0
176
     1
 90
        2
176
     1
 40
0.6
176
     1
 40
30.0
176
     1
 62
     7
420
 16777215
176
     1
 90
        0
176
     1
 90
        0
176
     1
 62
     7
176
     1
 62
   257
176
     1
 90
        1
176
     1
 90
        1
176
     1
 40
1.0
176
     1
 90
        8
176
     1
 62
   257
176
     1
 40
1.0
176
     1
 90
        1
176
     1
 90
        6
176
     1
 90
        2
176
     1
 62
     7
176
     1
 90
        3
176
     1
 90
        0
176
     1
 90
        0
176
     1
290
     0
176
     1
 90
       13
176
     1
 40
0.0
176
     1
 90
        0
176
     1
290
     0
176
     1
290
     1
176
     1
290
     1
176
     1
290
     0
176
     1
290
     0
176
     1
290
     0
176
     1
290
     0
176
     1
290
     0
176
     1
290
     0
176
     1
 90
       50
176
     1
 40
0.0
176
     1
 40
1.0
176
     1
 90
        0
176
     1
 62
   178
420
        0
176
     1
 90
       50
176
     1
 90
        3
176
     1
 62
     5
420
      255
176
     1
290
     0
176
     1
 90
       50
176
     1
 90
       50
176
     1
 90
       50
176
     1
290
     0
176
     1
 90
       50
176
     1
 62
   256
176
     0
 40
1.0
176
     0
 90
        2
176
     1
  1
strokes_ogs.tif
176
     1
290
     0
176
     1
 40
1.0
176
     1
 40
1.0
176
     1
  0
VISUALSTYLE
  5
42
102
{ACAD_REACTORS
330
2A
102
}
330
2A
100
AcDbVisualStyle
  2
Shaded
 70
    27
177
     3
291
     0
 70
    58
 90
        2
176
     1
 90
        2
176
     1
 90
        1
176
     1
 90
        2
176
     1
 40
0.6
176
     1
 40
30.0
176
     1
 62
     7
420
 16777215
176
     1
 90
        0
176
     1
 90
        4
176
     1
 62
     7
176
     1
 62
   257
176
     1
 90
        1
176
     1
 90
        1
176
     1
 40
1.0
176
     1
 90
        8
176
     1
 62
   257
176
     1
 40
1.0
176
     1
 90
        1
176
     1
 90
        6
176
     1
 90
        2
176
     1
 62
     8
420
  7895160
176
     1
 90
        3
176
     1
 90
        0
176
     1
 90
        0
176
     1
290
     0
176
     1
 90
        5
176
     1
 40
0.0
176
     1
 90
        0
176
     1
290
     0
176
     1
290
     1
176
     1
290
     1
176
     1
290
     0
176
     1
290
     0
176
     1
290
     0
176
     1
290
     0
176
     1
290
     0
176
     1
290
     0
176
     1
 90
       50
176
     1
 40
0.0
176
     1
 40
1.0
176
     1
 90
        0
176
     1
 62
   178
420
        0
176
     1
 90
       50
176
     1
 90
        3
176
     1
 62
     5
420
      255
176
     1
290
     0
176
     1
 90
       50
176
     1
 90
       50
176
     1
 90
       50
176
     1
290
     0
176
     1
 90
       50
176
     1
 62
   256
176
     0
 40
1.0
176
     0
 90
        2
176
     1
  1
strokes_ogs.tif
176
     1
290
     0
176
     1
 40
1.0
176
     1
 40
1.0
176
     1
  0
VISUALSTYLE
  5
41
102
{ACAD_REACTORS
330
2A
102
}
330
2A
100
AcDbVisualStyle
  2
Shaded with edges
 70
    26
177
     3
291
     0
 70
    58
 90
        2
176
     1
 90
        2
176
     1
 90
        1
176
     1
 90
        2
176
     1
 40
0.6
176
     1
 40
30.0
176
     1
 62
     7
420
 16777215
176
     1
 90
        1
176
     1
 90
       10
176
     1
 62
     7
176
     1
 62
   257
176
     1
 90
        2
176
     1
 90
        1
176
     1
 40
1.0
176
     1
 90
        8
176
     1
 62
   257
176
     1
 40
1.0
176
     1
 90
        1
176
     1
 90
        6
176
     1
 90
        2
176
     1
 62
     7
176
     1
 90
        3
176
     1
 90
        0
176
     1
 90
        0
176
     1
290
     0
176
     1
 90
        5
176
     1
 40
0.0
176
     1
 90
        0
176
     1
290
     0
176
     1
290
     1
176
     1
290
     1
176
     1
290
     0
176
     1
290
     0
176
     1
290
     0
176
     1
290
     0
176
     1
290
     0
176
     1
290
     0
176
     1
 90
       50
176
     1
 40
0.0
176
     1
 40
1.0
176
     1
 90
        0
176
     1
 62
   178
420
        0
176
     1
 90
       50
176
     1
 90
        3
176
     1
 62
     5
420
      255
176
     1
290
     0
176
     1
 90
       50
176
     1
 90
       50
176
     1
 90
       50
176
     1
290
     0
176
     1
 90
       50
176
     1
 62
   256
176
     0
 40
1.0
176
     0
 90
        2
176
     1
  1
strokes_ogs.tif
176
     1
290
     0
176
     1
 40
1.0
176
     1
 40
1.0
176
     1
  0
VISUALSTYLE
  5
3E
102
{ACAD_REACTORS
330
2A
102
}
330
2A
100
AcDbVisualStyle
  2
Shades of Gray
 70
    23
177
     3
291
     0
 70
    58
 90
        2
176
     1
 90
        2
176
     1
 90
        3
176
     1
 90
        0
176
     1
 40
0.6
176
     1
 40
30.0
176
     1
 62
     7
420
 16777215
176
     1
 90
        2
176
     1
 90
        2
176
     1
 62
     7
176
     1
 62
     7
176
     1
 90
        1
176
     1
 90
        1
176
     1
 40
40.0
176
     1
 90
        8
176
     1
 62
     7
176
     1
 40
1.0
176
     1
 90
        1
176
     1
 90
        6
176
     1
 90
        2
176
     1
 62
     7
176
     1
 90
        3
176
     1
 90
        0
176
     1
 90
        0
176
     1
290
     0
176
     1
 90
        1
176
     1
 40
0.0
176
     1
 90
        0
176
     1
290
     0
176
     1
290
     1
176
     1
290
     1
176
     1
290
     0
176
     1
290
     0
176
     1
290
     0
176
     1
290
     0
176
     1
290
     0
176
     1
290
     0
176
     1
 90
       50
176
     1
 40
0.0
176
     1
 40
1.0
176
     1
 90
        0
176
     1
 62
   178
420
        0
176
     1
 90
       50
176
     1
 90
        3
176
     1
 62
     5
420
      255
176
     1
290
     0
176
     1
 90
       50
176
     1
 90
       50
176
     1
 90
       50
176
     1
290
     0
176
     1
 90
       50
176
     1
 62
   256
176
     0
 40
1.0
176
     0
 90
        2
176
     1
  1
strokes_ogs.tif
176
     1
290
     0
176
     1
 40
1.0
176
     1
 40
1.0
176
     1
  0
VISUALSTYLE
  5
3F
102
{ACAD_REACTORS
330
2A
102
}
330
2A
100
AcDbVisualStyle
  2
Sketchy
 70
    24
177
     3
291
     0
 70
    58
 90
        1
176
     1
 90
        2
176
     1
 90
        2
176
     1
 90
        0
176
     1
 40
0.6
176
     1
 40
30.0
176
     1
 62
     7
420
 16777215
176
     1
 90
        2
176
     1
 90
        2
176
     1
 62
     7
176
     1
 62
     7
176
     1
 90
        1
176
     1
 90
        1
176
     1
 40
40.0
176
     1
 90
       11
176
     1
 62
     7
176
     1
 40
1.0
176
     1
 90
        1
176
     1
 90
        6
176
     1
 90
        2
176
     1
 62
     7
176
     1
 90
        6
176
     1
 90
        0
176
     1
 90
        0
176
     1
290
     0
176
     1
 90
        1
176
     1
 40
0.0
176
     1
 90
        0
176
     1
290
     0
176
     1
290
     1
176
     1
290
     1
176
     1
290
     0
176
     1
290
     0
176
     1
290
     0
176
     1
290
     0
176
     1
290
     0
176
     1
290
     0
176
     1
 90
       50
176
     1
 40
0.0
176
     1
 40
1.0
176
     1
 90
        0
176
     1
 62
   178
420
        0
176
     1
 90
       50
176
     1
 90
        3
176
     1
 62
     5
420
      255
176
     1
290
     0
176
     1
 90
       50
176
     1
 90
       50
176
     1
 90
       50
176
     1
290
     0
176
     1
 90
       50
176
     1
 62
   256
176
     0
 40
1.0
176
     0
 90
        2
176
     1
  1
strokes_ogs.tif
176
     1
290
     0
176
     1
 40
1.0
176
     1
 40
1.0
176
     1
  0
VISUALSTYLE
  5
37
102
{ACAD_REACTORS
330
2A
102
}
330
2A
100
AcDbVisualStyle
  2
Thicken
 70
    13
177
     3
291
     1
 70
    58
 90
        2
176
     1
 90
        2
176
     1
 90
        0
176
     1
 90
        0
176
     1
 40
0.6
176
     1
 40
30.0
176
     1
 62
     7
420
 16777215
176
     1
 90
        1
176
     1
 90
        4
176
     1
 62
     7
176
     1
 62
   257
176
     1
 90
        1
176
     1
 90
        1
176
     1
 40
1.0
176
     1
 90
       12
176
     1
 62
     7
176
     1
 40
1.0
176
     1
 90
        1
176
     1
 90
        6
176
     1
 90
        2
176
     1
 62
     7
176
     1
 90
        5
176
     1
 90
        0
176
     1
 90
        0
176
     1
290
     0
176
     1
 90
        1
176
     1
 40
0.0
176
     1
 90
        0
176
     1
290
     0
176
     1
290
     1
176
     1
290
     1
176
     1
290
     0
176
     1
290
     0
176
     1
290
     0
176
     1
290
     0
176
     1
290
     0
176
     1
290
     0
176
     1
 90
       50
176
     1
 40
0.0
176
     1
 40
1.0
176
     1
 90
        0
176
     1
 62
   178
420
        0
176
     1
 90
       50
176
     1
 90
        3
176
     1
 62
     5
420
      255
176
     1
290
     0
176
     1
 90
       50
176
     1
 90
       50
176
     1
 90
       50
176
     1
290
     0
176
     1
 90
       50
176
     1
 62
   256
176
     0
 40
1.0
176
     0
 90
        2
176
     1
  1
strokes_ogs.tif
176
     1
290
     0
176
     1
 40
1.0
176
     1
 40
1.0
176
     1
  0
VISUALSTYLE
  5
30
102
{ACAD_REACTORS
330
2A
102
}
330
2A
100
AcDbVisualStyle
  2
Wireframe
 70
     5
177
     3
291
     0
 70
    58
 90
        0
176
     1
 90
        2
176
     1
 90
        0
176
     1
 90
        0
176
     1
 40
0.6
176
     1
 40
30.0
176
     1
 62
     7
420
 16777215
176
     1
 90
        1
176
     1
 90
        4
176
     1
 62
     7
176
     1
 62
   257
176
     1
 90
        1
176
     1
 90
        1
176
     1
 40
1.0
176
     1
 90
        0
176
     1
 62
   257
176
     1
 40
1.0
176
     1
 90
        1
176
     1
 90
        6
176
     1
 90
        2
176
     1
 62
     7
176
     1
 90
        3
176
     1
 90
        0
176
     1
 90
        0
176
     1
290
     0
176
     1
 90
        1
176
     1
 40
0.0
176
     1
 90
        0
176
     1
290
     0
176
     1
290
     1
176
     1
290
     1
176
     1
290
     0
176
     1
290
     0
176
     1
290
     0
176
     1
290
     0
176
     1
290
     0
176
     1
290
     0
176
     1
 90
       50
176
     1
 40
0.0
176
     1
 40
1.0
176
     1
 90
        0
176
     1
 62
   178
420
        0
176
     1
 90
       50
176
     1
 90
        3
176
     1
 62
     5
420
      255
176
     1
290
     0
176
     1
 90
       50
176
     1
 90
       50
176
     1
 90
       50
176
     1
290
     0
176
     1
 90
       50
176
     1
 62
   256
176
     0
 40
1.0
176
     0
 90
        2
176
     1
  1
strokes_ogs.tif
176
     1
290
     0
176
     1
 40
1.0
176
     1
 40
1.0
176
     1
  0
VISUALSTYLE
  5
40
102
{ACAD_REACTORS
330
2A
102
}
330
2A
100
AcDbVisualStyle
  2
X-Ray
 70
    25
177
     3
291
     0
 70
    58
 90
        2
176
     1
 90
        2
176
     1
 90
        1
176
     1
 90
        1
176
     1
 40
0.5
176
     1
 40
30.0
176
     1
 62
     7
420
 16777215
176
     1
 90
        1
176
     1
 90
        0
176
     1
 62
     7
176
     1
 62
   257
176
     1
 90
        1
176
     1
 90
        1
176
     1
 40
1.0
176
     1
 90
        8
176
     1
 62
     7
176
     1
 40
1.0
176
     1
 90
        1
176
     1
 90
        6
176
     1
 90
        2
176
     1
 62
     7
176
     1
 90
        3
176
     1
 90
        0
176
     1
 90
        0
176
     1
290
     0
176
     1
 90
       13
176
     1
 40
0.0
176
     1
 90
        0
176
     1
290
     0
176
     1
290
     1
176
     1
290
     1
176
     1
290
     0
176
     1
290
     0
176
     1
290
     0
176
     1
290
     0
176
     1
290
     0
176
     1
290
     0
176
     1
 90
       50
176
     1
 40
0.0
176
     1
 40
1.0
176
     1
 90
        0
176
     1
 62
   178
420
        0
176
     1
 90
       50
176
     1
 90
        3
176
     1
 62
     5
420
      255
176
     1
290
     0
176
     1
 90
       50
176
     1
 90
       50
176
     1
 90
       50
176
     1
290
     0
176
     1
 90
       50
176
     1
 62
   256
176
     0
 40
1.0
176
     0
 90
        2
176
     1
  1
strokes_ogs.tif
176
     1
290
     0
176
     1
 40
1.0
176
     1
 40
1.0
176
     1
  0
DICTIONARYVAR
  5
3BE
102
{ACAD_REACTORS
330
3BD
102
}
330
3BD
100
DictionaryVariables
280
     0
  1
1:1
  0
DICTIONARYVAR
  5
3C3
102
{ACAD_REACTORS
330
3BD
102
}
330
3BD
100
DictionaryVariables
280
     0
  1
Standard
  0
DICTIONARYVAR
  5
3C2
102
{ACAD_REACTORS
330
3BD
102
}
330
3BD
100
DictionaryVariables
280
     0
  1
Standard
  0
DICTIONARY
  5
3BF
330
6A
100
AcDbDictionary
280
     1
281
     1
  3
ACAD_ROUNDTRIP_2008_TABLESTYLE_CELLSTYLEMAP
360
3C0
  0
CELLSTYLEMAP
  5
3C0
102
{ACAD_REACTORS
330
3BF
102
}
330
3BF
100
AcDbCellStyleMap
 90
        3
300
CELLSTYLE
  1
TABLEFORMAT_BEGIN
 90
        5
170
     1
 91
        0
 92
    32768
 62
   257
 93
        1
300
CONTENTFORMAT
  1
CONTENTFORMAT_BEGIN
 90
        0
 91
        0
 92
        4
 93
        0
300

 40
0.0
140
1.0
 94
        5
 62
     0
340
11
144
6.0
309
CONTENTFORMAT_END
171
     1
301
MARGIN
  1
CELLMARGIN_BEGIN
 40
1.5
 40
1.5
 40
1.5
 40
1.5
 40
1.5
 40
1.5
309
CELLMARGIN_END
 94
        6
 95
        1
302
GRIDFORMAT
  1
GRIDFORMAT_BEGIN
 90
        0
 91
        1
 62
     0
 92
       -2
340
14
 93
        0
 40
0.045
309
GRIDFORMAT_END
 95
        2
302
GRIDFORMAT
  1
GRIDFORMAT_BEGIN
 90
        0
 91
        1
 62
     0
 92
       -2
340
14
 93
        0
 40
0.045
309
GRIDFORMAT_END
 95
        4
302
GRIDFORMAT
  1
GRIDFORMAT_BEGIN
 90
        0
 91
        1
 62
     0
 92
       -2
340
14
 93
        0
 40
0.045
309
GRIDFORMAT_END
 95
        8
302
GRIDFORMAT
  1
GRIDFORMAT_BEGIN
 90
        0
 91
        1
 62
     0
 92
       -2
340
14
 93
        0
 40
0.045
309
GRIDFORMAT_END
 95
       16
302
GRIDFORMAT
  1
GRIDFORMAT_BEGIN
 90
        0
 91
        1
 62
     0
 92
       -2
340
14
 93
        0
 40
0.045
309
GRIDFORMAT_END
 95
       32
302
GRIDFORMAT
  1
GRIDFORMAT_BEGIN
 90
        0
 91
        1
 62
     0
 92
       -2
340
14
 93
        0
 40
0.045
309
GRIDFORMAT_END
309
TABLEFORMAT_END
  1
CELLSTYLE_BEGIN
 90
        1
 91
        1
300
_TITLE
309
CELLSTYLE_END
300
CELLSTYLE
  1
TABLEFORMAT_BEGIN
 90
        5
170
     1
 91
        0
 92
        0
 62
   257
 93
        1
300
CONTENTFORMAT
  1
CONTENTFORMAT_BEGIN
 90
        0
 91
        0
 92
        4
 93
        0
300

 40
0.0
140
1.0
 94
        5
 62
     0
340
11
144
4.5
309
CONTENTFORMAT_END
171
     1
301
MARGIN
  1
CELLMARGIN_BEGIN
 40
1.5
 40
1.5
 40
1.5
 40
1.5
 40
1.5
 40
1.5
309
CELLMARGIN_END
 94
        6
 95
        1
302
GRIDFORMAT
  1
GRIDFORMAT_BEGIN
 90
        0
 91
        1
 62
     0
 92
       -2
340
14
 93
        0
 40
0.045
309
GRIDFORMAT_END
 95
        2
302
GRIDFORMAT
  1
GRIDFORMAT_BEGIN
 90
        0
 91
        1
 62
     0
 92
       -2
340
14
 93
        0
 40
0.045
309
GRIDFORMAT_END
 95
        4
302
GRIDFORMAT
  1
GRIDFORMAT_BEGIN
 90
        0
 91
        1
 62
     0
 92
       -2
340
14
 93
        0
 40
0.045
309
GRIDFORMAT_END
 95
        8
302
GRIDFORMAT
  1
GRIDFORMAT_BEGIN
 90
        0
 91
        1
 62
     0
 92
       -2
340
14
 93
        0
 40
0.045
309
GRIDFORMAT_END
 95
       16
302
GRIDFORMAT
  1
GRIDFORMAT_BEGIN
 90
        0
 91
        1
 62
     0
 92
       -2
340
14
 93
        0
 40
0.045
309
GRIDFORMAT_END
 95
       32
302
GRIDFORMAT
  1
GRIDFORMAT_BEGIN
 90
        0
 91
        1
 62
     0
 92
       -2
340
14
 93
        0
 40
0.045
309
GRIDFORMAT_END
309
TABLEFORMAT_END
  1
CELLSTYLE_BEGIN
 90
        2
 91
        1
300
_HEADER
309
CELLSTYLE_END
300
CELLSTYLE
  1
TABLEFORMAT_BEGIN
 90
        5
170
     1
 91
        0
 92
        0
 62
   257
 93
        1
300
CONTENTFORMAT
  1
CONTENTFORMAT_BEGIN
 90
        0
 91
        0
 92
        4
 93
        0
300

 40
0.0
140
1.0
 94
        2
 62
     0
340
11
144
4.5
309
CONTENTFORMAT_END
171
     1
301
MARGIN
  1
CELLMARGIN_BEGIN
 40
1.5
 40
1.5
 40
1.5
 40
1.5
 40
1.5
 40
1.5
309
CELLMARGIN_END
 94
        6
 95
        1
302
GRIDFORMAT
  1
GRIDFORMAT_BEGIN
 90
        0
 91
        1
 62
     0
 92
       -2
340
14
 93
        0
 40
0.045
309
GRIDFORMAT_END
 95
        2
302
GRIDFORMAT
  1
GRIDFORMAT_BEGIN
 90
        0
 91
        1
 62
     0
 92
       -2
340
14
 93
        0
 40
0.045
309
GRIDFORMAT_END
 95
        4
302
GRIDFORMAT
  1
GRIDFORMAT_BEGIN
 90
        0
 91
        1
 62
     0
 92
       -2
340
14
 93
        0
 40
0.045
309
GRIDFORMAT_END
 95
        8
302
GRIDFORMAT
  1
GRIDFORMAT_BEGIN
 90
        0
 91
        1
 62
     0
 92
       -2
340
14
 93
        0
 40
0.045
309
GRIDFORMAT_END
 95
       16
302
GRIDFORMAT
  1
GRIDFORMAT_BEGIN
 90
        0
 91
        1
 62
     0
 92
       -2
340
14
 93
        0
 40
0.045
309
GRIDFORMAT_END
 95
       32
302
GRIDFORMAT
  1
GRIDFORMAT_BEGIN
 90
        0
 91
        1
 62
     0
 92
       -2
340
14
 93
        0
 40
0.045
309
GRIDFORMAT_END
309
TABLEFORMAT_END
  1
CELLSTYLE_BEGIN
 90
        3
 91
        2
300
_DATA
309
CELLSTYLE_END
  0
ENDSEC
  0
EOF
