  0
SECTION
  2
HEADER
  9
$ACADVER
  1
AC1027
  9
$ACADMAINTVER
 70
     8
  9
$DWGCODEPAGE
  3
ANSI_1252
  9
$REQUIREDVERSIONS
160
                 0
  9
$INSBASE
 10
0.0
 20
0.0
 30
0.0
  9
$EXTMIN
 10
0.0
 20
0.0
 30
0.0
  9
$EXTMAX
 10
210.0
 20
297.0
 30
0.0
  9
$LIMMIN
 10
0.0
 20
0.0
  9
$LIMMAX
 10
210.0
 20
297.0
  9
$ORTHOMODE
 70
     0
  9
$REGENMODE
 70
     1
  9
$FILLMODE
 70
     1
  9
$QTEXTMODE
 70
     0
  9
$MIRRTEXT
 70
     1
  9
$LTSCALE
 40
1.0
  9
$ATTMODE
 70
     1
  9
$TEXTSIZE
 40
2.5
  9
$TRACEWID
 40
1.0
  9
$TEXTSTYLE
  7
Standard
  9
$CLAYER
  8
Dimension
  9
$CELTYPE
  6
ByLayer
  9
$CECOLOR
 62
   256
  9
$CELTSCALE
 40
1.0
  9
$DISPSILH
 70
     0
  9
$DIMSCALE
 40
1.0
  9
$DIMASZ
 40
2.5
  9
$DIMEXO
 40
0.625
  9
$DIMDLI
 40
3.75
  9
$DIMRND
 40
0.0
  9
$DIMDLE
 40
0.0
  9
$DIMEXE
 40
1.25
  9
$DIMTP
 40
0.0
  9
$DIMTM
 40
0.0
  9
$DIMTXT
 40
2.5
  9
$DIMCEN
 40
2.5
  9
$DIMTSZ
 40
0.0
  9
$DIMTOL
 70
     0
  9
$DIMLIM
 70
     0
  9
$DIMTIH
 70
     0
  9
$DIMTOH
 70
     0
  9
$DIMSE1
 70
     0
  9
$DIMSE2
 70
     0
  9
$DIMTAD
 70
     1
  9
$DIMZIN
 70
     8
  9
$DIMBLK
  1

  9
$DIMASO
 70
     1
  9
$DIMSHO
 70
     1
  9
$DIMPOST
  1

  9
$DIMAPOST
  1

  9
$DIMALT
 70
     0
  9
$DIMALTD
 70
     3
  9
$DIMALTF
 40
0.03937007874016
  9
$DIMLFAC
 40
1.0
  9
$DIMTOFL
 70
     1
  9
$DIMTVP
 40
0.0
  9
$DIMTIX
 70
     0
  9
$DIMSOXD
 70
     0
  9
$DIMSAH
 70
     0
  9
$DIMBLK1
  1

  9
$DIMBLK2
  1

  9
$DIMSTYLE
  2
ISO-25
  9
$DIMCLRD
 70
     0
  9
$DIMCLRE
 70
     0
  9
$DIMCLRT
 70
     0
  9
$DIMTFAC
 40
1.0
  9
$DIMGAP
 40
0.625
  9
$DIMJUST
 70
     0
  9
$DIMSD1
 70
     0
  9
$DIMSD2
 70
     0
  9
$DIMTOLJ
 70
     0
  9
$DIMTZIN
 70
     8
  9
$DIMALTZ
 70
     0
  9
$DIMALTTZ
 70
     0
  9
$DIMUPT
 70
     0
  9
$DIMDEC
 70
     2
  9
$DIMTDEC
 70
     2
  9
$DIMALTU
 70
     2
  9
$DIMALTTD
 70
     3
  9
$DIMTXSTY
  7
Standard
  9
$DIMAUNIT
 70
     0
  9
$DIMADEC
 70
     0
  9
$DIMALTRND
 40
0.0
  9
$DIMAZIN
 70
     0
  9
$DIMDSEP
 70
    44
  9
$DIMATFIT
 70
     3
  9
$DIMFRAC
 70
     0
  9
$DIMLDRBLK
  1

  9
$DIMLUNIT
 70
     2
  9
$DIMLWD
 70
    -2
  9
$DIMLWE
 70
    -2
  9
$DIMTMOVE
 70
     0
  9
$DIMFXL
 40
1.0
  9
$DIMFXLON
 70
     0
  9
$DIMJOGANG
 40
0.7853981633974483
  9
$DIMTFILL
 70
     0
  9
$DIMTFILLCLR
 70
     0
  9
$DIMARCSYM
 70
     0
  9
$DIMLTYPE
  6

  9
$DIMLTEX1
  6

  9
$DIMLTEX2
  6

  9
$DIMTXTDIRECTION
 70
     0
  9
$LUNITS
 70
     2
  9
$LUPREC
 70
     4
  9
$SKETCHINC
 40
1.0
  9
$FILLETRAD
 40
10.0
  9
$AUNITS
 70
     0
  9
$AUPREC
 70
     0
  9
$MENU
  1
.
  9
$ELEVATION
 40
0.0
  9
$PELEVATION
 40
0.0
  9
$THICKNESS
 40
0.0
  9
$LIMCHECK
 70
     0
  9
$CHAMFERA
 40
0.0
  9
$CHAMFERB
 40
0.0
  9
$CHAMFERC
 40
0.0
  9
$CHAMFERD
 40
0.0
  9
$SKPOLY
 70
     0
  9
$TDCREATE
 40
2457520.497569445
  9
$TDUCREATE
 40
2457520.789236111
  9
$TDUPDATE
 40
2457520.497569445
  9
$TDUUPDATE
 40
2457520.789236111
  9
$TDINDWG
 40
0.0000000116
  9
$TDUSRTIMER
 40
0.0000000116
  9
$USRTIMER
 70
     1
  9
$ANGBASE
 50
0.0
  9
$ANGDIR
 70
     0
  9
$PDMODE
 70
     0
  9
$PDSIZE
 40
0.0
  9
$PLINEWID
 40
0.0
  9
$SPLFRAME
 70
     0
  9
$SPLINETYPE
 70
     6
  9
$SPLINESEGS
 70
     8
  9
$HANDSEED
  5
3EC
  9
$SURFTAB1
 70
     6
  9
$SURFTAB2
 70
     6
  9
$SURFTYPE
 70
     6
  9
$SURFU
 70
     6
  9
$SURFV
 70
     6
  9
$UCSBASE
  2

  9
$UCSNAME
  2

  9
$UCSORG
 10
0.0
 20
0.0
 30
0.0
  9
$UCSXDIR
 10
1.0
 20
0.0
 30
0.0
  9
$UCSYDIR
 10
0.0
 20
1.0
 30
0.0
  9
$UCSORTHOREF
  2

  9
$UCSORTHOVIEW
 70
     0
  9
$UCSORGTOP
 10
0.0
 20
0.0
 30
0.0
  9
$UCSORGBOTTOM
 10
0.0
 20
0.0
 30
0.0
  9
$UCSORGLEFT
 10
0.0
 20
0.0
 30
0.0
  9
$UCSORGRIGHT
 10
0.0
 20
0.0
 30
0.0
  9
$UCSORGFRONT
 10
0.0
 20
0.0
 30
0.0
  9
$UCSORGBACK
 10
0.0
 20
0.0
 30
0.0
  9
$PUCSBASE
  2

  9
$PUCSNAME
  2

  9
$PUCSORG
 10
0.0
 20
0.0
 30
0.0
  9
$PUCSXDIR
 10
1.0
 20
0.0
 30
0.0
  9
$PUCSYDIR
 10
0.0
 20
1.0
 30
0.0
  9
$PUCSORTHOREF
  2

  9
$PUCSORTHOVIEW
 70
     0
  9
$PUCSORGTOP
 10
0.0
 20
0.0
 30
0.0
  9
$PUCSORGBOTTOM
 10
0.0
 20
0.0
 30
0.0
  9
$PUCSORGLEFT
 10
0.0
 20
0.0
 30
0.0
  9
$PUCSORGRIGHT
 10
0.0
 20
0.0
 30
0.0
  9
$PUCSORGFRONT
 10
0.0
 20
0.0
 30
0.0
  9
$PUCSORGBACK
 10
0.0
 20
0.0
 30
0.0
  9
$USERI1
 70
     0
  9
$USERI2
 70
     0
  9
$USERI3
 70
     0
  9
$USERI4
 70
     0
  9
$USERI5
 70
     0
  9
$USERR1
 40
0.0
  9
$USERR2
 40
0.0
  9
$USERR3
 40
0.0
  9
$USERR4
 40
0.0
  9
$USERR5
 40
0.0
  9
$WORLDVIEW
 70
     1
  9
$SHADEDGE
 70
     3
  9
$SHADEDIF
 70
    70
  9
$TILEMODE
 70
     1
  9
$MAXACTVP
 70
    64
  9
$PINSBASE
 10
0.0
 20
0.0
 30
0.0
  9
$PLIMCHECK
 70
     0
  9
$PEXTMIN
 10
1.000000000000000E+20
 20
1.000000000000000E+20
 30
1.000000000000000E+20
  9
$PEXTMAX
 10
-1.000000000000000E+20
 20
-1.000000000000000E+20
 30
-1.000000000000000E+20
  9
$PLIMMIN
 10
0.0
 20
0.0
  9
$PLIMMAX
 10
420.0
 20
297.0
  9
$UNITMODE
 70
     0
  9
$VISRETAIN
 70
     1
  9
$PLINEGEN
 70
     0
  9
$PSLTSCALE
 70
     1
  9
$TREEDEPTH
 70
  3020
  9
$CMLSTYLE
  2
Standard
  9
$CMLJUST
 70
     0
  9
$CMLSCALE
 40
20.0
  9
$PROXYGRAPHICS
 70
     1
  9
$MEASUREMENT
 70
     1
  9
$CELWEIGHT
370
    -1
  9
$ENDCAPS
280
     0
  9
$JOINSTYLE
280
     0
  9
$LWDISPLAY
290
     0
  9
$INSUNITS
 70
     4
  9
$HYPERLINKBASE
  1

  9
$STYLESHEET
  1

  9
$XEDIT
290
     1
  9
$CEPSNTYPE
380
     0
  9
$PSTYLEMODE
290
     1
  9
$FINGERPRINTGUID
  2
{19c41575-2ddf-4d9e-a212-2b01709f5012}
  9
$VERSIONGUID
  2
{FAEB1C32-E019-11D5-929B-00C0DF256EC4}
  9
$EXTNAMES
290
     1
  9
$PSVPSCALE
 40
0.0
  9
$OLESTARTUP
290
     0
  9
$SORTENTS
280
   127
  9
$INDEXCTL
280
     0
  9
$HIDETEXT
280
     1
  9
$XCLIPFRAME
280
     2
  9
$HALOGAP
280
     0
  9
$OBSCOLOR
 70
   257
  9
$OBSLTYPE
280
     0
  9
$INTERSECTIONDISPLAY
280
     0
  9
$INTERSECTIONCOLOR
 70
   257
  9
$DIMASSOC
280
     2
  9
$PROJECTNAME
  1

  9
$CAMERADISPLAY
290
     0
  9
$LENSLENGTH
 40
50.0
  9
$CAMERAHEIGHT
 40
0.0
  9
$STEPSPERSEC
 40
2.0
  9
$STEPSIZE
 40
6.0
  9
$3DDWFPREC
 40
2.0
  9
$PSOLWIDTH
 40
5.0
  9
$PSOLHEIGHT
 40
80.0
  9
$LOFTANG1
 40
1.570796326794897
  9
$LOFTANG2
 40
1.570796326794897
  9
$LOFTMAG1
 40
0.0
  9
$LOFTMAG2
 40
0.0
  9
$LOFTPARAM
 70
     7
  9
$LOFTNORMALS
280
     1
  9
$LATITUDE
 40
37.795
  9
$LONGITUDE
 40
-122.394
  9
$NORTHDIRECTION
 40
0.0
  9
$TIMEZONE
 70
 -8000
  9
$LIGHTGLYPHDISPLAY
280
     1
  9
$TILEMODELIGHTSYNCH
280
     1
  9
$CMATERIAL
347
44
  9
$SOLIDHIST
280
     0
  9
$SHOWHIST
280
     1
  9
$DWFFRAME
280
     2
  9
$DGNFRAME
280
     2
  9
$REALWORLDSCALE
290
     1
  9
$INTERFERECOLOR
 62
   256
  9
$CSHADOW
280
     0
  9
$SHADOWPLANELOCATION
 40
0.0
  0
ENDSEC
  0
SECTION
  2
CLASSES
  0
CLASS
  1
ACDBDICTIONARYWDFLT
  2
AcDbDictionaryWithDefault
  3
ObjectDBX Classes
 90
        0
 91
        4
280
     0
281
     0
  0
CLASS
  1
VISUALSTYLE
  2
AcDbVisualStyle
  3
ObjectDBX Classes
 90
     4095
 91
        4
280
     0
281
     0
  0
CLASS
  1
MATERIAL
  2
AcDbMaterial
  3
ObjectDBX Classes
 90
     1153
 91
        4
280
     0
281
     0
  0
CLASS
  1
SCALE
  2
AcDbScale
  3
ObjectDBX Classes
 90
     1153
 91
        4
280
     0
281
     0
  0
CLASS
  1
TABLESTYLE
  2
AcDbTableStyle
  3
ObjectDBX Classes
 90
     4095
 91
        4
280
     0
281
     0
  0
CLASS
  1
MLEADERSTYLE
  2
AcDbMLeaderStyle
  3
ACDB_MLEADERSTYLE_CLASS
 90
     4095
 91
        4
280
     0
281
     0
  0
CLASS
  1
SUN
  2
AcDbSun
  3
SCENEOE
 90
     1153
 91
        4
280
     0
281
     0
  0
CLASS
  1
DICTIONARYVAR
  2
AcDbDictionaryVar
  3
ObjectDBX Classes
 90
        0
 91
        4
280
     0
281
     0
  0
CLASS
  1
CELLSTYLEMAP
  2
AcDbCellStyleMap
  3
ObjectDBX Classes
 90
     1152
 91
        4
280
     0
281
     0
  0
ENDSEC
  0
SECTION
  2
TABLES
  0
TABLE
  2
VPORT
  5
8
330
0
100
AcDbSymbolTable
 70
     1
  0
VPORT
  5
29
330
8
100
AcDbSymbolTableRecord
100
AcDbViewportTableRecord
  2
*Active
 70
     0
 10
0.0
 20
0.0
 11
1.0
 21
1.0
 12
124.1963044371381
 22
150.2245043019538
 13
0.0
 23
0.0
 14
10.0
 24
10.0
 15
10.0
 25
10.0
 16
0.0
 26
0.0
 36
1.0
 17
0.0
 27
0.0
 37
0.0
 40
340.5799512639456
 41
1.863590772316951
 42
50.0
 43
0.0
 44
0.0
 50
0.0
 51
0.0
 71
     0
 72
   100
 73
     1
 74
     3
 75
     0
 76
     0
 77
     0
 78
     0
281
     0
 65
     1
110
0.0
120
0.0
130
0.0
111
1.0
121
0.0
131
0.0
112
0.0
122
1.0
132
0.0
 79
     0
146
0.0
348
2F
 60
     3
 61
     5
292
     1
282
     1
141
0.0
142
0.0
 63
   250
361
6D
  0
ENDTAB
  0
TABLE
  2
LTYPE
  5
5
330
0
100
AcDbSymbolTable
 70
     7
  0
LTYPE
  5
14
330
5
100
AcDbSymbolTableRecord
100
AcDbLinetypeTableRecord
  2
ByBlock
 70
     0
  3

 72
    65
 73
     0
 40
0.0
  0
LTYPE
  5
15
330
5
100
AcDbSymbolTableRecord
100
AcDbLinetypeTableRecord
  2
ByLayer
 70
     0
  3

 72
    65
 73
     0
 40
0.0
  0
LTYPE
  5
16
330
5
100
AcDbSymbolTableRecord
100
AcDbLinetypeTableRecord
  2
Continuous
 70
     0
  3
Solid line
 72
    65
 73
     0
 40
0.0
  0
LTYPE
  5
6E
330
5
100
AcDbSymbolTableRecord
100
AcDbLinetypeTableRecord
  2
DOT
 70
     0
  3
Dot . . . . . . . . . . . . . . . . . . . . . . . .
 72
    65
 73
     2
 40
2.032
 49
1.016
 74
     0
 49
-1.016
 74
     0
  0
LTYPE
  5
6F
330
5
100
AcDbSymbolTableRecord
100
AcDbLinetypeTableRecord
  2
CENTER
 70
     0
  3
Center ____ _ ____ _ ____ _ ____ _ ____ _ ____
 72
    65
 73
     4
 40
13.208
 49
8.128
 74
     0
 49
-1.524
 74
     0
 49
2.032
 74
     0
 49
-1.524
 74
     0
  0
LTYPE
  5
70
330
5
100
AcDbSymbolTableRecord
100
AcDbLinetypeTableRecord
  2
HIDDEN2
 70
     0
  3
Hidden (.5x) _ _ _ _ _ _ _ _ _ _ _ _ _ _ _ _ _
 72
    65
 73
     2
 40
4.762499999999999
 49
3.175
 74
     0
 49
-1.5875
 74
     0
  0
LTYPE
  5
71
330
5
100
AcDbSymbolTableRecord
100
AcDbLinetypeTableRecord
  2
DASHED
 70
     0
  3
Dashed __ __ __ __ __ __ __ __ __ __ __ __ __ _
 72
    65
 73
     2
 40
9.652
 49
8.128
 74
     0
 49
-1.524
 74
     0
  0
LTYPE
  5
72
330
5
100
AcDbSymbolTableRecord
100
AcDbLinetypeTableRecord
  2
PHANTOM2
 70
     0
  3
Phantom (.5x) ___ _ _ ___ _ _ ___ _ _ ___ _ _
 72
    65
 73
     6
 40
14.732
 49
8.128
 74
     0
 49
-1.524
 74
     0
 49
1.016
 74
     0
 49
-1.524
 74
     0
 49
1.016
 74
     0
 49
-1.524
 74
     0
  0
LTYPE
  5
73
330
5
100
AcDbSymbolTableRecord
100
AcDbLinetypeTableRecord
  2
DASHDOT
 70
     0
  3
Dash dot __ . __ . __ . __ . __ . __ . __ . __
 72
    65
 73
     4
 40
11.176
 49
8.128
 74
     0
 49
-1.524
 74
     0
 49
0.0
 74
     0
 49
-1.524
 74
     0
  0
ENDTAB
  0
TABLE
  2
LAYER
  5
2
330
0
100
AcDbSymbolTable
 70
     8
  0
LAYER
  5
10
330
2
100
AcDbSymbolTableRecord
100
AcDbLayerTableRecord
  2
0
 70
     0
 62
     7
  6
Continuous
370
    -3
390
F
347
46
348
0
  0
LAYER
  5
74
330
2
100
AcDbSymbolTableRecord
100
AcDbLayerTableRecord
  2
Outline
 70
     0
 62
     7
  6
Continuous
370
    -3
390
F
347
46
348
0
  0
LAYER
  5
75
330
2
100
AcDbSymbolTableRecord
100
AcDbLayerTableRecord
  2
Axis
 70
     0
 62
     5
  6
DASHDOT
370
    -3
390
F
347
46
348
0
  0
LAYER
  5
76
330
2
100
AcDbSymbolTableRecord
100
AcDbLayerTableRecord
  2
Dimension
 70
     0
 62
     7
  6
Continuous
370
    -3
390
F
347
46
348
0
  0
LAYER
  5
77
330
2
100
AcDbSymbolTableRecord
100
AcDbLayerTableRecord
  2
Hatch
 70
     0
 62
     5
  6
Continuous
370
    -3
390
F
347
46
348
0
  0
LAYER
  5
78
330
2
100
AcDbSymbolTableRecord
100
AcDbLayerTableRecord
  2
Auxiliary
 70
     0
 62
     1
  6
DOT
370
    -3
390
F
347
46
348
0
  0
LAYER
  5
79
330
2
100
AcDbSymbolTableRecord
100
AcDbLayerTableRecord
  2
Invisible
 70
     0
 62
     6
  6
DOT
370
    -3
390
F
347
46
348
0
  0
LAYER
  5
A3
330
2
100
AcDbSymbolTableRecord
100
AcDbLayerTableRecord
  2
Defpoints
 70
     0
 62
     7
  6
Continuous
290
     0
370
    -3
390
F
347
46
348
0
  0
ENDTAB
  0
TABLE
  2
STYLE
  5
3
330
0
100
AcDbSymbolTable
 70
    33
  0
STYLE
  5
11
330
3
100
AcDbSymbolTableRecord
100
AcDbTextStyleTableRecord
  2
Standard
 70
     0
 40
0.0
 41
1.0
 50
0.0
 71
     0
 42
2.5
  3
txt
  4

  0
STYLE
  5
7A
330
3
100
AcDbSymbolTableRecord
100
AcDbTextStyleTableRecord
  2
VCDSTYLE01
 70
     0
 40
0.0
 41
1.0
 50
0.0
 71
     0
 42
2.5
  3
txt
  4

  0
STYLE
  5
7B
330
3
100
AcDbSymbolTableRecord
100
AcDbTextStyleTableRecord
  2
VCDSTYLE02
 70
     0
 40
0.0
 41
1.0
 50
0.0
 71
     0
 42
2.5
  3
txt
  4

  0
STYLE
  5
7C
330
3
100
AcDbSymbolTableRecord
100
AcDbTextStyleTableRecord
  2
VCDSTYLE03
 70
     0
 40
0.0
 41
1.0
 50
0.0
 71
     0
 42
2.5
  3
txt
  4

  0
STYLE
  5
7D
330
3
100
AcDbSymbolTableRecord
100
AcDbTextStyleTableRecord
  2
VCDSTYLE04
 70
     0
 40
0.0
 41
1.0
 50
0.0
 71
     0
 42
2.5
  3
txt
  4

  0
STYLE
  5
7E
330
3
100
AcDbSymbolTableRecord
100
AcDbTextStyleTableRecord
  2
VCDSTYLE05
 70
     0
 40
0.0
 41
1.0
 50
0.0
 71
     0
 42
2.5
  3
txt
  4

  0
STYLE
  5
7F
330
3
100
AcDbSymbolTableRecord
100
AcDbTextStyleTableRecord
  2
VCDSTYLE06
 70
     0
 40
0.0
 41
1.0
 50
0.0
 71
     0
 42
2.5
  3
txt
  4

  0
STYLE
  5
80
330
3
100
AcDbSymbolTableRecord
100
AcDbTextStyleTableRecord
  2
VCDSTYLE07
 70
     0
 40
0.0
 41
1.0
 50
0.0
 71
     0
 42
2.5
  3
txt
  4

  0
STYLE
  5
81
330
3
100
AcDbSymbolTableRecord
100
AcDbTextStyleTableRecord
  2
VCDSTYLE08
 70
     0
 40
0.0
 41
1.0
 50
0.0
 71
     0
 42
2.5
  3
txt
  4

  0
STYLE
  5
82
330
3
100
AcDbSymbolTableRecord
100
AcDbTextStyleTableRecord
  2
VCDSTYLE09
 70
     0
 40
0.0
 41
1.0
 50
0.0
 71
     0
 42
2.5
  3
txt
  4

  0
STYLE
  5
83
330
3
100
AcDbSymbolTableRecord
100
AcDbTextStyleTableRecord
  2
VCDSTYLE10
 70
     0
 40
0.0
 41
1.0
 50
0.0
 71
     0
 42
2.5
  3
Sans Serif.ttf
  4

1001
ACAD
1000
Sans Serif
1071
        0
  0
STYLE
  5
84
330
3
100
AcDbSymbolTableRecord
100
AcDbTextStyleTableRecord
  2
VCDSTYLE11
 70
     0
 40
0.0
 41
1.0
 50
0.0
 71
     0
 42
2.5
  3
Sans Serif.ttf
  4

1001
ACAD
1000
Sans Serif
1071
 16777216
  0
STYLE
  5
85
330
3
100
AcDbSymbolTableRecord
100
AcDbTextStyleTableRecord
  2
VCDSTYLE12
 70
     0
 40
0.0
 41
1.0
 50
0.0
 71
     0
 42
2.5
  3
DejaVu Sans.ttf
  4

1001
ACAD
1000
DejaVu Sans
1071
        0
  0
STYLE
  5
86
330
3
100
AcDbSymbolTableRecord
100
AcDbTextStyleTableRecord
  2
VCDSTYLE13
 70
     0
 40
0.0
 41
1.0
 50
0.0
 71
     0
 42
2.5
  3
DejaVu Sans.ttf
  4

1001
ACAD
1000
DejaVu Sans
1071
 16777216
  0
STYLE
  5
87
330
3
100
AcDbSymbolTableRecord
100
AcDbTextStyleTableRecord
  2
VCDSTYLE14
 70
     0
 40
0.0
 41
1.0
 50
0.0
 71
     0
 42
2.5
  3
DejaVu Sans Mono.ttf
  4

1001
ACAD
1000
DejaVu Sans Mono
1071
        0
  0
STYLE
  5
88
330
3
100
AcDbSymbolTableRecord
100
AcDbTextStyleTableRecord
  2
VCDSTYLE15
 70
     0
 40
0.0
 41
1.0
 50
0.0
 71
     0
 42
2.5
  3
DejaVu Sans Mono.ttf
  4

1001
ACAD
1000
DejaVu Sans Mono
1071
 16777216
  0
STYLE
  5
89
330
3
100
AcDbSymbolTableRecord
100
AcDbTextStyleTableRecord
  2
VCDSTYLE16
 70
     0
 40
0.0
 41
1.0
 50
0.0
 71
     0
 42
2.5
  3
UnDotum.ttf
  4

1001
ACAD
1000
UnDotum
1071
        0
  0
STYLE
  5
8A
330
3
100
AcDbSymbolTableRecord
100
AcDbTextStyleTableRecord
  2
VCDSTYLE17
 70
     0
 40
0.0
 41
1.0
 50
0.0
 71
     0
 42
2.5
  3
UnDotum.ttf
  4

1001
ACAD
1000
UnDotum
1071
 16777216
  0
STYLE
  5
8B
330
3
100
AcDbSymbolTableRecord
100
AcDbTextStyleTableRecord
  2
VCDSTYLE18
 70
     0
 40
0.0
 41
1.0
 50
0.0
 71
     0
 42
2.5
  3
Sans Serif.ttf
  4

1001
ACAD
1000
Sans Serif
1071
        0
  0
STYLE
  5
8C
330
3
100
AcDbSymbolTableRecord
100
AcDbTextStyleTableRecord
  2
VCDSTYLE19
 70
     0
 40
0.0
 41
1.0
 50
0.0
 71
     0
 42
2.5
  3
Sans Serif.ttf
  4

1001
ACAD
1000
Sans Serif
1071
 16777216
  0
STYLE
  5
8D
330
3
100
AcDbSymbolTableRecord
100
AcDbTextStyleTableRecord
  2
VCDSTYLE20
 70
     0
 40
0.0
 41
1.0
 50
0.0
 71
     0
 42
2.5
  3
Sans Serif.ttf
  4

1001
ACAD
1000
Sans Serif
1071
        0
  0
STYLE
  5
8E
330
3
100
AcDbSymbolTableRecord
100
AcDbTextStyleTableRecord
  2
VCDSTYLE21
 70
     0
 40
0.0
 41
1.0
 50
0.0
 71
     0
 42
2.5
  3
Sans Serif.ttf
  4

1001
ACAD
1000
Sans Serif
1071
 16777216
  0
STYLE
  5
8F
330
3
100
AcDbSymbolTableRecord
100
AcDbTextStyleTableRecord
  2
VCDSTYLE22
 70
     0
 40
0.0
 41
1.0
 50
0.0
 71
     0
 42
2.5
  3
Monospace.ttf
  4

1001
ACAD
1000
Monospace
1071
        0
  0
STYLE
  5
90
330
3
100
AcDbSymbolTableRecord
100
AcDbTextStyleTableRecord
  2
VCDSTYLE23
 70
     0
 40
0.0
 41
1.0
 50
0.0
 71
     0
 42
2.5
  3
Monospace.ttf
  4

1001
ACAD
1000
Monospace
1071
 16777216
  0
STYLE
  5
91
330
3
100
AcDbSymbolTableRecord
100
AcDbTextStyleTableRecord
  2
VCDSTYLE24
 70
     0
 40
0.0
 41
1.0
 50
0.0
 71
     0
 42
2.5
  3
URW Gothic L.ttf
  4

1001
ACAD
1000
URW Gothic L
1071
        0
  0
STYLE
  5
92
330
3
100
AcDbSymbolTableRecord
100
AcDbTextStyleTableRecord
  2
VCDSTYLE25
 70
     0
 40
0.0
 41
1.0
 50
0.0
 71
     0
 42
2.5
  3
URW Gothic L.ttf
  4

1001
ACAD
1000
URW Gothic L
1071
 16777216
  0
STYLE
  5
93
330
3
100
AcDbSymbolTableRecord
100
AcDbTextStyleTableRecord
  2
VCDSTYLE26
 70
     0
 40
0.0
 41
1.0
 50
0.0
 71
     0
 42
2.5
  3
Waree.ttf
  4

1001
ACAD
1000
Waree
1071
        0
  0
STYLE
  5
94
330
3
100
AcDbSymbolTableRecord
100
AcDbTextStyleTableRecord
  2
VCDSTYLE27
 70
     0
 40
0.0
 41
1.0
 50
0.0
 71
     0
 42
2.5
  3
Waree.ttf
  4

1001
ACAD
1000
Waree
1071
 16777216
  0
STYLE
  5
95
330
3
100
AcDbSymbolTableRecord
100
AcDbTextStyleTableRecord
  2
VCDSTYLE28
 70
     0
 40
0.0
 41
1.0
 50
0.0
 71
     0
 42
2.5
  3
Nimbus Mono L.ttf
  4

1001
ACAD
1000
Nimbus Mono L
1071
        0
  0
STYLE
  5
96
330
3
100
AcDbSymbolTableRecord
100
AcDbTextStyleTableRecord
  2
VCDSTYLE29
 70
     0
 40
0.0
 41
1.0
 50
0.0
 71
     0
 42
2.5
  3
Nimbus Sans L.ttf
  4

1001
ACAD
1000
Nimbus Sans L
1071
        0
  0
STYLE
  5
97
330
3
100
AcDbSymbolTableRecord
100
AcDbTextStyleTableRecord
  2
VCDSTYLE30
 70
     0
 40
0.0
 41
1.0
 50
0.0
 71
     0
 42
2.5
  3
Nimbus Sans L.ttf
  4

1001
ACAD
1000
Nimbus Sans L
1071
 16777216
  0
STYLE
  5
98
330
3
100
AcDbSymbolTableRecord
100
AcDbTextStyleTableRecord
  2
VCDSTYLE31
 70
     0
 40
0.0
 41
1.0
 50
0.0
 71
     0
 42
2.5
  3
Serif.ttf
  4

1001
ACAD
1000
Serif
1071
        0
  0
STYLE
  5
99
330
3
100
AcDbSymbolTableRecord
100
AcDbTextStyleTableRecord
  2
VCDSTYLE32
 70
     0
 40
0.0
 41
1.0
 50
0.0
 71
     0
 42
2.5
  3
Serif.ttf
  4

1001
ACAD
1000
Serif
1071
 16777216
  0
ENDTAB
  0
TABLE
  2
VIEW
  5
6
330
0
100
AcDbSymbolTable
 70
     0
  0
ENDTAB
  0
TABLE
  2
UCS
  5
7
330
0
100
AcDbSymbolTable
 70
     0
  0
ENDTAB
  0
TABLE
  2
APPID
  5
9
330
0
100
AcDbSymbolTable
 70
     2
  0
APPID
  5
12
330
9
100
AcDbSymbolTableRecord
100
AcDbRegAppTableRecord
  2
ACAD
 70
     0
  0
APPID
  5
B0
330
9
100
AcDbSymbolTableRecord
100
AcDbRegAppTableRecord
  2
ACAD_DSTYLE_DIMRADIAL_EXTENSION
 70
     0
  0
ENDTAB
  0
TABLE
  2
DIMSTYLE
  5
A
330
0
100
AcDbSymbolTable
 70
     2
100
AcDbDimStyleTable
  0
DIMSTYLE
105
27
330
A
100
AcDbSymbolTableRecord
100
AcDbDimStyleTableRecord
  2
ISO-25
 70
     0
 41
2.5
 42
0.625
 43
3.75
 44
1.25
 73
     0
 74
     0
 77
     1
 78
     8
140
2.5
141
2.5
143
0.03937007874016
147
0.625
171
     3
172
     1
178
     0
271
     2
272
     2
274
     3
278
    44
283
     0
284
     8
340
11
  0
DIMSTYLE
105
A1
102
{ACAD_REACTORS
330
A2
330
B1
330
BB
330
C8
102
}
330
A
100
AcDbSymbolTableRecord
100
AcDbDimStyleTableRecord
  2
VCDDIMSTYLE01
 70
     0
 41
5.0
 42
0.0
 43
8.0
 44
1.0
 73
     0
 74
     0
 77
     1
 78
     8
 79
     2
140
4.0
147
1.0
172
     1
173
     1
178
     0
179
     3
271
     5
275
     1
288
     1
289
     0
340
7B
  0
ENDTAB
  0
TABLE
  2
BLOCK_RECORD
  5
1
330
0
100
AcDbSymbolTable
 70
    11
  0
BLOCK_RECORD
  5
1F
330
1
100
AcDbSymbolTableRecord
100
AcDbBlockTableRecord
  2
*Model_Space
340
22
 70
     0
280
     1
281
     0
  0
BLOCK_RECORD
  5
1B
330
1
100
AcDbSymbolTableRecord
100
AcDbBlockTableRecord
  2
*Paper_Space
340
1E
 70
     0
280
     1
281
     0
  0
BLOCK_RECORD
  5
23
330
1
100
AcDbSymbolTableRecord
100
AcDbBlockTableRecord
  2
*Paper_Space0
340
26
 70
     0
280
     1
281
     0
  0
BLOCK_RECORD
  5
9A
330
1
100
AcDbSymbolTableRecord
100
AcDbBlockTableRecord
  2
*D1
340
0
 70
     0
280
     1
281
     0
  0
BLOCK_RECORD
  5
A9
330
1
100
AcDbSymbolTableRecord
100
AcDbBlockTableRecord
  2
*D2
340
0
 70
     0
280
     1
281
     0
  0
BLOCK_RECORD
  5
B4
330
1
100
AcDbSymbolTableRecord
100
AcDbBlockTableRecord
  2
*D3
340
0
 70
     0
280
     1
281
     0
  0
BLOCK_RECORD
  5
C1
330
1
100
AcDbSymbolTableRecord
100
AcDbBlockTableRecord
  2
*D4
340
0
 70
     0
280
     1
281
     0
  0
BLOCK_RECORD
  5
CE
330
1
100
AcDbSymbolTableRecord
100
AcDbBlockTableRecord
  2
$AttrValue elphel_parts
340
0
102
{BLKREFS
331
D0
102
}
 70
     0
280
     1
281
     0
  0
BLOCK_RECORD
  5
D3
330
1
100
AcDbSymbolTableRecord
100
AcDbBlockTableRecord
  2
$AttrValue elphel_parts(1)
340
0
102
{BLKREFS
331
D5
102
}
 70
     0
280
     1
281
     0
  0
BLOCK_RECORD
  5
D8
330
1
100
AcDbSymbolTableRecord
100
AcDbBlockTableRecord
  2
$AttrValue elphel_parts(2)
340
0
102
{BLKREFS
331
DA
102
}
 70
     0
280
     1
281
     0
  0
BLOCK_RECORD
  5
DD
330
1
100
AcDbSymbolTableRecord
100
AcDbBlockTableRecord
  2
$AttrValue elphel_parts(3)
340
0
102
{BLKREFS
331
DF
102
}
 70
     0
280
     1
281
     0
  0
BLOCK_RECORD
  5
E2
330
1
100
AcDbSymbolTableRecord
100
AcDbBlockTableRecord
  2
$TitleBlock elphel_parts
340
0
102
{BLKREFS
331
110
102
}
 70
     0
280
     1
281
     0
  0
BLOCK_RECORD
  5
113
330
1
100
AcDbSymbolTableRecord
100
AcDbBlockTableRecord
  2
Sheet Border
340
0
102
{BLKREFS
331
116
102
}
 70
     0
280
     1
281
     0
  0
ENDTAB
  0
ENDSEC
  0
SECTION
  2
BLOCKS
  0
BLOCK
  5
20
330
1F
100
AcDbEntity
  8
0
100
AcDbBlockBegin
  2
*Model_Space
 70
     0
 10
0.0
 20
0.0
 30
0.0
  3
*Model_Space
  1

  0
ENDBLK
  5
21
330
1F
100
AcDbEntity
  8
0
100
AcDbBlockEnd
  0
BLOCK
  5
1C
330
1B
100
AcDbEntity
 67
     1
  8
0
100
AcDbBlockBegin
  2
*Paper_Space
 70
     0
 10
0.0
 20
0.0
 30
0.0
  3
*Paper_Space
  1

  0
ENDBLK
  5
1D
330
1B
100
AcDbEntity
 67
     1
  8
0
100
AcDbBlockEnd
  0
BLOCK
  5
24
330
23
100
AcDbEntity
  8
0
100
AcDbBlockBegin
  2
*Paper_Space0
 70
     0
 10
0.0
 20
0.0
 30
0.0
  3
*Paper_Space0
  1

  0
ENDBLK
  5
25
330
23
100
AcDbEntity
  8
0
100
AcDbBlockEnd
  0
BLOCK
  5
A7
330
9A
100
AcDbEntity
  8
0
100
AcDbBlockBegin
  2
*D1
 70
     1
 10
0.0
 20
0.0
 30
0.0
  3
*D1
  1

  0
LINE
  5
9B
330
9A
100
AcDbEntity
  8
Dimension
 62
     0
370
    -2
100
AcDbLine
 10
126.9196034413487
 20
129.0115068958724
 30
0.0
 11
126.9196034413487
 21
116.5385258231832
 31
0.0
  0
LINE
  5
9C
330
9A
100
AcDbEntity
  8
Dimension
 62
     0
370
    -2
100
AcDbLine
 10
83.26960344241769
 20
128.4615139954076
 30
0.0
 11
83.26960344241769
 21
116.5385258231832
 31
0.0
  0
LINE
  5
9D
330
9A
100
AcDbEntity
  8
Dimension
 62
     0
370
    -2
100
AcDbLine
 10
121.9196034413487
 20
117.5385258231832
 30
0.0
 11
88.26960344241769
 21
117.5385258231832
 31
0.0
  0
SOLID
  5
9E
330
9A
100
AcDbEntity
  8
Dimension
 62
     0
100
AcDbTrace
 10
121.9196034413487
 20
116.7051924898499
 30
0.0
 11
121.9196034413487
 21
118.3718591565166
 31
0.0
 12
126.9196034413487
 22
117.5385258231832
 32
0.0
 13
126.9196034413487
 23
117.5385258231832
 33
0.0
  0
SOLID
  5
9F
330
9A
100
AcDbEntity
  8
Dimension
 62
     0
100
AcDbTrace
 10
88.26960344241769
 20
118.3718591565166
 30
0.0
 11
88.26960344241769
 21
116.7051924898499
 31
0.0
 12
83.26960344241769
 22
117.5385258231832
 32
0.0
 13
83.26960344241769
 23
117.5385258231832
 33
0.0
  0
MTEXT
  5
A0
330
9A
100
AcDbEntity
  8
Dimension
 62
     0
100
AcDbMText
 10
106.2258190210506
 20
120.5385258231832
 30
0.0
 40
4.0
 41
0.0
 46
0.0
 71
     5
 72
     1
  1
\A1;43.65
  7
VCDSTYLE02
 73
     1
 44
1.0
  0
POINT
  5
A4
330
9A
100
AcDbEntity
  8
Defpoints
 62
     0
100
AcDbPoint
 10
126.9196034413487
 20
129.0115068958724
 30
0.0
  0
POINT
  5
A5
330
9A
100
AcDbEntity
  8
Defpoints
 62
     0
100
AcDbPoint
 10
83.26960344241769
 20
128.4615139954076
 30
0.0
  0
POINT
  5
A6
330
9A
100
AcDbEntity
  8
Defpoints
 62
     0
100
AcDbPoint
 10
83.26960344241769
 20
117.5385258231832
 30
0.0
  0
ENDBLK
  5
A8
330
9A
100
AcDbEntity
  8
0
100
AcDbBlockEnd
  0
BLOCK
  5
B2
330
A9
100
AcDbEntity
  8
0
100
AcDbBlockBegin
  2
*D2
 70
     1
 10
0.0
 20
0.0
 30
0.0
  3
*D2
  1

  0
LINE
  5
AA
330
A9
100
AcDbEntity
  8
Dimension
 62
     0
370
    -2
100
AcDbLine
 10
96.76469749264267
 20
212.5811090502824
 30
0.0
 11
140.0157263060412
 21
259.7075444881342
 31
0.0
  0
MTEXT
  5
AB
330
A9
100
AcDbEntity
  8
Dimension
 62
     0
100
AcDbMText
 10
131.3082405742191
 20
254.8846282761802
 30
0.0
 40
4.0
 41
0.0
 46
0.0
 71
     5
 72
     1
  1
\A1;%%c25.6
  7
VCDSTYLE02
 11
0.676164527242856
 21
0.7367506580237613
 31
0.0
 73
     1
 44
1.0
  0
LINE
  5
AC
330
A9
100
AcDbEntity
  8
Dimension
 62
     0
370
    -2
100
AcDbLine
 10
114.0745093900598
 20
231.4419258956907
 30
0.0
 11
96.76469749264267
 21
212.5811090502824
 31
0.0
  0
SOLID
  5
AD
330
A9
100
AcDbEntity
  8
Dimension
 62
     0
100
AcDbTrace
 10
99.53156124717047
 20
216.8283327797703
 30
0.0
 11
100.7594790105434
 21
215.7013919010322
 31
0.0
 12
96.76469749264267
 22
212.5811090502824
 32
0.0
 13
96.76469749264267
 23
212.5811090502824
 33
0.0
  0
POINT
  5
AE
330
A9
100
AcDbEntity
  8
Defpoints
 62
     0
100
AcDbPoint
 10
96.76469749264267
 20
212.5811090502824
 30
0.0
  0
POINT
  5
AF
330
A9
100
AcDbEntity
  8
Defpoints
 62
     0
100
AcDbPoint
 10
114.0745093900598
 20
231.4419258956907
 30
0.0
  0
ENDBLK
  5
B3
330
A9
100
AcDbEntity
  8
0
100
AcDbBlockEnd
  0
BLOCK
  5
BF
330
B4
100
AcDbEntity
  8
0
100
AcDbBlockBegin
  2
*D3
 70
     1
 10
0.0
 20
0.0
 30
0.0
  3
*D3
  1

  0
LINE
  5
B5
330
B4
100
AcDbEntity
  8
Dimension
 62
     0
370
    -2
100
AcDbLine
 10
47.76959655500787
 20
243.511513783282
 30
0.0
 11
60.39964232902673
 21
243.511513783282
 31
0.0
  0
LINE
  5
B6
330
B4
100
AcDbEntity
  8
Dimension
 62
     0
370
    -2
100
AcDbLine
 10
47.76959655500787
 20
200.5115137832822
 30
0.0
 11
60.39964232902673
 21
200.5115137832822
 31
0.0
  0
LINE
  5
B7
330
B4
100
AcDbEntity
  8
Dimension
 62
     0
370
    -2
100
AcDbLine
 10
59.39964232902673
 20
238.511513783282
 30
0.0
 11
59.39964232902673
 21
205.5115137832822
 31
0.0
  0
SOLID
  5
B8
330
B4
100
AcDbEntity
  8
Dimension
 62
     0
100
AcDbTrace
 10
60.23297566236007
 20
238.511513783282
 30
0.0
 11
58.5663089956934
 21
238.511513783282
 31
0.0
 12
59.39964232902673
 22
243.511513783282
 32
0.0
 13
59.39964232902673
 23
243.511513783282
 33
0.0
  0
SOLID
  5
B9
330
B4
100
AcDbEntity
  8
Dimension
 62
     0
100
AcDbTrace
 10
58.5663089956934
 20
205.5115137832822
 30
0.0
 11
60.23297566236007
 21
205.5115137832822
 31
0.0
 12
59.39964232902673
 22
200.5115137832822
 32
0.0
 13
59.39964232902673
 23
200.5115137832822
 33
0.0
  0
MTEXT
  5
BA
330
B4
100
AcDbEntity
  8
Dimension
 62
     0
100
AcDbMText
 10
56.39964232902673
 20
222.1806772576397
 30
0.0
 40
4.0
 41
0.0
 46
0.0
 71
     5
 72
     1
  1
\A1;43
  7
VCDSTYLE02
 11
0.0
 21
1.0
 31
0.0
 73
     1
 44
1.0
  0
POINT
  5
BC
330
B4
100
AcDbEntity
  8
Defpoints
 62
     0
100
AcDbPoint
 10
47.76959655500787
 20
243.511513783282
 30
0.0
  0
POINT
  5
BD
330
B4
100
AcDbEntity
  8
Defpoints
 62
     0
100
AcDbPoint
 10
47.76959655500787
 20
200.5115137832822
 30
0.0
  0
POINT
  5
BE
330
B4
100
AcDbEntity
  8
Defpoints
 62
     0
100
AcDbPoint
 10
59.39964232902673
 20
200.5115137832822
 30
0.0
  0
ENDBLK
  5
C0
330
B4
100
AcDbEntity
  8
0
100
AcDbBlockEnd
  0
BLOCK
  5
CC
330
C1
100
AcDbEntity
  8
0
100
AcDbBlockBegin
  2
*D4
 70
     1
 10
0.0
 20
0.0
 30
0.0
  3
*D4
  1

  0
LINE
  5
C2
330
C1
100
AcDbEntity
  8
Dimension
 62
     0
370
    -2
100
AcDbLine
 10
8.269596555007865
 20
204.0115137832822
 30
0.0
 11
8.269596555007865
 21
191.3025315413233
 31
0.0
  0
LINE
  5
C3
330
C1
100
AcDbEntity
  8
Dimension
 62
     0
370
    -2
100
AcDbLine
 10
51.26959655500787
 20
204.0115137832822
 30
0.0
 11
51.26959655500787
 21
191.3025315413233
 31
0.0
  0
LINE
  5
C4
330
C1
100
AcDbEntity
  8
Dimension
 62
     0
370
    -2
100
AcDbLine
 10
13.26959655500787
 20
192.3025315413233
 30
0.0
 11
46.26959655500787
 21
192.3025315413233
 31
0.0
  0
SOLID
  5
C5
330
C1
100
AcDbEntity
  8
Dimension
 62
     0
100
AcDbTrace
 10
13.26959655500787
 20
193.1358648746567
 30
0.0
 11
13.26959655500787
 21
191.46919820799
 31
0.0
 12
8.269596555007865
 22
192.3025315413233
 32
0.0
 13
8.269596555007865
 23
192.3025315413233
 33
0.0
  0
SOLID
  5
C6
330
C1
100
AcDbEntity
  8
Dimension
 62
     0
100
AcDbTrace
 10
46.26959655500787
 20
191.46919820799
 30
0.0
 11
46.26959655500787
 21
193.1358648746567
 31
0.0
 12
51.26959655500787
 22
192.3025315413233
 32
0.0
 13
51.26959655500787
 23
192.3025315413233
 33
0.0
  0
MTEXT
  5
C7
330
C1
100
AcDbEntity
  8
Dimension
 62
     0
100
AcDbMText
 10
28.69029337142064
 20
195.3025315413233
 30
0.0
 40
4.0
 41
0.0
 46
0.0
 71
     5
 72
     1
  1
\A1;43
  7
VCDSTYLE02
 73
     1
 44
1.0
  0
POINT
  5
C9
330
C1
100
AcDbEntity
  8
Defpoints
 62
     0
100
AcDbPoint
 10
8.269596555007865
 20
204.0115137832822
 30
0.0
  0
POINT
  5
CA
330
C1
100
AcDbEntity
  8
Defpoints
 62
     0
100
AcDbPoint
 10
51.26959655500787
 20
204.0115137832822
 30
0.0
  0
POINT
  5
CB
330
C1
100
AcDbEntity
  8
Defpoints
 62
     0
100
AcDbPoint
 10
51.26959655500787
 20
192.3025315413233
 30
0.0
  0
ENDBLK
  5
CD
330
C1
100
AcDbEntity
  8
0
100
AcDbBlockEnd
  0
BLOCK
  5
D1
330
CE
100
AcDbEntity
  8
0
100
AcDbBlockBegin
  2
$AttrValue elphel_parts
 70
     0
 10
0.0
 20
0.0
 30
0.0
  3
$AttrValue elphel_parts
  1

  0
TEXT
  5
CF
330
CE
100
AcDbEntity
  8
0
 62
     2
100
AcDbText
 10
0.0
 20
0.0
 30
0.0
 40
2.0
  1
PLA
  7
VCDSTYLE04
100
AcDbText
  0
ENDBLK
  5
D2
330
CE
100
AcDbEntity
  8
0
100
AcDbBlockEnd
  0
BLOCK
  5
D6
330
D3
100
AcDbEntity
  8
0
100
AcDbBlockBegin
  2
$AttrValue elphel_parts(1)
 70
     0
 10
0.0
 20
0.0
 30
0.0
  3
$AttrValue elphel_parts(1)
  1

  0
TEXT
  5
D4
330
D3
100
AcDbEntity
  8
0
100
AcDbText
 10
0.0
 20
0.0
 30
0.0
 40
1.5
  1
2016
  7
VCDSTYLE10
100
AcDbText
  0
ENDBLK
  5
D7
330
D3
100
AcDbEntity
  8
0
100
AcDbBlockEnd
  0
BLOCK
  5
DB
330
D8
100
AcDbEntity
  8
0
100
AcDbBlockBegin
  2
$AttrValue elphel_parts(2)
 70
     0
 10
0.0
 20
0.0
 30
0.0
  3
$AttrValue elphel_parts(2)
  1

  0
TEXT
  5
D9
330
D8
100
AcDbEntity
  8
0
 62
     2
100
AcDbText
 10
0.0
 20
0.0
 30
0.0
 40
3.0
  1
Camera body adapter
  7
VCDSTYLE04
100
AcDbText
  0
ENDBLK
  5
DC
330
D8
100
AcDbEntity
  8
0
100
AcDbBlockEnd
  0
BLOCK
  5
E0
330
DD
100
AcDbEntity
  8
0
100
AcDbBlockBegin
  2
$AttrValue elphel_parts(3)
 70
     0
 10
0.0
 20
0.0
 30
0.0
  3
$AttrValue elphel_parts(3)
  1

  0
TEXT
  5
DE
330
DD
100
AcDbEntity
  8
0
 62
     2
100
AcDbText
 10
0.0
 20
0.0
 30
0.0
 40
6.0
  1
0393-27-02d
  7
VCDSTYLE22
100
AcDbText
  0
ENDBLK
  5
E1
330
DD
100
AcDbEntity
  8
0
100
AcDbBlockEnd
  0
BLOCK
  5
111
330
E2
100
AcDbEntity
  8
0
100
AcDbBlockBegin
  2
$TitleBlock elphel_parts
 70
     0
 10
0.0
 20
0.0
 30
0.0
  3
$TitleBlock elphel_parts
  1

  0
TEXT
  5
E3
330
E2
100
AcDbEntity
  8
Outline
 62
     2
100
AcDbText
 10
-168.3495635986328
 20
16.18584442138672
 30
0.0
 40
1.841060042381287
  1
Surface
  7
VCDSTYLE02
100
AcDbText
  0
LWPOLYLINE
  5
E4
330
E2
100
AcDbEntity
  8
Outline
 62
     2
100
AcDbPolyline
 90
        5
 70
     0
 43
0.0
 10
-0.4602650136366151
 20
0.4602650136366293
 10
-82.38743744095697
 20
0.4602650136366293
 10
-82.38743744095697
 20
15.18874545000888
 10
-0.4602650136366151
 20
15.18874545000888
 10
-0.4602650136366151
 20
0.0
  0
LINE
  5
E5
330
E2
100
AcDbEntity
  8
Outline
 62
     2
100
AcDbLine
 10
0.0000000000000568
 20
15.64901046364552
 30
0.0
 11
0.0000000000000568
 21
0.0
 31
0.0
  0
LINE
  5
E6
330
E2
100
AcDbEntity
  8
Outline
 62
     2
100
AcDbLine
 10
-97.57618289096607
 20
15.64901046364552
 30
0.0
 11
-97.57618289096607
 21
19.56126307955689
 31
0.0
  0
LINE
  5
E7
330
E2
100
AcDbEntity
  8
Outline
 62
     2
100
AcDbLine
 10
-170.298055045554
 20
15.64901046364552
 30
0.0
 11
-82.84770245459381
 21
15.64901046364552
 31
0.0
  0
LINE
  5
E8
330
E2
100
AcDbEntity
  8
Outline
 62
     2
100
AcDbLine
 10
-170.298055045554
 20
0.0
 30
0.0
 11
-82.84770245459381
 21
0.0
 31
0.0
  0
LINE
  5
E9
330
E2
100
AcDbEntity
  8
Outline
 62
     2
100
AcDbLine
 10
-82.84770245459381
 20
0.0
 30
0.0
 11
-82.84770245459381
 21
15.64901046364552
 31
0.0
  0
LINE
  5
EA
330
E2
100
AcDbEntity
  8
Outline
 62
     2
100
AcDbLine
 10
-170.298055045554
 20
19.56126307955689
 30
0.0
 11
0.0000000000000568
 21
19.56126307955689
 31
0.0
  0
LINE
  5
EB
330
E2
100
AcDbEntity
  8
Outline
 62
     2
100
AcDbLine
 10
0.0000000000000568
 20
0.0
 30
0.0
 11
-82.84770245459381
 21
0.0
 31
0.0
  0
LINE
  5
EC
330
E2
100
AcDbEntity
  8
Outline
 62
     2
100
AcDbLine
 10
-82.84770245459381
 20
15.64901046364552
 30
0.0
 11
0.0000000000000568
 21
15.64901046364552
 31
0.0
  0
TEXT
  5
ED
330
E2
100
AcDbEntity
  8
Outline
 62
     2
100
AcDbText
 10
-81.25203704833984
 20
44.91454315185547
 30
0.0
 40
0.9205300211906433
  1
Description
  7
VCDSTYLE02
100
AcDbText
  0
LINE
  5
EE
330
E2
100
AcDbEntity
  8
Outline
 62
     2
100
AcDbLine
 10
-170.298055045554
 20
27.38576831137964
 30
0.0
 11
0.0000000000000568
 21
27.38576831137964
 31
0.0
  0
LINE
  5
EF
330
E2
100
AcDbEntity
  8
Outline
 62
     2
100
AcDbLine
 10
0.0000000000000568
 20
46.94703139093654
 30
0.0
 11
-170.298055045554
 21
46.94703139093654
 31
0.0
  0
LINE
  5
F0
330
E2
100
AcDbEntity
  8
Outline
 62
     2
100
AcDbLine
 10
-170.298055045554
 20
27.38576831137964
 30
0.0
 11
-82.84770245459381
 21
27.38576831137964
 31
0.0
  0
LINE
  5
F1
330
E2
100
AcDbEntity
  8
Outline
 62
     2
100
AcDbLine
 10
-170.298055045554
 20
31.29802092729101
 30
0.0
 11
-170.298055045554
 21
46.94703139093654
 31
0.0
  0
LINE
  5
F2
330
E2
100
AcDbEntity
  8
Outline
 62
     2
100
AcDbLine
 10
-82.84770245459381
 20
46.94703139093654
 30
0.0
 11
-82.84770245459381
 21
31.29802092729101
 31
0.0
  0
LINE
  5
F3
330
E2
100
AcDbEntity
  8
Outline
 62
     2
100
AcDbLine
 10
0.0000000000000568
 20
31.29802092729101
 30
0.0
 11
0.0000000000000568
 21
46.94703139093654
 31
0.0
  0
LINE
  5
F4
330
E2
100
AcDbEntity
  8
Outline
 62
     2
100
AcDbLine
 10
-157.0483207857146
 20
46.94703139093654
 30
0.0
 11
-157.0483207857146
 21
31.29802092729101
 31
0.0
  0
TEXT
  5
F5
330
E2
100
AcDbEntity
  8
Outline
 62
     2
100
AcDbText
 10
-168.3495635986328
 20
28.04717826843262
 30
0.0
 40
1.841060042381287
  1
Material
  7
VCDSTYLE02
100
AcDbText
  0
LINE
  5
F6
330
E2
100
AcDbEntity
  8
Outline
 62
     2
100
AcDbLine
 10
-170.298055045554
 20
0.0
 30
0.0
 11
-170.298055045554
 21
31.29802092729101
 31
0.0
  0
LINE
  5
F7
330
E2
100
AcDbEntity
  8
Outline
 62
     2
100
AcDbLine
 10
-150.9056121242796
 20
15.64901046364552
 30
0.0
 11
-150.9056121242796
 21
31.29802092729101
 31
0.0
  0
LINE
  5
F8
330
E2
100
AcDbEntity
  8
Outline
 62
     2
100
AcDbLine
 10
-82.84770245459381
 20
31.29802092729101
 30
0.0
 11
-82.84770245459381
 21
15.64901046364552
 31
0.0
  0
LINE
  5
F9
330
E2
100
AcDbEntity
  8
Outline
100
AcDbLine
 10
-170.298055045554
 20
23.47351569546827
 30
0.0
 11
-82.84770245459381
 21
23.47351569546827
 31
0.0
  0
LINE
  5
FA
330
E2
100
AcDbEntity
  8
Outline
 62
     2
100
AcDbLine
 10
-170.298055045554
 20
23.47351569546827
 30
0.0
 11
0.0000000000000568
 21
23.47351569546827
 31
0.0
  0
TEXT
  5
FB
330
E2
100
AcDbEntity
  8
Outline
 62
     2
100
AcDbText
 10
-168.3495635986328
 20
24.13492584228516
 30
0.0
 40
1.841060042381287
  1
Finish
  7
VCDSTYLE02
100
AcDbText
  0
LINE
  5
FC
330
E2
100
AcDbEntity
  8
Outline
 62
     2
100
AcDbLine
 10
0.0000000000000568
 20
15.64901046364552
 30
0.0
 11
0.0000000000000568
 21
31.29802092729101
 31
0.0
  0
TEXT
  5
FD
330
E2
100
AcDbEntity
  8
Outline
 62
     2
100
AcDbText
 10
-81.25203704833984
 20
12.55433559417725
 30
0.0
 40
0.9205300211906433
  1
Notes
  7
VCDSTYLE02
100
AcDbText
  0
LINE
  5
FE
330
E2
100
AcDbEntity
  8
Outline
 62
     2
100
AcDbLine
 10
-170.298055045554
 20
31.29802092729101
 30
0.0
 11
-82.84770245459381
 21
31.29802092729101
 31
0.0
  0
TEXT
  5
FF
330
E2
100
AcDbEntity
  8
Outline
 62
     2
100
AcDbText
 10
-168.3495635986328
 20
20.20714569091797
 30
0.0
 40
1.841060042381287
  1
Weight(g)
  7
VCDSTYLE02
100
AcDbText
  0
TEXT
  5
100
330
E2
100
AcDbEntity
  8
Outline
100
AcDbText
 10
-167.9451904296875
 20
7.327913284301758
 30
0.0
 40
1.200000047683716
  1
Permission is also granted to copy, distribute and/or modify this document under the terms of the
 50
360.0
  7
VCDSTYLE10
100
AcDbText
  0
TEXT
  5
101
330
E2
100
AcDbEntity
  8
Outline
100
AcDbText
 10
-167.9451904296875
 20
5.407913684844971
 30
0.0
 40
1.200000047683716
  1
GNU Free Documentation License, Version 1.3 or any later version published by the Free Software
 50
360.0
  7
VCDSTYLE10
100
AcDbText
  0
TEXT
  5
102
330
E2
100
AcDbEntity
  8
Outline
100
AcDbText
 10
-167.9451904296875
 20
3.487913608551025
 30
0.0
 40
1.200000047683716
  1
Foundation; with no Invariant Sections, no Front-Cover Texts, and no Back-Cover Texts.  A copy of
 50
360.0
  7
VCDSTYLE10
100
AcDbText
  0
TEXT
  5
103
330
E2
100
AcDbEntity
  8
Outline
100
AcDbText
 10
-167.9451904296875
 20
1.56791353225708
 30
0.0
 40
1.200000047683716
  1
the license is included in the section entitled "GNU Free Documentation License".
 50
360.0
  7
VCDSTYLE10
100
AcDbText
  0
TEXT
  5
104
330
E2
100
AcDbEntity
  8
Outline
 62
     2
100
AcDbText
 10
-156.5416564941406
 20
45.10939788818359
 30
0.0
 40
0.9205300211906433
  1
Part #
  7
VCDSTYLE02
100
AcDbText
  0
TEXT
  5
105
330
E2
100
AcDbEntity
  8
Outline
 62
     2
100
AcDbText
 10
-169.0979461669922
 20
45.19255065917969
 30
0.0
 40
0.9205300211906433
  1
Revision
  7
VCDSTYLE02
100
AcDbText
  0
TEXT
  5
106
330
E2
100
AcDbEntity
  8
Outline
100
AcDbText
 10
-168.0283508300781
 20
12.77079391479492
 30
0.0
 40
1.5
  1
Copyright (c)                 Elphel, Inc.
 50
360.0
  7
VCDSTYLE10
100
AcDbText
  0
TEXT
  5
107
330
E2
100
AcDbEntity
  8
Outline
100
AcDbText
 10
-168.0283508300781
 20
10.37079429626465
 30
0.0
 40
1.5
  1
Licensed under CERN OHL v.1.1 or later - see http://ohwr.org/cernohl
 50
360.0
  7
VCDSTYLE10
100
AcDbText
  0
TEXT
  5
108
330
E2
100
AcDbEntity
  8
Outline
100
AcDbText
 10
-168.0283508300781
 20
7.970794200897217
 30
0.0
 40
1.5
  1
 
 50
360.0
  7
VCDSTYLE10
100
AcDbText
  0
LINE
  5
109
330
E2
100
AcDbEntity
  8
Outline
 62
     2
100
AcDbLine
 10
-59.83011277766059
 20
27.38576831137964
 30
0.0
 11
-59.83011277766059
 21
15.64901046364552
 31
0.0
  0
TEXT
  5
10A
330
E2
100
AcDbEntity
  8
Outline
 62
     2
100
AcDbText
 10
-82.25203704833984
 20
24.13492584228516
 30
0.0
 40
1.841060042381287
  1
Serial No.
  7
VCDSTYLE02
100
AcDbText
  0
TEXT
  5
10B
330
E2
100
AcDbEntity
  8
Outline
 62
     2
100
AcDbText
 10
-82.25203704833984
 20
16.18584442138672
 30
0.0
 40
1.841060042381287
  1
Date
  7
VCDSTYLE02
100
AcDbText
  0
TEXT
  5
10C
330
E2
100
AcDbEntity
  8
Outline
 62
     2
100
AcDbText
 10
-82.25203704833984
 20
20.20714569091797
 30
0.0
 40
1.841060042381287
  1
Assembly No.
  7
VCDSTYLE02
100
AcDbText
  0
LINE
  5
10D
330
E2
100
AcDbEntity
  8
Outline
 62
     2
100
AcDbLine
 10
-14.79493342379411
 20
19.56126307955689
 30
0.0
 11
-14.79493342379411
 21
15.64901046364552
 31
0.0
  0
LINE
  5
10E
330
E2
100
AcDbEntity
  8
Outline
 62
     2
100
AcDbLine
 10
-26.81252310072733
 20
19.56126307955689
 30
0.0
 11
-26.81252310072733
 21
15.64901046364552
 31
0.0
  0
TEXT
  5
10F
330
E2
100
AcDbEntity
  8
Outline
 62
     2
100
AcDbText
 10
-25.21685791015625
 20
16.18584442138672
 30
0.0
 40
1.841060042381287
  1
Scale
  7
VCDSTYLE02
100
AcDbText
  0
ENDBLK
  5
112
330
E2
100
AcDbEntity
  8
0
100
AcDbBlockEnd
  0
BLOCK
  5
117
330
113
100
AcDbEntity
  8
0
100
AcDbBlockBegin
  2
Sheet Border
 70
     0
 10
0.0
 20
0.0
 30
0.0
  3
Sheet Border
  1

  0
LWPOLYLINE
  5
114
330
113
100
AcDbEntity
  8
Outline
 62
     2
100
AcDbPolyline
 90
        5
 70
     0
 43
0.0
 10
5.0
 20
5.0
 10
205.0
 20
5.0
 10
205.0
 20
292.0
 10
5.0
 20
292.0
 10
5.0
 20
5.0
  0
LWPOLYLINE
  5
115
330
113
100
AcDbEntity
  8
Outline
 62
     2
100
AcDbPolyline
 90
        5
 70
     0
 43
0.0
 10
0.0
 20
0.0
 10
210.0
 20
0.0
 10
210.0
 20
297.0
 10
0.0
 20
297.0
 10
0.0
 20
0.0
  0
ENDBLK
  5
118
330
113
100
AcDbEntity
  8
0
100
AcDbBlockEnd
  0
ENDSEC
  0
SECTION
  2
ENTITIES
  0
DIMENSION
  5
A2
330
1F
100
AcDbEntity
  8
Dimension
100
AcDbDimension
280
     0
  2
*D1
 10
83.26960344241769
 20
117.5385258231832
 30
0.0
 11
106.2258190210506
 21
117.5385258231832
 31
0.0
 70
   160
 71
     5
 42
43.64999999893104
 73
     0
 74
     0
 75
     0
  3
VCDDIMSTYLE01
100
AcDbAlignedDimension
 13
126.9196034413487
 23
129.0115068958724
 33
0.0
 14
83.26960344241769
 24
128.4615139954076
 34
0.0
100
AcDbRotatedDimension
1001
ACAD
1000
DSTYLE
1002
{
1070
   271
1070
     4
1002
}
  0
DIMENSION
  5
B1
330
1F
100
AcDbEntity
  8
Dimension
100
AcDbDimension
280
     0
  2
*D2
 10
114.0745093900598
 20
231.4419258956907
 30
0.0
 11
133.6320707534154
 21
252.7518965067594
 31
0.0
 70
   163
 71
     5
 42
25.60000000000001
 73
     0
 74
     0
 75
     0
  3
VCDDIMSTYLE01
100
AcDbDiametricDimension
 15
96.76469749264267
 25
212.5811090502824
 35
0.0
 40
0.0
1001
ACAD_DSTYLE_DIMRADIAL_EXTENSION
1070
   387
1070
     1
1070
   388
1040
0.0390724409348745
1070
   390
1040
6.24411286624473
1001
ACAD
1000
DSTYLE
1002
{
1070
   271
1070
     4
1002
}
  0
DIMENSION
  5
BB
330
1F
100
AcDbEntity
  8
Dimension
100
AcDbDimension
280
     0
  2
*D3
 10
59.39964232902673
 20
200.5115137832822
 30
0.0
 11
59.39964232902673
 21
222.1806772576397
 31
0.0
 70
   160
 71
     5
 42
42.99999999999983
 73
     0
 74
     0
 75
     0
  3
VCDDIMSTYLE01
100
AcDbAlignedDimension
 13
47.76959655500787
 23
243.511513783282
 33
0.0
 14
47.76959655500787
 24
200.5115137832822
 34
0.0
 50
90.0
100
AcDbRotatedDimension
1001
ACAD
1000
DSTYLE
1002
{
1070
   271
1070
     4
1002
}
  0
DIMENSION
  5
C8
330
1F
100
AcDbEntity
  8
Dimension
100
AcDbDimension
280
     0
  2
*D4
 10
51.26959655500787
 20
192.3025315413233
 30
0.0
 11
28.69029337142064
 21
192.3025315413233
 31
0.0
 70
   160
 71
     5
 42
43.0
 73
     0
 74
     0
 75
     0
  3
VCDDIMSTYLE01
100
AcDbAlignedDimension
 13
8.269596555007865
 23
204.0115137832822
 33
0.0
 14
51.26959655500787
 24
204.0115137832822
 34
0.0
100
AcDbRotatedDimension
1001
ACAD
1000
DSTYLE
1002
{
1070
   271
1070
     4
1002
}
  0
INSERT
  5
D0
330
1F
100
AcDbEntity
  8
Outline
100
AcDbBlockReference
  2
$AttrValue elphel_parts
 10
50.43000000000001
 20
38.1451
 30
0.0
  0
INSERT
  5
D5
330
1F
100
AcDbEntity
  8
Outline
100
AcDbBlockReference
  2
$AttrValue elphel_parts(1)
 10
47.37899999999999
 20
22.801
 30
0.0
  0
INSERT
  5
DA
330
1F
100
AcDbEntity
  8
Outline
100
AcDbBlockReference
  2
$AttrValue elphel_parts(2)
 10
119.3813
 20
49.8706
 30
0.0
  0
INSERT
  5
DF
330
1F
100
AcDbEntity
  8
Outline
100
AcDbBlockReference
  2
$AttrValue elphel_parts(3)
 10
44.767
 20
44.7335
 30
0.0
  0
INSERT
  5
110
330
1F
100
AcDbEntity
  8
Outline
100
AcDbBlockReference
  2
$TitleBlock elphel_parts
 10
200.0
 20
10.0
 30
0.0
  0
INSERT
  5
116
330
1F
100
AcDbEntity
  8
Outline
100
AcDbBlockReference
  2
Sheet Border
 10
0.0
 20
0.0
 30
0.0
  0
LINE
  5
119
330
1F
100
AcDbEntity
  8
0
 62
     2
100
AcDbLine
 10
83.66960344241767
 20
131.3090005701254
 30
0.0
 11
91.11960344241766
 21
131.3090005636199
 31
0.0
  0
LINE
  5
11A
330
1F
100
AcDbEntity
  8
0
 62
     2
100
AcDbLine
 10
83.66960344241767
 20
162.7140219677378
 30
0.0
 11
91.11960344241766
 21
162.71402197147
 31
0.0
  0
LINE
  5
11B
330
1F
100
AcDbEntity
  8
0
 62
     2
100
AcDbLine
 10
92.36960344134872
 20
125.5115068958723
 30
0.0
 11
91.11960344134872
 21
126.7615068958723
 31
0.0
  0
LINE
  5
11C
330
1F
100
AcDbEntity
  8
0
 62
     2
100
AcDbLine
 10
92.36960344134872
 20
168.5115068958724
 30
0.0
 11
91.11960344134877
 21
167.2615068958724
 31
0.0
  0
LINE
  5
11D
330
1F
100
AcDbEntity
  8
0
 62
     2
100
AcDbLine
 10
83.66960344241767
 20
165.9615083461085
 30
0.0
 11
83.26960344241769
 21
165.5615083461086
 31
0.0
  0
LINE
  5
11E
330
1F
100
AcDbEntity
  8
0
 62
     2
100
AcDbLine
 10
83.66960344241767
 20
162.71402197147
 30
0.0
 11
83.26960344241769
 21
162.3140219714701
 31
0.0
  0
LINE
  5
11F
330
1F
100
AcDbEntity
  8
0
 62
     2
100
AcDbLine
 10
83.66960344241767
 20
154.7040553590781
 30
0.0
 11
83.26960344241769
 21
155.104055359078
 31
0.0
  0
LINE
  5
120
330
1F
100
AcDbEntity
  8
0
 62
     2
100
AcDbLine
 10
83.66960344241767
 20
138.7040553590781
 30
0.0
 11
83.26960344241769
 21
138.3040553590781
 31
0.0
  0
LINE
  5
121
330
1F
100
AcDbEntity
  8
0
 62
     2
100
AcDbLine
 10
83.66960344241767
 20
131.3090005636199
 30
0.0
 11
83.26960344241769
 21
131.7090005636199
 31
0.0
  0
LINE
  5
122
330
1F
100
AcDbEntity
  8
0
 62
     2
100
AcDbLine
 10
83.66960344241767
 20
128.0615139954076
 30
0.0
 11
83.26960344241769
 21
128.4615139954076
 31
0.0
  0
LINE
  5
123
330
1F
100
AcDbEntity
  8
0
 62
     2
100
AcDbLine
 10
86.76960344241775
 20
154.7234480257941
 30
0.0
 11
83.66960344241772
 21
154.7234480257941
 31
0.0
  0
LINE
  5
124
330
1F
100
AcDbEntity
  8
0
 62
     2
100
AcDbLine
 10
83.66960344241767
 20
138.6846634674564
 30
0.0
 11
86.76960344241775
 21
138.6846634674564
 31
0.0
  0
LINE
  5
125
330
1F
100
AcDbEntity
  8
0
 62
     2
100
AcDbLine
 10
86.76960344241775
 20
153.1808999323034
 30
0.0
 11
90.66960344241767
 21
153.1808999323034
 31
0.0
  0
LINE
  5
126
330
1F
100
AcDbEntity
  8
0
 62
     2
100
AcDbLine
 10
86.76960344241775
 20
148.5921147253024
 30
0.0
 11
90.66960344241767
 21
148.5921147253024
 31
0.0
  0
LINE
  5
127
330
1F
100
AcDbEntity
  8
0
 62
     2
100
AcDbLine
 10
86.76960344241775
 20
145.4309000587312
 30
0.0
 11
90.66960344241767
 21
145.4309000587312
 31
0.0
  0
LINE
  5
128
330
1F
100
AcDbEntity
  8
0
 62
     2
100
AcDbLine
 10
86.76960344241775
 20
140.8421151567661
 30
0.0
 11
90.66960344241767
 21
140.8421151567661
 31
0.0
  0
LINE
  5
129
330
1F
100
AcDbEntity
  8
0
 62
     2
100
AcDbLine
 10
83.66960344241767
 20
162.2140219714698
 30
0.0
 11
83.66960344241767
 21
162.7140219677378
 31
0.0
  0
LINE
  5
12A
330
1F
100
AcDbEntity
  8
0
 62
     2
100
AcDbLine
 10
83.26960344241769
 20
128.4615139954076
 30
0.0
 11
83.26960344241769
 21
128.6084611516856
 31
0.0
  0
LINE
  5
12B
330
1F
100
AcDbEntity
  8
0
 62
     2
100
AcDbLine
 10
83.66960344241767
 20
128.0615139954076
 30
0.0
 11
83.66960344241767
 21
128.7962497767984
 31
0.0
  0
LINE
  5
12C
330
1F
100
AcDbEntity
  8
0
 62
     2
100
AcDbLine
 10
83.26960344241769
 20
129.3731361857506
 30
0.0
 11
83.26960344241769
 21
128.6084611516856
 31
0.0
  0
LINE
  5
12D
330
1F
100
AcDbEntity
  8
0
 62
     2
100
AcDbLine
 10
83.66960344241767
 20
129.5609248108632
 30
0.0
 11
83.66960344241767
 21
128.7962497767984
 31
0.0
  0
LINE
  5
12E
330
1F
100
AcDbEntity
  8
0
 62
     2
100
AcDbLine
 10
83.26960344241769
 20
130.0837143269278
 30
0.0
 11
83.26960344241769
 21
129.3731361857506
 31
0.0
  0
LINE
  5
12F
330
1F
100
AcDbEntity
  8
0
 62
     2
100
AcDbLine
 10
83.66960344241767
 20
129.9556904448505
 30
0.0
 11
83.66960344241767
 21
129.5609248108632
 31
0.0
  0
LINE
  5
130
330
1F
100
AcDbEntity
  8
0
 62
     2
100
AcDbLine
 10
83.26960344241769
 20
130.2322282101727
 30
0.0
 11
83.26960344241769
 21
130.0837143269278
 31
0.0
  0
LINE
  5
131
330
1F
100
AcDbEntity
  8
0
 62
     2
100
AcDbLine
 10
83.26960344241769
 20
131.7094810735569
 30
0.0
 11
83.26960344241769
 21
130.2322282101727
 31
0.0
  0
LINE
  5
132
330
1F
100
AcDbEntity
  8
0
 62
     2
100
AcDbLine
 10
83.26960344241769
 20
131.7132974906557
 30
0.0
 11
83.26960344241769
 21
131.7109179855722
 31
0.0
  0
LINE
  5
133
330
1F
100
AcDbEntity
  8
0
 62
     2
100
AcDbLine
 10
83.66960344241767
 20
131.3090005701254
 30
0.0
 11
83.66960344241767
 21
129.9556904448505
 31
0.0
  0
LINE
  5
134
330
1F
100
AcDbEntity
  8
0
 62
     2
100
AcDbLine
 10
83.26960344241769
 20
131.709000564921
 30
0.0
 11
83.26960344241769
 21
131.8090006395549
 31
0.0
  0
LINE
  5
135
330
1F
100
AcDbEntity
  8
0
 62
     2
100
AcDbLine
 10
83.66960344241767
 20
131.3090005701254
 30
0.0
 11
83.66960344241767
 21
131.809000943295
 31
0.0
  0
LINE
  5
136
330
1F
100
AcDbEntity
  8
0
 62
     2
100
AcDbLine
 10
83.26960344241763
 20
138.2040554350131
 30
0.0
 11
83.26960344241763
 21
131.8090006395549
 31
0.0
  0
LINE
  5
137
330
1F
100
AcDbEntity
  8
0
 62
     2
100
AcDbLine
 10
83.66960344241767
 20
138.2040557387532
 30
0.0
 11
83.66960344241767
 21
131.809000943295
 31
0.0
  0
LINE
  5
138
330
1F
100
AcDbEntity
  8
0
 62
     2
100
AcDbLine
 10
83.26960344241769
 20
138.2040554350131
 30
0.0
 11
83.26960344241769
 21
138.3040553590781
 31
0.0
  0
LINE
  5
139
330
1F
100
AcDbEntity
  8
0
 62
     2
100
AcDbLine
 10
83.26960344241769
 20
138.7024810271131
 30
0.0
 11
83.26960344241769
 21
138.3040553590781
 31
0.0
  0
LINE
  5
13A
330
1F
100
AcDbEntity
  8
0
 62
     2
100
AcDbLine
 10
83.26960344241769
 20
139.2040553590781
 30
0.0
 11
83.26960344241769
 21
138.7024810271131
 31
0.0
  0
LINE
  5
13B
330
1F
100
AcDbEntity
  8
0
 62
     2
100
AcDbLine
 10
83.26960344241763
 20
154.2040553590781
 30
0.0
 11
83.26960344241769
 21
139.2040553590781
 31
0.0
  0
LINE
  5
13C
330
1F
100
AcDbEntity
  8
0
 62
     2
100
AcDbLine
 10
83.26960344241769
 20
154.9513325429355
 30
0.0
 11
83.26960344241769
 21
154.2040553590781
 31
0.0
  0
LINE
  5
13D
330
1F
100
AcDbEntity
  8
0
 62
     2
100
AcDbLine
 10
83.26960344241769
 20
155.104055359078
 30
0.0
 11
83.26960344241769
 21
154.9513325429355
 31
0.0
  0
LINE
  5
13E
330
1F
100
AcDbEntity
  8
0
 62
     2
100
AcDbLine
 10
83.26960344241769
 20
155.1045271171552
 30
0.0
 11
83.26960344241769
 21
155.2040553590781
 31
0.0
  0
LINE
  5
13F
330
1F
100
AcDbEntity
  8
0
 62
     2
100
AcDbLine
 10
83.26960344241769
 20
162.21402197147
 30
0.0
 11
83.26960344241769
 21
155.2040553590781
 31
0.0
  0
LINE
  5
140
330
1F
100
AcDbEntity
  8
0
 62
     2
100
AcDbLine
 10
83.66960344241767
 20
162.2140219714698
 30
0.0
 11
83.66960344241767
 21
155.2040553590778
 31
0.0
  0
LINE
  5
141
330
1F
100
AcDbEntity
  8
0
 62
     2
100
AcDbLine
 10
83.26960344241769
 20
162.21402197147
 30
0.0
 11
83.26960344241769
 21
162.3135398828774
 31
0.0
  0
LINE
  5
142
330
1F
100
AcDbEntity
  8
0
 62
     2
100
AcDbLine
 10
83.26960344241769
 20
163.9393080696931
 30
0.0
 11
83.26960344241769
 21
162.3097250475801
 31
0.0
  0
LINE
  5
143
330
1F
100
AcDbEntity
  8
0
 62
     2
100
AcDbLine
 10
83.26960344241769
 20
164.6498862436164
 30
0.0
 11
83.26960344241769
 21
163.9393080696929
 31
0.0
  0
LINE
  5
144
330
1F
100
AcDbEntity
  8
0
 62
     2
100
AcDbLine
 10
83.26960344241769
 20
165.4145611898301
 30
0.0
 11
83.26960344241763
 21
164.6498862436164
 31
0.0
  0
LINE
  5
145
330
1F
100
AcDbEntity
  8
0
 62
     2
100
AcDbLine
 10
83.26960344241769
 20
165.4145611898301
 30
0.0
 11
83.26960344241769
 21
165.5610278436066
 31
0.0
  0
LINE
  5
146
330
1F
100
AcDbEntity
  8
0
 62
     2
100
AcDbLine
 10
86.76960344241775
 20
155.2040553590778
 30
0.0
 11
83.66960344241772
 21
155.2040553590778
 31
0.0
  0
LINE
  5
147
330
1F
100
AcDbEntity
  8
0
 62
     2
100
AcDbLine
 10
86.76960344241775
 20
155.2040553590778
 30
0.0
 11
86.76960344241775
 21
154.7040553590781
 31
0.0
  0
LINE
  5
148
330
1F
100
AcDbEntity
  8
0
 62
     2
100
AcDbLine
 10
83.66960344241767
 20
138.2040557387532
 30
0.0
 11
86.76960344241769
 21
138.2040557387532
 31
0.0
  0
LINE
  5
149
330
1F
100
AcDbEntity
  8
0
 62
     2
100
AcDbLine
 10
86.76960344241775
 20
138.7040553590781
 30
0.0
 11
86.76960344241775
 21
138.2040557387532
 31
0.0
  0
LINE
  5
14A
330
1F
100
AcDbEntity
  8
0
 62
     2
100
AcDbLine
 10
86.76960344241775
 20
153.6615072655869
 30
0.0
 11
86.76960344241775
 21
154.7040553590781
 31
0.0
  0
LINE
  5
14B
330
1F
100
AcDbEntity
  8
0
 62
     2
100
AcDbLine
 10
86.76960344241775
 20
153.6615072655869
 30
0.0
 11
86.76960344241775
 21
153.1808999323034
 31
0.0
  0
LINE
  5
14C
330
1F
100
AcDbEntity
  8
0
 62
     2
100
AcDbLine
 10
86.76960344241775
 20
148.5921147253024
 30
0.0
 11
86.76960344241775
 21
148.1115073920178
 31
0.0
  0
LINE
  5
14D
330
1F
100
AcDbEntity
  8
0
 62
     2
100
AcDbLine
 10
86.76960344241775
 20
145.9115073920179
 30
0.0
 11
86.76960344241775
 21
148.1115073920178
 31
0.0
  0
LINE
  5
14E
330
1F
100
AcDbEntity
  8
0
 62
     2
100
AcDbLine
 10
86.76960344241775
 20
145.9115073920178
 30
0.0
 11
86.76960344241775
 21
145.4309000587312
 31
0.0
  0
LINE
  5
14F
330
1F
100
AcDbEntity
  8
0
 62
     2
100
AcDbLine
 10
86.76960344241775
 20
140.8421151567661
 30
0.0
 11
86.76960344241775
 21
140.3615078981223
 31
0.0
  0
LINE
  5
150
330
1F
100
AcDbEntity
  8
0
 62
     2
100
AcDbLine
 10
86.76960344241775
 20
138.7040553590781
 30
0.0
 11
86.76960344241775
 21
140.3615078981223
 31
0.0
  0
LINE
  5
151
330
1F
100
AcDbEntity
  8
0
 62
     2
100
AcDbLine
 10
83.66960344241767
 20
128.0615139954076
 30
0.0
 11
91.11960344241766
 21
128.0615139954076
 31
0.0
  0
LINE
  5
152
330
1F
100
AcDbEntity
  8
0
 62
     2
100
AcDbLine
 10
83.66960344241767
 20
128.7962497767984
 30
0.0
 11
91.11960344241766
 21
128.7962497767984
 31
0.0
  0
LINE
  5
153
330
1F
100
AcDbEntity
  8
0
 62
     2
100
AcDbLine
 10
83.66960344241772
 20
129.5609248108632
 30
0.0
 11
91.11960344241766
 21
129.5609248108632
 31
0.0
  0
LINE
  5
154
330
1F
100
AcDbEntity
  8
0
 62
     2
100
AcDbLine
 10
83.66960344241767
 20
129.9556904448505
 30
0.0
 11
91.11960344241766
 21
129.9556904448505
 31
0.0
  0
LINE
  5
155
330
1F
100
AcDbEntity
  8
0
 62
     2
100
AcDbLine
 10
83.66960344241761
 20
131.809000943295
 30
0.0
 11
91.11960344241766
 21
131.809000943295
 31
0.0
  0
LINE
  5
156
330
1F
100
AcDbEntity
  8
0
 62
     2
100
AcDbLine
 10
86.76960344241775
 20
140.3615078981223
 30
0.0
 11
91.11960344241766
 21
140.3615078981223
 31
0.0
  0
LINE
  5
157
330
1F
100
AcDbEntity
  8
0
 62
     2
100
AcDbLine
 10
90.66960344241761
 20
140.8615075184473
 30
0.0
 11
91.11960344241766
 21
140.8615075184473
 31
0.0
  0
LINE
  5
158
330
1F
100
AcDbEntity
  8
0
 62
     2
100
AcDbLine
 10
90.66960344241767
 20
141.3615075184499
 30
0.0
 11
91.11960344241766
 21
141.3615075184499
 31
0.0
  0
LINE
  5
159
330
1F
100
AcDbEntity
  8
0
 62
     2
100
AcDbLine
 10
90.66960344241767
 20
144.9115073920198
 30
0.0
 11
91.11960344241766
 21
144.9115073920198
 31
0.0
  0
LINE
  5
15A
330
1F
100
AcDbEntity
  8
0
 62
     2
100
AcDbLine
 10
90.66960344241761
 20
145.4115073920172
 30
0.0
 11
91.11960344241766
 21
145.4115073920172
 31
0.0
  0
LINE
  5
15B
330
1F
100
AcDbEntity
  8
0
 62
     2
100
AcDbLine
 10
86.76960344241775
 20
145.9115073920178
 30
0.0
 11
91.11960344241766
 21
145.9115073920178
 31
0.0
  0
LINE
  5
15C
330
1F
100
AcDbEntity
  8
0
 62
     2
100
AcDbLine
 10
86.76960344241775
 20
148.1115073920178
 30
0.0
 11
91.11960344241766
 21
148.1115073920178
 31
0.0
  0
LINE
  5
15D
330
1F
100
AcDbEntity
  8
0
 62
     2
100
AcDbLine
 10
90.66960344241761
 20
148.6115073920172
 30
0.0
 11
91.11960344241766
 21
148.6115073920172
 31
0.0
  0
LINE
  5
15E
330
1F
100
AcDbEntity
  8
0
 62
     2
100
AcDbLine
 10
90.66960344241767
 20
149.1115073920188
 30
0.0
 11
91.11960344241766
 21
149.1115073920188
 31
0.0
  0
LINE
  5
15F
330
1F
100
AcDbEntity
  8
0
 62
     2
100
AcDbLine
 10
90.66960344241767
 20
152.6615072655898
 30
0.0
 11
91.11960344241766
 21
152.6615072655898
 31
0.0
  0
LINE
  5
160
330
1F
100
AcDbEntity
  8
0
 62
     2
100
AcDbLine
 10
90.66960344241761
 20
153.1615072655871
 30
0.0
 11
91.11960344241766
 21
153.1615072655871
 31
0.0
  0
LINE
  5
161
330
1F
100
AcDbEntity
  8
0
 62
     2
100
AcDbLine
 10
86.76960344241775
 20
153.6615072655869
 30
0.0
 11
91.11960344241766
 21
153.6615072655869
 31
0.0
  0
LINE
  5
162
330
1F
100
AcDbEntity
  8
0
 62
     2
100
AcDbLine
 10
83.66960344241767
 20
162.2140219714698
 30
0.0
 11
91.11960344241766
 21
162.2140219714698
 31
0.0
  0
LINE
  5
163
330
1F
100
AcDbEntity
  8
0
 62
     2
100
AcDbLine
 10
90.70960344134869
 20
164.0673319663226
 30
0.0
 11
91.11960344241766
 21
164.0673319663226
 31
0.0
  0
LINE
  5
164
330
1F
100
AcDbEntity
  8
0
 62
     2
100
AcDbLine
 10
90.70960344134869
 20
164.4620976185023
 30
0.0
 11
91.11960344241766
 21
164.4620976185023
 31
0.0
  0
LINE
  5
165
330
1F
100
AcDbEntity
  8
0
 62
     2
100
AcDbLine
 10
90.70960344134869
 20
165.2267725647161
 30
0.0
 11
91.11960344241766
 21
165.2267725647161
 31
0.0
  0
LINE
  5
166
330
1F
100
AcDbEntity
  8
0
 62
     2
100
AcDbLine
 10
90.70960344134869
 20
165.9615083461085
 30
0.0
 11
91.11960344241766
 21
165.9615083461085
 31
0.0
  0
LINE
  5
167
330
1F
100
AcDbEntity
  8
0
 62
     2
100
AcDbLine
 10
117.680902565543
 20
129.0115068958724
 30
0.0
 11
111.9196034413487
 21
129.0115068958724
 31
0.0
  0
LINE
  5
168
330
1F
100
AcDbEntity
  8
0
 62
     2
100
AcDbLine
 10
125.7690489388345
 20
165.0115068958724
 30
0.0
 11
126.9196034413487
 21
165.0115068958724
 31
0.0
  0
LINE
  5
169
330
1F
100
AcDbEntity
  8
0
 62
     2
100
AcDbLine
 10
111.9196034413487
 20
165.0115068958724
 30
0.0
 11
117.6809025655431
 21
165.0115068958724
 31
0.0
  0
LINE
  5
16A
330
1F
100
AcDbEntity
  8
0
 62
     2
100
AcDbLine
 10
126.9196034413487
 20
129.0115068958724
 30
0.0
 11
125.7690489388345
 21
129.0115068958724
 31
0.0
  0
LINE
  5
16B
330
1F
100
AcDbEntity
  8
0
 62
     2
100
AcDbLine
 10
92.36960344134911
 20
128.0589491894541
 30
0.0
 11
92.36960344134911
 21
129.0115068958724
 31
0.0
  0
LINE
  5
16C
330
1F
100
AcDbEntity
  8
0
 62
     2
100
AcDbLine
 10
92.36960344134911
 20
125.5115068958723
 30
0.0
 11
92.36960344134911
 21
128.0589491894541
 31
0.0
  0
ARC
  5
16D
330
1F
100
AcDbEntity
  8
0
 62
     2
100
AcDbCircle
 10
123.4196034413487
 20
129.0115068958724
 30
0.0
 40
3.5
100
AcDbArc
 50
270.0
 51
0.0
  0
LINE
  5
16E
330
1F
100
AcDbEntity
  8
0
 62
     2
100
AcDbLine
 10
111.9196034413487
 20
129.0115068958724
 30
0.0
 11
111.9196034413487
 21
125.5115068958724
 31
0.0
  0
LINE
  5
16F
330
1F
100
AcDbEntity
  8
0
 62
     2
100
AcDbLine
 10
92.36960344134854
 20
168.3793894454043
 30
0.0
 11
92.36960344134854
 21
168.5115068958724
 31
0.0
  0
LINE
  5
170
330
1F
100
AcDbEntity
  8
0
 62
     2
100
AcDbLine
 10
92.36960344134854
 20
165.0115068958724
 30
0.0
 11
92.36960344134854
 21
168.3793894454043
 31
0.0
  0
LINE
  5
171
330
1F
100
AcDbEntity
  8
0
 62
     2
100
AcDbLine
 10
111.9196034413487
 20
168.5115068958724
 30
0.0
 11
111.9196034413487
 21
165.0115068958724
 31
0.0
  0
ARC
  5
172
330
1F
100
AcDbEntity
  8
0
 62
     2
100
AcDbCircle
 10
123.4196034413487
 20
165.0115068958723
 30
0.0
 40
3.5
100
AcDbArc
 50
0.0
 51
90.00000000000006
  0
LINE
  5
173
330
1F
100
AcDbEntity
  8
0
 62
     2
100
AcDbLine
 10
120.2449980905108
 20
131.3615072867426
 30
0.0
 11
120.243954053225
 21
131.3615072867426
 31
0.0
  0
LINE
  5
174
330
1F
100
AcDbEntity
  8
0
 62
     2
100
AcDbLine
 10
120.2470365403299
 20
131.3615072867426
 30
0.0
 11
120.2457186543639
 21
131.3615072867426
 31
0.0
  0
LINE
  5
175
330
1F
100
AcDbEntity
  8
0
 62
     2
100
AcDbLine
 10
120.2490687457326
 20
131.3615072867426
 30
0.0
 11
120.2477077523713
 21
131.3615072867426
 31
0.0
  0
LINE
  5
176
330
1F
100
AcDbEntity
  8
0
 62
     2
100
AcDbLine
 10
121.268146198571
 20
131.3615072867426
 30
0.0
 11
121.2652016337935
 21
131.3615072867426
 31
0.0
  0
LINE
  5
177
330
1F
100
AcDbEntity
  8
0
 62
     2
100
AcDbLine
 10
91.11960344134877
 20
167.0498840965818
 30
0.0
 11
91.11960344134877
 21
167.2615068958724
 31
0.0
  0
LINE
  5
178
330
1F
100
AcDbEntity
  8
0
 62
     2
100
AcDbLine
 10
91.11960344134877
 20
165.0115068958725
 30
0.0
 11
91.11960344134877
 21
167.0498840965818
 31
0.0
  0
LINE
  5
179
330
1F
100
AcDbEntity
  8
0
 62
     2
100
AcDbLine
 10
91.11960344134872
 20
129.0115068958724
 30
0.0
 11
91.11960344134877
 21
165.0115068958724
 31
0.0
  0
LINE
  5
17A
330
1F
100
AcDbEntity
  8
0
 62
     2
100
AcDbLine
 10
92.36960344134872
 20
129.0115068958724
 30
0.0
 11
92.36960344134872
 21
165.0115068958724
 31
0.0
  0
LINE
  5
17B
330
1F
100
AcDbEntity
  8
0
 62
     2
100
AcDbLine
 10
91.11960344134872
 20
128.0588697988042
 30
0.0
 11
91.11960344134872
 21
129.0115068958722
 31
0.0
  0
LINE
  5
17C
330
1F
100
AcDbEntity
  8
0
 62
     2
100
AcDbLine
 10
91.11960344134872
 20
126.7615068958723
 30
0.0
 11
91.11960344134872
 21
128.0588697988042
 31
0.0
  0
CIRCLE
  5
17D
330
1F
100
AcDbEntity
  8
0
 62
     2
100
AcDbCircle
 10
123.4195998743568
 20
141.0115072867405
 30
0.0
 40
1.35
  0
CIRCLE
  5
17E
330
1F
100
AcDbEntity
  8
0
 62
     2
100
AcDbCircle
 10
123.4195998743568
 20
141.0115072867405
 30
0.0
 40
2.35
  0
CIRCLE
  5
17F
330
1F
100
AcDbEntity
  8
0
 62
     2
100
AcDbCircle
 10
123.4195998743568
 20
153.0115072867405
 30
0.0
 40
1.35
  0
CIRCLE
  5
180
330
1F
100
AcDbEntity
  8
0
 62
     2
100
AcDbCircle
 10
123.4195998743568
 20
153.0115072867405
 30
0.0
 40
2.35
  0
ARC
  5
181
330
1F
100
AcDbEntity
  8
0
 62
     2
100
AcDbCircle
 10
123.4195998743568
 20
165.0115072867405
 30
0.0
 40
2.35
100
AcDbArc
 50
123.959667417066
 51
247.6549791171732
  0
CIRCLE
  5
182
330
1F
100
AcDbEntity
  8
0
 62
     2
100
AcDbCircle
 10
123.4195998743568
 20
165.0115072867405
 30
0.0
 40
1.35
  0
ARC
  5
183
330
1F
100
AcDbEntity
  8
0
 62
     2
100
AcDbCircle
 10
123.4195998743568
 20
165.0115072867405
 30
0.0
 40
2.35
100
AcDbArc
 50
0.0
 51
123.9596674170658
  0
ARC
  5
184
330
1F
100
AcDbEntity
  8
0
 62
     2
100
AcDbCircle
 10
123.4195998743568
 20
165.0115072867405
 30
0.0
 40
2.35
100
AcDbArc
 50
247.6549791171718
 51
359.9999999999989
  0
ARC
  5
185
330
1F
100
AcDbEntity
  8
0
 62
     2
100
AcDbCircle
 10
123.4195998743567
 20
129.0115072867405
 30
0.0
 40
2.35
100
AcDbArc
 50
112.3450311811402
 51
236.0403396042863
  0
CIRCLE
  5
186
330
1F
100
AcDbEntity
  8
0
 62
     2
100
AcDbCircle
 10
123.4195998743567
 20
129.0115072867405
 30
0.0
 40
1.35
  0
ARC
  5
187
330
1F
100
AcDbEntity
  8
0
 62
     2
100
AcDbCircle
 10
123.4195998743567
 20
129.0115072867405
 30
0.0
 40
2.35
100
AcDbArc
 50
236.0403396042867
 51
359.9999999999995
  0
ARC
  5
188
330
1F
100
AcDbEntity
  8
0
 62
     2
100
AcDbCircle
 10
123.4195998743567
 20
129.0115072867405
 30
0.0
 40
2.35
100
AcDbArc
 50
0.0
 51
112.345031181141
  0
LWPOLYLINE
  5
189
330
1F
100
AcDbEntity
  8
0
 62
     2
100
AcDbPolyline
 90
       52
 70
     0
 43
0.0
 10
122.1068804319856
 20
166.9606701445888
 10
122.0952748396576
 20
166.9654599277104
 10
121.9789067063062
 20
167.0113262320405
 10
121.845213492877
 20
167.0597392906688
 10
121.7731180828986
 20
167.0840216780238
 10
121.7056559889512
 20
167.1056562708728
 10
121.5604633551638
 20
167.1488734870936
 10
121.435511149945
 20
167.1826240226113
 10
121.4099422441791
 20
167.1891528326166
 10
121.2543063845683
 20
167.2261941057322
 10
121.2286557742793
 20
167.231859781492
 10
121.0903652154799
 20
167.2602979038926
 10
120.9993714969461
 20
167.2770875116596
 10
120.928351277003
 20
167.2891409858236
 10
120.7588952371453
 20
167.3142227019593
 10
120.7426772343327
 20
167.3163524186855
 10
120.5865398666073
 20
167.3344265534163
 10
120.4125801560684
 20
167.3493027081407
 10
120.3994336132716
 20
167.3501966813517
 10
120.0670989583978
 20
167.361507286667
 10
119.861327961438
 20
167.3568158190766
 10
119.7506413392323
 20
167.3501913567071
 10
119.4539793402798
 20
167.3163518989084
 10
119.1805787498093
 20
167.2603139433846
 10
119.078615987307
 20
167.2318862205534
 10
118.9326921015501
 20
167.1826220498959
 10
118.7863204562078
 20
167.1212902642347
 10
118.7105540847019
 20
167.0840205795339
 10
118.5137619362491
 20
166.9654571150702
 10
118.5003083193944
 20
166.9560158614919
 10
118.4835908471577
 20
166.9440151271666
 10
118.3702709489332
 20
166.8540369375474
 10
118.3410446266484
 20
166.8280809501125
 10
118.1920340306411
 20
166.6731326980608
 10
118.1821426465364
 20
166.6612413123058
 10
118.18123427329
 20
166.6601375779379
 10
118.1031807985851
 20
166.5572653164735
 10
118.0662208395661
 20
166.5023304876662
 10
117.9777613085828
 20
166.3511179192819
 10
117.9600781388682
 20
166.3170971417463
 10
117.8711601141741
 20
166.1192929959239
 10
117.8374336901232
 20
166.0274905975724
 10
117.8005920595175
 20
165.9107246136853
 10
117.7772909035863
 20
165.8247102690007
 10
117.7473799409511
 20
165.6943481339671
 10
117.7472278595379
 20
165.6936116865473
 10
117.7357724150417
 20
165.635367988751
 10
117.7151762021676
 20
165.5120222975474
 10
117.7092552317006
 20
165.469863225594
 10
117.6959228386033
 20
165.3546548742728
 10
117.6867983797147
 20
165.2417741412863
 10
117.6809964272416
 20
165.0115068913634
  0
LWPOLYLINE
  5
18A
330
1F
100
AcDbEntity
  8
0
 62
     2
100
AcDbPolyline
 90
       69
 70
     0
 43
0.0
 10
117.6809964272416
 20
165.0115068913634
 10
117.6848047827506
 20
164.923606224322
 10
117.6962297807868
 20
164.8359266737872
 10
117.7072738442723
 20
164.7811816849481
 10
117.7152714213501
 20
164.7486878113601
 10
117.7419296232631
 20
164.6621061281944
 10
117.7761028626717
 20
164.5763807538369
 10
117.7867497731444
 20
164.5530143912586
 10
117.8173901455237
 20
164.4916677062475
 10
117.8653354846705
 20
164.4081107064436
 10
117.9169841960164
 20
164.3294266969689
 10
117.9194828929631
 20
164.325847618924
 10
117.9793763832527
 20
164.2450099142805
 10
118.0445599683903
 20
164.1657221740595
 10
118.0921417702693
 20
164.1122426051138
 10
118.1145874794926
 20
164.088095031966
 10
118.1890734513589
 20
164.0121915800432
 10
118.2676555923208
 20
163.9380549646015
 10
118.3061117765242
 20
163.9036471128378
 10
118.3499716568323
 20
163.8657247511861
 10
118.4356593993472
 20
163.795237303911
 10
118.5243580064375
 20
163.7266261591097
 10
118.5521821548898
 20
163.7059135100016
 10
118.6157445442022
 20
163.6599233050564
 10
118.7095369252077
 20
163.5951594438147
 10
118.8054550885846
 20
163.532363164794
 10
118.8238261995077
 20
163.5207011049855
 10
118.9905528376952
 20
163.4197377826364
 10
119.0025764553255
 20
163.4127773187127
 10
119.1033210951613
 20
163.3560325569661
 10
119.114663937479
 20
163.3498149244458
 10
119.2052525330919
 20
163.301346719788
 10
119.3081701098862
 20
163.248739139108
 10
119.4118765890735
 20
163.1982290574734
 10
119.418903422894
 20
163.19489451992
 10
119.5162073239326
 20
163.1498375682694
 10
119.6210157132821
 20
163.1035865441633
 10
119.7261553472812
 20
163.0594975753836
 10
119.7309399201638
 20
163.0575452501049
 10
119.8314801921759
 20
163.0175921237218
 10
119.9368587261017
 20
162.9778923652334
 10
120.0421782161288
 20
162.9404213097637
 10
120.0462922009785
 20
162.9390022198428
 10
120.1473271787543
 20
162.9052018516757
 10
120.2521941309565
 20
162.872256787956
 10
120.2532326911539
 20
162.8719414220962
 10
120.3610867355038
 20
162.8403624436722
 10
120.4606728274603
 20
162.8132828487984
 10
120.5641092494894
 20
162.7873016015095
 10
120.6668959641928
 20
162.7636888864871
 10
120.6715512600666
 20
162.7626722351165
 10
120.7689471854527
 20
162.7424679006626
 10
120.8701821862999
 20
162.723661816654
 10
120.97053083977
 20
162.7072938505249
 10
120.9747458099733
 20
162.7066569616947
 10
121.0699243522945
 20
162.6933866439101
 10
121.1682939303048
 20
162.6819621799551
 10
121.2655721251998
 20
162.6730417843356
 10
121.2683794129087
 20
162.6728204206028
 10
121.4355019870197
 20
162.6634343010803
 10
121.5502779338342
 20
162.6615072867437
 10
121.8187091999284
 20
162.6728123612201
 10
121.8503995843878
 20
162.6757290111396
 10
121.9944568274551
 20
162.6936039603108
 10
122.0726465949338
 20
162.7066618490892
 10
122.134232903265
 20
162.7187247026638
 10
122.2695216215765
 20
162.7511258590481
 10
122.3105974892612
 20
162.7626751680237
 10
122.5258585357529
 20
162.8378227011668
  0
LWPOLYLINE
  5
18B
330
1F
100
AcDbEntity
  8
0
 62
     2
100
AcDbPolyline
 90
       52
 70
     0
 43
0.0
 10
117.6809964272416
 20
129.0115068913634
 10
117.6868062444896
 20
128.7812427550669
 10
117.6959224619129
 20
128.6683630423705
 10
117.7092596304603
 20
128.5531551630357
 10
117.7151850867259
 20
128.5109961893833
 10
117.7357949011907
 20
128.3876510242173
 10
117.747253589159
 20
128.3294078921391
 10
117.7474056867443
 20
128.3286714538209
 10
117.7772969882891
 20
128.1983588155259
 10
117.8005985986716
 20
128.1122991837994
 10
117.8374317637378
 20
127.9955232716635
 10
117.871155387911
 20
127.9037331552229
 10
117.9601115344578
 20
127.70591744515
 10
117.9778027926744
 20
127.6718861580377
 10
118.0662348574754
 20
127.5206841481202
 10
118.1031685036901
 20
127.4657654278703
 10
118.1811928142629
 20
127.3628985459693
 10
118.1821025504612
 20
127.361792946214
 10
118.1920091349169
 20
127.3498815146732
 10
118.3410375694774
 20
127.1949335624759
 10
118.3702368449021
 20
127.1690061144648
 10
118.4835672921849
 20
127.0790225924308
 10
118.5003018884928
 20
127.0670083369001
 10
118.513769214445
 20
127.0575564386168
 10
118.7105274657802
 20
126.9389940228093
 10
118.7863076218265
 20
126.9017156645892
 10
118.9326832749645
 20
126.8403927666589
 10
119.0786702880134
 20
126.7911211556488
 10
119.180602127214
 20
126.7627009438412
 10
119.4537721821583
 20
126.7066626582155
 10
119.7503904965776
 20
126.6728232083329
 10
119.8612747489051
 20
126.6661937663426
 10
120.0671686544089
 20
126.6615072869305
 10
120.3994889055667
 20
126.6728194981314
 10
120.4126339798515
 20
126.6737136007049
 10
120.5865741027951
 20
126.688591877945
 10
120.742662360206
 20
126.7066622078354
 10
120.758919516836
 20
126.708797151442
 10
120.9283742573058
 20
126.7338788990263
 10
120.999370078875
 20
126.7459275316552
 10
121.0903913063303
 20
126.7627209858971
 10
121.2286513710811
 20
126.7911512978897
 10
121.2543331831806
 20
126.7968238194549
 10
121.4099570710333
 20
126.8338661051717
 10
121.435503079229
 20
126.840390559966
 10
121.560443657788
 20
126.8741508811699
 10
121.7055903648828
 20
126.9173767333033
 10
121.7729767513443
 20
126.9389930081516
 10
121.845138237346
 20
126.9632955477767
 10
121.9788867240901
 20
127.0116951340225
 10
122.0952804626022
 20
127.0575546124257
 10
122.1068806708259
 20
127.0623442680256
  0
LWPOLYLINE
  5
18C
330
1F
100
AcDbEntity
  8
0
 62
     2
100
AcDbPolyline
 90
       69
 70
     0
 43
0.0
 10
122.5258592642323
 20
131.1851915597784
 10
122.3105977728985
 20
131.2603393214809
 10
122.2695218400303
 20
131.271888656378
 10
122.1342329885921
 20
131.304289858368
 10
122.0726466253163
 20
131.3163527243948
 10
121.9944568653176
 20
131.3294106122116
 10
121.850399618203
 20
131.3472855612565
 10
121.8187092344739
 20
131.3502022109704
 10
121.5502746861873
 20
131.3615072867426
 10
121.435501986964
 20
131.359580272403
 10
121.26837935676
 20
131.3501941484753
 10
121.2655720684829
 20
131.3499727846566
 10
121.1682938538044
 20
131.3410523855732
 10
121.0699242556345
 20
131.3296279171918
 10
120.9747456936918
 20
131.316357594277
 10
120.9705307226174
 20
131.315720705201
 10
120.8701820483618
 20
131.2993527327601
 10
120.7689470264768
 20
131.2805466415178
 10
120.6715510808187
 20
131.2603422993123
 10
120.6668957839761
 20
131.2593256475521
 10
120.5641090478946
 20
131.235712923494
 10
120.4606726044011
 20
131.2097316662889
 10
120.361086491855
 20
131.1826520611067
 10
120.2532324253217
 20
131.1510730706947
 10
120.2521938649114
 20
131.1507577047153
 10
120.1473268913199
 20
131.1178126285234
 10
120.0462918931737
 20
131.0840122475928
 10
120.0421779075
 20
131.0825931571365
 10
119.9368583965386
 20
131.0451220875545
 10
119.8314798420041
 20
131.0054223141542
 10
119.7309395507027
 20
130.9654691728034
 10
119.7261549769137
 20
130.9635168467941
 10
119.6210153232971
 20
130.9194278615382
 10
119.5162069150033
 20
130.8731768201907
 10
119.418902996982
 20
130.8281198517849
 10
119.4118761619592
 20
130.8247853129929
 10
119.3081696654408
 20
130.7742752126266
 10
119.2052520724271
 20
130.7216676124799
 10
119.1146634634846
 20
130.6731993899228
 10
119.1033206195648
 20
130.6669817551088
 10
119.0025759662029
 20
130.6102369724559
 10
118.9905528371709
 20
130.6032767905444
 10
118.8238256899076
 20
130.5023131465643
 10
118.8054545772043
 20
130.4906510824881
 10
118.7095364057566
 20
130.4278547805415
 10
118.6157440190443
 20
130.3630908957558
 10
118.5521816272516
 20
130.3171006741576
 10
118.524357478101
 20
130.2963880175683
 10
118.4356588705944
 20
130.2277768480722
 10
118.3499711309814
 20
130.1572893755653
 10
118.3061112536342
 20
130.1193670004007
 10
118.2676550729561
 20
130.0849591364159
 10
118.1890729422771
 20
130.0108224947786
 10
118.1145869847028
 20
129.9349190162438
 10
118.0921412808181
 20
129.9107714346771
 10
118.0445594921208
 20
129.8572918471773
 10
117.9793759303672
 20
129.778004079972
 10
117.9194824688281
 20
129.6971663486139
 10
117.9169837732694
 20
129.6935872694055
 10
117.8653350949197
 20
129.614903234774
 10
117.8173897960584
 20
129.5313462091716
 10
117.7867494567487
 20
129.4699995058446
 10
117.7761025596603
 20
129.4466331364335
 10
117.7419293731418
 20
129.3609077377056
 10
117.7152712292776
 20
129.2743260312728
 10
117.7072736746352
 20
129.2418321493875
 10
117.6962296497606
 20
129.187087147122
 10
117.6848047157486
 20
129.0994075765688
 10
117.6809964272416
 20
129.0115068913634
  0
LINE
  5
18D
330
1F
100
AcDbEntity
  8
0
 62
     2
100
AcDbLine
 10
111.9196034413487
 20
168.5115068958723
 30
0.0
 11
123.4196034413487
 21
168.5115068958723
 31
0.0
  0
LINE
  5
18E
330
1F
100
AcDbEntity
  8
0
 62
     2
100
AcDbLine
 10
92.36960344134854
 20
165.0115068958724
 30
0.0
 11
111.9196034413485
 21
165.0115068958724
 31
0.0
  0
LINE
  5
18F
330
1F
100
AcDbEntity
  8
0
 62
     2
100
AcDbLine
 10
92.36960344134877
 20
168.5115068958724
 30
0.0
 11
111.9196034413487
 21
168.5115068958724
 31
0.0
  0
LINE
  5
190
330
1F
100
AcDbEntity
  8
0
 62
     2
100
AcDbLine
 10
92.36960344134872
 20
129.0115068958724
 30
0.0
 11
111.9196034413487
 21
129.0115068958724
 31
0.0
  0
LINE
  5
191
330
1F
100
AcDbEntity
  8
0
 62
     2
100
AcDbLine
 10
92.36960344134911
 20
125.5115068958723
 30
0.0
 11
111.9196034413494
 21
125.5115068958723
 31
0.0
  0
LINE
  5
192
330
1F
100
AcDbEntity
  8
0
 62
     2
100
AcDbLine
 10
123.4196034413488
 20
125.5115068958724
 30
0.0
 11
111.9196034413492
 21
125.5115068958724
 31
0.0
  0
LINE
  5
193
330
1F
100
AcDbEntity
  8
0
 62
     2
100
AcDbLine
 10
126.9196034413487
 20
129.0115068958724
 30
0.0
 11
126.9196034413487
 21
165.0115068958724
 31
0.0
  0
LINE
  5
194
330
1F
100
AcDbEntity
  8
0
 62
     2
100
AcDbLine
 10
111.9196034413487
 20
129.0115068958724
 30
0.0
 11
111.9196034413487
 21
165.0115068958724
 31
0.0
  0
LINE
  5
195
330
1F
100
AcDbEntity
  8
0
 62
     2
100
AcDbLine
 10
89.46960344241768
 20
153.1808999323034
 30
0.0
 11
89.46960344241768
 21
153.1822264487695
 31
0.0
  0
LINE
  5
196
330
1F
100
AcDbEntity
  8
0
 62
     2
100
AcDbLine
 10
89.46960344241768
 20
145.4309000587312
 30
0.0
 11
89.46960344241768
 21
145.4322265751987
 31
0.0
  0
LINE
  5
197
330
1F
100
AcDbEntity
  8
0
 62
     2
100
AcDbLine
 10
92.36960344134872
 20
129.0115068958724
 30
0.0
 11
91.11960344134872
 21
129.0115068958724
 31
0.0
  0
LINE
  5
198
330
1F
100
AcDbEntity
  8
0
 62
     2
100
AcDbLine
 10
91.11960344134877
 20
165.0115068958724
 30
0.0
 11
92.36960344134872
 21
165.0115068958724
 31
0.0
  0
LINE
  5
199
330
1F
100
AcDbEntity
  8
0
 62
     2
100
AcDbLine
 10
92.36960344134877
 20
168.5115068958724
 30
0.0
 11
91.11960344134877
 21
167.2615068958724
 31
0.0
  0
LINE
  5
19A
330
1F
100
AcDbEntity
  8
0
 62
     2
100
AcDbLine
 10
92.36960344134872
 20
125.5115068958723
 30
0.0
 11
91.11960344134872
 21
126.7615068958723
 31
0.0
  0
LINE
  5
19B
330
1F
100
AcDbEntity
  8
0
 62
     2
100
AcDbLine
 10
83.66960344241767
 20
138.2040557387532
 30
0.0
 11
83.66960344241767
 21
138.6846634674564
 31
0.0
  0
LINE
  5
19C
330
1F
100
AcDbEntity
  8
0
 62
     2
100
AcDbLine
 10
83.66960344241772
 20
154.7234480257941
 30
0.0
 11
83.66960344241772
 21
155.2040553590778
 31
0.0
  0
LINE
  5
19D
330
1F
100
AcDbEntity
  8
0
 62
     2
100
AcDbLine
 10
83.66960344241767
 20
165.9615018517598
 30
0.0
 11
83.26960866663273
 21
165.5615031219453
 31
0.0
  0
LINE
  5
19E
330
1F
100
AcDbEntity
  8
0
 62
     2
100
AcDbLine
 10
83.66960344241767
 20
165.226772564716
 30
0.0
 11
83.26960344241769
 21
165.4145611898301
 31
0.0
  0
LINE
  5
19F
330
1F
100
AcDbEntity
  8
0
 62
     2
100
AcDbLine
 10
83.66960344241767
 20
164.4620976185023
 30
0.0
 11
83.26960344241763
 21
164.6498862436164
 31
0.0
  0
LINE
  5
1A0
330
1F
100
AcDbEntity
  8
0
 62
     2
100
AcDbLine
 10
83.26960344241769
 20
163.9393080696929
 30
0.0
 11
83.66960344241767
 21
164.0673319663226
 31
0.0
  0
LINE
  5
1A1
330
1F
100
AcDbEntity
  8
0
 62
     2
100
AcDbLine
 10
83.66960344241767
 20
162.2140219714698
 30
0.0
 11
83.26960344241769
 21
162.21402197147
 31
0.0
  0
LINE
  5
1A2
330
1F
100
AcDbEntity
  8
0
 62
     2
100
AcDbLine
 10
83.66960344241772
 20
155.2040553590778
 30
0.0
 11
83.26960344241769
 21
155.2040553590781
 31
0.0
  0
LINE
  5
1A3
330
1F
100
AcDbEntity
  8
0
 62
     2
100
AcDbLine
 10
83.66960344241767
 20
154.7040553590781
 30
0.0
 11
83.26960344241769
 21
155.104055359078
 31
0.0
  0
LINE
  5
1A4
330
1F
100
AcDbEntity
  8
0
 62
     2
100
AcDbLine
 10
83.66960344241767
 20
154.7040553590781
 30
0.0
 11
83.26960344241769
 21
155.104055359078
 31
0.0
  0
LINE
  5
1A5
330
1F
100
AcDbEntity
  8
0
 62
     2
100
AcDbLine
 10
83.66960344241767
 20
154.2040553590781
 30
0.0
 11
83.26960344241769
 21
154.2040553590781
 31
0.0
  0
LINE
  5
1A6
330
1F
100
AcDbEntity
  8
0
 62
     2
100
AcDbLine
 10
83.66960344241767
 20
139.2040553590781
 30
0.0
 11
83.26960344241763
 21
139.2040553590781
 31
0.0
  0
LINE
  5
1A7
330
1F
100
AcDbEntity
  8
0
 62
     2
100
AcDbLine
 10
83.66960344241767
 20
138.7040553590781
 30
0.0
 11
83.26960344241769
 21
138.3040553590781
 31
0.0
  0
LINE
  5
1A8
330
1F
100
AcDbEntity
  8
0
 62
     2
100
AcDbLine
 10
83.66960344241767
 20
138.2040557387532
 30
0.0
 11
83.26960344241769
 21
138.2040554350131
 31
0.0
  0
LINE
  5
1A9
330
1F
100
AcDbEntity
  8
0
 62
     2
100
AcDbLine
 10
83.66960344241767
 20
131.809000943295
 30
0.0
 11
83.26960344241763
 21
131.8090006395549
 31
0.0
  0
LINE
  5
1AA
330
1F
100
AcDbEntity
  8
0
 62
     2
100
AcDbLine
 10
83.26960344241769
 20
130.0837143269278
 30
0.0
 11
83.66960344241767
 21
129.9556904448505
 31
0.0
  0
LINE
  5
1AB
330
1F
100
AcDbEntity
  8
0
 62
     2
100
AcDbLine
 10
83.26960344241769
 20
129.3731361857506
 30
0.0
 11
83.66960344241767
 21
129.5609248108632
 31
0.0
  0
LINE
  5
1AC
330
1F
100
AcDbEntity
  8
0
 62
     2
100
AcDbLine
 10
83.66960344241767
 20
128.7962497767984
 30
0.0
 11
83.26960344241769
 21
128.6084611516856
 31
0.0
  0
LINE
  5
1AD
330
1F
100
AcDbEntity
  8
0
 62
     2
100
AcDbLine
 10
83.66960344241767
 20
128.0615139954076
 30
0.0
 11
83.26960344241769
 21
128.4615139954076
 31
0.0
  0
LINE
  5
1AE
330
1F
100
AcDbEntity
  8
0
 62
     2
100
AcDbLine
 10
83.66960344241772
 20
168.5115137832822
 30
0.0
 11
90.70960344134869
 21
168.5115137832822
 31
0.0
  0
LINE
  5
1AF
330
1F
100
AcDbEntity
  8
0
 62
     2
100
AcDbLine
 10
90.70960344134869
 20
162.7140219712646
 30
0.0
 11
90.70960344134869
 21
168.5115137832822
 31
0.0
  0
LINE
  5
1B0
330
1F
100
AcDbEntity
  8
0
 62
     2
100
AcDbLine
 10
83.66960344241772
 20
162.7140219677378
 30
0.0
 11
83.66960344241772
 21
168.5115137832822
 31
0.0
  0
LINE
  5
1B1
330
1F
100
AcDbEntity
  8
0
 62
     2
100
AcDbLine
 10
90.66960344241767
 20
145.4309000587312
 30
0.0
 11
90.66960344241767
 21
140.8421151567661
 31
0.0
  0
LINE
  5
1B2
330
1F
100
AcDbEntity
  8
0
 62
     2
100
AcDbLine
 10
83.66960344241767
 20
154.7234480257935
 30
0.0
 11
83.66960344241767
 21
138.684663467456
 31
0.0
  0
LINE
  5
1B3
330
1F
100
AcDbEntity
  8
0
 62
     2
100
AcDbLine
 10
90.66960344241767
 20
153.1808999323034
 30
0.0
 11
90.66960344241767
 21
148.5921147253024
 31
0.0
  0
LWPOLYLINE
  5
1B4
330
1F
100
AcDbEntity
  8
0
 62
     2
100
AcDbPolyline
 90
       58
 70
     0
 43
0.0
 10
23.72993151330564
 20
208.9716995729088
 10
23.76959694587606
 20
208.9724914563249
 10
23.80926237844642
 20
208.9716995729088
 10
23.88849653191721
 20
208.9653645055793
 10
23.9656969172762
 20
208.9530436510155
 10
23.96744118807277
 20
208.9526943709203
 10
24.04590546796408
 20
208.9336891689319
 10
24.1237058992636
 20
208.9083803333177
 10
24.15985634496576
 20
208.894426111398
 10
24.20068997844874
 20
208.8769985338505
 10
24.27671989339746
 20
208.839852259851
 10
24.35022768348648
 20
208.7981217694802
 10
24.3516624242215
 20
208.7972501792968
 10
24.42538940630578
 20
208.7495009601656
 10
24.49777818746236
 20
208.6969132704351
 10
24.53493565195174
 20
208.6676908772888
 10
24.56871205265412
 20
208.639795778083
 10
24.63808118193549
 20
208.5784569512344
 10
24.70579887186994
 20
208.5131993440022
 10
24.71243317423824
 20
208.5065141321353
 10
24.77517553375691
 20
208.4406554791137
 10
24.88082884622753
 20
208.3186233847105
 10
24.89844006368992
 20
208.2968703637848
 10
24.95896969386376
 20
208.2188934211557
 10
25.01757594514328
 20
208.1384751778346
 10
25.03841950011457
 20
208.1086573537017
 10
25.07421651071314
 20
208.0558899292876
 10
25.12885596462996
 20
207.9713572393258
 10
25.18146153382492
 20
207.8850879090794
 10
25.18377158186701
 20
207.8811833585151
 10
25.23200213925713
 20
207.7972927396791
 10
25.28044817007356
 20
207.7081825322558
 10
25.31558898244811
 20
207.6402194400998
 10
25.32677108762527
 20
207.6179609954375
 10
25.37094267748944
 20
207.5268008099525
 10
25.41293557743074
 20
207.4348661739874
 10
25.43255002166899
 20
207.3899541270042
 10
25.45272335325706
 20
207.3423212855219
 10
25.49028021082654
 20
207.2493247225923
 10
25.51745163659842
 20
207.1780635013568
 10
25.5334308644276
 20
207.1343728953051
 10
25.55859921776459
 20
207.0625171073799
 10
25.5893118485007
 20
206.9689681834171
 10
25.61731218160833
 20
206.8768036713104
 10
25.61769429769208
 20
206.875492753477
 10
25.6437223258273
 20
206.7821999006629
 10
25.66737221588278
 20
206.6891944837067
 10
25.68348074858574
 20
206.6199355605184
 10
25.68862091358881
 20
206.5965813613403
 10
25.70744594206275
 20
206.5044641667236
 10
25.72382508723484
 20
206.4129352763469
 10
25.73116387385733
 20
206.3669402347913
 10
25.73773680501205
 20
206.3220810108968
 10
25.74916049950468
 20
206.231987632716
 10
25.75807651840012
 20
206.1427405091043
 10
25.75997277798905
 20
206.1197960258425
 10
25.7673336775315
 20
205.9955685749133
 10
25.76959694587589
 20
205.8808284071867
  0
LWPOLYLINE
  5
1B5
330
1F
100
AcDbEntity
  8
0
 62
     2
100
AcDbPolyline
 90
      120
 70
     0
 43
0.0
 10
25.76959694587578
 20
205.8808282151257
 10
25.75996998870562
 20
205.6515081845166
 10
25.75648929968111
 20
205.6142558803859
 10
25.7400396743833
 20
205.4859550706461
 10
25.73117510068431
 20
205.4332649184892
 10
25.71695303813442
 20
205.3612947934581
 10
25.68721761827652
 20
205.2405106136053
 10
25.68348715639337
 20
205.2272831824169
 10
25.61737099396936
 20
205.0345634921806
 10
25.55897196378049
 20
204.9049416683001
 10
25.53347509164468
 20
204.8558228568307
 10
25.50221176244173
 20
204.8003328912356
 10
25.43974101247863
 20
204.7019846791318
 10
25.4325634223228
 20
204.6915872282836
 10
25.3156638307085
 20
204.5424253610529
 10
25.29609983143592
 20
204.5205792155928
 10
25.21527317806778
 20
204.4378233437926
 10
25.18387203513709
 20
204.4085599987428
 10
25.03843601099732
 20
204.2902189710768
 10
25.03669077164625
 20
204.2889501408206
 10
24.93946804831171
 20
204.22311008211
 10
24.88081576031931
 20
204.1876043125779
 10
24.83738246393256
 20
204.1631531428346
 10
24.73079525653174
 20
204.1091875283725
 10
24.71236330803248
 20
204.1006661905958
 10
24.53497553927554
 20
204.029608812167
 10
24.5057103928803
 20
204.019657979101
 10
24.38809693333639
 20
203.9842678936287
 10
24.35017512923991
 20
203.9743571098533
 10
24.15968937749983
 20
203.9348715242316
 10
24.02093736168371
 20
203.916319285088
 10
23.96556627893131
 20
203.9112114555658
 10
23.76959694587606
 20
203.9033393564276
 10
23.57362761282076
 20
203.9112114555658
 10
23.51825653006836
 20
203.916319285088
 10
23.37950451425223
 20
203.9348715242316
 10
23.18901876251215
 20
203.9743571098533
 10
23.15109695841568
 20
203.9842678936287
 10
23.03348349887176
 20
204.019657979101
 10
23.00421835247653
 20
204.029608812167
 10
22.82683058371958
 20
204.1006661905958
 10
22.80839863522033
 20
204.1091875283724
 10
22.70181142781951
 20
204.1631531428346
 10
22.65837813143276
 20
204.1876043125779
 10
22.59972584344035
 20
204.22311008211
 10
22.50250312010576
 20
204.2889501408204
 10
22.5007578807548
 20
204.2902189710768
 10
22.35532185661498
 20
204.4085599987428
 10
22.32392071368429
 20
204.4378233437926
 10
22.24309406031614
 20
204.5205792155928
 10
22.22353006104356
 20
204.5424253610529
 10
22.10663046942932
 20
204.6915872282835
 10
22.09945287927343
 20
204.7019846791318
 10
22.03698212931033
 20
204.8003328912356
 10
22.00571880010739
 20
204.8558228568308
 10
21.98022192797157
 20
204.9049416683001
 10
21.9218228977827
 20
205.0345634921806
 10
21.85570673535869
 20
205.2272831824169
 10
21.85197627347554
 20
205.2405106136053
 10
21.8222408536177
 20
205.361294793458
 10
21.80801879106775
 20
205.4332649184892
 10
21.79915421736877
 20
205.4859550706459
 10
21.78270459207096
 20
205.6142558803857
 10
21.77922390304644
 20
205.6515081845165
 10
21.76959694587617
 20
205.8808284071867
 10
21.77186021422057
 20
205.9955685749134
 10
21.77922111376301
 20
206.1197960258428
 10
21.78111737335195
 20
206.1427405091046
 10
21.79003339224744
 20
206.2319876327163
 10
21.80145708674002
 20
206.322081010897
 10
21.80803001789474
 20
206.3669402347915
 10
21.81536880451722
 20
206.4129352763472
 10
21.83174794968932
 20
206.5044641667237
 10
21.85057297816326
 20
206.5965813613403
 10
21.85571314316633
 20
206.6199355605184
 10
21.87182167586928
 20
206.6891944837067
 10
21.89547156592477
 20
206.7821999006629
 10
21.92149959405998
 20
206.875492753477
 10
21.92188171014374
 20
206.8768036713104
 10
21.94988204325136
 20
206.9689681834171
 10
21.98059467398747
 20
207.0625171073799
 10
22.00576302732452
 20
207.1343728953051
 10
22.02174225515364
 20
207.1780635013568
 10
22.04891368092552
 20
207.2493247225923
 10
22.08647053849506
 20
207.3423212855219
 10
22.10664387008308
 20
207.3899541270042
 10
22.12625831432132
 20
207.4348661739874
 10
22.16825121426263
 20
207.5268008099525
 10
22.21242280412679
 20
207.6179609954375
 10
22.22360490930396
 20
207.6402194400998
 10
22.25874572167857
 20
207.7081825322558
 10
22.30719175249493
 20
207.7972927396791
 10
22.35542230988506
 20
207.8811833585151
 10
22.35773235792715
 20
207.8850879090794
 10
22.4103379271221
 20
207.9713572393258
 10
22.46497738103892
 20
208.0558899292876
 10
22.50077439163749
 20
208.1086573537017
 10
22.52161794660879
 20
208.1384751778346
 10
22.5802241978883
 20
208.2188934211557
 10
22.64075382806215
 20
208.2968703637849
 10
22.65836504552453
 20
208.3186233847105
 10
22.76401835799516
 20
208.4406554791137
 10
22.82676071751382
 20
208.5065141321353
 10
22.83339501988212
 20
208.5131993440023
 10
22.90111270981663
 20
208.5784569512344
 10
22.97048183909794
 20
208.639795778083
 10
23.00425823980032
 20
208.6676908772888
 10
23.0414157042897
 20
208.6969132704351
 10
23.11380448544628
 20
208.7495009601656
 10
23.18753146753056
 20
208.7972501792968
 10
23.18896620826558
 20
208.7981217694802
 10
23.26247399835461
 20
208.839852259851
 10
23.33850391330338
 20
208.8769985338505
 10
23.37933754678636
 20
208.894426111398
 10
23.41548799248847
 20
208.9083803333177
 10
23.49328842378804
 20
208.9336891689319
 10
23.57175270367929
 20
208.9526943709203
 10
23.57349697447592
 20
208.9530436510155
 10
23.65069735983485
 20
208.9653645055793
 10
23.72993151330564
 20
208.9716995729088
  0
LWPOLYLINE
  5
1B6
330
1F
100
AcDbEntity
  8
0
 62
     2
100
AcDbPolyline
 90
       58
 70
     0
 43
0.0
 10
35.72993151330564
 20
208.9716995729088
 10
35.76959694587606
 20
208.9724914563249
 10
35.80926237844642
 20
208.9716995729088
 10
35.88849653191721
 20
208.9653645055793
 10
35.9656969172762
 20
208.9530436510155
 10
35.96744118807277
 20
208.9526943709203
 10
36.04590546796408
 20
208.9336891689319
 10
36.1237058992636
 20
208.9083803333177
 10
36.15985634496576
 20
208.894426111398
 10
36.20068997844874
 20
208.8769985338505
 10
36.27671989339746
 20
208.839852259851
 10
36.35022768348648
 20
208.7981217694802
 10
36.3516624242215
 20
208.7972501792968
 10
36.42538940630578
 20
208.7495009601656
 10
36.49777818746236
 20
208.6969132704351
 10
36.53493565195174
 20
208.6676908772888
 10
36.56871205265412
 20
208.639795778083
 10
36.63808118193549
 20
208.5784569512344
 10
36.70579887187
 20
208.5131993440022
 10
36.71243317423824
 20
208.5065141321353
 10
36.77517553375691
 20
208.4406554791137
 10
36.88082884622753
 20
208.3186233847105
 10
36.89844006368992
 20
208.2968703637848
 10
36.95896969386376
 20
208.2188934211557
 10
37.01757594514328
 20
208.1384751778346
 10
37.03841950011457
 20
208.1086573537017
 10
37.07421651071314
 20
208.0558899292876
 10
37.12885596462996
 20
207.9713572393258
 10
37.18146153382492
 20
207.8850879090794
 10
37.18377158186701
 20
207.8811833585151
 10
37.23200213925713
 20
207.7972927396791
 10
37.28044817007356
 20
207.7081825322558
 10
37.31558898244811
 20
207.6402194400998
 10
37.32677108762527
 20
207.6179609954375
 10
37.37094267748944
 20
207.5268008099524
 10
37.41293557743074
 20
207.4348661739874
 10
37.43255002166899
 20
207.3899541270042
 10
37.45272335325706
 20
207.3423212855219
 10
37.49028021082654
 20
207.2493247225923
 10
37.51745163659842
 20
207.1780635013568
 10
37.5334308644276
 20
207.1343728953051
 10
37.55859921776459
 20
207.0625171073799
 10
37.5893118485007
 20
206.9689681834171
 10
37.61731218160833
 20
206.8768036713104
 10
37.61769429769208
 20
206.875492753477
 10
37.6437223258273
 20
206.7821999006629
 10
37.66737221588278
 20
206.6891944837067
 10
37.68348074858574
 20
206.6199355605184
 10
37.68862091358881
 20
206.5965813613403
 10
37.70744594206275
 20
206.5044641667236
 10
37.72382508723484
 20
206.4129352763469
 10
37.73116387385733
 20
206.3669402347914
 10
37.73773680501205
 20
206.3220810108969
 10
37.74916049950468
 20
206.2319876327161
 10
37.75807651840012
 20
206.1427405091044
 10
37.75997277798905
 20
206.1197960258426
 10
37.7673336775315
 20
205.9955685749133
 10
37.76959694587589
 20
205.8808284071867
  0
LWPOLYLINE
  5
1B7
330
1F
100
AcDbEntity
  8
0
 62
     2
100
AcDbPolyline
 90
      120
 70
     0
 43
0.0
 10
37.76959694587578
 20
205.8808282151258
 10
37.75996998870562
 20
205.6515081845166
 10
37.75648929968111
 20
205.6142558803858
 10
37.7400396743833
 20
205.485955070646
 10
37.73117510068431
 20
205.4332649184892
 10
37.71695303813442
 20
205.3612947934581
 10
37.68721761827652
 20
205.2405106136053
 10
37.68348715639337
 20
205.2272831824169
 10
37.61737099396936
 20
205.0345634921806
 10
37.55897196378049
 20
204.9049416683001
 10
37.53347509164468
 20
204.8558228568307
 10
37.50221176244173
 20
204.8003328912356
 10
37.43974101247863
 20
204.7019846791319
 10
37.4325634223228
 20
204.6915872282836
 10
37.3156638307085
 20
204.5424253610529
 10
37.29609983143592
 20
204.5205792155928
 10
37.21527317806778
 20
204.4378233437926
 10
37.18387203513709
 20
204.4085599987428
 10
37.03843601099732
 20
204.2902189710768
 10
37.03669077164625
 20
204.2889501408206
 10
36.93946804831171
 20
204.22311008211
 10
36.88081576031931
 20
204.1876043125779
 10
36.83738246393256
 20
204.1631531428346
 10
36.73079525653174
 20
204.1091875283725
 10
36.71236330803248
 20
204.1006661905958
 10
36.53497553927554
 20
204.029608812167
 10
36.5057103928803
 20
204.019657979101
 10
36.38809693333639
 20
203.9842678936287
 10
36.35017512923991
 20
203.9743571098535
 10
36.15968937749983
 20
203.9348715242316
 10
36.02093736168371
 20
203.916319285088
 10
35.96556627893131
 20
203.9112114555658
 10
35.76959694587606
 20
203.9033393564277
 10
35.57362761282076
 20
203.9112114555658
 10
35.51825653006836
 20
203.916319285088
 10
35.37950451425223
 20
203.9348715242316
 10
35.18901876251215
 20
203.9743571098533
 10
35.15109695841568
 20
203.9842678936287
 10
35.03348349887176
 20
204.019657979101
 10
35.00421835247653
 20
204.029608812167
 10
34.82683058371958
 20
204.1006661905958
 10
34.80839863522033
 20
204.1091875283724
 10
34.70181142781951
 20
204.1631531428346
 10
34.65837813143276
 20
204.1876043125779
 10
34.59972584344035
 20
204.22311008211
 10
34.50250312010576
 20
204.2889501408206
 10
34.5007578807548
 20
204.2902189710768
 10
34.35532185661498
 20
204.4085599987428
 10
34.32392071368429
 20
204.4378233437926
 10
34.24309406031614
 20
204.5205792155928
 10
34.22353006104356
 20
204.5424253610529
 10
34.10663046942932
 20
204.6915872282835
 10
34.09945287927343
 20
204.7019846791318
 10
34.03698212931033
 20
204.8003328912356
 10
34.00571880010739
 20
204.8558228568307
 10
33.98022192797157
 20
204.9049416683001
 10
33.9218228977827
 20
205.0345634921806
 10
33.85570673535869
 20
205.2272831824169
 10
33.85197627347554
 20
205.2405106136053
 10
33.8222408536177
 20
205.3612947934581
 10
33.80801879106775
 20
205.4332649184892
 10
33.79915421736877
 20
205.485955070646
 10
33.78270459207096
 20
205.6142558803858
 10
33.77922390304644
 20
205.6515081845166
 10
33.76959694587617
 20
205.8808284071867
 10
33.77186021422057
 20
205.9955685749133
 10
33.77922111376301
 20
206.1197960258426
 10
33.78111737335195
 20
206.1427405091045
 10
33.79003339224744
 20
206.2319876327161
 10
33.80145708674002
 20
206.322081010897
 10
33.80803001789479
 20
206.3669402347914
 10
33.81536880451722
 20
206.412935276347
 10
33.83174794968932
 20
206.5044641667236
 10
33.85057297816326
 20
206.5965813613403
 10
33.85571314316633
 20
206.6199355605184
 10
33.87182167586928
 20
206.6891944837067
 10
33.89547156592477
 20
206.7821999006629
 10
33.92149959405998
 20
206.875492753477
 10
33.92188171014374
 20
206.8768036713104
 10
33.94988204325136
 20
206.9689681834171
 10
33.98059467398747
 20
207.0625171073799
 10
34.00576302732452
 20
207.1343728953051
 10
34.02174225515364
 20
207.1780635013568
 10
34.04891368092552
 20
207.2493247225923
 10
34.08647053849506
 20
207.3423212855219
 10
34.10664387008308
 20
207.3899541270042
 10
34.12625831432132
 20
207.4348661739875
 10
34.16825121426263
 20
207.5268008099525
 10
34.21242280412679
 20
207.6179609954375
 10
34.22360490930396
 20
207.6402194400998
 10
34.25874572167857
 20
207.7081825322558
 10
34.30719175249499
 20
207.7972927396791
 10
34.35542230988506
 20
207.8811833585151
 10
34.35773235792715
 20
207.8850879090794
 10
34.4103379271221
 20
207.9713572393258
 10
34.46497738103892
 20
208.0558899292876
 10
34.50077439163749
 20
208.1086573537017
 10
34.52161794660879
 20
208.1384751778346
 10
34.5802241978883
 20
208.2188934211557
 10
34.64075382806215
 20
208.2968703637849
 10
34.65836504552453
 20
208.3186233847105
 10
34.76401835799516
 20
208.4406554791137
 10
34.82676071751382
 20
208.5065141321353
 10
34.83339501988212
 20
208.5131993440023
 10
34.90111270981663
 20
208.5784569512344
 10
34.97048183909794
 20
208.639795778083
 10
35.00425823980032
 20
208.6676908772888
 10
35.0414157042897
 20
208.6969132704351
 10
35.11380448544628
 20
208.7495009601656
 10
35.18753146753062
 20
208.7972501792968
 10
35.18896620826558
 20
208.7981217694802
 10
35.26247399835461
 20
208.839852259851
 10
35.33850391330338
 20
208.8769985338505
 10
35.37933754678636
 20
208.894426111398
 10
35.41548799248852
 20
208.9083803333177
 10
35.49328842378804
 20
208.9336891689319
 10
35.57175270367929
 20
208.9526943709203
 10
35.57349697447592
 20
208.9530436510155
 10
35.65069735983485
 20
208.9653645055793
 10
35.72993151330564
 20
208.9716995729088
  0
LWPOLYLINE
  5
1B8
330
1F
100
AcDbEntity
  8
0
 62
     2
100
AcDbPolyline
 90
       78
 70
     0
 43
0.0
 10
49.53941367600135
 20
205.5552240132608
 10
49.53343356150299
 20
205.5643962600224
 10
49.49235896611651
 20
205.6098628771384
 10
49.44076887359489
 20
205.6636860619811
 10
49.4325360905267
 20
205.6719655130076
 10
49.43131096607885
 20
205.6731906391252
 10
49.3859260777997
 20
205.7173527174909
 10
49.32799675642195
 20
205.7704552967863
 10
49.31563921388624
 20
205.7813341806288
 10
49.26041395164327
 20
205.8281109924891
 10
49.18372824014767
 20
205.8884110724317
 10
49.07513201981453
 20
205.9655115144264
 10
49.0383021392397
 20
205.9896244255388
 10
48.99697816706981
 20
206.0155250231865
 10
48.92349977270806
 20
206.0587138997315
 10
48.88077106676894
 20
206.0822197502766
 10
48.87745920605607
 20
206.0839938097983
 10
48.84792744759022
 20
206.0995140994813
 10
48.77039950203402
 20
206.1377622677477
 10
48.71232649612739
 20
206.1641356119626
 10
48.66893676166694
 20
206.1826201195296
 10
48.5349247899685
 20
206.2334123674335
 10
48.45179558581395
 20
206.2603287588308
 10
48.44363625288759
 20
206.2627871666467
 10
48.35851933775132
 20
206.2865289673744
 10
48.35013820471255
 20
206.2886814395835
 10
48.22803902429257
 20
206.3163663802461
 10
48.15973202471673
 20
206.3289100851494
 10
48.09741247089801
 20
206.3385435939727
 10
48.00898234676009
 20
206.3492785178476
 10
47.9999866094729
 20
206.3501794519912
 10
47.96571508666443
 20
206.3532915467611
 10
47.92011937260168
 20
206.3566496812949
 10
47.83098450243608
 20
206.3606548267631
 10
47.76956754785931
 20
206.3614547923258
 10
47.74173874699926
 20
206.3612919883269
 10
47.65254313294406
 20
206.3585592000611
 10
47.57351338364901
 20
206.3533062952943
 10
47.53918987042829
 20
206.3501885758101
 10
47.47494637327435
 20
206.342976206187
 10
47.38686605267992
 20
206.3301437781989
 10
47.37949357847918
 20
206.3289143220154
 10
47.31121577607189
 20
206.3163776140082
 10
47.29947576039763
 20
206.3140114908375
 10
47.21293341702739
 20
206.294636878527
 10
47.18899927652058
 20
206.2886704671738
 10
47.08732671929374
 20
206.260311683622
 10
47.00432367112563
 20
206.2334325973794
 10
46.95996969979137
 20
206.2176518416603
 10
46.87837779018145
 20
206.1859658941331
 10
46.87027115908842
 20
206.182625550099
 10
46.82678201852769
 20
206.1640979945385
 10
46.7983948532987
 20
206.1514423897928
 10
46.72016857758683
 20
206.1141905868227
 10
46.66170829946958
 20
206.083980365271
 10
46.65840879572681
 20
206.0822128834849
 10
46.64384546586285
 20
206.0743304968281
 10
46.56956405684872
 20
206.0320193922043
 10
46.50076346299517
 20
205.9895422783008
 10
46.46394119689137
 20
205.9654308802141
 10
46.42769239357779
 20
205.9407116100315
 10
46.36038335892499
 20
205.8921055180669
 10
46.35543392473619
 20
205.8883870726175
 10
46.27876287125065
 20
205.8280969470632
 10
46.22357524142575
 20
205.7813521593987
 10
46.17467562057112
 20
205.7373893203538
 10
46.11865539287066
 20
205.6838867667435
 10
46.1078911235345
 20
205.6731988377452
 10
46.10666399288772
 20
205.6719717155657
 10
46.06582205473046
 20
205.6300745757097
 10
46.01635985181071
 20
205.5763643923283
 10
46.00575491952526
 20
205.5643900880002
 10
45.95302931675013
 20
205.5023350074224
 10
45.92187346163337
 20
205.4635762209024
 10
45.8903805576353
 20
205.4226300433871
 10
45.85677782097321
 20
205.3766838577421
 10
45.85569749366778
 20
205.3751658645997
 10
45.82798649204932
 20
205.3353420540842
  0
LWPOLYLINE
  5
1B9
330
1F
100
AcDbEntity
  8
0
 62
     2
100
AcDbPolyline
 90
       50
 70
     0
 43
0.0
 10
47.76959654964082
 20
208.9724914563249
 10
47.96556370593862
 20
208.9659481585707
 10
47.9787647569932
 20
208.9649329900136
 10
48.08288970960211
 20
208.9545388358789
 10
48.11276224003342
 20
208.9507638366773
 10
48.15970675478621
 20
208.9441026901369
 10
48.18645723562543
 20
208.9399012136076
 10
48.28928436557629
 20
208.9209017859052
 10
48.35007100367386
 20
208.9074493237189
 10
48.45239774857464
 20
208.8808291264926
 10
48.53496353620449
 20
208.8554727428476
 10
48.5914440850587
 20
208.8359928954534
 10
48.68936816283383
 20
208.797762395259
 10
48.7123174218421
 20
208.7879243563067
 10
48.78553351855737
 20
208.7541163559777
 10
48.88073295860386
 20
208.70414274636
 10
49.03830838946595
 20
208.603841304948
 10
49.10895877626888
 20
208.5502198540697
 10
49.18380906332067
 20
208.4860797591042
 10
49.21649232861665
 20
208.4553323912193
 10
49.23069725061691
 20
208.4413916988331
 10
49.31045433394752
 20
208.355794677591
 10
49.31561658660905
 20
208.3497836204645
 10
49.41959116830799
 20
208.2139860917592
 10
49.43253521244458
 20
208.1948257881201
 10
49.45734515538459
 20
208.1564293144262
 10
49.52331858187205
 20
208.0414248417349
 10
49.53343803063717
 20
208.0217744504414
 10
49.61735521654151
 20
207.8292496532566
 10
49.63694228714689
 20
207.7741166472581
 10
49.68273518944932
 20
207.6209301413363
 10
49.68345496325685
 20
207.6181627256888
 10
49.71431257261946
 20
207.4834450361161
 10
49.72961917066363
 20
207.3997531214548
 10
49.73116716843322
 20
207.39033981203
 10
49.75995698340438
 20
207.1474675147977
 10
49.76959694587606
 20
206.8910640713786
 10
49.75997340966194
 20
206.6246139116537
 10
49.75915161447142
 20
206.6132983110897
 10
49.74631074560477
 20
206.473475410603
 10
49.73114887595875
 20
206.3518474792932
 10
49.720311283618
 20
206.2790144346671
 10
49.71414290746497
 20
206.2410558656809
 10
49.68345497011023
 20
206.0773623798111
 10
49.68025570640253
 20
206.0621081997295
 10
49.65009428274141
 20
205.9299948829406
 10
49.61732852766539
 20
205.8046393547378
 10
49.61637817315489
 20
205.8012249186012
 10
49.57939398899873
 20
205.6761923996824
 10
49.53941367600135
 20
205.5552240132608
  0
LWPOLYLINE
  5
1BA
330
1F
100
AcDbEntity
  8
0
 62
     2
100
AcDbPolyline
 90
       62
 70
     0
 43
0.0
 10
45.82799707024787
 20
205.3353227294378
 10
45.80801172610484
 20
205.4333040786647
 10
45.80238513127188
 20
205.4658581779705
 10
45.78413638549483
 20
205.6004724090672
 10
45.77922748271919
 20
205.651466515381
 10
45.76959694587617
 20
205.8808284071867
 10
45.77185878980299
 20
205.9955321167859
 10
45.77922347744868
 20
206.1198259202973
 10
45.78139240487525
 20
206.1459124079739
 10
45.79052066149302
 20
206.2362592242332
 10
45.80221571591738
 20
206.327468504296
 10
45.80803651673432
 20
206.3669827126601
 10
45.81645715434649
 20
206.419451638053
 10
45.83322357198381
 20
206.5121192455733
 10
45.85249257350569
 20
206.6053818008064
 10
45.85572792382555
 20
206.6200017627537
 10
45.87424111704047
 20
206.6991423373141
 10
45.89844586450585
 20
206.7932930604264
 10
45.92181238669082
 20
206.8765659601926
 10
45.92508285293923
 20
206.8877253217352
 10
45.95412741912912
 20
206.9823304628319
 10
45.98555444088424
 20
207.0769933311863
 10
46.00573223018654
 20
207.1342873125681
 10
46.02173643091771
 20
207.1780478288277
 10
46.05545543028995
 20
207.2659579781425
 10
46.09387787574417
 20
207.3599881201495
 10
46.10668351683296
 20
207.3900462661837
 10
46.1345796579435
 20
207.4535263728582
 10
46.17753396878663
 20
207.5464057307972
 10
46.22271323115683
 20
207.6384560617431
 10
46.22350605831599
 20
207.6400240505094
 10
46.27008886358811
 20
207.7295070840825
 10
46.31963154620672
 20
207.8193728311371
 10
46.35532001536643
 20
207.8810102224881
 10
46.37131151678136
 20
207.9078380817158
 10
46.42509772582173
 20
207.9946844161711
 10
46.4809575236892
 20
208.0796934148557
 10
46.50074077347938
 20
208.1086087300292
 10
46.53885641350575
 20
208.1626466096662
 10
46.59875597542867
 20
208.2433035504383
 10
46.65852456199423
 20
208.3188185285736
 10
46.66061040476109
 20
208.3213671323618
 10
46.72436981749189
 20
208.3965312472426
 10
46.76394724811331
 20
208.4405781001553
 10
46.82676924748375
 20
208.5065227614054
 10
46.85738600817893
 20
208.5369366430983
 10
46.92652436757635
 20
208.6015657076847
 10
46.99732527209085
 20
208.662069087407
 10
47.00423927909168
 20
208.6676755754152
 10
47.06968668280075
 20
208.7181298279848
 10
47.14349164482837
 20
208.7694281070722
 10
47.18903961147066
 20
208.7981663022412
 10
47.2186167223598
 20
208.8156441011908
 10
47.29493243077258
 20
208.8564579868622
 10
47.37230370163945
 20
208.8915499406081
 10
47.37940726914456
 20
208.8944543588043
 10
47.45059038157945
 20
208.9206001389499
 10
47.5296461246798
 20
208.9433007667213
 10
47.5736417851702
 20
208.9530725066619
 10
47.60929676522778
 20
208.9595177951576
 10
47.6893465366374
 20
208.9692480250254
 10
47.76959654964082
 20
208.9724914563249
  0
LWPOLYLINE
  5
1BB
330
1F
100
AcDbEntity
  8
0
 62
     2
100
AcDbPolyline
 90
       78
 70
     0
 43
0.0
 10
13.71120742562681
 20
205.3353420151651
 10
13.68349565260729
 20
205.3751669133713
 10
13.68241529330089
 20
205.3766849497631
 10
13.64881151534911
 20
205.4226324696117
 10
13.61731757917903
 20
205.463579855634
 10
13.58616453846008
 20
205.5023350695172
 10
13.53343893573521
 20
205.5643901497986
 10
13.52282792151885
 20
205.5763712723884
 10
13.4733639487763
 20
205.6300828796429
 10
13.43252053223284
 20
205.6719810825332
 10
13.43129335698484
 20
205.6732082352181
 10
13.42052869601457
 20
205.6838964283344
 10
13.36450642034038
 20
205.7374002591958
 10
13.31560500142467
 20
205.7813640861449
 10
13.26051647519398
 20
205.8280268587922
 10
13.18374145097357
 20
205.8884011204491
 10
13.1787918337929
 20
205.8921196284868
 10
13.11148030380798
 20
205.940726419042
 10
13.0752301493203
 20
205.9654459370554
 10
13.03841549863819
 20
205.9895517182495
 10
12.96960332976948
 20
206.0320346948572
 10
12.89531916930696
 20
206.0743458114683
 10
12.88075530815678
 20
206.0822282078007
 10
12.8774556845184
 20
206.0839956925521
 10
12.81899331618922
 20
206.1142060345913
 10
12.74076434397693
 20
206.151458170823
 10
12.71237620836297
 20
206.1641138427949
 10
12.66888556392115
 20
206.1826413267852
 10
12.66077864839008
 20
206.1859816261436
 10
12.57918375272993
 20
206.2176663560568
 10
12.5349354222767
 20
206.2334087041739
 10
12.45182150234689
 20
206.2603208985979
 10
12.35014644974405
 20
206.2886793381933
 10
12.32621199229163
 20
206.2946461751332
 10
12.23966897086279
 20
206.3140221273555
 10
12.2281349569808
 20
206.3163472924967
 10
12.15987508634447
 20
206.3288859900243
 10
12.15227816324568
 20
206.3301529183921
 10
12.0641967320712
 20
206.3429776695417
 10
12.00002030818155
 20
206.3501761423958
 10
11.96562762945871
 20
206.3532988413135
 10
11.88659605808203
 20
206.3585521758824
 10
11.79739825101905
 20
206.3612900141423
 10
11.76964669340731
 20
206.3614547881977
 10
11.7081501630667
 20
206.3606589543584
 10
11.61901283390495
 20
206.356657030453
 10
11.57366474615276
 20
206.353318917207
 10
11.53934009270512
 20
206.3502033321359
 10
11.5301472901445
 20
206.349282276348
 10
11.4417143576473
 20
206.3385359362377
 10
11.37939230739403
 20
206.3288972658689
 10
11.31108232127212
 20
206.3163510659352
 10
11.18897828906495
 20
206.2886651182664
 10
11.18059688857625
 20
206.2865125550373
 10
11.09547807603604
 20
206.2627681320676
 10
11.08731865506877
 20
206.2603092374037
 10
11.00418919102134
 20
206.2333862588043
 10
10.8702932721323
 20
206.1826347098092
 10
10.82684514263315
 20
206.1641256374579
 10
10.76871328943787
 20
206.1377242924976
 10
10.69118523376056
 20
206.0994727792031
 10
10.66184067796507
 20
206.0840511369314
 10
10.65854969259635
 20
206.082288497503
 10
10.61561313426148
 20
206.0586688475854
 10
10.54213526911565
 20
206.0154760678371
 10
10.50089382187042
 20
205.9896258899682
 10
10.46398231209611
 20
205.9654583580961
 10
10.35538794462525
 20
205.8883524330446
 10
10.27870410148205
 20
205.8280487192652
 10
10.22363979788469
 20
205.7814085866183
 10
10.21112344751947
 20
205.7703899726469
 10
10.15319640311566
 20
205.7172850657747
 10
10.1079157058067
 20
205.6732234015338
 10
10.10669332495536
 20
205.6720010683602
 10
10.09835623883055
 20
205.6636165520646
 10
10.04676917992413
 20
205.6097920235416
 10
10.00575801336345
 20
205.5643936055397
 10
9.999346897719818
 20
205.5564671557521
  0
LWPOLYLINE
  5
1BC
330
1F
100
AcDbEntity
  8
0
 62
     2
100
AcDbPolyline
 90
       50
 70
     0
 43
0.0
 10
9.999346897719818
 20
205.5564671557521
 10
9.962942236309402
 20
205.666201002516
 10
9.928992582810793
 20
205.7792995816916
 10
9.9218381977376
 20
205.8047366372652
 10
9.897699870746692
 20
205.895529539379
 10
9.869275961022936
 20
206.0145996442359
 10
9.855716496286618
 20
206.0774695316016
 10
9.825050294520736
 20
206.24105913412
 10
9.818882463126556
 20
206.279014490081
 10
9.80802644040358
 20
206.3519795166709
 10
9.803491264599131
 20
206.3854246961371
 10
9.788855423338873
 20
206.5119651644387
 10
9.77922826817786
 20
206.6245036780385
 10
9.778223064933684
 20
206.6390007017195
 10
9.77176514927288
 20
206.7656684510592
 10
9.76959694588561
 20
206.8910715401584
 10
9.779233375068202
 20
207.1474206906379
 10
9.808026672652943
 20
207.3903385488513
 10
9.809582184666624
 20
207.3997970544734
 10
9.82483638856985
 20
207.4832192582214
 10
9.855717202961841
 20
207.6180780513258
 10
9.863228331243477
 20
207.6463045719473
 10
9.912368129257231
 20
207.8032127959183
 10
9.92183809763344
 20
207.8292473353832
 10
10.00575631558445
 20
208.021774453568
 10
10.03379457548516
 20
208.0747815302835
 10
10.10408821565608
 20
208.1909515937216
 10
10.10665776345951
 20
208.1948237526125
 10
10.11959905184744
 20
208.2139802513303
 10
10.22357740822741
 20
208.3497837958542
 10
10.32273275761463
 20
208.4553574265891
 10
10.35542483624499
 20
208.4861094795714
 10
10.43014962930471
 20
208.5501462404047
 10
10.5008116360147
 20
208.6037979147382
 10
10.52440101328114
 20
208.6204052839239
 10
10.61878151057721
 20
208.6811510497767
 10
10.65845692024425
 20
208.7042002533702
 10
10.75360381654508
 20
208.7541501200195
 10
10.82680355730002
 20
208.7879474249315
 10
11.00423648816673
 20
208.8555173353403
 10
11.08674746152343
 20
208.8808502923202
 10
11.18911054999671
 20
208.907468709919
 10
11.22943706171156
 20
208.9165779796577
 10
11.33622121912128
 20
208.9371639920249
 10
11.37937582010352
 20
208.944090186341
 10
11.42664113022425
 20
208.9507947661077
 10
11.44383832794472
 20
208.9530095022063
 10
11.55208089361668
 20
208.9642498740497
 10
11.57348687748924
 20
208.9659290133451
 10
11.76959654964082
 20
208.9724914563249
  0
LWPOLYLINE
  5
1BD
330
1F
100
AcDbEntity
  8
0
 62
     2
100
AcDbPolyline
 90
       62
 70
     0
 43
0.0
 10
11.76959654964082
 20
208.9724914563249
 10
11.84984658247845
 20
208.9692480875316
 10
11.92989637555331
 20
208.9595179171207
 10
11.96555136584288
 20
208.953072654209
 10
12.00954703943819
 20
208.9433009450923
 10
12.0886028073482
 20
208.9206003704608
 10
12.15978594322416
 20
208.8944546340252
 10
12.16688951312079
 20
208.8915502199551
 10
12.2442608106295
 20
208.8564583084243
 10
12.32057654635321
 20
208.8156444595723
 10
12.3501536680925
 20
208.7981666736241
 10
12.39570165172483
 20
208.7694284971033
 10
12.46950664198351
 20
208.718130244721
 10
12.53495407142293
 20
208.667676012216
 10
12.54186808117896
 20
208.6620695261292
 10
12.61266901429912
 20
208.6015661638997
 10
12.68180740213825
 20
208.5369371125938
 10
12.7124241755439
 20
208.5065232355838
 10
12.77524663715303
 20
208.4405781072131
 10
12.81482364853184
 20
208.3965317316564
 10
12.87858308838975
 20
208.3213676188451
 10
12.88066893204842
 20
208.3188190150676
 10
12.94043754428162
 20
208.2433040356858
 10
13.00033713213958
 20
208.1626470905884
 10
13.03845278876855
 20
208.1086092066164
 10
13.05823604720041
 20
208.0796938887581
 10
13.11409586955455
 20
207.9946848808496
 10
13.1678821022881
 20
207.9078385351262
 10
13.18387361076856
 20
207.8810106720773
 10
13.21956209573051
 20
207.819373271389
 10
13.26910480036196
 20
207.7295075094397
 10
13.31568762641223
 20
207.6400244597397
 10
13.31648045392569
 20
207.6384564706815
 10
13.36165973652601
 20
207.5464061220794
 10
13.40461406667208
 20
207.453526745375
 10
13.43251022035457
 20
207.3900466253811
 10
13.44531586722394
 20
207.3599884729113
 10
13.48373833005957
 20
207.2659583103202
 10
13.51745734473286
 20
207.1780481412487
 10
13.53346155274221
 20
207.134287614989
 10
13.55363935123529
 20
207.0769936203625
 10
13.58506638733837
 20
206.9823307297839
 10
13.61411096682701
 20
206.8877255661355
 10
13.61738143457535
 20
206.8765662019157
 10
13.64074796749219
 20
206.7932932820744
 10
13.66495272610319
 20
206.6991425360868
 10
13.68346592786384
 20
206.6200019421863
 10
13.68670127967908
 20
206.6053819766574
 10
13.70597029012015
 20
206.5121193985395
 10
13.72273671553785
 20
206.4194517682648
 10
13.73115735706511
 20
206.3669828299979
 10
13.73697816059149
 20
206.3274686119491
 10
13.74867322046805
 20
206.2362593095862
 10
13.75780148135033
 20
206.1459124713509
 10
13.75997040979155
 20
206.1198259773575
 10
13.76733510088729
 20
205.9955321439666
 10
13.76959694587578
 20
205.8808282151258
 10
13.75996640905083
 20
205.6514665155897
 10
13.75505754451007
 20
205.6004727674755
 10
13.73680884680181
 20
205.4658587000671
 10
13.73118226679219
 20
205.4333046393267
 10
13.71119697529298
 20
205.335323403435
  0
ARC
  5
1BE
330
1F
100
AcDbEntity
  8
0
 62
     2
100
AcDbCircle
 10
29.76959705116923
 20
222.0115137832821
 30
0.0
 40
10.0
100
AcDbArc
 50
357.1305779318995
 51
2.869463135953561
  0
ARC
  5
1BF
330
1F
100
AcDbEntity
  8
0
 62
     2
100
AcDbCircle
 10
29.76959705116923
 20
222.0115137832821
 30
0.0
 40
10.0
100
AcDbArc
 50
177.1305355497318
 51
182.8694207539691
  0
LINE
  5
1C0
330
1F
100
AcDbEntity
  8
0
 62
     2
100
AcDbLine
 10
28.04603803381895
 20
209.2115174729866
 30
0.0
 11
28.05417910987296
 21
209.2115174729866
 31
0.0
  0
LINE
  5
1C1
330
1F
100
AcDbEntity
  8
0
 62
     2
100
AcDbLine
 10
19.84017229099481
 20
209.2115174729866
 30
0.0
 11
19.8448105940073
 21
209.2115174729866
 31
0.0
  0
LINE
  5
1C2
330
1F
100
AcDbEntity
  8
0
 62
     2
100
AcDbLine
 10
47.76959655500787
 20
201.6620716927779
 30
0.0
 11
47.76959655500787
 21
200.5115137832822
 31
0.0
  0
LINE
  5
1C3
330
1F
100
AcDbEntity
  8
0
 62
     2
100
AcDbLine
 10
11.76959655500787
 20
208.9725433558774
 30
0.0
 11
11.76959655500792
 21
215.5115137832838
 31
0.0
  0
LINE
  5
1C4
330
1F
100
AcDbEntity
  8
0
 62
     2
100
AcDbLine
 10
47.76959655500787
 20
215.511513783283
 30
0.0
 11
47.76959655500787
 21
208.9725433558774
 31
0.0
  0
LINE
  5
1C5
330
1F
100
AcDbEntity
  8
0
 62
     2
100
AcDbLine
 10
11.76959655500787
 20
200.5115137832822
 30
0.0
 11
11.76959655500787
 21
201.6620716927779
 31
0.0
  0
LINE
  5
1C6
330
1F
100
AcDbEntity
  8
0
 62
     2
100
AcDbLine
 10
11.76959655500792
 20
242.3609698159774
 30
0.0
 11
11.76959655500792
 21
243.5115137832822
 31
0.0
  0
LINE
  5
1C7
330
1F
100
AcDbEntity
  8
0
 62
     2
100
AcDbLine
 10
47.76959655500787
 20
234.2728382327617
 30
0.0
 11
47.76959655500787
 21
228.5115137832747
 31
0.0
  0
LINE
  5
1C8
330
1F
100
AcDbEntity
  8
0
 62
     2
100
AcDbLine
 10
47.76959655500787
 20
243.5115137832821
 30
0.0
 11
47.76959655500787
 21
242.3609698159774
 31
0.0
  0
LINE
  5
1C9
330
1F
100
AcDbEntity
  8
0
 62
     2
100
AcDbLine
 10
11.76959655500787
 20
228.5115137832823
 30
0.0
 11
11.76959655500787
 21
234.2728382327617
 31
0.0
  0
ARC
  5
1CA
330
1F
100
AcDbEntity
  8
0
 62
     2
100
AcDbCircle
 10
11.76959655500787
 20
204.0115137832822
 30
0.0
 40
3.5
100
AcDbArc
 50
180.0
 51
270.0000000000002
  0
LINE
  5
1CB
330
1F
100
AcDbEntity
  8
0
 62
     2
100
AcDbLine
 10
11.76959655500787
 20
215.5115137832823
 30
0.0
 11
8.269596555007809
 21
215.5115137832823
 31
0.0
  0
LINE
  5
1CC
330
1F
100
AcDbEntity
  8
0
 62
     2
100
AcDbLine
 10
8.269596555007865
 20
228.5115137832822
 30
0.0
 11
11.76959655500787
 21
228.5115137832822
 31
0.0
  0
ARC
  5
1CD
330
1F
100
AcDbEntity
  8
0
 62
     2
100
AcDbCircle
 10
11.76959655500787
 20
240.0115137832822
 30
0.0
 40
3.5
100
AcDbArc
 50
89.99999999999908
 51
179.9999999999991
  0
ARC
  5
1CE
330
1F
100
AcDbEntity
  8
0
 62
     2
100
AcDbCircle
 10
47.76959655500787
 20
204.0115137832822
 30
0.0
 40
3.5
100
AcDbArc
 50
270.0
 51
0.000000000000458
  0
LINE
  5
1CF
330
1F
100
AcDbEntity
  8
0
 62
     2
100
AcDbLine
 10
47.76959655500787
 20
215.5115137832823
 30
0.0
 11
51.26959655500787
 21
215.5115137832822
 31
0.0
  0
ARC
  5
1D0
330
1F
100
AcDbEntity
  8
0
 62
     2
100
AcDbCircle
 10
47.76959655500792
 20
240.0115137832821
 30
0.0
 40
3.5
100
AcDbArc
 50
0.0
 51
90.00000000000045
  0
LINE
  5
1D1
330
1F
100
AcDbEntity
  8
0
 62
     2
100
AcDbLine
 10
47.76959655500787
 20
228.5115137832821
 30
0.0
 11
51.26959655500787
 21
228.5115137832821
 31
0.0
  0
LINE
  5
1D2
330
1F
100
AcDbEntity
  8
0
 62
     2
100
AcDbLine
 10
38.11959694587608
 20
236.8130236390046
 30
0.0
 11
38.11959694587608
 21
236.8119646193114
 31
0.0
  0
LINE
  5
1D3
330
1F
100
AcDbEntity
  8
0
 62
     2
100
AcDbLine
 10
26.11959694587603
 20
236.8130236389985
 30
0.0
 11
26.11959694587603
 21
236.8119646193053
 31
0.0
  0
LWPOLYLINE
  5
1D4
330
1F
100
AcDbEntity
  8
0
 62
     2
100
AcDbPolyline
 90
       74
 70
     0
 43
0.0
 10
26.11766950532007
 20
238.0274123605624
 10
26.11959694587495
 20
238.1422008659877
 10
26.10828509836432
 20
238.410709856352
 10
26.10393134854468
 20
238.4567310106042
 10
26.08423768633975
 20
238.6073564705117
 10
26.07444930736875
 20
238.6645305463927
 10
26.05655857297302
 20
238.7532339804303
 10
26.02085699609711
 20
238.8941252965948
 10
26.01840858109279
 20
238.9025891055601
 10
25.94315338489457
 20
239.1180912476585
 10
25.94072299397209
 20
239.1239778846557
 10
25.92534691525776
 20
239.1600727786331
 10
25.8655849546326
 20
239.2847419757743
 10
25.84211203797395
 20
239.3282395199246
 10
25.72348596348297
 20
239.5149692982013
 10
25.72236835268984
 20
239.5165170137149
 10
25.63913745954994
 20
239.623257101042
 10
25.58617167781892
 20
239.6836290430782
 10
25.54837943087074
 20
239.7236880233176
 10
25.45031141193641
 20
239.8176590818958
 10
25.43136178013162
 20
239.8343458660239
 10
25.26044272616571
 20
239.9671209257516
 10
25.23331186509381
 20
239.9856210987595
 10
25.11503642643635
 20
240.0593383275358
 10
25.07523012844428
 20
240.0818269846099
 10
25.02885497151988
 20
240.1066812260026
 10
24.87739107161372
 20
240.1786610767827
 10
24.86099301307604
 20
240.1856724230041
 10
24.72618154132624
 20
240.2380658357225
 10
24.66898169721111
 20
240.2576329629793
 10
24.45187964386679
 20
240.3189076849941
 10
24.44372906552167
 20
240.3208321671371
 10
24.29734383340326
 20
240.3510773191748
 10
24.22806757877322
 20
240.3626338731916
 10
23.99987168891977
 20
240.3888185496845
 10
23.9976297443182
 20
240.3889878307938
 10
23.8457296437648
 20
240.396574330907
 10
23.76959274311201
 20
240.3975226481262
 10
23.69345619617025
 20
240.3965743340169
 10
23.54155891206614
 20
240.3889877835026
 10
23.53931703004133
 20
240.3888185006509
 10
23.31113017653558
 20
240.3626344239209
 10
23.24185717502814
 20
240.3510788890314
 10
23.09547856444397
 20
240.3208365993134
 10
23.08732832485623
 20
240.3189122844406
 10
22.87023280135264
 20
240.257640875055
 10
22.81303353890451
 20
240.2380738552651
 10
22.67822036351492
 20
240.1856794961014
 10
22.66182179395958
 20
240.178667994929
 10
22.5103416670762
 20
240.1066813733183
 10
22.46397361041846
 20
240.0818314121012
 10
22.42416521897053
 20
240.0593421147314
 10
22.3058842751787
 20
239.9856227050511
 10
22.27875244993169
 20
239.9671219724249
 10
22.10783063539714
 20
239.8343440749204
 10
22.08888093153541
 20
239.8176571813604
 10
21.99081304052061
 20
239.7236861584091
 10
21.9530222123019
 20
239.6836287277841
 10
21.90005562613715
 20
239.623255959491
 10
21.81682538520357
 20
239.5165167764127
 10
21.81570778211665
 20
239.5149690724967
 10
21.6970818544176
 20
239.3282395277214
 10
21.67360923454828
 20
239.2847425401569
 10
21.61384719866197
 20
239.1600732574962
 10
21.5984710864804
 20
239.1239783077795
 10
21.59604052619716
 20
239.1180912625399
 10
21.52078532029162
 20
238.902589134011
 10
21.51833690117991
 20
238.8941253131003
 10
21.48263529034693
 20
238.7532338743541
 10
21.46474455596541
 20
238.664530421354
 10
21.45495618098272
 20
238.6073563491753
 10
21.43526253270454
 20
238.4567309323782
 10
21.43090878639657
 20
238.4107097950914
 10
21.41959694587712
 20
238.1422008657933
  0
LWPOLYLINE
  5
1D5
330
1F
100
AcDbEntity
  8
0
 62
     2
100
AcDbPolyline
 90
      120
 70
     0
 43
0.0
 10
21.41959694587609
 20
238.1421976183877
 10
21.421524386432
 20
238.0274123605624
 10
21.43091008041631
 20
237.8603029754637
 10
21.43113144416634
 20
237.8574956941112
 10
21.44005184057221
 20
237.7602177205962
 10
21.45147630573967
 20
237.6618483684921
 10
21.46474662517085
 20
237.5666700467889
 10
21.46538351408583
 20
237.5624550864064
 10
21.48175148256632
 20
237.4621066681296
 10
21.50055756965281
 20
237.3608719074522
 10
21.5207619078119
 20
237.2634762159578
 10
21.5217785593785
 20
237.2588209313262
 10
21.54539127919134
 20
237.1560344664001
 10
21.57137253223982
 20
237.0525982989555
 10
21.5984521336095
 20
236.9530124554788
 10
21.63003112018652
 20
236.8451586843199
 10
21.63034648613075
 20
236.844120126775
 10
21.66329155896875
 20
236.7392534446803
 10
21.6970919370803
 20
236.638218731628
 10
21.6985110274311
 20
236.6341047576553
 10
21.73598209458976
 20
236.5287855488212
 10
21.77568186613445
 20
236.4234073017802
 10
21.81563500629801
 20
236.3228673090207
 10
21.81758733226542
 20
236.3180827495692
 10
21.86167631692956
 20
236.2129434141178
 10
21.90792735828887
 20
236.1081353291274
 10
21.95298432720318
 20
236.0108317170796
 10
21.956318866049
 20
236.0038049043789
 10
22.00682896745838
 20
235.9000987410012
 10
22.05943656909346
 20
235.7971814858533
 10
22.10790479339255
 20
235.7065931809732
 10
22.11412242845677
 20
235.6952503756014
 10
22.17086721368128
 20
235.5945060696402
 10
22.17783888189649
 20
235.5824632004488
 10
22.27879104599197
 20
235.4157564338296
 10
22.290453110888
 20
235.3973853883579
 10
22.35324941738867
 20
235.3014675719037
 10
22.4180133065513
 20
235.2076755409097
 10
22.46400353065343
 20
235.1441133966741
 10
22.48471618812823
 20
235.116289357894
 10
22.55332735913458
 20
235.0275911109712
 10
22.62381483041531
 20
234.9419037294591
 10
22.66173720363514
 20
234.8980440392749
 10
22.69614506502944
 20
234.8595880250856
 10
22.77028169827048
 20
234.781006242366
 10
22.8461851639949
 20
234.7065206258161
 10
22.87033274055045
 20
234.6840750271948
 10
22.92381231534398
 20
234.6364934659965
 10
23.00310006269677
 20
234.5713102217377
 10
23.08393777323795
 20
234.5114170553892
 10
23.08751685149753
 20
234.5089183721976
 10
23.16620086440474
 20
234.4572699499223
 10
23.24975786455968
 20
234.4093248883081
 10
23.31110454715991
 20
234.3786846990556
 10
23.33447090814349
 20
234.3680378535182
 10
23.42019627307644
 20
234.3338648285238
 10
23.5067779405253
 20
234.3072068027762
 10
23.53927180673878
 20
234.2992092810599
 10
23.59401678165295
 20
234.2881652978391
 10
23.68169630679142
 20
234.2767403948768
 10
23.76959694587606
 20
234.2729320938894
 10
23.85749758496064
 20
234.2767403948768
 10
23.94517711009911
 20
234.2881652978391
 10
23.99992208501328
 20
234.2992092810599
 10
24.03241595122677
 20
234.3072068027762
 10
24.11899761867562
 20
234.3338648285238
 10
24.20472298360858
 20
234.3680378535182
 10
24.22808934459215
 20
234.3786846990556
 10
24.28943602719238
 20
234.4093248883081
 10
24.37299302734738
 20
234.4572699499223
 10
24.45167704025459
 20
234.5089183721976
 10
24.45525611851411
 20
234.5114170553892
 10
24.53609382905529
 20
234.5713102217377
 10
24.61538157640808
 20
234.6364934659965
 10
24.66886115120161
 20
234.6840750271948
 10
24.69300872775716
 20
234.7065206258161
 10
24.76891219348158
 20
234.781006242366
 10
24.84304882672262
 20
234.8595880250855
 10
24.87745668811692
 20
234.8980440392748
 10
24.91537906133675
 20
234.9419037294591
 10
24.98586653261748
 20
235.0275911109712
 10
25.05447770362383
 20
235.116289357894
 10
25.07519036109863
 20
235.144113396674
 10
25.12118058520076
 20
235.2076755409095
 10
25.18594447436345
 20
235.3014675719037
 10
25.24874078086407
 20
235.3973853883579
 10
25.2604028457601
 20
235.4157564338296
 10
25.36135500985557
 20
235.5824632004488
 10
25.36832667807084
 20
235.5945060696402
 10
25.4250714632953
 20
235.6952503756014
 10
25.43128909835951
 20
235.7065931809732
 10
25.4797573226586
 20
235.7971814858533
 10
25.53236492429369
 20
235.9000987410012
 10
25.58287502570306
 20
236.0038049043788
 10
25.58620956454894
 20
236.0108317170796
 10
25.63126653346319
 20
236.1081353291274
 10
25.6775175748225
 20
236.2129434141178
 10
25.7216065594867
 20
236.3180827495692
 10
25.72355888545405
 20
236.3228673090207
 10
25.76351202561762
 20
236.4234073017802
 10
25.80321179716236
 20
236.5287855488212
 10
25.84068286432097
 20
236.6341047576553
 10
25.84210195467176
 20
236.638218731628
 10
25.87590233278337
 20
236.7392534446802
 10
25.90884740562137
 20
236.844120126775
 10
25.90916277156555
 20
236.8451586843199
 10
25.94074175814262
 20
236.9530124554788
 10
25.9678213595123
 20
237.0525982989555
 10
25.99380261256073
 20
237.1560344664
 10
26.01741533237362
 20
237.2588209313261
 10
26.01843198394016
 20
237.2634762159576
 10
26.03863632209931
 20
237.3608719074522
 10
26.0574424091858
 20
237.4621066681295
 10
26.07381037766623
 20
237.5624550864064
 10
26.07444726658127
 20
237.5666700467889
 10
26.08771758601239
 20
237.6618483684921
 10
26.09914205117991
 20
237.7602177205962
 10
26.10806244758578
 20
237.8574956941112
 10
26.10828381133581
 20
237.8603029754636
 10
26.11766950532007
 20
238.0274123605624
  0
LWPOLYLINE
  5
1D6
330
1F
100
AcDbEntity
  8
0
 62
     2
100
AcDbPolyline
 90
       74
 70
     0
 43
0.0
 10
38.11766950532012
 20
238.0274123605624
 10
38.119596945875
 20
238.1422008659877
 10
38.10828509836438
 20
238.4107098563521
 10
38.10393134854473
 20
238.4567310106043
 10
38.08423768633975
 20
238.6073564705117
 10
38.07444930736875
 20
238.6645305463928
 10
38.05655857297302
 20
238.7532339804303
 10
38.02085699609711
 20
238.8941252965948
 10
38.01840858109279
 20
238.9025891055601
 10
37.94315338489457
 20
239.1180912476585
 10
37.94072299397214
 20
239.1239778846555
 10
37.92534691525776
 20
239.160072778633
 10
37.8655849546326
 20
239.2847419757743
 10
37.84211203797395
 20
239.3282395199246
 10
37.72348596348297
 20
239.5149692982013
 10
37.72236835268984
 20
239.5165170137149
 10
37.63913745954994
 20
239.6232571010421
 10
37.58617167781892
 20
239.6836290430783
 10
37.54837943087074
 20
239.7236880233177
 10
37.45031141193647
 20
239.8176590818958
 10
37.43136178013162
 20
239.8343458660239
 10
37.26044272616571
 20
239.9671209257516
 10
37.23331186509381
 20
239.9856210987595
 10
37.11503642643635
 20
240.0593383275358
 10
37.07523012844428
 20
240.0818269846099
 10
37.02885497151988
 20
240.1066812260026
 10
36.87739107161372
 20
240.1786610767827
 10
36.86099301307604
 20
240.1856724230041
 10
36.72618154132624
 20
240.2380658357225
 10
36.66898169721111
 20
240.2576329629793
 10
36.45187964386685
 20
240.3189076849941
 10
36.44372906552172
 20
240.3208321671371
 10
36.29734383340326
 20
240.3510773191748
 10
36.22806757877322
 20
240.3626338731916
 10
35.99987168891982
 20
240.3888185496845
 10
35.9976297443182
 20
240.3889878307938
 10
35.8457296437648
 20
240.396574330907
 10
35.76959274311201
 20
240.3975226481262
 10
35.69345619617025
 20
240.3965743340169
 10
35.54155891206614
 20
240.3889877835026
 10
35.53931703004133
 20
240.3888185006508
 10
35.31113017653558
 20
240.3626344239209
 10
35.24185717502814
 20
240.3510788890314
 10
35.09547856444397
 20
240.3208365993134
 10
35.08732832485623
 20
240.3189122844406
 10
34.8702328013527
 20
240.257640875055
 10
34.81303353890456
 20
240.2380738552651
 10
34.67822036351492
 20
240.1856794961013
 10
34.66182179395958
 20
240.178667994929
 10
34.5103416670762
 20
240.1066813733183
 10
34.46397361041846
 20
240.0818314121012
 10
34.42416521897053
 20
240.0593421147314
 10
34.3058842751787
 20
239.9856227050511
 10
34.27875244993169
 20
239.9671219724249
 10
34.10783063539714
 20
239.8343440749204
 10
34.08888093153541
 20
239.8176571813603
 10
33.99081304052066
 20
239.7236861584091
 10
33.9530222123019
 20
239.6836287277841
 10
33.90005562613715
 20
239.623255959491
 10
33.81682538520357
 20
239.5165167764127
 10
33.81570778211665
 20
239.5149690724967
 10
33.6970818544176
 20
239.3282395277214
 10
33.67360923454828
 20
239.2847425401569
 10
33.61384719866203
 20
239.1600732574962
 10
33.5984710864804
 20
239.1239783077795
 10
33.59604052619716
 20
239.1180912625399
 10
33.52078532029168
 20
238.902589134011
 10
33.51833690117996
 20
238.8941253131003
 10
33.48263529034693
 20
238.753233874354
 10
33.46474455596541
 20
238.664530421354
 10
33.45495618098278
 20
238.6073563491752
 10
33.4352625327046
 20
238.4567309323781
 10
33.43090878639657
 20
238.4107097950913
 10
33.41959694587712
 20
238.1422008657933
  0
LWPOLYLINE
  5
1D7
330
1F
100
AcDbEntity
  8
0
 62
     2
100
AcDbPolyline
 90
      120
 70
     0
 43
0.0
 10
33.41959694587609
 20
238.1421976183877
 10
33.421524386432
 20
238.0274123605624
 10
33.43091008041631
 20
237.8603029754638
 10
33.43113144416634
 20
237.8574956941114
 10
33.44005184057221
 20
237.7602177205963
 10
33.45147630573967
 20
237.6618483684923
 10
33.46474662517085
 20
237.566670046789
 10
33.46538351408583
 20
237.5624550864065
 10
33.48175148256632
 20
237.4621066681296
 10
33.50055756965281
 20
237.3608719074522
 10
33.52076190781196
 20
237.2634762159578
 10
33.5217785593785
 20
237.2588209313262
 10
33.54539127919139
 20
237.1560344664001
 10
33.57137253223982
 20
237.0525982989555
 10
33.5984521336095
 20
236.9530124554788
 10
33.63003112018657
 20
236.8451586843199
 10
33.63034648613075
 20
236.844120126775
 10
33.66329155896875
 20
236.7392534446803
 10
33.6970919370803
 20
236.6382187316281
 10
33.6985110274311
 20
236.6341047576554
 10
33.73598209458976
 20
236.5287855488212
 10
33.77568186613445
 20
236.4234073017802
 10
33.81563500629807
 20
236.3228673090207
 10
33.81758733226542
 20
236.3180827495694
 10
33.86167631692962
 20
236.2129434141178
 10
33.90792735828893
 20
236.1081353291274
 10
33.95298432720318
 20
236.0108317170796
 10
33.956318866049
 20
236.0038049043789
 10
34.00682896745843
 20
235.9000987410012
 10
34.05943656909346
 20
235.7971814858533
 10
34.10790479339255
 20
235.7065931809733
 10
34.11412242845677
 20
235.6952503756014
 10
34.17086721368128
 20
235.5945060696402
 10
34.17783888189649
 20
235.5824632004489
 10
34.27879104599197
 20
235.4157564338296
 10
34.29045311088805
 20
235.3973853883579
 10
34.35324941738867
 20
235.3014675719037
 10
34.41801330655136
 20
235.2076755409097
 10
34.46400353065343
 20
235.1441133966741
 10
34.48471618812823
 20
235.116289357894
 10
34.55332735913458
 20
235.0275911109712
 10
34.62381483041531
 20
234.9419037294591
 10
34.66173720363514
 20
234.8980440392749
 10
34.69614506502944
 20
234.8595880250856
 10
34.77028169827048
 20
234.781006242366
 10
34.8461851639949
 20
234.7065206258161
 10
34.87033274055045
 20
234.6840750271948
 10
34.92381231534398
 20
234.6364934659965
 10
35.00310006269677
 20
234.5713102217377
 10
35.08393777323795
 20
234.5114170553892
 10
35.08751685149753
 20
234.5089183721976
 10
35.16620086440474
 20
234.4572699499223
 10
35.24975786455968
 20
234.4093248883081
 10
35.31110454715991
 20
234.3786846990557
 10
35.33447090814354
 20
234.3680378535182
 10
35.4201962730765
 20
234.3338648285238
 10
35.50677794052535
 20
234.3072068027762
 10
35.53927180673884
 20
234.2992092810599
 10
35.59401678165295
 20
234.2881652978391
 10
35.68169630679142
 20
234.2767403948768
 10
35.76959694587606
 20
234.2729320938894
 10
35.85749758496064
 20
234.2767403948768
 10
35.94517711009917
 20
234.2881652978391
 10
35.99992208501328
 20
234.2992092810599
 10
36.03241595122677
 20
234.3072068027762
 10
36.11899761867562
 20
234.3338648285238
 10
36.20472298360858
 20
234.3680378535182
 10
36.22808934459215
 20
234.3786846990556
 10
36.28943602719238
 20
234.4093248883081
 10
36.37299302734738
 20
234.4572699499222
 10
36.45167704025459
 20
234.5089183721975
 10
36.45525611851411
 20
234.5114170553892
 10
36.53609382905535
 20
234.5713102217377
 10
36.61538157640808
 20
234.6364934659965
 10
36.66886115120167
 20
234.6840750271948
 10
36.69300872775716
 20
234.7065206258161
 10
36.76891219348164
 20
234.781006242366
 10
36.84304882672262
 20
234.8595880250855
 10
36.87745668811692
 20
234.8980440392748
 10
36.91537906133675
 20
234.9419037294591
 10
36.98586653261748
 20
235.0275911109712
 10
37.05447770362383
 20
235.116289357894
 10
37.07519036109869
 20
235.1441133966741
 10
37.12118058520076
 20
235.2076755409095
 10
37.18594447436345
 20
235.3014675719037
 10
37.24874078086407
 20
235.3973853883579
 10
37.26040284576015
 20
235.4157564338296
 10
37.36135500985563
 20
235.5824632004489
 10
37.36832667807084
 20
235.5945060696402
 10
37.42507146329535
 20
235.6952503756014
 10
37.43128909835951
 20
235.7065931809732
 10
37.47975732265866
 20
235.7971814858533
 10
37.53236492429369
 20
235.9000987410012
 10
37.58287502570306
 20
236.0038049043789
 10
37.58620956454894
 20
236.0108317170796
 10
37.63126653346319
 20
236.1081353291274
 10
37.6775175748225
 20
236.2129434141178
 10
37.7216065594867
 20
236.3180827495692
 10
37.72355888545405
 20
236.3228673090207
 10
37.76351202561762
 20
236.4234073017802
 10
37.80321179716236
 20
236.5287855488212
 10
37.84068286432102
 20
236.6341047576553
 10
37.84210195467176
 20
236.638218731628
 10
37.87590233278337
 20
236.7392534446802
 10
37.90884740562137
 20
236.844120126775
 10
37.90916277156555
 20
236.8451586843199
 10
37.94074175814262
 20
236.9530124554788
 10
37.9678213595123
 20
237.0525982989555
 10
37.99380261256073
 20
237.1560344664
 10
38.01741533237362
 20
237.2588209313261
 10
38.01843198394016
 20
237.2634762159576
 10
38.03863632209931
 20
237.3608719074522
 10
38.0574424091858
 20
237.4621066681294
 10
38.07381037766629
 20
237.5624550864062
 10
38.07444726658127
 20
237.5666700467887
 10
38.08771758601245
 20
237.6618483684918
 10
38.09914205117991
 20
237.7602177205959
 10
38.10806244758578
 20
237.857495694111
 10
38.10828381133581
 20
237.8603029754634
 10
38.11766950532012
 20
238.0274123605624
  0
LWPOLYLINE
  5
1D8
330
1F
100
AcDbEntity
  8
0
 62
     2
100
AcDbPolyline
 90
       52
 70
     0
 43
0.0
 10
45.59605546062193
 20
239.1180938231849
 10
45.59844481353838
 20
239.1123029598697
 10
45.69705998872683
 20
238.9037787114299
 10
45.7141428565489
 20
238.8723936325067
 10
45.78372943572225
 20
238.7550122737269
 10
45.81562978934664
 20
238.7059624886968
 10
45.86005771229208
 20
238.64180699204
 10
45.94288302019805
 20
238.5331527950173
 10
45.95300478287714
 20
238.5207320870571
 10
46.10790005950582
 20
238.3498157749312
 10
46.12693586098078
 20
238.3309967706383
 10
46.227565075359
 20
238.2382226216167
 10
46.27872882280832
 20
238.195002237496
 10
46.33349352478388
 20
238.1514065169185
 10
46.44436883253968
 20
238.070846367192
 10
46.46406599511795
 20
238.0575388616556
 10
46.66178103729419
 20
237.9390302419368
 10
46.67946015071101
 20
237.92967935644
 10
46.80288200224976
 20
237.8695937556609
 10
46.87038554242969
 20
237.8403930909356
 10
46.92966355461499
 20
237.8167771235161
 10
47.05936926957816
 20
237.7714228755895
 10
47.08734703121405
 20
237.7627402953768
 10
47.31103017807527
 20
237.7067145674617
 10
47.32575429401902
 20
237.7038361402444
 10
47.46150832831063
 20
237.6818355840372
 10
47.53927651267838
 20
237.672862531737
 10
47.59834011255396
 20
237.6677896732369
 10
47.73577118403341
 20
237.6617655747338
 10
47.76954087375628
 20
237.6615207606795
 10
48.00003566720341
 20
237.6728741957564
 10
48.0105070975531
 20
237.6739306381537
 10
48.14685064889005
 20
237.692028096424
 10
48.22805377010303
 20
237.7066927129952
 10
48.28187481853547
 20
237.7180460607948
 10
48.41510850631903
 20
237.7519169057681
 10
48.45179061375575
 20
237.7627232248152
 10
48.66881838768387
 20
237.840397248564
 10
48.67436340808456
 20
237.8427021498318
 10
48.79949094364963
 20
237.8992375932868
 10
48.8774224287676
 20
237.939035358359
 10
48.92104235231977
 20
237.9629436969113
 10
49.03860292085039
 20
238.0336181673643
 10
49.07523923521387
 20
238.0576132702417
 10
49.15177586733483
 20
238.1109928515152
 10
49.26018200559031
 20
238.1947699805075
 10
49.26037559975111
 20
238.1949288189494
 10
49.4312985857942
 20
238.3498205283268
 10
49.4612667010885
 20
238.3803395542846
 10
49.55328127597545
 20
238.4815082206604
 10
49.58611265047517
 20
238.5206389174774
 10
49.71870944185844
 20
238.6989732788669
  0
LWPOLYLINE
  5
1D9
330
1F
100
AcDbEntity
  8
0
 62
     2
100
AcDbPolyline
 90
       52
 70
     0
 43
0.0
 10
47.76959655049899
 20
234.2729320938894
 10
47.99986074842013
 20
234.2787417039711
 10
48.11274048781416
 20
234.2878577674695
 10
48.2279483949456
 20
234.3011947520702
 10
48.27010737892368
 20
234.307120134304
 10
48.39345257487929
 20
234.3277297117964
 10
48.45169572184341
 20
234.3391882773957
 10
48.45243216035135
 20
234.339340373391
 10
48.58267801363297
 20
234.3692144450018
 10
48.66880448723498
 20
234.3925327632445
 10
48.78558017852623
 20
234.429365503454
 10
48.87737057086599
 20
234.4630889125732
 10
49.07518678683607
 20
234.5520445423682
 10
49.10921728451035
 20
234.5697352510857
 10
49.26042008267302
 20
234.6581671452774
 10
49.31533842878389
 20
234.6951003029894
 10
49.41820534696109
 20
234.7731241314067
 10
49.41931094710895
 20
234.7740338620179
 10
49.43122238287953
 20
234.7839403856261
 10
49.58617066908357
 20
234.9329682139063
 10
49.61209784725304
 20
234.9621670080722
 10
49.70208140194921
 20
235.0754968053168
 10
49.71409578969713
 20
235.0922314899353
 10
49.72354779119291
 20
235.1056988898683
 10
49.84211020882526
 20
235.3024561687692
 10
49.87938159622956
 20
235.3782209970801
 10
49.94071146355725
 20
235.5246109964736
 10
49.98998233418649
 20
235.6705949645301
 10
50.01840328777121
 20
235.7725288746535
 10
50.07444157416097
 20
236.0456979744933
 10
50.1082810242691
 20
236.3423153725942
 10
50.11490981429228
 20
236.4531852348203
 10
50.11959694587483
 20
236.6590473709526
 10
50.10828651679265
 20
236.9913842761326
 10
50.10739243098567
 20
237.0045300654559
 10
50.09251410458785
 20
237.1784801418858
 10
50.07444203848922
 20
237.3345882705256
 10
50.07230838155908
 20
237.3508359931312
 10
50.04722545265599
 20
237.52030017248
 10
50.0351793601053
 20
237.5912797172958
 10
50.01838077785214
 20
237.6823240568422
 10
49.98994849507017
 20
237.8205848125716
 10
49.9842744957063
 20
237.8462724263553
 10
49.94723153940038
 20
238.0019072886192
 10
49.94071365897935
 20
238.0274323244144
 10
49.9069536527528
 20
238.1524146505933
 10
49.86374063512716
 20
238.2975871772873
 10
49.84211132022767
 20
238.3650315947762
 10
49.817823177104
 20
238.4371439651152
 10
49.76939851855741
 20
238.5708712775434
 10
49.72354211334698
 20
238.6872142817226
 10
49.71870944185844
 20
238.6989732788669
  0
LWPOLYLINE
  5
1DA
330
1F
100
AcDbEntity
  8
0
 62
     2
100
AcDbPolyline
 90
       70
 70
     0
 43
0.0
 10
45.59605546062193
 20
239.1180938231849
 10
45.59600487205222
 20
239.1180045181232
 10
45.52078708712486
 20
238.902595197214
 10
45.50926650287431
 20
238.8616310661535
 10
45.47684687473259
 20
238.7263101209809
 10
45.46475100908981
 20
238.6645657041841
 10
45.45171183774903
 20
238.5864991466065
 10
45.43382673433416
 20
238.4424044659339
 10
45.43090842921606
 20
238.4107056659024
 10
45.41959694587609
 20
238.1421976183877
 10
45.42152438643109
 20
238.0274123605901
 10
45.43091007821283
 20
237.8603030035377
 10
45.43113144191983
 20
237.8574957224695
 10
45.44005183659374
 20
237.760217758846
 10
45.45147629954806
 20
237.6618484168217
 10
45.46474661641417
 20
237.5666701049291
 10
45.4653835052062
 20
237.5624551449822
 10
45.48175147053081
 20
237.4621067370981
 10
45.50055755400052
 20
237.3608719869395
 10
45.5207618882838
 20
237.2634763055811
 10
45.5217785396556
 20
237.2588210214338
 10
45.54539125495063
 20
237.1560345671968
 10
45.571372503041
 20
237.0525984104843
 10
45.59845209925658
 20
236.9530125773022
 10
45.63003107983963
 20
236.845158817235
 10
45.630346445724
 20
236.8441202597965
 10
45.663291512326
 20
236.7392535883963
 10
45.69709188405568
 20
236.6382188855293
 10
45.69851097413891
 20
236.6341049119686
 10
45.73598203424137
 20
236.5287857136014
 10
45.7756817983302
 20
236.4234074768648
 10
45.81563493100992
 20
236.3228674937498
 10
45.81758725661206
 20
236.3180829347516
 10
45.86167623303817
 20
236.2129436091087
 10
45.90792726577672
 20
236.1081355335903
 10
45.95298422631345
 20
236.010831930034
 10
45.95631876454013
 20
236.0038051179343
 10
46.00682885658364
 20
235.9000989632221
 10
46.05943644848549
 20
235.7971817161839
 10
46.10790466383492
 20
235.7065934179685
 10
46.11412229775226
 20
235.6952506133976
 10
46.17086707252366
 20
235.5945063141995
 10
46.17783888174381
 20
235.5824632007119
 10
46.27879088502505
 20
235.4157566886275
 10
46.29045294778729
 20
235.3973856440458
 10
46.35324924282503
 20
235.301467831627
 10
46.41801312021573
 20
235.2076758034862
 10
46.46400333599138
 20
235.1441136604909
 10
46.48471598972566
 20
235.11628962206
 10
46.55332714838465
 20
235.0275913753452
 10
46.62381460704955
 20
234.9419039923821
 10
46.66173697351292
 20
234.8980443007175
 10
46.69614482879672
 20
234.8595882847654
 10
46.77028144894001
 20
234.7810064969045
 10
46.84618490135858
 20
234.7065208732086
 10
46.87033247370471
 20
234.684075271918
 10
46.92381203922116
 20
234.6364937041289
 10
47.003099773082
 20
234.5713104481782
 10
47.08393747026582
 20
234.5114172674546
 10
47.08751654794361
 20
234.5089185835689
 10
47.16620054827257
 20
234.4572701447956
 10
47.24975753552837
 20
234.4093250630391
 10
47.31110420897073
 20
234.3786848572518
 10
47.3344705665379
 20
234.3680380050224
 10
47.42019591928573
 20
234.3338649535831
 10
47.50677757510107
 20
234.3072068988115
 10
47.53927143716595
 20
234.2992093658775
 10
47.59401640536697
 20
234.2881653633516
 10
47.6816959204964
 20
234.2767404283775
 10
47.76959655049899
 20
234.2729320938894
  0
LWPOLYLINE
  5
1DB
330
1F
100
AcDbEntity
  8
0
 62
     2
100
AcDbPolyline
 90
       52
 70
     0
 43
0.0
 10
9.820483578648464
 20
238.6989719123783
 10
9.95308105462425
 20
238.5206391449142
 10
9.985912423291666
 20
238.4815084450814
 10
10.07792698278269
 20
238.3803397698851
 10
10.10789509333586
 20
238.3498207409428
 10
10.27881805453512
 20
238.1949290138045
 10
10.27901164866972
 20
238.1947701753419
 10
10.38741777285753
 20
238.1109930344824
 10
10.46395439573416
 20
238.0576134445502
 10
10.5005907058603
 20
238.0336183374457
 10
10.61815126156466
 20
237.9629438530693
 10
10.661771180644
 20
237.9390355092399
 10
10.73970265813881
 20
237.8992377346222
 10
10.86483018240887
 20
237.8427022755066
 10
10.87037520233508
 20
237.840397373535
 10
11.08740295935598
 20
237.7627233215163
 10
11.12408506424708
 20
237.7519169975452
 10
11.25731874352311
 20
237.7180461343845
 10
11.31113978884434
 20
237.7066927791417
 10
11.3923429057142
 20
237.692028151229
 10
11.52868645070356
 20
237.6739306735834
 10
11.53915788061465
 20
237.6728742296795
 10
11.76965266618419
 20
237.6615207606711
 10
11.80342235504094
 20
237.6617655696302
 10
11.94085342377025
 20
237.6677896472137
 10
11.99991702285212
 20
237.6728624966202
 10
12.07768520653889
 20
237.6818355368391
 10
12.2134392406607
 20
237.7038360716216
 10
12.22816335666596
 20
237.7067144964866
 10
12.45184650648207
 20
237.7627401879182
 10
12.47982426876479
 20
237.7714227634904
 10
12.60952998758449
 20
237.8167769897132
 10
12.6688080020233
 20
237.8403929470943
 10
12.73631154516568
 20
237.8695936002821
 10
12.85973340328081
 20
237.9296791796281
 10
12.8774125177693
 20
237.9390300620147
 10
13.07512757437217
 20
238.0575386462983
 10
13.09482473865216
 20
238.0708461482521
 10
13.20570005699523
 20
238.1514062776051
 10
13.26046476488301
 20
238.1950019879708
 10
13.31162851830567
 20
238.2382223624466
 10
13.41225774584188
 20
238.3309964921519
 10
13.43129355003691
 20
238.3498154927317
 10
13.5861888520447
 20
238.5207317740762
 10
13.59631061661202
 20
238.5331524799857
 10
13.67913594126617
 20
238.6418066599898
 10
13.72356387428471
 20
238.7059621473138
 10
13.75546423569722
 20
238.755011925536
 10
13.82505083379652
 20
238.872393269089
 10
13.84213370674433
 20
238.9037783441921
 10
13.94074891664906
 20
239.1123025697749
 10
13.94313827054549
 20
239.1180934325144
  0
LWPOLYLINE
  5
1DC
330
1F
100
AcDbEntity
  8
0
 62
     2
100
AcDbPolyline
 90
       52
 70
     0
 43
0.0
 10
9.820483578648464
 20
238.6989719123783
 10
9.815650354128138
 20
238.6872112187136
 10
9.76979862939038
 20
238.5708829966891
 10
9.721382938617694
 20
238.4371877724421
 10
9.697082638057793
 20
238.3650406767811
 10
9.675463422763869
 20
238.297627836283
 10
9.632243785870173
 20
238.1524322681347
 10
9.598480232390216
 20
238.0274342556225
 10
9.591962139949601
 20
238.0019077893026
 10
9.554918698797394
 20
237.8462681908134
 10
9.549243735212428
 20
237.8205759717915
 10
9.52081285319747
 20
237.6823228380473
 10
9.504014053776302
 20
237.5912803661825
 10
9.49196799333987
 20
237.5203045233768
 10
9.46688468356416
 20
237.350843567439
 10
9.464751844144416
 20
237.3346020915593
 10
9.446679512813262
 20
237.1784829333904
 10
9.431802361758457
 20
237.0045177243098
 10
9.430908327836221
 20
236.9913707599577
 10
9.419596945951639
 20
236.6590254062365
 10
9.424289238038114
 20
236.4532372448284
 10
9.430912875910394
 20
236.3425687278737
 10
9.464752333714387
 20
236.0459076935226
 10
9.520790289188028
 20
235.772508071036
 10
9.54921727152771
 20
235.6705481325141
 10
9.59848218222146
 20
235.5246223421542
 10
9.659821651481195
 20
235.3782347649444
 10
9.697083652796437
 20
235.3024852187256
 10
9.815647116630714
 20
235.1056939101753
 10
9.825088335513215
 20
235.0922404006172
 10
9.837089025303385
 20
235.0755230610332
 10
9.927067192055006
 20
234.9622036684383
 10
9.95302328208993
 20
234.9329773584164
 10
10.10797137259942
 20
234.7839675963383
 10
10.11986275422385
 20
234.774076262071
 10
10.12096648820773
 20
234.7731678934182
 10
10.22383871348012
 20
234.6951148222855
 10
10.27877374392386
 20
234.6581549153626
 10
10.42998552760014
 20
234.5696962574205
 10
10.46400709046935
 20
234.5520127581991
 10
10.66181087746401
 20
234.4630952968921
 10
10.75361285312852
 20
234.4293691608941
 10
10.87037918169318
 20
234.3925275632668
 10
10.95646353867392
 20
234.3692087518956
 10
11.08675557804867
 20
234.3393156642565
 10
11.08749202518334
 20
234.3391635833912
 10
11.1457357004374
 20
234.32770817789
 10
11.2690813439861
 20
234.3071120202713
 10
11.31124039968267
 20
234.3011910605076
 10
11.42644870668119
 20
234.287858676351
 10
11.53932939645284
 20
234.2787341982183
 10
11.76959655049899
 20
234.2729320938894
  0
LWPOLYLINE
  5
1DD
330
1F
100
AcDbEntity
  8
0
 62
     2
100
AcDbPolyline
 90
       70
 70
     0
 43
0.0
 10
11.76959655049899
 20
234.2729320938894
 10
11.85749719866561
 20
234.2767403613762
 10
11.94517673381313
 20
234.2881652323268
 10
11.99992171544045
 20
234.2992091962425
 10
12.03241558580248
 20
234.3072067067412
 10
12.11899726488485
 20
234.3338647034646
 10
12.20472264200293
 20
234.3680377020142
 10
12.22808900640297
 20
234.3786845408596
 10
12.28943569816101
 20
234.4093247135773
 10
12.37299271121515
 20
234.4572697550489
 10
12.45167673670062
 20
234.5089181608263
 10
12.45525581554199
 20
234.5114168433239
 10
12.53609353944046
 20
234.5713099952974
 10
12.61538130028521
 20
234.6364932278642
 10
12.66886088435587
 20
234.6840747824716
 10
12.69300846512078
 20
234.7065203784236
 10
12.76891194415111
 20
234.7810059878276
 10
12.8430485904899
 20
234.8595877654056
 10
12.87745645799464
 20
234.8980437778324
 10
12.91537883797093
 20
234.9419034665361
 10
12.98586632186755
 20
235.0275908465972
 10
13.0544775052212
 20
235.1162890937283
 10
13.07519016643653
 20
235.1441131328573
 10
13.12118039886514
 20
235.2076752783331
 10
13.18594429979976
 20
235.3014673121805
 10
13.2487406177633
 20
235.3973851326701
 10
13.26040268479312
 20
235.4157561790319
 10
13.36135500970289
 20
235.5824632001859
 10
13.36832653691323
 20
235.594505825081
 10
13.42507133259079
 20
235.6952501378052
 10
13.43128896880182
 20
235.7065929439781
 10
13.47975720205056
 20
235.7971812555228
 10
13.53236481341889
 20
235.9000985187803
 10
13.58287492419413
 20
236.0038046908236
 10
13.5862094636592
 20
236.0108315041253
 10
13.63126644095098
 20
236.1081351246645
 10
13.67751749093105
 20
236.2129432191269
 10
13.72160648383328
 20
236.318082564387
 10
13.72355881016591
 20
236.3228671242916
 10
13.76351195781336
 20
236.4234071266957
 10
13.80321173681398
 20
236.528785384041
 10
13.84068281102873
 20
236.6341046033421
 10
13.84210190164714
 20
236.6382185777269
 10
13.87590228614062
 20
236.7392533009642
 10
13.90884736521463
 20
236.8441199937534
 10
13.9091627312186
 20
236.8451585514049
 10
13.94074172378964
 20
236.9530123336554
 10
13.96782133031348
 20
237.0525981874269
 10
13.99380258831997
 20
237.1560343656034
 10
14.01741531265071
 20
237.2588208412185
 10
14.018431964412
 20
237.2634761263344
 10
14.03863630644702
 20
237.3608718279648
 10
14.05744239715028
 20
237.4621065991609
 10
14.07381036878667
 20
237.5624550278304
 10
14.0744472578246
 20
237.5666699886484
 10
14.08771757982072
 20
237.6618483201622
 10
14.09914204720144
 20
237.760217682346
 10
14.10806244533927
 20
237.8574956657527
 10
14.10828380913233
 20
237.8603029473892
 10
14.11766950531916
 20
238.0274123605345
 10
14.11959694587495
 20
238.1422008659877
 10
14.10828548262327
 20
238.4107054141219
 10
14.10536718215536
 20
238.4424041899997
 10
14.08748210840383
 20
238.5864987559213
 10
14.07444296254386
 20
238.664565237102
 10
14.0623471248233
 20
238.7263095797224
 10
14.02992759637073
 20
238.8616302967773
 10
14.01840680508849
 20
238.902595200237
 10
13.94318947037442
 20
239.1180034537577
 10
13.94313827054549
 20
239.1180934325144
  0
CIRCLE
  5
1DE
330
1F
100
AcDbEntity
  8
0
 62
     2
100
AcDbCircle
 10
11.76959735675541
 20
240.0115137750895
 30
0.0
 40
1.35
  0
CIRCLE
  5
1DF
330
1F
100
AcDbEntity
  8
0
 62
     2
100
AcDbCircle
 10
47.76959694587606
 20
204.0115211708843
 30
0.0
 40
1.35
  0
ARC
  5
1E0
330
1F
100
AcDbEntity
  8
0
 62
     2
100
AcDbCircle
 10
47.76959694587811
 20
204.0115207600067
 30
0.0
 40
2.35
100
AcDbArc
 50
269.9999903601881
 51
41.0804103802702
  0
ARC
  5
1E1
330
1F
100
AcDbEntity
  8
0
 62
     2
100
AcDbCircle
 10
47.76959694587811
 20
204.0115207600067
 30
0.0
 40
2.35
100
AcDbArc
 50
145.7121133015062
 51
269.9999903601903
  0
CIRCLE
  5
1E2
330
1F
100
AcDbEntity
  8
0
 62
     2
100
AcDbCircle
 10
47.76959694587595
 20
240.0115141859665
 30
0.0
 40
1.35
  0
ARC
  5
1E3
330
1F
100
AcDbEntity
  8
0
 62
     2
100
AcDbCircle
 10
47.76959694587811
 20
240.0115207600066
 30
0.0
 40
2.35
100
AcDbArc
 50
326.0391903214946
 51
90.00000963981265
  0
ARC
  5
1E4
330
1F
100
AcDbEntity
  8
0
 62
     2
100
AcDbCircle
 10
47.76959694587811
 20
240.0115207600066
 30
0.0
 40
2.35
100
AcDbArc
 50
90.00000963981194
 51
202.3358420537183
  0
ARC
  5
1E5
330
1F
100
AcDbEntity
  8
0
 62
     2
100
AcDbCircle
 10
11.76959694587805
 20
240.0115207600067
 30
0.0
 40
2.35
100
AcDbArc
 50
90.00000963981194
 51
213.9608163254322
  0
ARC
  5
1E6
330
1F
100
AcDbEntity
  8
0
 62
     2
100
AcDbCircle
 10
11.76959694587805
 20
240.0115207600067
 30
0.0
 40
2.35
100
AcDbArc
 50
337.664137895253
 51
90.00000963981047
  0
CIRCLE
  5
1E7
330
1F
100
AcDbEntity
  8
0
 62
     2
100
AcDbCircle
 10
11.76959694587811
 20
204.0115207600067
 30
0.0
 40
1.35
  0
ARC
  5
1E8
330
1F
100
AcDbEntity
  8
0
 62
     2
100
AcDbCircle
 10
11.76959694587805
 20
204.0115207600067
 30
0.0
 40
2.35
100
AcDbArc
 50
138.908541147271
 51
269.9999903601901
  0
ARC
  5
1E9
330
1F
100
AcDbEntity
  8
0
 62
     2
100
AcDbCircle
 10
11.76959694587805
 20
204.0115207600067
 30
0.0
 40
2.35
100
AcDbArc
 50
269.9999903601894
 51
34.28790601308487
  0
LINE
  5
1EA
330
1F
100
AcDbEntity
  8
0
 62
     2
100
AcDbLine
 10
47.76959655500792
 20
222.5115174729866
 30
0.0
 11
51.26959655500787
 21
222.5115174729866
 31
0.0
  0
LINE
  5
1EB
330
1F
100
AcDbEntity
  8
0
 62
     2
100
AcDbLine
 10
47.76959655500787
 20
228.5115137832822
 30
0.0
 11
47.76959655500787
 21
222.5115174729866
 31
0.0
  0
LINE
  5
1EC
330
1F
100
AcDbEntity
  8
0
 62
     2
100
AcDbLine
 10
51.26959655500787
 20
228.5115137832821
 30
0.0
 11
51.26959655500787
 21
222.5115174729866
 31
0.0
  0
LINE
  5
1ED
330
1F
100
AcDbEntity
  8
0
 62
     2
100
AcDbLine
 10
51.26959655500787
 20
240.0115137832821
 30
0.0
 11
51.26959655500787
 21
228.5115137832767
 31
0.0
  0
LINE
  5
1EE
330
1F
100
AcDbEntity
  8
0
 62
     2
100
AcDbLine
 10
51.26959655500787
 20
221.5115174729866
 30
0.0
 11
47.76959655500792
 21
221.5115174729866
 31
0.0
  0
LINE
  5
1EF
330
1F
100
AcDbEntity
  8
0
 62
     2
100
AcDbLine
 10
47.76959655500787
 20
221.5115174729866
 30
0.0
 11
47.76959655500787
 21
215.5115137832822
 31
0.0
  0
LINE
  5
1F0
330
1F
100
AcDbEntity
  8
0
 62
     2
100
AcDbLine
 10
51.26959655500787
 20
221.5115174729866
 30
0.0
 11
51.26959655500787
 21
215.5115137832822
 31
0.0
  0
LINE
  5
1F1
330
1F
100
AcDbEntity
  8
0
 62
     2
100
AcDbLine
 10
51.26959655500787
 20
215.5115137832829
 30
0.0
 11
51.26959655500787
 21
204.0115137832822
 31
0.0
  0
LINE
  5
1F2
330
1F
100
AcDbEntity
  8
0
 62
     2
100
AcDbLine
 10
8.269596555007865
 20
222.5115174729866
 30
0.0
 11
11.76959655500787
 21
222.5115174729866
 31
0.0
  0
LINE
  5
1F3
330
1F
100
AcDbEntity
  8
0
 62
     2
100
AcDbLine
 10
8.269596555007865
 20
228.5115137832823
 30
0.0
 11
8.269596555007865
 21
240.0115137832822
 31
0.0
  0
LINE
  5
1F4
330
1F
100
AcDbEntity
  8
0
 62
     2
100
AcDbLine
 10
11.76959655500787
 20
222.5115174729866
 30
0.0
 11
11.76959655500787
 21
228.5115137832822
 31
0.0
  0
LINE
  5
1F5
330
1F
100
AcDbEntity
  8
0
 62
     2
100
AcDbLine
 10
8.269596555007865
 20
222.5115174729866
 30
0.0
 11
8.269596555007865
 21
228.5115137832822
 31
0.0
  0
LINE
  5
1F6
330
1F
100
AcDbEntity
  8
0
 62
     2
100
AcDbLine
 10
11.76959655500787
 20
221.5115174729866
 30
0.0
 11
8.269596555007865
 21
221.5115174729866
 31
0.0
  0
LINE
  5
1F7
330
1F
100
AcDbEntity
  8
0
 62
     2
100
AcDbLine
 10
11.76959655500787
 20
215.5115137832822
 30
0.0
 11
11.76959655500787
 21
221.5115174729866
 31
0.0
  0
LINE
  5
1F8
330
1F
100
AcDbEntity
  8
0
 62
     2
100
AcDbLine
 10
8.269596555007865
 20
215.5115137832823
 30
0.0
 11
8.269596555007865
 21
221.5115174729866
 31
0.0
  0
LINE
  5
1F9
330
1F
100
AcDbEntity
  8
0
 62
     2
100
AcDbLine
 10
8.269596555007809
 20
204.0115137832822
 30
0.0
 11
8.269596555007809
 21
215.5115137832837
 31
0.0
  0
LINE
  5
1FA
330
1F
100
AcDbEntity
  8
0
 62
     2
100
AcDbLine
 10
11.76959655500792
 20
228.5115137832821
 30
0.0
 11
47.76959655500792
 21
228.5115137832821
 31
0.0
  0
LINE
  5
1FB
330
1F
100
AcDbEntity
  8
0
 62
     2
100
AcDbLine
 10
11.76959655500792
 20
243.5115137832822
 30
0.0
 11
47.76959655500787
 21
243.5115137832821
 31
0.0
  0
LINE
  5
1FC
330
1F
100
AcDbEntity
  8
0
 62
     2
100
AcDbLine
 10
47.76959655500787
 20
215.5115137832822
 30
0.0
 11
11.76959655500787
 21
215.5115137832823
 31
0.0
  0
LINE
  5
1FD
330
1F
100
AcDbEntity
  8
0
 62
     2
100
AcDbLine
 10
47.76959655500787
 20
200.5115137832822
 30
0.0
 11
11.76959655500787
 21
200.5115137832822
 31
0.0
  0
LINE
  5
1FE
330
1F
100
AcDbEntity
  8
0
 62
     2
100
AcDbLine
 10
51.26959655500787
 20
221.5115174729866
 30
0.0
 11
51.26959655500787
 21
222.5115174729892
 31
0.0
  0
LINE
  5
1FF
330
1F
100
AcDbEntity
  8
0
 62
     2
100
AcDbLine
 10
8.269596625416455
 20
222.5115174729866
 30
0.0
 11
8.269596625416455
 21
221.5114924068018
 31
0.0
  0
LINE
  5
200
330
1F
100
AcDbEntity
  8
0
 62
     2
100
AcDbLine
 10
47.76959655500787
 20
222.5115174729866
 30
0.0
 11
11.76959655500792
 21
222.5115174729866
 31
0.0
  0
LINE
  5
201
330
1F
100
AcDbEntity
  8
0
 62
     2
100
AcDbLine
 10
11.76959655500787
 20
221.5115174729866
 30
0.0
 11
47.76959655500787
 21
221.5115174729866
 31
0.0
  0
LINE
  5
202
330
1F
100
AcDbEntity
  8
0
 62
     2
100
AcDbLine
 10
13.76959694587606
 20
209.7266364140963
 30
0.0
 11
13.76959694587606
 21
209.7255885395412
 31
0.0
  0
LINE
  5
203
330
1F
100
AcDbEntity
  8
0
 62
     2
100
AcDbLine
 10
33.76959694587606
 20
206.8822623736615
 30
0.0
 11
33.76959694587606
 21
206.8809617010721
 31
0.0
  0
LINE
  5
204
330
1F
100
AcDbEntity
  8
0
 62
     2
100
AcDbLine
 10
33.76959694587606
 20
208.4886331209587
 30
0.0
 11
33.76959694587606
 21
208.4863989101712
 31
0.0
  0
LINE
  5
205
330
1F
100
AcDbEntity
  8
0
 62
     2
100
AcDbLine
 10
21.76959694587606
 20
206.8822620990501
 30
0.0
 11
21.76959694587606
 21
206.8809614271534
 31
0.0
  0
LINE
  5
206
330
1F
100
AcDbEntity
  8
0
 62
     2
100
AcDbLine
 10
25.76959694587606
 20
209.4265644662468
 30
0.0
 11
25.76959694587606
 21
209.4253535845621
 31
0.0
  0
LINE
  5
207
330
1F
100
AcDbEntity
  8
0
 62
     2
100
AcDbLine
 10
51.26960344241763
 20
239.5256481751588
 30
0.0
 11
51.26960344241763
 21
239.1525132387331
 31
0.0
  0
LINE
  5
208
330
1F
100
AcDbEntity
  8
0
 62
     2
100
AcDbLine
 10
51.26960344241763
 20
240.4140202320162
 30
0.0
 11
51.26960344241763
 21
240.0040202320161
 31
0.0
  0
LINE
  5
209
330
1F
100
AcDbEntity
  8
0
 62
     2
100
AcDbLine
 10
51.26960344241763
 20
204.0116311160309
 30
0.0
 11
51.26960344241763
 21
203.6090147139555
 31
0.0
  0
LINE
  5
20A
330
1F
100
AcDbEntity
  8
0
 62
     2
100
AcDbLine
 10
51.26960344241763
 20
205.3441867579791
 30
0.0
 11
51.26960344241763
 21
204.8705143278313
 31
0.0
  0
LINE
  5
20B
330
1F
100
AcDbEntity
  8
0
 62
     2
100
AcDbLine
 10
50.10676284027801
 20
236.8040357421288
 30
0.0
 11
50.10828641912639
 21
236.8040357421288
 31
0.0
  0
LINE
  5
20C
330
1F
100
AcDbEntity
  8
0
 62
     2
100
AcDbLine
 10
46.41996510022585
 20
240.0040202320161
 30
0.0
 11
49.11922879152604
 21
240.0040202320161
 31
0.0
  0
LINE
  5
20D
330
1F
100
AcDbEntity
  8
0
 62
     2
100
AcDbLine
 10
51.24392504936964
 20
240.4140202320162
 30
0.0
 11
51.26960344241763
 21
240.4140202320162
 31
0.0
  0
LINE
  5
20E
330
1F
100
AcDbEntity
  8
0
 62
     2
100
AcDbLine
 10
46.48152800903006
 20
240.4140202320162
 30
0.0
 11
49.05766588272184
 21
240.4140202320162
 31
0.0
  0
LINE
  5
20F
330
1F
100
AcDbEntity
  8
0
 62
     2
100
AcDbLine
 10
51.24392614400131
 20
203.6090147139555
 30
0.0
 11
51.26960344241763
 21
203.6090147139555
 31
0.0
  0
LINE
  5
210
330
1F
100
AcDbEntity
  8
0
 62
     2
100
AcDbLine
 10
46.4815281560451
 20
203.6090147139555
 30
0.0
 11
49.05766573570702
 21
203.6090147139555
 31
0.0
  0
LINE
  5
211
330
1F
100
AcDbEntity
  8
0
 62
     2
100
AcDbLine
 10
46.41996508004075
 20
204.0190147139554
 30
0.0
 11
49.11922881171137
 21
204.0190147139554
 31
0.0
  0
LINE
  5
212
330
1F
100
AcDbEntity
  8
0
 62
     2
100
AcDbLine
 10
24.99184683906401
 20
206.4236197296852
 30
0.0
 11
24.99059789559647
 21
206.4236197296852
 31
0.0
  0
LINE
  5
213
330
1F
100
AcDbEntity
  8
0
 62
     2
100
AcDbLine
 10
36.99184683906401
 20
206.4236197296852
 30
0.0
 11
36.99059789559647
 21
206.4236197296852
 31
0.0
  0
ARC
  5
214
330
1F
100
AcDbEntity
  8
0
 62
     2
100
AcDbCircle
 10
165.2170952531634
 20
240.4615071799084
 30
0.0
 40
0.5000000000000078
100
AcDbArc
 50
89.99999999997394
 51
185.4498173575883
  0
CIRCLE
  5
215
330
1F
100
AcDbEntity
  8
0
 62
     2
100
AcDbCircle
 10
180.4196098325997
 20
222.0115137832821
 30
0.0
 40
14.5
  0
LINE
  5
216
330
1F
100
AcDbEntity
  8
0
 62
     2
100
AcDbLine
 10
172.2270619414904
 20
203.4615181522216
 30
0.0
 11
165.2171030801209
 21
203.4615128292073
 31
0.0
  0
LINE
  5
217
330
1F
100
AcDbEntity
  8
0
 62
     2
100
AcDbLine
 10
172.2270622452305
 20
203.0615181522217
 30
0.0
 11
165.217103383861
 21
203.0615128292073
 31
0.0
  0
ARC
  5
218
330
1F
100
AcDbEntity
  8
0
 62
     2
100
AcDbCircle
 10
172.2270618655554
 20
203.5615181522215
 30
0.0
 40
0.0999999999999997
100
AcDbArc
 50
270.0000435075942
 51
0.0000000000295155
  0
LINE
  5
219
330
1F
100
AcDbEntity
  8
0
 62
     2
100
AcDbLine
 10
172.3270618655554
 20
206.3615201745306
 30
0.0
 11
172.3270618655554
 21
203.5615181522215
 31
0.0
  0
ARC
  5
21A
330
1F
100
AcDbEntity
  8
0
 62
     2
100
AcDbCircle
 10
173.2270618655554
 20
206.3615201745306
 30
0.0
 40
0.9000000000000004
100
AcDbArc
 50
123.8696117858542
 51
179.9999999999987
  0
ARC
  5
21B
330
1F
100
AcDbEntity
  8
0
 62
     2
100
AcDbCircle
 10
173.2270618655554
 20
206.3615201745306
 30
0.0
 40
0.9000000000000004
100
AcDbArc
 50
90.0
 51
123.8696117858557
  0
LINE
  5
21C
330
1F
100
AcDbEntity
  8
0
 62
     2
100
AcDbLine
 10
188.2270618655554
 20
207.2615201745305
 30
0.0
 11
173.2270618655554
 21
207.2615201745305
 31
0.0
  0
ARC
  5
21D
330
1F
100
AcDbEntity
  8
0
 62
     2
100
AcDbCircle
 10
188.2270618655554
 20
206.3615201745306
 30
0.0
 40
0.8999999999999985
100
AcDbArc
 50
33.86961178585823
 51
90.0000000000026
  0
ARC
  5
21E
330
1F
100
AcDbEntity
  8
0
 62
     2
100
AcDbCircle
 10
188.2270618655554
 20
206.3615201745306
 30
0.0
 40
0.8999999999999985
100
AcDbArc
 50
0.0
 51
33.8696117858558
  0
LINE
  5
21F
330
1F
100
AcDbEntity
  8
0
 62
     2
100
AcDbLine
 10
189.1270618655554
 20
203.5615203866588
 30
0.0
 11
189.1270618655554
 21
206.3615201745306
 31
0.0
  0
ARC
  5
220
330
1F
100
AcDbEntity
  8
0
 62
     2
100
AcDbCircle
 10
189.2270618655554
 20
203.5615203866588
 30
0.0
 40
0.0999999999999986
100
AcDbArc
 50
180.0
 51
269.9999999999745
  0
LINE
  5
221
330
1F
100
AcDbEntity
  8
0
 62
     2
100
AcDbLine
 10
195.622124412036
 20
203.4615203866559
 30
0.0
 11
189.2270618655554
 21
203.4615203866587
 31
0.0
  0
LINE
  5
222
330
1F
100
AcDbEntity
  8
0
 62
     2
100
AcDbLine
 10
195.6221244120358
 20
203.0615203866559
 30
0.0
 11
189.2270618655552
 21
203.0615203866588
 31
0.0
  0
ARC
  5
223
330
1F
100
AcDbEntity
  8
0
 62
     2
100
AcDbCircle
 10
195.622124412036
 20
203.5615203866559
 30
0.0
 40
0.1000000000000057
100
AcDbArc
 50
270.0
 51
27.99999999973695
  0
ARC
  5
224
330
1F
100
AcDbEntity
  8
0
 62
     2
100
AcDbCircle
 10
195.622124412036
 20
203.5615203866559
 30
0.0
 40
0.5000000000000062
100
AcDbArc
 50
269.9999999999804
 51
27.99999999971969
  0
LINE
  5
225
330
1F
100
AcDbEntity
  8
0
 62
     2
100
AcDbLine
 10
195.3038342435586
 20
204.3731425769989
 30
0.0
 11
195.7104191713221
 21
203.6084675429341
 31
0.0
  0
LINE
  5
226
330
1F
100
AcDbEntity
  8
0
 62
     2
100
AcDbLine
 10
195.6570132807032
 20
204.5609312021115
 30
0.0
 11
196.0635982084666
 21
203.7962561680467
 31
0.0
  0
ARC
  5
227
330
1F
100
AcDbEntity
  8
0
 62
     2
100
AcDbCircle
 10
196.0984870771338
 20
204.7956669835023
 30
0.0
 40
0.8999999999999967
100
AcDbArc
 50
161.3334643607254
 51
207.9999999997158
  0
ARC
  5
228
330
1F
100
AcDbEntity
  8
0
 62
     2
100
AcDbCircle
 10
196.0984870771338
 20
204.7956669835023
 30
0.0
 40
0.5000000000000023
100
AcDbArc
 50
161.3334643607247
 51
207.999999999715
  0
ARC
  5
229
330
1F
100
AcDbEntity
  8
0
 62
     2
100
AcDbCircle
 10
198.4196106445322
 20
204.0115207057789
 30
0.0
 40
3.349999999999982
100
AcDbArc
 50
158.6298170836643
 51
161.3334643607252
  0
ARC
  5
22A
330
1F
100
AcDbEntity
  8
0
 62
     2
100
AcDbCircle
 10
198.4196106445322
 20
204.0115207057789
 30
0.0
 40
3.349999999999982
100
AcDbArc
 50
108.6665378394819
 51
158.6298170836633
  0
ARC
  5
22B
330
1F
100
AcDbEntity
  8
0
 62
     2
100
AcDbCircle
 10
198.4196106445322
 20
204.0115207057789
 30
0.0
 40
2.949999999999989
100
AcDbArc
 50
108.6665378394817
 51
161.3334643607241
  0
ARC
  5
22C
330
1F
100
AcDbEntity
  8
0
 62
     2
100
AcDbCircle
 10
197.6354642776756
 20
206.3326442430653
 30
0.0
 40
0.9000000000000026
100
AcDbArc
 50
62.00000000004307
 51
108.6665378394853
  0
ARC
  5
22D
330
1F
100
AcDbEntity
  8
0
 62
     2
100
AcDbCircle
 10
197.6354642776756
 20
206.3326442430653
 30
0.0
 40
0.4999999999999996
100
AcDbArc
 50
62.00000000004782
 51
108.66653783949
  0
LINE
  5
22E
330
1F
100
AcDbEntity
  8
0
 62
     2
100
AcDbLine
 10
198.8226636303961
 20
206.7207121955824
 30
0.0
 11
198.0579886841824
 21
207.1272970766388
 31
0.0
  0
LINE
  5
22F
330
1F
100
AcDbEntity
  8
0
 62
     2
100
AcDbLine
 10
198.6348750052821
 20
206.3675331584387
 30
0.0
 11
197.8702000590683
 21
206.7741180394951
 31
0.0
  0
ARC
  5
230
330
1F
100
AcDbEntity
  8
0
 62
     2
100
AcDbCircle
 10
198.8696107866746
 20
206.8090069548683
 30
0.0
 40
0.0999999999999937
100
AcDbArc
 50
242.0000000000295
 51
0.0000435075457835
  0
ARC
  5
231
330
1F
100
AcDbEntity
  8
0
 62
     2
100
AcDbCircle
 10
198.8696107866746
 20
206.8090069548683
 30
0.0
 40
0.500000000000002
100
AcDbArc
 50
242.0000000000474
 51
0.0000435075656302
  0
LINE
  5
232
330
1F
100
AcDbEntity
  8
0
 62
     2
100
AcDbLine
 10
198.9696029009777
 20
213.8189658921728
 30
0.0
 11
198.9696055625112
 21
206.8090070308034
 31
0.0
  0
LINE
  5
233
330
1F
100
AcDbEntity
  8
0
 62
     2
100
AcDbLine
 10
199.3696042923258
 20
213.8189661959121
 30
0.0
 11
199.3696042923258
 21
206.8090073345386
 31
0.0
  0
ARC
  5
234
330
1F
100
AcDbEntity
  8
0
 62
     2
100
AcDbCircle
 10
198.8696054636603
 20
213.8189658162379
 30
0.0
 40
0.0999999999999975
100
AcDbArc
 50
0.0000435173377243
 51
90.00000000977198
  0
LINE
  5
235
330
1F
100
AcDbEntity
  8
0
 62
     2
100
AcDbLine
 10
196.0696034413513
 20
213.9189658162378
 30
0.0
 11
198.8696054636603
 21
213.9189658162378
 31
0.0
  0
ARC
  5
236
330
1F
100
AcDbEntity
  8
0
 62
     2
100
AcDbCircle
 10
196.0696034413512
 20
214.8189658162379
 30
0.0
 40
0.8999999999999998
100
AcDbArc
 50
213.8696117858602
 51
270.0000000000055
  0
ARC
  5
237
330
1F
100
AcDbEntity
  8
0
 62
     2
100
AcDbCircle
 10
196.0696034413512
 20
214.8189658162379
 30
0.0
 40
0.8999999999999998
100
AcDbArc
 50
180.0
 51
213.869611785856
  0
LINE
  5
238
330
1F
100
AcDbEntity
  8
0
 62
     2
100
AcDbLine
 10
195.1696034413512
 20
229.8189658162379
 30
0.0
 11
195.1696034413512
 21
214.8189658162379
 31
0.0
  0
ARC
  5
239
330
1F
100
AcDbEntity
  8
0
 62
     2
100
AcDbCircle
 10
196.0696034413513
 20
229.8189658162379
 30
0.0
 40
0.9000000000000051
100
AcDbArc
 50
123.8696117858532
 51
179.9999999999974
  0
ARC
  5
23A
330
1F
100
AcDbEntity
  8
0
 62
     2
100
AcDbCircle
 10
196.0696034413513
 20
229.8189658162379
 30
0.0
 40
0.9000000000000051
100
AcDbArc
 50
90.0
 51
123.8696117858559
  0
LINE
  5
23B
330
1F
100
AcDbEntity
  8
0
 62
     2
100
AcDbLine
 10
198.8696032292231
 20
230.7189658162378
 30
0.0
 11
196.0696034413512
 21
230.7189658162378
 31
0.0
  0
ARC
  5
23C
330
1F
100
AcDbEntity
  8
0
 62
     2
100
AcDbCircle
 10
198.8696032292231
 20
230.8189658162379
 30
0.0
 40
0.1000000000000008
100
AcDbArc
 50
270.0
 51
0.0000000000020356
  0
LINE
  5
23D
330
1F
100
AcDbEntity
  8
0
 62
     2
100
AcDbLine
 10
198.969603229227
 20
237.2140283627184
 30
0.0
 11
198.9696032292256
 21
230.8189658162379
 31
0.0
  0
LINE
  5
23E
330
1F
100
AcDbEntity
  8
0
 62
     2
100
AcDbLine
 10
199.3696032292259
 20
237.2140283627183
 30
0.0
 11
199.3696032292259
 21
230.8189658162376
 31
0.0
  0
ARC
  5
23F
330
1F
100
AcDbEntity
  8
0
 62
     2
100
AcDbCircle
 10
198.8696032292259
 20
237.2140283627185
 30
0.0
 40
0.1000000000000087
100
AcDbArc
 50
0.0
 51
117.9999999997196
  0
ARC
  5
240
330
1F
100
AcDbEntity
  8
0
 62
     2
100
AcDbCircle
 10
198.8696032292259
 20
237.2140283627185
 30
0.0
 40
0.4999999999999999
100
AcDbArc
 50
0.0
 51
117.9999999997174
  0
LINE
  5
241
330
1F
100
AcDbEntity
  8
0
 62
     2
100
AcDbLine
 10
198.0579810388829
 20
236.895738194241
 30
0.0
 11
198.8226560729477
 21
237.3023231220046
 31
0.0
  0
LINE
  5
242
330
1F
100
AcDbEntity
  8
0
 62
     2
100
AcDbLine
 10
197.8701924137703
 20
237.2489172313857
 30
0.0
 11
198.6348674478351
 21
237.655502159149
 31
0.0
  0
ARC
  5
243
330
1F
100
AcDbEntity
  8
0
 62
     2
100
AcDbCircle
 10
197.6354566323795
 20
237.6903910278162
 30
0.0
 40
0.9000000000000051
100
AcDbArc
 50
251.3334643607197
 51
297.9999999997094
  0
ARC
  5
244
330
1F
100
AcDbEntity
  8
0
 62
     2
100
AcDbCircle
 10
197.6354566323795
 20
237.6903910278162
 30
0.0
 40
0.5000000000000007
100
AcDbArc
 50
251.3334643607226
 51
297.9999999997121
  0
ARC
  5
245
330
1F
100
AcDbEntity
  8
0
 62
     2
100
AcDbCircle
 10
198.419602910103
 20
240.0115145952146
 30
0.0
 40
3.349999999999985
100
AcDbArc
 50
248.6298170836625
 51
251.3334643607234
  0
ARC
  5
246
330
1F
100
AcDbEntity
  8
0
 62
     2
100
AcDbCircle
 10
198.419602910103
 20
240.0115145952146
 30
0.0
 40
3.349999999999985
100
AcDbArc
 50
198.6665378394841
 51
248.6298170836627
  0
ARC
  5
247
330
1F
100
AcDbEntity
  8
0
 62
     2
100
AcDbCircle
 10
198.419602910103
 20
240.0115145952146
 30
0.0
 40
2.94999999999999
100
AcDbArc
 50
198.6665378394838
 51
251.3334643607231
  0
ARC
  5
248
330
1F
100
AcDbEntity
  8
0
 62
     2
100
AcDbCircle
 10
196.0984793728164
 20
239.227368228358
 30
0.0
 40
0.8999999999999969
100
AcDbArc
 50
152.0000000000367
 51
198.6665378394794
  0
ARC
  5
249
330
1F
100
AcDbEntity
  8
0
 62
     2
100
AcDbCircle
 10
196.0984793728164
 20
239.227368228358
 30
0.0
 40
0.5000000000000002
100
AcDbArc
 50
152.0000000000302
 51
198.6665378394732
  0
LINE
  5
24A
330
1F
100
AcDbEntity
  8
0
 62
     2
100
AcDbLine
 10
195.7104114202995
 20
240.4145675810786
 30
0.0
 11
195.3038265392431
 21
239.6498926348648
 31
0.0
  0
LINE
  5
24B
330
1F
100
AcDbEntity
  8
0
 62
     2
100
AcDbLine
 10
196.0635904574432
 20
240.2267789559645
 30
0.0
 11
195.6570055763868
 21
239.4621040097507
 31
0.0
  0
ARC
  5
24C
330
1F
100
AcDbEntity
  8
0
 62
     2
100
AcDbCircle
 10
195.6221166610135
 20
240.4615147373571
 30
0.0
 40
0.0999999999999962
100
AcDbArc
 50
332.0000000000447
 51
90.00004350756416
  0
ARC
  5
24D
330
1F
100
AcDbEntity
  8
0
 62
     2
100
AcDbCircle
 10
195.6221166610135
 20
240.4615147373571
 30
0.0
 40
0.4999999999999985
100
AcDbArc
 50
332.0000000000448
 51
90.00004350756284
  0
LINE
  5
24E
330
1F
100
AcDbEntity
  8
0
 62
     2
100
AcDbLine
 10
189.2270617896203
 20
240.5615098812703
 30
0.0
 11
195.6221165850785
 21
240.561514737357
 31
0.0
  0
LINE
  5
24F
330
1F
100
AcDbEntity
  8
0
 62
     2
100
AcDbLine
 10
189.2270614858802
 20
240.9615098812702
 30
0.0
 11
195.6221162813384
 21
240.9615147373569
 31
0.0
  0
ARC
  5
250
330
1F
100
AcDbEntity
  8
0
 62
     2
100
AcDbCircle
 10
189.2270618655554
 20
240.4615098812703
 30
0.0
 40
0.0999999999999975
100
AcDbArc
 50
90.00004350756166
 51
179.9999999999949
  0
LINE
  5
251
330
1F
100
AcDbEntity
  8
0
 62
     2
100
AcDbLine
 10
189.1270618655553
 20
237.6615201745306
 30
0.0
 11
189.1270618655553
 21
240.4615098812703
 31
0.0
  0
ARC
  5
252
330
1F
100
AcDbEntity
  8
0
 62
     2
100
AcDbCircle
 10
188.2270618655554
 20
237.6615201745306
 30
0.0
 40
0.9000000000000054
100
AcDbArc
 50
303.8696117858563
 51
0.0000000000003053
  0
ARC
  5
253
330
1F
100
AcDbEntity
  8
0
 62
     2
100
AcDbCircle
 10
188.2270618655554
 20
237.6615201745306
 30
0.0
 40
0.9000000000000054
100
AcDbArc
 50
270.0
 51
303.8696117858553
  0
LINE
  5
254
330
1F
100
AcDbEntity
  8
0
 62
     2
100
AcDbLine
 10
173.2270618655554
 20
236.7615201745305
 30
0.0
 11
188.2270618655554
 21
236.7615201745305
 31
0.0
  0
ARC
  5
255
330
1F
100
AcDbEntity
  8
0
 62
     2
100
AcDbCircle
 10
173.2270618655554
 20
237.6615201745306
 30
0.0
 40
0.900000000000002
100
AcDbArc
 50
213.8696117858582
 51
270.0000000000026
  0
ARC
  5
256
330
1F
100
AcDbEntity
  8
0
 62
     2
100
AcDbCircle
 10
173.2270618655554
 20
237.6615201745306
 30
0.0
 40
0.900000000000002
100
AcDbArc
 50
180.0
 51
213.8696117858558
  0
LINE
  5
257
330
1F
100
AcDbEntity
  8
0
 62
     2
100
AcDbLine
 10
172.3270618655554
 20
240.4615071799053
 30
0.0
 11
172.3270618655554
 21
237.6615201745306
 31
0.0
  0
ARC
  5
258
330
1F
100
AcDbEntity
  8
0
 62
     2
100
AcDbCircle
 10
172.2270618655554
 20
240.4615071799053
 30
0.0
 40
0.100000000000008
100
AcDbArc
 50
0.0
 51
89.99999999997249
  0
LINE
  5
259
330
1F
100
AcDbEntity
  8
0
 62
     2
100
AcDbLine
 10
165.2170952531634
 20
240.5615071799084
 30
0.0
 11
172.2270618655554
 21
240.5615071799053
 31
0.0
  0
LINE
  5
25A
330
1F
100
AcDbEntity
  8
0
 62
     2
100
AcDbLine
 10
165.2170952531636
 20
240.9615071799084
 30
0.0
 11
172.2270618655556
 21
240.9615071799053
 31
0.0
  0
ARC
  5
25B
330
1F
100
AcDbEntity
  8
0
 62
     2
100
AcDbCircle
 10
165.2170952531634
 20
240.4615071799084
 30
0.0
 40
0.1000000000000097
100
AcDbArc
 50
89.99999999996744
 51
207.999999999707
  0
LINE
  5
25C
330
1F
100
AcDbEntity
  8
0
 62
     2
100
AcDbLine
 10
165.5353854216407
 20
239.6498849895653
 30
0.0
 11
165.1288004938773
 21
240.4145600236302
 31
0.0
  0
ARC
  5
25D
330
1F
100
AcDbEntity
  8
0
 62
     2
100
AcDbCircle
 10
164.7407325880656
 20
239.227360583062
 30
0.0
 40
0.9000000000000183
100
AcDbArc
 50
341.3334643607253
 51
27.99999999971542
  0
ARC
  5
25E
330
1F
100
AcDbEntity
  8
0
 62
     2
100
AcDbCircle
 10
162.4196090206672
 20
240.0115068607855
 30
0.0
 40
3.349999999999982
100
AcDbArc
 50
338.6298170836607
 51
341.3334643607218
  0
ARC
  5
25F
330
1F
100
AcDbEntity
  8
0
 62
     2
100
AcDbCircle
 10
162.4196090206672
 20
240.0115068607855
 30
0.0
 40
3.349999999999982
100
AcDbArc
 50
288.6665378394819
 51
338.6298170836635
  0
ARC
  5
260
330
1F
100
AcDbEntity
  8
0
 62
     2
100
AcDbCircle
 10
163.2037553875238
 20
237.6903833234988
 30
0.0
 40
0.8999999999999995
100
AcDbArc
 50
242.0000000000431
 51
288.6665378394843
  0
LINE
  5
261
330
1F
100
AcDbEntity
  8
0
 62
     2
100
AcDbLine
 10
162.0165560348033
 20
237.302315370982
 30
0.0
 11
162.781230981017
 21
236.8957304899255
 31
0.0
  0
ARC
  5
262
330
1F
100
AcDbEntity
  8
0
 62
     2
100
AcDbCircle
 10
161.9696088785248
 20
237.214020611696
 30
0.0
 40
0.0999999999999994
100
AcDbArc
 50
62.00000000008881
 51
180.000043507606
  0
LINE
  5
263
330
1F
100
AcDbEntity
  8
0
 62
     2
100
AcDbLine
 10
161.8696165307556
 20
230.8189657403028
 30
0.0
 11
161.8696141026882
 21
237.214020535761
 31
0.0
  0
ARC
  5
264
330
1F
100
AcDbEntity
  8
0
 62
     2
100
AcDbCircle
 10
161.9696137346115
 20
230.8189658162379
 30
0.0
 40
0.1000000000000003
100
AcDbArc
 50
180.0000435173377
 51
270.00000000977
  0
LINE
  5
265
330
1F
100
AcDbEntity
  8
0
 62
     2
100
AcDbLine
 10
164.7696034413513
 20
230.7189658162377
 30
0.0
 11
161.9696137346115
 21
230.7189658162377
 31
0.0
  0
ARC
  5
266
330
1F
100
AcDbEntity
  8
0
 62
     2
100
AcDbCircle
 10
164.7696034413513
 20
229.8189658162379
 30
0.0
 40
0.9000000000000009
100
AcDbArc
 50
33.86961178585021
 51
89.99999999999535
  0
ARC
  5
267
330
1F
100
AcDbEntity
  8
0
 62
     2
100
AcDbCircle
 10
164.7696034413513
 20
229.8189658162379
 30
0.0
 40
0.9000000000000009
100
AcDbArc
 50
0.0
 51
33.86961178585558
  0
LINE
  5
268
330
1F
100
AcDbEntity
  8
0
 62
     2
100
AcDbLine
 10
165.6696034413513
 20
214.8189658162379
 30
0.0
 11
165.6696034413512
 21
229.8189658162379
 31
0.0
  0
ARC
  5
269
330
1F
100
AcDbEntity
  8
0
 62
     2
100
AcDbCircle
 10
164.7696034413513
 20
214.8189658162379
 30
0.0
 40
0.9000000000000051
100
AcDbArc
 50
303.8696117858563
 51
0.0000000000007124
  0
ARC
  5
26A
330
1F
100
AcDbEntity
  8
0
 62
     2
100
AcDbCircle
 10
164.7696034413513
 20
214.8189658162379
 30
0.0
 40
0.9000000000000051
100
AcDbArc
 50
270.0
 51
303.8696117858553
  0
LINE
  5
26B
330
1F
100
AcDbEntity
  8
0
 62
     2
100
AcDbLine
 10
161.9696164359765
 20
213.9189658162378
 30
0.0
 11
164.7696034413513
 21
213.9189658162378
 31
0.0
  0
ARC
  5
26C
330
1F
100
AcDbEntity
  8
0
 62
     2
100
AcDbCircle
 10
161.9696164359765
 20
213.8189658162379
 30
0.0
 40
0.1000000000000008
100
AcDbArc
 50
90.0
 51
179.9999999999746
  0
LINE
  5
26D
330
1F
100
AcDbEntity
  8
0
 62
     2
100
AcDbLine
 10
161.8696164359724
 20
206.8089992038459
 30
0.0
 11
161.8696164359739
 21
213.8189658162379
 31
0.0
  0
ARC
  5
26E
330
1F
100
AcDbEntity
  8
0
 62
     2
100
AcDbCircle
 10
161.9696164359735
 20
206.8089992038459
 30
0.0
 40
0.1000000000000028
100
AcDbArc
 50
180.0
 51
297.9999999997372
  0
LINE
  5
26F
330
1F
100
AcDbEntity
  8
0
 62
     2
100
AcDbLine
 10
162.7812386263165
 20
207.1272893723231
 30
0.0
 11
162.0165635922517
 21
206.7207044445597
 31
0.0
  0
ARC
  5
270
330
1F
100
AcDbEntity
  8
0
 62
     2
100
AcDbCircle
 10
163.2037630328199
 20
206.332636538748
 30
0.0
 40
0.9000000000000199
100
AcDbArc
 50
71.33346436072536
 51
117.9999999997163
  0
ARC
  5
271
330
1F
100
AcDbEntity
  8
0
 62
     2
100
AcDbCircle
 10
162.4196167550964
 20
204.0115129713496
 30
0.0
 40
3.349999999999983
100
AcDbArc
 50
68.62981708366247
 51
71.3334643607235
  0
ARC
  5
272
330
1F
100
AcDbEntity
  8
0
 62
     2
100
AcDbCircle
 10
162.4196167550964
 20
204.0115129713496
 30
0.0
 40
3.349999999999983
100
AcDbArc
 50
18.66653783947979
 51
68.62981708366266
  0
ARC
  5
273
330
1F
100
AcDbEntity
  8
0
 62
     2
100
AcDbCircle
 10
164.740740292383
 20
204.7956593382063
 30
0.0
 40
0.8999999999999946
100
AcDbArc
 50
332.0000000000431
 51
18.66653783948347
  0
LINE
  5
274
330
1F
100
AcDbEntity
  8
0
 62
     2
100
AcDbLine
 10
165.1288082449
 20
203.6084599854857
 30
0.0
 11
165.5353931259564
 21
204.3731349316995
 31
0.0
  0
ARC
  5
275
330
1F
100
AcDbEntity
  8
0
 62
     2
100
AcDbCircle
 10
165.2171030041859
 20
203.5615128292072
 30
0.0
 40
0.1000000000000017
100
AcDbArc
 50
152.0000000000601
 51
270.0000435075781
  0
ARC
  5
276
330
1F
100
AcDbEntity
  8
0
 62
     2
100
AcDbCircle
 10
165.2171030041859
 20
203.5615128292072
 30
0.0
 40
0.500000000000002
100
AcDbArc
 50
174.548463229891
 51
270.0000435075647
  0
LINE
  5
277
330
1F
100
AcDbEntity
  8
0
 62
     2
100
AcDbLine
 10
199.3696042923258
 20
214.3189658162379
 30
0.0
 11
199.3696054636602
 21
213.8189661959139
 31
0.0
  0
LINE
  5
278
330
1F
100
AcDbEntity
  8
0
 62
     2
100
AcDbLine
 10
199.3696032292231
 20
230.8189658162376
 30
0.0
 11
199.3696032292229
 21
230.3189658162379
 31
0.0
  0
LINE
  5
279
330
1F
100
AcDbEntity
  8
0
 62
     2
100
AcDbLine
 10
172.7270618655554
 20
203.0615185318966
 30
0.0
 11
172.2270622452305
 21
203.0615181522217
 31
0.0
  0
LINE
  5
27A
330
1F
100
AcDbEntity
  8
0
 62
     2
100
AcDbLine
 10
189.2270618655551
 20
203.0615203866588
 30
0.0
 11
188.7270618655554
 21
203.061520386659
 31
0.0
  0
LINE
  5
27B
330
1F
100
AcDbEntity
  8
0
 62
     2
100
AcDbLine
 10
172.2270618655556
 20
240.9615071799053
 30
0.0
 11
172.7270618655554
 21
240.9615071799051
 31
0.0
  0
LINE
  5
27C
330
1F
100
AcDbEntity
  8
0
 62
     2
100
AcDbLine
 10
188.7270618655554
 20
240.9615095015953
 30
0.0
 11
189.2270614858802
 21
240.9615098812702
 31
0.0
  0
LINE
  5
27D
330
1F
100
AcDbEntity
  8
0
 62
     2
100
AcDbLine
 10
173.7696099590465
 20
240.9615071799046
 30
0.0
 11
172.7270618655554
 21
240.9615071799051
 31
0.0
  0
ARC
  5
27E
330
1F
100
AcDbEntity
  8
0
 62
     2
100
AcDbCircle
 10
173.7696099590463
 20
240.4615071799046
 30
0.0
 40
0.5000000000000036
100
AcDbArc
 50
16.00977292527304
 51
89.9999999999748
  0
ARC
  5
27F
330
1F
100
AcDbEntity
  8
0
 62
     2
100
AcDbCircle
 10
179.3196098326162
 20
240.4615071799096
 30
0.0
 40
0.4999999999999933
100
AcDbArc
 50
90.00000000007164
 51
163.990227075317
  0
LINE
  5
280
330
1F
100
AcDbEntity
  8
0
 62
     2
100
AcDbLine
 10
181.5196098326155
 20
240.9615071799126
 30
0.0
 11
179.3196098326156
 21
240.9615071799096
 31
0.0
  0
ARC
  5
281
330
1F
100
AcDbEntity
  8
0
 62
     2
100
AcDbCircle
 10
181.5196098326162
 20
240.4615071799126
 30
0.0
 40
0.5
100
AcDbArc
 50
16.00977292432285
 51
90.00000000007574
  0
ARC
  5
282
330
1F
100
AcDbEntity
  8
0
 62
     2
100
AcDbCircle
 10
187.0696097061862
 20
240.4615082430083
 30
0.0
 40
0.5
100
AcDbArc
 50
90.00004350756166
 51
163.9903538129852
  0
LINE
  5
283
330
1F
100
AcDbEntity
  8
0
 62
     2
100
AcDbLine
 10
188.7270618655554
 20
240.9615095015953
 30
0.0
 11
187.0696093265111
 21
240.9615082430083
 31
0.0
  0
LINE
  5
284
330
1F
100
AcDbEntity
  8
0
 62
     2
100
AcDbLine
 10
187.0696097061528
 20
203.0615203866597
 30
0.0
 11
188.7270618655554
 21
203.061520386659
 31
0.0
  0
ARC
  5
285
330
1F
100
AcDbEntity
  8
0
 62
     2
100
AcDbCircle
 10
187.0696097061531
 20
203.5615203866597
 30
0.0
 40
0.5
100
AcDbArc
 50
196.009772925273
 51
269.9999999999746
  0
ARC
  5
286
330
1F
100
AcDbEntity
  8
0
 62
     2
100
AcDbCircle
 10
181.5196098325832
 20
203.5615203866547
 30
0.0
 40
0.4999999999999936
100
AcDbArc
 50
270.0000000000782
 51
343.9902270753234
  0
LINE
  5
287
330
1F
100
AcDbEntity
  8
0
 62
     2
100
AcDbLine
 10
179.3196098325839
 20
203.0615203866517
 30
0.0
 11
181.5196098325839
 21
203.0615203866547
 31
0.0
  0
ARC
  5
288
330
1F
100
AcDbEntity
  8
0
 62
     2
100
AcDbCircle
 10
179.3196098325832
 20
203.5615203866517
 30
0.0
 40
0.5000000000000036
100
AcDbArc
 50
196.0097729243246
 51
270.0000000000779
  0
ARC
  5
289
330
1F
100
AcDbEntity
  8
0
 62
     2
100
AcDbCircle
 10
173.7696099590132
 20
203.5615193235559
 30
0.0
 40
0.5000000000000018
100
AcDbArc
 50
270.0000435075617
 51
343.9903538129857
  0
LINE
  5
28A
330
1F
100
AcDbEntity
  8
0
 62
     2
100
AcDbLine
 10
172.7270618655554
 20
203.0615185318966
 30
0.0
 11
173.7696103386884
 21
203.0615193235561
 31
0.0
  0
LINE
  5
28B
330
1F
100
AcDbEntity
  8
0
 62
     2
100
AcDbLine
 10
199.3696032292222
 20
228.6615136568354
 30
0.0
 11
199.3696032292229
 21
230.3189658162379
 31
0.0
  0
ARC
  5
28C
330
1F
100
AcDbEntity
  8
0
 62
     2
100
AcDbCircle
 10
198.8696032292222
 20
228.6615136568356
 30
0.0
 40
0.5
100
AcDbArc
 50
269.9999999999479
 51
359.9999999999996
  0
LINE
  5
28D
330
1F
100
AcDbEntity
  8
0
 62
     2
100
AcDbLine
 10
197.169610625311
 20
228.1615136568371
 30
0.0
 11
198.8696032292218
 21
228.1615136568356
 31
0.0
  0
ARC
  5
28E
330
1F
100
AcDbEntity
  8
0
 62
     2
100
AcDbCircle
 10
197.1696106253105
 20
227.6615136568371
 30
0.0
 40
0.5
100
AcDbArc
 50
89.99999999994789
 51
180.0
  0
LINE
  5
28F
330
1F
100
AcDbEntity
  8
0
 62
     2
100
AcDbLine
 10
196.6696106253023
 20
224.1115137832671
 30
0.0
 11
196.6696106253105
 21
227.6615136568383
 31
0.0
  0
ARC
  5
290
330
1F
100
AcDbEntity
  8
0
 62
     2
100
AcDbCircle
 10
197.1696106253023
 20
224.1115137832671
 30
0.0
 40
0.5
100
AcDbArc
 50
180.0
 51
269.9999999999482
  0
LINE
  5
291
330
1F
100
AcDbEntity
  8
0
 62
     2
100
AcDbLine
 10
198.8696032292276
 20
223.6115137832656
 30
0.0
 11
197.1696106253018
 21
223.6115137832671
 31
0.0
  0
ARC
  5
292
330
1F
100
AcDbEntity
  8
0
 62
     2
100
AcDbCircle
 10
198.8696032292272
 20
223.1115137832656
 30
0.0
 40
0.5
100
AcDbArc
 50
0.0
 51
89.99999999987202
  0
LINE
  5
293
330
1F
100
AcDbEntity
  8
0
 62
     2
100
AcDbLine
 10
199.3696032292302
 20
220.9115137832663
 30
0.0
 11
199.3696032292272
 21
223.1115137832663
 31
0.0
  0
ARC
  5
294
330
1F
100
AcDbEntity
  8
0
 62
     2
100
AcDbCircle
 10
198.8696032292302
 20
220.9115137832656
 30
0.0
 40
0.5000000000000036
100
AcDbArc
 50
269.9999999999479
 51
359.9999999999987
  0
LINE
  5
295
330
1F
100
AcDbEntity
  8
0
 62
     2
100
AcDbLine
 10
197.1696106252925
 20
220.4115137832672
 30
0.0
 11
198.8696032292297
 21
220.4115137832656
 31
0.0
  0
ARC
  5
296
330
1F
100
AcDbEntity
  8
0
 62
     2
100
AcDbCircle
 10
197.1696106252925
 20
219.9115137832672
 30
0.0
 40
0.4999999999999964
100
AcDbArc
 50
90.0
 51
179.9999999998667
  0
LINE
  5
297
330
1F
100
AcDbEntity
  8
0
 62
     2
100
AcDbLine
 10
196.6696106252842
 20
216.3615139096983
 30
0.0
 11
196.6696106252925
 21
219.9115137832683
 31
0.0
  0
ARC
  5
298
330
1F
100
AcDbEntity
  8
0
 62
     2
100
AcDbCircle
 10
197.1696106252843
 20
216.3615139096972
 30
0.0
 40
0.5
100
AcDbArc
 50
180.0
 51
270.0000000000814
  0
LINE
  5
299
330
1F
100
AcDbEntity
  8
0
 62
     2
100
AcDbLine
 10
198.8696042923259
 20
215.8615139096956
 30
0.0
 11
197.1696106252838
 21
215.8615139096972
 31
0.0
  0
ARC
  5
29A
330
1F
100
AcDbEntity
  8
0
 62
     2
100
AcDbCircle
 10
198.8696042923259
 20
215.3615139096956
 30
0.0
 40
0.4999999999999938
100
AcDbArc
 50
0.0000435005841769
 51
89.99999999301865
  0
LINE
  5
29B
330
1F
100
AcDbEntity
  8
0
 62
     2
100
AcDbLine
 10
199.3696050839853
 20
214.3189658162379
 30
0.0
 11
199.3696042923258
 21
215.3615142893708
 31
0.0
  0
LINE
  5
29C
330
1F
100
AcDbEntity
  8
0
 62
     2
100
AcDbLine
 10
188.3570096809908
 20
206.5066625131578
 30
0.0
 11
188.3568031336935
 21
206.5076732185392
 31
0.0
  0
LINE
  5
29D
330
1F
100
AcDbEntity
  8
0
 62
     2
100
AcDbLine
 10
188.3655830798391
 20
206.4590653355386
 30
0.0
 11
188.3653952969768
 21
206.4601146917072
 31
0.0
  0
LINE
  5
29E
330
1F
100
AcDbEntity
  8
0
 62
     2
100
AcDbLine
 10
161.8711203301149
 20
208.9145276820211
 30
0.0
 11
161.8696164359736
 21
208.9141948608666
 31
0.0
  0
CIRCLE
  5
29F
330
1F
100
AcDbEntity
  8
0
 62
     2
100
AcDbCircle
 10
180.4196098325997
 20
222.0115137832821
 30
0.0
 40
13.0
  0
CIRCLE
  5
2A0
330
1F
100
AcDbEntity
  8
0
 62
     2
100
AcDbCircle
 10
180.4196098325997
 20
222.0115137832821
 30
0.0
 40
12.0
  0
LINE
  5
2A1
330
1F
100
AcDbEntity
  8
0
 62
     2
100
AcDbLine
 10
161.8739607050342
 20
234.8115174729867
 30
0.0
 11
161.8715706684773
 21
234.8115174729867
 31
0.0
  0
LINE
  5
2A2
330
1F
100
AcDbEntity
  8
0
 62
     2
100
AcDbLine
 10
198.9682022351219
 20
234.8115174729867
 30
0.0
 11
198.9661614970887
 21
234.8115174729867
 31
0.0
  0
LINE
  5
2A3
330
1F
100
AcDbEntity
  8
0
 62
     2
100
AcDbLine
 10
161.8710625361717
 20
209.2115174729866
 30
0.0
 11
161.8696164359736
 21
209.2115174729866
 31
0.0
  0
LINE
  5
2A4
330
1F
100
AcDbEntity
  8
0
 62
     2
100
AcDbLine
 10
198.9619606884802
 20
209.2115174729866
 30
0.0
 11
198.960515194612
 21
209.2115174729866
 31
0.0
  0
ARC
  5
2A5
330
1F
100
AcDbEntity
  8
0
 62
     2
100
AcDbCircle
 10
198.419610328761
 20
204.0115137832822
 30
0.0
 40
3.5
100
AcDbArc
 50
344.2071905964302
 51
0.0000000000007124
  0
ARC
  5
2A6
330
1F
100
AcDbEntity
  8
0
 62
     2
100
AcDbCircle
 10
198.419610328761
 20
204.0115137832822
 30
0.0
 40
3.5
100
AcDbArc
 50
269.9999999999991
 51
344.2071905964298
  0
ARC
  5
2A7
330
1F
100
AcDbEntity
  8
0
 62
     2
100
AcDbCircle
 10
198.4196103287611
 20
240.0115137832822
 30
0.0
 40
3.5
100
AcDbArc
 50
74.20719906641538
 51
90.00000000000114
  0
ARC
  5
2A8
330
1F
100
AcDbEntity
  8
0
 62
     2
100
AcDbCircle
 10
198.4196103287611
 20
240.0115137832822
 30
0.0
 40
3.5
100
AcDbArc
 50
0.0
 51
74.20719906641193
  0
ARC
  5
2A9
330
1F
100
AcDbEntity
  8
0
 62
     2
100
AcDbCircle
 10
162.419610328761
 20
204.0115137832822
 30
0.0
 40
3.5
100
AcDbArc
 50
254.2071821264562
 51
270.0000000000016
  0
ARC
  5
2AA
330
1F
100
AcDbEntity
  8
0
 62
     2
100
AcDbCircle
 10
162.419610328761
 20
204.0115137832822
 30
0.0
 40
3.5
100
AcDbArc
 50
186.6064082598323
 51
254.2071821264568
  0
ARC
  5
2AB
330
1F
100
AcDbEntity
  8
0
 62
     2
100
AcDbCircle
 10
162.419610328761
 20
240.0115137832821
 30
0.0
 40
3.5
100
AcDbArc
 50
164.2071905964302
 51
173.3934793832274
  0
ARC
  5
2AC
330
1F
100
AcDbEntity
  8
0
 62
     2
100
AcDbCircle
 10
162.419610328761
 20
240.0115137832821
 30
0.0
 40
3.5
100
AcDbArc
 50
90.00000000000092
 51
164.2071905964316
  0
LINE
  5
2AD
330
1F
100
AcDbEntity
  8
0
 62
     2
100
AcDbLine
 10
200.6696103287611
 20
204.0115137832822
 30
0.0
 11
200.669610328761
 21
240.0115137832823
 31
0.0
  0
LINE
  5
2AE
330
1F
100
AcDbEntity
  8
0
 62
     2
100
AcDbLine
 10
201.9196103287611
 20
204.0115137832822
 30
0.0
 11
201.9196103287611
 21
240.0115137832823
 31
0.0
  0
ARC
  5
2AF
330
1F
100
AcDbEntity
  8
0
 62
     2
100
AcDbCircle
 10
198.4196103287611
 20
204.0115137832822
 30
0.0
 40
2.250000000000029
100
AcDbArc
 50
334.950918103265
 51
359.9999999999999
  0
ARC
  5
2B0
330
1F
100
AcDbEntity
  8
0
 62
     2
100
AcDbCircle
 10
198.4196103287611
 20
204.0115137832822
 30
0.0
 40
2.250000000000029
100
AcDbArc
 50
270.0
 51
334.9509181032652
  0
LINE
  5
2B1
330
1F
100
AcDbEntity
  8
0
 62
     2
100
AcDbLine
 10
162.4196103287611
 20
201.7615137832822
 30
0.0
 11
198.4196103287611
 21
201.7615137832822
 31
0.0
  0
LINE
  5
2B2
330
1F
100
AcDbEntity
  8
0
 62
     2
100
AcDbLine
 10
162.4196103287611
 20
200.5115137832822
 30
0.0
 11
198.4196103287611
 21
200.5115137832822
 31
0.0
  0
ARC
  5
2B3
330
1F
100
AcDbEntity
  8
0
 62
     2
100
AcDbCircle
 10
162.419610328761
 20
204.0115137832822
 30
0.0
 40
2.249999999999998
100
AcDbArc
 50
244.9509041038768
 51
269.9999999999977
  0
ARC
  5
2B4
330
1F
100
AcDbEntity
  8
0
 62
     2
100
AcDbCircle
 10
162.419610328761
 20
204.0115137832822
 30
0.0
 40
2.249999999999998
100
AcDbArc
 50
190.3093668625932
 51
244.9509041038756
  0
ARC
  5
2B5
330
1F
100
AcDbEntity
  8
0
 62
     2
100
AcDbCircle
 10
162.419610328761
 20
240.0115137832821
 30
0.0
 40
2.249999999999995
100
AcDbArc
 50
154.950918103265
 51
169.6904438655515
  0
ARC
  5
2B6
330
1F
100
AcDbEntity
  8
0
 62
     2
100
AcDbCircle
 10
162.419610328761
 20
240.0115137832821
 30
0.0
 40
2.249999999999995
100
AcDbArc
 50
90.0000000000029
 51
154.9509181032675
  0
LINE
  5
2B7
330
1F
100
AcDbEntity
  8
0
 62
     2
100
AcDbLine
 10
198.419610328761
 20
242.2615137832822
 30
0.0
 11
162.4196103287611
 21
242.2615137832821
 31
0.0
  0
LINE
  5
2B8
330
1F
100
AcDbEntity
  8
0
 62
     2
100
AcDbLine
 10
198.419610328761
 20
243.5115137832822
 30
0.0
 11
162.419610328761
 21
243.5115137832821
 31
0.0
  0
ARC
  5
2B9
330
1F
100
AcDbEntity
  8
0
 62
     2
100
AcDbCircle
 10
198.4196103287611
 20
240.0115137832822
 30
0.0
 40
2.250000000000012
100
AcDbArc
 50
64.9509321026572
 51
89.99999999999736
  0
ARC
  5
2BA
330
1F
100
AcDbEntity
  8
0
 62
     2
100
AcDbCircle
 10
198.4196103287611
 20
240.0115137832822
 30
0.0
 40
2.250000000000012
100
AcDbArc
 50
0.0
 51
64.9509321026537
  0
LINE
  5
2BB
330
1F
100
AcDbEntity
  8
0
 62
     2
100
AcDbLine
 10
172.3133045509855
 20
236.7392534446802
 30
0.0
 11
172.3117546067033
 21
236.7441870356641
 31
0.0
  0
CIRCLE
  5
2BC
330
1F
100
AcDbEntity
  8
0
 62
     2
100
AcDbCircle
 10
198.4196095270136
 20
240.0115137750895
 30
0.0
 40
1.35
  0
ARC
  5
2BD
330
1F
100
AcDbEntity
  8
0
 62
     2
100
AcDbCircle
 10
162.419609937893
 20
240.0115141859665
 30
0.0
 40
1.35
100
AcDbArc
 50
17.32565692349212
 51
162.6594171796254
  0
ARC
  5
2BE
330
1F
100
AcDbEntity
  8
0
 62
     2
100
AcDbCircle
 10
162.4196099378929
 20
204.0115211708843
 30
0.0
 40
1.35
100
AcDbArc
 50
197.3406023657552
 51
342.674322324982
  0
CIRCLE
  5
2BF
330
1F
100
AcDbEntity
  8
0
 62
     2
100
AcDbCircle
 10
198.4196099378909
 20
204.0115207600067
 30
0.0
 40
1.35
  0
LINE
  5
2C0
330
1F
100
AcDbEntity
  8
0
 62
     2
100
AcDbLine
 10
190.3950462264514
 20
222.5115174729866
 30
0.0
 11
170.444173438748
 21
222.5115174729866
 31
0.0
  0
LINE
  5
2C1
330
1F
100
AcDbEntity
  8
0
 62
     2
100
AcDbLine
 10
190.3950465889785
 20
221.5115174729866
 30
0.0
 11
170.4441730762209
 21
221.5115174729866
 31
0.0
  0
CIRCLE
  5
2C2
330
1F
100
AcDbEntity
  8
0
 62
     2
100
AcDbCircle
 10
180.4196098325997
 20
222.0115137832821
 30
0.0
 40
10.0
  0
LINE
  5
2C3
330
1F
100
AcDbEntity
  8
0
 62
     2
100
AcDbLine
 10
198.4196103287611
 20
243.5115137832822
 30
0.0
 11
198.419610328761
 21
242.2615137832822
 31
0.0
  0
LINE
  5
2C4
330
1F
100
AcDbEntity
  8
0
 62
     2
100
AcDbLine
 10
162.4196103287611
 20
242.2615137832821
 30
0.0
 11
162.4196103287611
 21
243.5115137832821
 31
0.0
  0
LINE
  5
2C5
330
1F
100
AcDbEntity
  8
0
 62
     2
100
AcDbLine
 10
162.419610328761
 20
200.5115137832822
 30
0.0
 11
162.4196103287611
 21
201.7615137832822
 31
0.0
  0
LINE
  5
2C6
330
1F
100
AcDbEntity
  8
0
 62
     2
100
AcDbLine
 10
198.4196103287611
 20
201.7615137832822
 30
0.0
 11
198.4196103287611
 21
200.5115137832822
 31
0.0
  0
LINE
  5
2C7
330
1F
100
AcDbEntity
  8
0
 62
     2
100
AcDbLine
 10
201.9196103287611
 20
240.0115137832822
 30
0.0
 11
200.6696103287611
 21
240.0115137832823
 31
0.0
  0
LINE
  5
2C8
330
1F
100
AcDbEntity
  8
0
 62
     2
100
AcDbLine
 10
201.9196103287611
 20
204.0115137832822
 30
0.0
 11
200.6696103287611
 21
204.0115137832822
 31
0.0
  0
LINE
  5
2C9
330
1F
100
AcDbEntity
  8
0
 62
     2
100
AcDbLine
 10
196.0696034413513
 20
214.3189658162379
 30
0.0
 11
198.8696054636603
 21
214.3189658162379
 31
0.0
  0
LINE
  5
2CA
330
1F
100
AcDbEntity
  8
0
 62
     2
100
AcDbLine
 10
195.5696034413512
 20
229.8189658162379
 30
0.0
 11
195.5696034413512
 21
214.8189658162379
 31
0.0
  0
LINE
  5
2CB
330
1F
100
AcDbEntity
  8
0
 62
     2
100
AcDbLine
 10
198.8696032292231
 20
230.3189658162379
 30
0.0
 11
196.0696034413513
 21
230.3189658162379
 31
0.0
  0
LINE
  5
2CC
330
1F
100
AcDbEntity
  8
0
 62
     2
100
AcDbLine
 10
188.2270618655554
 20
206.8615201745306
 30
0.0
 11
173.2270618655554
 21
206.8615201745306
 31
0.0
  0
LINE
  5
2CD
330
1F
100
AcDbEntity
  8
0
 62
     2
100
AcDbLine
 10
173.2270618655554
 20
237.1615201745306
 30
0.0
 11
188.2270618655554
 21
237.1615201745306
 31
0.0
  0
ARC
  5
2CE
330
1F
100
AcDbEntity
  8
0
 62
     2
100
AcDbCircle
 10
188.2270618655554
 20
237.6615201745306
 30
0.0
 40
0.5
100
AcDbArc
 50
270.0
 51
352.8640160262223
  0
ARC
  5
2CF
330
1F
100
AcDbEntity
  8
0
 62
     2
100
AcDbCircle
 10
173.2270618655554
 20
237.6615201745306
 30
0.0
 40
0.5
100
AcDbArc
 50
187.1359839737865
 51
270.0000000000103
  0
ARC
  5
2D0
330
1F
100
AcDbEntity
  8
0
 62
     2
100
AcDbCircle
 10
188.2270618655554
 20
206.3615201745306
 30
0.0
 40
0.5
100
AcDbArc
 50
7.134507775436868
 51
90.00000000000311
  0
ARC
  5
2D1
330
1F
100
AcDbEntity
  8
0
 62
     2
100
AcDbCircle
 10
173.2270618655554
 20
206.3615201745306
 30
0.0
 40
0.5
100
AcDbArc
 50
90.0
 51
172.8654922245647
  0
ARC
  5
2D2
330
1F
100
AcDbEntity
  8
0
 62
     2
100
AcDbCircle
 10
196.0696034413513
 20
229.8189658162379
 30
0.0
 40
0.5
100
AcDbArc
 50
90.0
 51
180.0000000000003
  0
ARC
  5
2D3
330
1F
100
AcDbEntity
  8
0
 62
     2
100
AcDbCircle
 10
196.0696034413512
 20
214.8189658162379
 30
0.0
 40
0.5
100
AcDbArc
 50
180.0
 51
270.0000000000028
  0
ARC
  5
2D4
330
1F
100
AcDbEntity
  8
0
 62
     2
100
AcDbCircle
 10
189.2270618655554
 20
240.4615098812703
 30
0.0
 40
0.5
100
AcDbArc
 50
90.00004350756817
 51
163.9905491187689
  0
ARC
  5
2D5
330
1F
100
AcDbEntity
  8
0
 62
     2
100
AcDbCircle
 10
172.2270618655554
 20
240.4615071799053
 30
0.0
 40
0.5
100
AcDbArc
 50
16.0097729251907
 51
89.99999999997458
  0
ARC
  5
2D6
330
1F
100
AcDbEntity
  8
0
 62
     2
100
AcDbCircle
 10
189.2270618655554
 20
203.5615203866588
 30
0.0
 40
0.5
100
AcDbArc
 50
196.0097729251657
 51
269.9999999999806
  0
ARC
  5
2D7
330
1F
100
AcDbEntity
  8
0
 62
     2
100
AcDbCircle
 10
172.2270618655554
 20
203.5615181522215
 30
0.0
 40
0.5
100
AcDbArc
 50
270.0000435075682
 51
343.9904934539085
  0
ARC
  5
2D8
330
1F
100
AcDbEntity
  8
0
 62
     2
100
AcDbCircle
 10
198.8696032292231
 20
230.8189658162379
 30
0.0
 40
0.5
100
AcDbArc
 50
270.0
 51
0.0
  0
ARC
  5
2D9
330
1F
100
AcDbEntity
  8
0
 62
     2
100
AcDbCircle
 10
198.8696054636603
 20
213.8189658162379
 30
0.0
 40
0.5
100
AcDbArc
 50
0.0000435005841769
 51
89.99999999301701
  0
ARC
  5
2DA
330
1F
100
AcDbEntity
  8
0
 62
     2
100
AcDbCircle
 10
172.2270618655554
 20
203.5615181522215
 30
0.0
 40
0.4999999999999494
100
AcDbArc
 50
343.990493453915
 51
0.0000000000069718
  0
ARC
  5
2DB
330
1F
100
AcDbEntity
  8
0
 62
     2
100
AcDbCircle
 10
189.2270618655554
 20
203.5615203866588
 30
0.0
 40
0.4999999999999485
100
AcDbArc
 50
180.0
 51
196.0097729251597
  0
ARC
  5
2DC
330
1F
100
AcDbEntity
  8
0
 62
     2
100
AcDbCircle
 10
173.2270618655554
 20
206.3615201745306
 30
0.0
 40
0.5000000000009028
100
AcDbArc
 50
172.8654922245624
 51
179.9999999999979
  0
ARC
  5
2DD
330
1F
100
AcDbEntity
  8
0
 62
     2
100
AcDbCircle
 10
188.2270618655554
 20
206.3615201745306
 30
0.0
 40
0.5000000000009032
100
AcDbArc
 50
0.0
 51
7.134507775434047
  0
LINE
  5
2DE
330
1F
100
AcDbEntity
  8
0
 62
     2
100
AcDbLine
 10
188.7270618655563
 20
206.3615201745306
 30
0.0
 11
188.7270618655555
 21
203.5615203866588
 31
0.0
  0
LINE
  5
2DF
330
1F
100
AcDbEntity
  8
0
 62
     2
100
AcDbLine
 10
172.7270618655554
 20
203.5615181522215
 30
0.0
 11
172.7270618655545
 21
206.3615201745306
 31
0.0
  0
ARC
  5
2E0
330
1F
100
AcDbEntity
  8
0
 62
     2
100
AcDbCircle
 10
172.2270618655554
 20
240.4615071799053
 30
0.0
 40
0.499999999999945
100
AcDbArc
 50
0.0
 51
16.00977292519201
  0
ARC
  5
2E1
330
1F
100
AcDbEntity
  8
0
 62
     2
100
AcDbCircle
 10
189.2270618655554
 20
240.4615098812703
 30
0.0
 40
0.4999999999999418
100
AcDbArc
 50
163.990549118769
 51
180.0000000000013
  0
ARC
  5
2E2
330
1F
100
AcDbEntity
  8
0
 62
     2
100
AcDbCircle
 10
173.2270618655554
 20
237.6615201745306
 30
0.0
 40
0.5000000000009108
100
AcDbArc
 50
180.0
 51
187.1359839737768
  0
ARC
  5
2E3
330
1F
100
AcDbEntity
  8
0
 62
     2
100
AcDbCircle
 10
188.2270618655554
 20
237.6615201745306
 30
0.0
 40
0.5000000000009123
100
AcDbArc
 50
352.8640160262134
 51
359.9999999999908
  0
LINE
  5
2E4
330
1F
100
AcDbEntity
  8
0
 62
     2
100
AcDbLine
 10
188.7270618655554
 20
240.4615098812703
 30
0.0
 11
188.7270618655563
 21
237.6615201745306
 31
0.0
  0
LINE
  5
2E5
330
1F
100
AcDbEntity
  8
0
 62
     2
100
AcDbLine
 10
172.7270618655544
 20
237.6615201745306
 30
0.0
 11
172.7270618655553
 21
240.4615071799053
 31
0.0
  0
ARC
  5
2E6
330
1F
100
AcDbEntity
  8
0
 62
     2
100
AcDbCircle
 10
161.9696164359765
 20
213.8189658162379
 30
0.0
 40
0.5000000000000011
100
AcDbArc
 50
90.0
 51
179.999999999975
  0
ARC
  5
2E7
330
1F
100
AcDbEntity
  8
0
 62
     2
100
AcDbCircle
 10
161.9696137346115
 20
230.8189658162379
 30
0.0
 40
0.4999999999999997
100
AcDbArc
 50
180.0000435089618
 51
270.0000000013945
  0
ARC
  5
2E8
330
1F
100
AcDbEntity
  8
0
 62
     2
100
AcDbCircle
 10
164.7696034413513
 20
229.8189658162379
 30
0.0
 40
0.5000000000000019
100
AcDbArc
 50
0.0
 51
90.00000000000072
  0
ARC
  5
2E9
330
1F
100
AcDbEntity
  8
0
 62
     2
100
AcDbCircle
 10
164.7696034413513
 20
214.8189658162379
 30
0.0
 40
0.5000000000000011
100
AcDbArc
 50
270.0
 51
359.9999999999998
  0
LINE
  5
2EA
330
1F
100
AcDbEntity
  8
0
 62
     2
100
AcDbLine
 10
161.9696137346115
 20
230.3189658162379
 30
0.0
 11
164.7696034413513
 21
230.3189658162379
 31
0.0
  0
LINE
  5
2EB
330
1F
100
AcDbEntity
  8
0
 62
     2
100
AcDbLine
 10
164.7696034413513
 20
214.3189658162379
 30
0.0
 11
161.9696164359765
 21
214.3189658162379
 31
0.0
  0
LINE
  5
2EC
330
1F
100
AcDbEntity
  8
0
 62
     2
100
AcDbLine
 10
165.2696034413513
 20
214.8189658162379
 30
0.0
 11
165.2696034413513
 21
223.1115137832967
 31
0.0
  0
LINE
  5
2ED
330
1F
100
AcDbEntity
  8
0
 62
     2
100
AcDbLine
 10
165.2696034413513
 20
223.1115137832967
 30
0.0
 11
165.2696034413513
 21
229.8189658162379
 31
0.0
  0
ARC
  5
2EE
330
1F
100
AcDbEntity
  8
0
 62
     2
100
AcDbCircle
 10
161.9696088785248
 20
237.214020611696
 30
0.0
 40
0.5000000000000003
100
AcDbArc
 50
62.00000000005357
 51
180.0000435075707
  0
LINE
  5
2EF
330
1F
100
AcDbEntity
  8
0
 62
     2
100
AcDbLine
 10
162.9690196061312
 20
237.2489095270692
 30
0.0
 11
162.2043446599174
 21
237.6554944081257
 31
0.0
  0
ARC
  5
2F0
330
1F
100
AcDbEntity
  8
0
 62
     2
100
AcDbCircle
 10
163.2037553875238
 20
237.6903833234988
 30
0.0
 40
0.5000000000000046
100
AcDbArc
 50
287.6936515397829
 51
288.6665378394877
  0
ARC
  5
2F1
330
1F
100
AcDbEntity
  8
0
 62
     2
100
AcDbCircle
 10
163.2037553875238
 20
237.6903833234988
 30
0.0
 40
0.5000000000000046
100
AcDbArc
 50
242.0000000000417
 51
287.693651539778
  0
ARC
  5
2F2
330
1F
100
AcDbEntity
  8
0
 62
     2
100
AcDbCircle
 10
162.4196090206672
 20
240.0115068607855
 30
0.0
 40
2.949999999999983
100
AcDbArc
 50
288.666537839481
 51
341.3334643607238
  0
ARC
  5
2F3
330
1F
100
AcDbEntity
  8
0
 62
     2
100
AcDbCircle
 10
164.7407325880656
 20
239.227360583062
 30
0.0
 40
0.5000000000000193
100
AcDbArc
 50
341.3334643607247
 51
27.99999999971506
  0
LINE
  5
2F4
330
1F
100
AcDbEntity
  8
0
 62
     2
100
AcDbLine
 10
164.7756214567328
 20
240.2267713985176
 30
0.0
 11
165.1822063844962
 21
239.4620963644528
 31
0.0
  0
ARC
  5
2F5
330
1F
100
AcDbEntity
  8
0
 62
     2
100
AcDbCircle
 10
165.2170952531634
 20
240.4615071799084
 30
0.0
 40
0.500000000000007
100
AcDbArc
 50
185.4498173576029
 51
207.9999999997278
  0
ARC
  5
2F6
330
1F
100
AcDbEntity
  8
0
 62
     2
100
AcDbCircle
 10
165.2171030041859
 20
203.5615128292072
 30
0.0
 40
0.500000000000002
100
AcDbArc
 50
152.0000000000478
 51
174.5484632298927
  0
LINE
  5
2F7
330
1F
100
AcDbEntity
  8
0
 62
     2
100
AcDbLine
 10
165.1822140888127
 20
204.5609235568135
 30
0.0
 11
164.7756292077562
 21
203.7962486105998
 31
0.0
  0
ARC
  5
2F8
330
1F
100
AcDbEntity
  8
0
 62
     2
100
AcDbCircle
 10
164.740740292383
 20
204.7956593382063
 30
0.0
 40
0.4999999999999989
100
AcDbArc
 50
332.0000000000417
 51
18.6665378394826
  0
ARC
  5
2F9
330
1F
100
AcDbEntity
  8
0
 62
     2
100
AcDbCircle
 10
162.4196167550964
 20
204.0115129713496
 30
0.0
 40
2.949999999999982
100
AcDbArc
 50
18.66653783947929
 51
71.33346436072317
  0
ARC
  5
2FA
330
1F
100
AcDbEntity
  8
0
 62
     2
100
AcDbCircle
 10
163.2037630328199
 20
206.332636538748
 30
0.0
 40
0.5000000000000215
100
AcDbArc
 50
107.6879635491101
 51
117.9999999997172
  0
ARC
  5
2FB
330
1F
100
AcDbEntity
  8
0
 62
     2
100
AcDbCircle
 10
163.2037630328199
 20
206.332636538748
 30
0.0
 40
0.5000000000000215
100
AcDbArc
 50
71.33346436072674
 51
107.6879635491103
  0
LINE
  5
2FC
330
1F
100
AcDbEntity
  8
0
 62
     2
100
AcDbLine
 10
162.2043522173643
 20
206.3675254074152
 30
0.0
 11
162.9690272514291
 21
206.7741103351787
 31
0.0
  0
ARC
  5
2FD
330
1F
100
AcDbEntity
  8
0
 62
     2
100
AcDbCircle
 10
161.9696164359735
 20
206.8089992038459
 30
0.0
 40
0.5000000000000041
100
AcDbArc
 50
180.0
 51
297.9999999997381
  0
LINE
  5
2FE
330
1F
100
AcDbEntity
  8
0
 62
     2
100
AcDbLine
 10
161.4696164359735
 20
213.8189658162381
 30
0.0
 11
161.4696164359735
 21
206.808999203846
 31
0.0
  0
LINE
  5
2FF
330
1F
100
AcDbEntity
  8
0
 62
     2
100
AcDbLine
 10
161.4696153728736
 20
237.2140202320257
 30
0.0
 11
161.4696153728736
 21
236.8040357421313
 31
0.0
  0
LINE
  5
300
330
1F
100
AcDbEntity
  8
0
 62
     2
100
AcDbLine
 10
161.4696153728736
 20
236.8040357421313
 30
0.0
 11
161.4696153728736
 21
230.8189654365638
 31
0.0
  0
LINE
  5
301
330
1F
100
AcDbEntity
  8
0
 62
     2
100
AcDbLine
 10
164.7756292077562
 20
203.7962486105998
 30
0.0
 11
165.1288082448999
 21
203.6084599854857
 31
0.0
  0
LINE
  5
302
330
1F
100
AcDbEntity
  8
0
 62
     2
100
AcDbLine
 10
165.1822140888127
 20
204.5609235568135
 30
0.0
 11
165.5353931259564
 21
204.3731349316995
 31
0.0
  0
LINE
  5
303
330
1F
100
AcDbEntity
  8
0
 62
     2
100
AcDbLine
 10
165.593397918325
 20
205.0837131056229
 30
0.0
 11
165.2144389734618
 21
204.9556892089933
 31
0.0
  0
LINE
  5
304
330
1F
100
AcDbEntity
  8
0
 62
     2
100
AcDbLine
 10
163.4918167674938
 20
207.1852941757515
 30
0.0
 11
163.3637928854165
 21
206.8063352259722
 31
0.0
  0
LINE
  5
305
330
1F
100
AcDbEntity
  8
0
 62
     2
100
AcDbLine
 10
162.7812386263165
 20
207.1272893723231
 30
0.0
 11
162.9690272514291
 21
206.7741103351787
 31
0.0
  0
LINE
  5
306
330
1F
100
AcDbEntity
  8
0
 62
     2
100
AcDbLine
 10
162.2043522173643
 20
206.3675254074152
 30
0.0
 11
162.0165635922517
 21
206.7207044445597
 31
0.0
  0
LINE
  5
307
330
1F
100
AcDbEntity
  8
0
 62
     2
100
AcDbLine
 10
161.4696164359735
 20
206.808999203846
 30
0.0
 11
161.8696164359735
 21
206.8089992038459
 31
0.0
  0
LINE
  5
308
330
1F
100
AcDbEntity
  8
0
 62
     2
100
AcDbLine
 10
161.4696164359735
 20
213.8189658162381
 30
0.0
 11
161.8696164359739
 21
213.8189658162379
 31
0.0
  0
LINE
  5
309
330
1F
100
AcDbEntity
  8
0
 62
     2
100
AcDbLine
 10
161.9696164359765
 20
214.3189658162379
 30
0.0
 11
161.9696164359765
 21
213.9189658162378
 31
0.0
  0
LINE
  5
30A
330
1F
100
AcDbEntity
  8
0
 62
     2
100
AcDbLine
 10
164.7696034413513
 20
214.3189658162379
 30
0.0
 11
164.7696034413513
 21
213.9189658162378
 31
0.0
  0
LINE
  5
30B
330
1F
100
AcDbEntity
  8
0
 62
     2
100
AcDbLine
 10
165.2696034413513
 20
214.8189658162379
 30
0.0
 11
165.6696034413512
 21
214.8189658162379
 31
0.0
  0
LINE
  5
30C
330
1F
100
AcDbEntity
  8
0
 62
     2
100
AcDbLine
 10
165.2696034413513
 20
229.8189658162379
 30
0.0
 11
165.6696034413513
 21
229.8189658162379
 31
0.0
  0
LINE
  5
30D
330
1F
100
AcDbEntity
  8
0
 62
     2
100
AcDbLine
 10
164.7696034413513
 20
230.3189658162379
 30
0.0
 11
164.7696034413513
 21
230.7189658162377
 31
0.0
  0
LINE
  5
30E
330
1F
100
AcDbEntity
  8
0
 62
     2
100
AcDbLine
 10
161.9696137346115
 20
230.3189658162379
 30
0.0
 11
161.9696137346115
 21
230.7189658162377
 31
0.0
  0
LINE
  5
30F
330
1F
100
AcDbEntity
  8
0
 62
     2
100
AcDbLine
 10
161.4696137346117
 20
230.8189654365627
 30
0.0
 11
161.8696137346116
 21
230.8189657403028
 31
0.0
  0
LINE
  5
310
330
1F
100
AcDbEntity
  8
0
 62
     2
100
AcDbLine
 10
161.4696153728736
 20
237.2140202320257
 30
0.0
 11
161.8696141026882
 21
237.2140205357649
 31
0.0
  0
LINE
  5
311
330
1F
100
AcDbEntity
  8
0
 62
     2
100
AcDbLine
 10
162.2043446599174
 20
237.6554944081257
 30
0.0
 11
162.0165560348033
 21
237.302315370982
 31
0.0
  0
LINE
  5
312
330
1F
100
AcDbEntity
  8
0
 62
     2
100
AcDbLine
 10
162.9690196061312
 20
237.2489095270692
 30
0.0
 11
162.781230981017
 21
236.8957304899255
 31
0.0
  0
LINE
  5
313
330
1F
100
AcDbEntity
  8
0
 62
     2
100
AcDbLine
 10
163.4918091549405
 20
236.8377256975569
 30
0.0
 11
163.3637852583108
 21
237.2166846424201
 31
0.0
  0
LINE
  5
314
330
1F
100
AcDbEntity
  8
0
 62
     2
100
AcDbLine
 10
165.5933902250691
 20
238.9393068483881
 30
0.0
 11
165.2144312752898
 21
239.0673307304654
 31
0.0
  0
LINE
  5
315
330
1F
100
AcDbEntity
  8
0
 62
     2
100
AcDbLine
 10
165.5353854216407
 20
239.6498849895653
 30
0.0
 11
165.1822063844962
 21
239.4620963644528
 31
0.0
  0
LINE
  5
316
330
1F
100
AcDbEntity
  8
0
 62
     2
100
AcDbLine
 10
164.7756214567328
 20
240.2267713985176
 30
0.0
 11
165.1288004938773
 21
240.4145600236302
 31
0.0
  0
LINE
  5
317
330
1F
100
AcDbEntity
  8
0
 62
     2
100
AcDbLine
 10
165.2170952531636
 20
240.9615071799084
 30
0.0
 11
165.2170952531634
 21
240.5615071799084
 31
0.0
  0
LINE
  5
318
330
1F
100
AcDbEntity
  8
0
 62
     2
100
AcDbLine
 10
172.2270618655556
 20
240.9615071799053
 30
0.0
 11
172.2270618655554
 21
240.5615071799053
 31
0.0
  0
LINE
  5
319
330
1F
100
AcDbEntity
  8
0
 62
     2
100
AcDbLine
 10
172.7270618655554
 20
240.4615071799053
 30
0.0
 11
172.3270618655554
 21
240.4615071799053
 31
0.0
  0
LINE
  5
31A
330
1F
100
AcDbEntity
  8
0
 62
     2
100
AcDbLine
 10
172.7270618655554
 20
237.6615201745306
 30
0.0
 11
172.3270618655554
 21
237.6615201745306
 31
0.0
  0
LINE
  5
31B
330
1F
100
AcDbEntity
  8
0
 62
     2
100
AcDbLine
 10
173.2270618655554
 20
237.1615201745306
 30
0.0
 11
173.2270618655554
 21
236.7615201745305
 31
0.0
  0
LINE
  5
31C
330
1F
100
AcDbEntity
  8
0
 62
     2
100
AcDbLine
 10
188.2270618655554
 20
237.1615201745306
 30
0.0
 11
188.2270618655554
 21
236.7615201745305
 31
0.0
  0
LINE
  5
31D
330
1F
100
AcDbEntity
  8
0
 62
     2
100
AcDbLine
 10
188.7270618655554
 20
237.6615201745306
 30
0.0
 11
189.1270618655553
 21
237.6615201745306
 31
0.0
  0
LINE
  5
31E
330
1F
100
AcDbEntity
  8
0
 62
     2
100
AcDbLine
 10
188.7270618655554
 20
240.4615098812703
 30
0.0
 11
189.1270618655553
 21
240.4615098812703
 31
0.0
  0
LINE
  5
31F
330
1F
100
AcDbEntity
  8
0
 62
     2
100
AcDbLine
 10
189.2270614858802
 20
240.9615098812702
 30
0.0
 11
189.2270617896203
 21
240.5615098812703
 31
0.0
  0
LINE
  5
320
330
1F
100
AcDbEntity
  8
0
 62
     2
100
AcDbLine
 10
195.6221162813384
 20
240.9615147373569
 30
0.0
 11
195.6221165850785
 21
240.561514737357
 31
0.0
  0
LINE
  5
321
330
1F
100
AcDbEntity
  8
0
 62
     2
100
AcDbLine
 10
196.0635904574432
 20
240.2267789559645
 30
0.0
 11
195.7104114202995
 21
240.4145675810786
 31
0.0
  0
LINE
  5
322
330
1F
100
AcDbEntity
  8
0
 62
     2
100
AcDbLine
 10
195.6570055763868
 20
239.4621040097507
 30
0.0
 11
195.3038265392431
 21
239.6498926348648
 31
0.0
  0
LINE
  5
323
330
1F
100
AcDbEntity
  8
0
 62
     2
100
AcDbLine
 10
195.2458217468745
 20
238.9393144609413
 30
0.0
 11
195.6247806917376
 21
239.0673383575709
 31
0.0
  0
LINE
  5
324
330
1F
100
AcDbEntity
  8
0
 62
     2
100
AcDbLine
 10
197.3474028977056
 20
236.8377333908128
 30
0.0
 11
197.4754267797829
 21
237.2166923405921
 31
0.0
  0
LINE
  5
325
330
1F
100
AcDbEntity
  8
0
 62
     2
100
AcDbLine
 10
198.0579810388829
 20
236.895738194241
 30
0.0
 11
197.8701924137703
 21
237.2489172313857
 31
0.0
  0
LINE
  5
326
330
1F
100
AcDbEntity
  8
0
 62
     2
100
AcDbLine
 10
198.6348674478351
 20
237.655502159149
 30
0.0
 11
198.8226560729477
 21
237.3023231220046
 31
0.0
  0
LINE
  5
327
330
1F
100
AcDbEntity
  8
0
 62
     2
100
AcDbLine
 10
199.3696032292259
 20
237.2140283627183
 30
0.0
 11
198.9696032292259
 21
237.2140283627184
 31
0.0
  0
LINE
  5
328
330
1F
100
AcDbEntity
  8
0
 62
     2
100
AcDbLine
 10
199.3696032292259
 20
230.8189658162376
 30
0.0
 11
198.9696032292256
 21
230.8189658162379
 31
0.0
  0
LINE
  5
329
330
1F
100
AcDbEntity
  8
0
 62
     2
100
AcDbLine
 10
198.8696032292231
 20
230.3189658162379
 30
0.0
 11
198.8696032292231
 21
230.7189658162378
 31
0.0
  0
LINE
  5
32A
330
1F
100
AcDbEntity
  8
0
 62
     2
100
AcDbLine
 10
196.0696034413512
 20
230.3189658162379
 30
0.0
 11
196.0696034413512
 21
230.7189658162378
 31
0.0
  0
LINE
  5
32B
330
1F
100
AcDbEntity
  8
0
 62
     2
100
AcDbLine
 10
195.5696034413512
 20
229.8189658162379
 30
0.0
 11
195.1696034413512
 21
229.8189658162379
 31
0.0
  0
LINE
  5
32C
330
1F
100
AcDbEntity
  8
0
 62
     2
100
AcDbLine
 10
195.5696034413512
 20
214.8189658162379
 30
0.0
 11
195.1696034413512
 21
214.8189658162379
 31
0.0
  0
LINE
  5
32D
330
1F
100
AcDbEntity
  8
0
 62
     2
100
AcDbLine
 10
196.0696034413513
 20
214.3189658162379
 30
0.0
 11
196.0696034413512
 21
213.9189658162378
 31
0.0
  0
LINE
  5
32E
330
1F
100
AcDbEntity
  8
0
 62
     2
100
AcDbLine
 10
198.8696054636603
 20
214.3189658162379
 30
0.0
 11
198.8696054636603
 21
213.9189658162378
 31
0.0
  0
LINE
  5
32F
330
1F
100
AcDbEntity
  8
0
 62
     2
100
AcDbLine
 10
199.3696054636602
 20
213.818966195913
 30
0.0
 11
198.9696054636602
 21
213.8189658921728
 31
0.0
  0
LINE
  5
330
330
1F
100
AcDbEntity
  8
0
 62
     2
100
AcDbLine
 10
199.3696042923258
 20
206.8090073345386
 30
0.0
 11
198.9696055625112
 21
206.8090070307994
 31
0.0
  0
LINE
  5
331
330
1F
100
AcDbEntity
  8
0
 62
     2
100
AcDbLine
 10
198.6348750052821
 20
206.3675331584387
 30
0.0
 11
198.8226636303961
 21
206.7207121955824
 31
0.0
  0
LINE
  5
332
330
1F
100
AcDbEntity
  8
0
 62
     2
100
AcDbLine
 10
197.8702000590683
 20
206.7741180394951
 30
0.0
 11
198.0579886841824
 21
207.1272970766388
 31
0.0
  0
LINE
  5
333
330
1F
100
AcDbEntity
  8
0
 62
     2
100
AcDbLine
 10
197.3474105102589
 20
207.1853018690074
 30
0.0
 11
197.4754344068886
 21
206.8063429241443
 31
0.0
  0
LINE
  5
334
330
1F
100
AcDbEntity
  8
0
 62
     2
100
AcDbLine
 10
195.2458294401303
 20
205.0837207181762
 30
0.0
 11
195.6247883899096
 21
204.9556968360989
 31
0.0
  0
LINE
  5
335
330
1F
100
AcDbEntity
  8
0
 62
     2
100
AcDbLine
 10
195.3038342435586
 20
204.3731425769989
 30
0.0
 11
195.6570132807032
 21
204.5609312021116
 31
0.0
  0
LINE
  5
336
330
1F
100
AcDbEntity
  8
0
 62
     2
100
AcDbLine
 10
196.0635982084666
 20
203.7962561680467
 30
0.0
 11
195.7104191713221
 21
203.6084675429341
 31
0.0
  0
LINE
  5
337
330
1F
100
AcDbEntity
  8
0
 62
     2
100
AcDbLine
 10
195.6221244120358
 20
203.0615203866559
 30
0.0
 11
195.622124412036
 21
203.4615203866559
 31
0.0
  0
LINE
  5
338
330
1F
100
AcDbEntity
  8
0
 62
     2
100
AcDbLine
 10
189.2270618655552
 20
203.0615203866588
 30
0.0
 11
189.2270618655554
 21
203.4615203866587
 31
0.0
  0
LINE
  5
339
330
1F
100
AcDbEntity
  8
0
 62
     2
100
AcDbLine
 10
188.7270618655554
 20
203.5615203866588
 30
0.0
 11
189.1270618655554
 21
203.5615203866588
 31
0.0
  0
LINE
  5
33A
330
1F
100
AcDbEntity
  8
0
 62
     2
100
AcDbLine
 10
188.7270618655554
 20
206.3615201745306
 30
0.0
 11
189.1270618655554
 21
206.3615201745306
 31
0.0
  0
LINE
  5
33B
330
1F
100
AcDbEntity
  8
0
 62
     2
100
AcDbLine
 10
188.2270618655554
 20
206.8615201745306
 30
0.0
 11
188.2270618655554
 21
207.2615201745305
 31
0.0
  0
LINE
  5
33C
330
1F
100
AcDbEntity
  8
0
 62
     2
100
AcDbLine
 10
173.2270618655554
 20
206.8615201745306
 30
0.0
 11
173.2270618655554
 21
207.2615201745305
 31
0.0
  0
LINE
  5
33D
330
1F
100
AcDbEntity
  8
0
 62
     2
100
AcDbLine
 10
172.7270618655554
 20
206.3615201745306
 30
0.0
 11
172.3270618655554
 21
206.3615201745306
 31
0.0
  0
LINE
  5
33E
330
1F
100
AcDbEntity
  8
0
 62
     2
100
AcDbLine
 10
172.7270618655554
 20
203.5615181522215
 30
0.0
 11
172.3270618655554
 21
203.5615181522215
 31
0.0
  0
LINE
  5
33F
330
1F
100
AcDbEntity
  8
0
 62
     2
100
AcDbLine
 10
165.217103383861
 20
203.0615128292073
 30
0.0
 11
165.2171030801209
 21
203.4615128292072
 31
0.0
  0
LINE
  5
340
330
1F
100
AcDbEntity
  8
0
 62
     2
100
AcDbLine
 10
172.2270622452305
 20
203.0615181522217
 30
0.0
 11
172.2270619414904
 21
203.4615181522216
 31
0.0
  0
LINE
  5
341
330
1F
100
AcDbEntity
  8
0
 62
     2
100
AcDbLine
 10
158.9196034413512
 20
203.6090147139568
 30
0.0
 11
158.9196034413512
 21
240.4140202320171
 31
0.0
  0
LINE
  5
342
330
1F
100
AcDbEntity
  8
0
 62
     2
100
AcDbLine
 10
164.719348696685
 20
240.4140202320171
 30
0.0
 11
158.9196034413512
 21
240.4140202320171
 31
0.0
  0
LINE
  5
343
330
1F
100
AcDbEntity
  8
0
 62
     2
100
AcDbLine
 10
164.7193645478202
 20
203.6090147139568
 30
0.0
 11
158.9196034413512
 21
203.6090147139568
 31
0.0
  0
LINE
  5
344
330
1F
100
AcDbEntity
  8
0
 62
     2
100
AcDbLine
 10
172.7076691988399
 20
240.5994078368787
 30
0.0
 11
188.7464537571774
 21
240.5994078368787
 31
0.0
  0
LINE
  5
345
330
1F
100
AcDbEntity
  8
0
 62
     2
100
AcDbLine
 10
172.7309348077248
 20
237.5994078368791
 30
0.0
 11
188.723188923386
 21
237.5994078368791
 31
0.0
  0
LINE
  5
346
330
1F
100
AcDbEntity
  8
0
 62
     2
100
AcDbLine
 10
172.7076698399604
 20
203.4236197296856
 30
0.0
 11
188.7464545322708
 21
203.4236197296856
 31
0.0
  0
LINE
  5
347
330
1F
100
AcDbEntity
  8
0
 62
     2
100
AcDbLine
 10
172.7309332075948
 20
206.4236197296852
 30
0.0
 11
188.723190523516
 21
206.4236197296852
 31
0.0
  0
LINE
  5
348
330
1F
100
AcDbEntity
  8
0
 62
     2
100
AcDbLine
 10
83.66960344242023
 20
206.3090069613738
 30
0.0
 11
91.11960344242016
 21
206.3090069548683
 31
0.0
  0
LINE
  5
349
330
1F
100
AcDbEntity
  8
0
 62
     2
100
AcDbLine
 10
83.66960344242023
 20
237.7140283562274
 30
0.0
 11
91.11960344242016
 21
237.7140283627185
 31
0.0
  0
LINE
  5
34A
330
1F
100
AcDbEntity
  8
0
 62
     2
100
AcDbLine
 10
92.36960344135122
 20
243.5115137832822
 30
0.0
 11
91.11960344135122
 21
242.2615137832822
 31
0.0
  0
LINE
  5
34B
330
1F
100
AcDbEntity
  8
0
 62
     2
100
AcDbLine
 10
92.36960344135122
 20
200.5115137832822
 30
0.0
 11
91.11960344135122
 21
201.7615137832822
 31
0.0
  0
LINE
  5
34C
330
1F
100
AcDbEntity
  8
0
 62
     2
100
AcDbLine
 10
83.66960344242023
 20
240.9615147373569
 30
0.0
 11
83.26960344242019
 21
240.561514737357
 31
0.0
  0
LINE
  5
34D
330
1F
100
AcDbEntity
  8
0
 62
     2
100
AcDbLine
 10
83.66960344242023
 20
237.7140283627185
 30
0.0
 11
83.26960344242019
 21
237.3140283627184
 31
0.0
  0
LINE
  5
34E
330
1F
100
AcDbEntity
  8
0
 62
     2
100
AcDbLine
 10
83.66960344242017
 20
230.3189658162379
 30
0.0
 11
83.26960344242019
 21
230.7189658162378
 31
0.0
  0
LINE
  5
34F
330
1F
100
AcDbEntity
  8
0
 62
     2
100
AcDbLine
 10
83.66960344242017
 20
214.3189658162379
 30
0.0
 11
83.26960344242019
 21
213.9189658162378
 31
0.0
  0
LINE
  5
350
330
1F
100
AcDbEntity
  8
0
 62
     2
100
AcDbLine
 10
83.66960344242023
 20
206.3090069548683
 30
0.0
 11
83.26960344242019
 21
206.7090069548683
 31
0.0
  0
LINE
  5
351
330
1F
100
AcDbEntity
  8
0
 62
     2
100
AcDbLine
 10
83.66960344242023
 20
203.0615203866559
 30
0.0
 11
83.26960344242019
 21
203.4615203866559
 31
0.0
  0
LINE
  5
352
330
1F
100
AcDbEntity
  8
0
 62
     2
100
AcDbLine
 10
83.26960344242019
 20
203.4615203866559
 30
0.0
 11
83.26960344242019
 21
203.6084675429341
 31
0.0
  0
LINE
  5
353
330
1F
100
AcDbEntity
  8
0
 62
     2
100
AcDbLine
 10
83.66960344242023
 20
203.0615203866559
 30
0.0
 11
83.66960344242023
 21
203.7962561680467
 31
0.0
  0
LINE
  5
354
330
1F
100
AcDbEntity
  8
0
 62
     2
100
AcDbLine
 10
83.26960344242019
 20
204.3731425769989
 30
0.0
 11
83.26960344242019
 21
203.6084675429341
 31
0.0
  0
LINE
  5
355
330
1F
100
AcDbEntity
  8
0
 62
     2
100
AcDbLine
 10
83.66960344242017
 20
204.5609312021115
 30
0.0
 11
83.66960344242017
 21
203.7962561680467
 31
0.0
  0
LINE
  5
356
330
1F
100
AcDbEntity
  8
0
 62
     2
100
AcDbLine
 10
83.26960344242019
 20
205.0837207181762
 30
0.0
 11
83.26960344242019
 21
204.3731425769989
 31
0.0
  0
LINE
  5
357
330
1F
100
AcDbEntity
  8
0
 62
     2
100
AcDbLine
 10
83.66960344242023
 20
204.9556968360989
 30
0.0
 11
83.66960344242023
 21
204.5609312021116
 31
0.0
  0
LINE
  5
358
330
1F
100
AcDbEntity
  8
0
 62
     2
100
AcDbLine
 10
83.26960344242019
 20
205.232234601421
 30
0.0
 11
83.26960344242019
 21
205.0837207181762
 31
0.0
  0
LINE
  5
359
330
1F
100
AcDbEntity
  8
0
 62
     2
100
AcDbLine
 10
83.26960344242019
 20
206.7094874648054
 30
0.0
 11
83.26960344242019
 21
205.232234601421
 31
0.0
  0
LINE
  5
35A
330
1F
100
AcDbEntity
  8
0
 62
     2
100
AcDbLine
 10
83.26960344242019
 20
206.713303881904
 30
0.0
 11
83.26960344242019
 21
206.7109243768207
 31
0.0
  0
LINE
  5
35B
330
1F
100
AcDbEntity
  8
0
 62
     2
100
AcDbLine
 10
83.66960344242023
 20
206.3090069613738
 30
0.0
 11
83.66960344242023
 21
204.9556968360989
 31
0.0
  0
LINE
  5
35C
330
1F
100
AcDbEntity
  8
0
 62
     2
100
AcDbLine
 10
83.26960344242019
 20
206.7090069561694
 30
0.0
 11
83.26960344242019
 21
206.8090070308034
 31
0.0
  0
LINE
  5
35D
330
1F
100
AcDbEntity
  8
0
 62
     2
100
AcDbLine
 10
83.66960344242023
 20
206.3090069613738
 30
0.0
 11
83.66960344242023
 21
206.8090073345435
 31
0.0
  0
LINE
  5
35E
330
1F
100
AcDbEntity
  8
0
 62
     2
100
AcDbLine
 10
83.26960600512803
 20
213.8189658921728
 30
0.0
 11
83.26960866663524
 21
206.8090070308034
 31
0.0
  0
LINE
  5
35F
330
1F
100
AcDbEntity
  8
0
 62
     2
100
AcDbLine
 10
83.66960344242023
 20
213.8189661959121
 30
0.0
 11
83.66960344242017
 21
206.8090073345386
 31
0.0
  0
LINE
  5
360
330
1F
100
AcDbEntity
  8
0
 62
     2
100
AcDbLine
 10
83.26960344242019
 20
213.8189658921728
 30
0.0
 11
83.26960344242019
 21
213.9189658162378
 31
0.0
  0
LINE
  5
361
330
1F
100
AcDbEntity
  8
0
 62
     2
100
AcDbLine
 10
83.26960344242019
 20
214.3173914842729
 30
0.0
 11
83.26960344242019
 21
213.9189658162378
 31
0.0
  0
LINE
  5
362
330
1F
100
AcDbEntity
  8
0
 62
     2
100
AcDbLine
 10
83.26960344242019
 20
214.8189658162379
 30
0.0
 11
83.26960344242019
 21
214.3173914842729
 31
0.0
  0
LINE
  5
363
330
1F
100
AcDbEntity
  8
0
 62
     2
100
AcDbLine
 10
83.26960344242019
 20
229.8189658162379
 30
0.0
 11
83.26960344242019
 21
214.8189658162379
 31
0.0
  0
LINE
  5
364
330
1F
100
AcDbEntity
  8
0
 62
     2
100
AcDbLine
 10
83.26960344242019
 20
230.5662430000953
 30
0.0
 11
83.26960344242019
 21
229.8189658162379
 31
0.0
  0
LINE
  5
365
330
1F
100
AcDbEntity
  8
0
 62
     2
100
AcDbLine
 10
83.26960344242019
 20
230.7189658162378
 30
0.0
 11
83.26960344242019
 21
230.5662430000953
 31
0.0
  0
LINE
  5
366
330
1F
100
AcDbEntity
  8
0
 62
     2
100
AcDbLine
 10
83.26960344242019
 20
230.7189658162378
 30
0.0
 11
83.26960344242019
 21
230.8189658162379
 31
0.0
  0
LINE
  5
367
330
1F
100
AcDbEntity
  8
0
 62
     2
100
AcDbLine
 10
83.26960344241905
 20
237.2140283627184
 30
0.0
 11
83.26960344241763
 21
230.8189658162379
 31
0.0
  0
LINE
  5
368
330
1F
100
AcDbEntity
  8
0
 62
     2
100
AcDbLine
 10
83.66960344242023
 20
237.2140283627183
 30
0.0
 11
83.66960344242023
 21
230.8189658162376
 31
0.0
  0
LINE
  5
369
330
1F
100
AcDbEntity
  8
0
 62
     2
100
AcDbLine
 10
83.26960344242019
 20
237.2140283627184
 30
0.0
 11
83.26960344242019
 21
237.3135462741257
 31
0.0
  0
LINE
  5
36A
330
1F
100
AcDbEntity
  8
0
 62
     2
100
AcDbLine
 10
83.66960344242023
 20
237.2140283627183
 30
0.0
 11
83.66960344242023
 21
237.7140283562274
 31
0.0
  0
LINE
  5
36B
330
1F
100
AcDbEntity
  8
0
 62
     2
100
AcDbLine
 10
83.26960344242019
 20
238.9393144609413
 30
0.0
 11
83.26960344242019
 21
237.3097314388285
 31
0.0
  0
LINE
  5
36C
330
1F
100
AcDbEntity
  8
0
 62
     2
100
AcDbLine
 10
83.66960344242023
 20
239.0673383575709
 30
0.0
 11
83.66960344242023
 21
237.7140283562274
 31
0.0
  0
LINE
  5
36D
330
1F
100
AcDbEntity
  8
0
 62
     2
100
AcDbLine
 10
83.26960344242019
 20
239.6498926348648
 30
0.0
 11
83.26960344242019
 21
238.9393144609413
 31
0.0
  0
LINE
  5
36E
330
1F
100
AcDbEntity
  8
0
 62
     2
100
AcDbLine
 10
83.66960344242023
 20
239.4621040097507
 30
0.0
 11
83.66960344242023
 21
239.0673383575709
 31
0.0
  0
LINE
  5
36F
330
1F
100
AcDbEntity
  8
0
 62
     2
100
AcDbLine
 10
83.26960344242019
 20
240.4145675810786
 30
0.0
 11
83.26960344242019
 21
239.6498926348648
 31
0.0
  0
LINE
  5
370
330
1F
100
AcDbEntity
  8
0
 62
     2
100
AcDbLine
 10
83.66960344242023
 20
240.2267789559645
 30
0.0
 11
83.66960344242023
 21
239.4621040097507
 31
0.0
  0
LINE
  5
371
330
1F
100
AcDbEntity
  8
0
 62
     2
100
AcDbLine
 10
83.26960344242019
 20
240.4145675810786
 30
0.0
 11
83.26960344242019
 21
240.5610342348551
 31
0.0
  0
LINE
  5
372
330
1F
100
AcDbEntity
  8
0
 62
     2
100
AcDbLine
 10
83.66960344242023
 20
240.2267789559645
 30
0.0
 11
83.66960344242023
 21
240.9615147373569
 31
0.0
  0
LINE
  5
373
330
1F
100
AcDbEntity
  8
0
 62
     2
100
AcDbLine
 10
83.66960344242017
 20
213.8189661959139
 30
0.0
 11
86.76960344242025
 21
213.8189661959139
 31
0.0
  0
LINE
  5
374
330
1F
100
AcDbEntity
  8
0
 62
     2
100
AcDbLine
 10
86.76960344242025
 20
214.3189658162379
 30
0.0
 11
86.76960344242025
 21
213.8189661959139
 31
0.0
  0
LINE
  5
375
330
1F
100
AcDbEntity
  8
0
 62
     2
100
AcDbLine
 10
86.76960344242025
 20
230.8189658162376
 30
0.0
 11
83.66960344242023
 21
230.8189658162376
 31
0.0
  0
LINE
  5
376
330
1F
100
AcDbEntity
  8
0
 62
     2
100
AcDbLine
 10
86.76960344242025
 20
230.8189658162376
 30
0.0
 11
86.76960344242025
 21
230.3189658162379
 31
0.0
  0
LINE
  5
377
330
1F
100
AcDbEntity
  8
0
 62
     2
100
AcDbLine
 10
86.76960344242025
 20
228.6615136568354
 30
0.0
 11
86.76960344242025
 21
230.3189658162379
 31
0.0
  0
LINE
  5
378
330
1F
100
AcDbEntity
  8
0
 62
     2
100
AcDbLine
 10
86.76960344242025
 20
228.6615136568354
 30
0.0
 11
86.76960344242025
 21
228.1615136568356
 31
0.0
  0
LINE
  5
379
330
1F
100
AcDbEntity
  8
0
 62
     2
100
AcDbLine
 10
86.76960344242025
 20
227.6615136568371
 30
0.0
 11
86.76960344242025
 21
228.1615136568371
 31
0.0
  0
LINE
  5
37A
330
1F
100
AcDbEntity
  8
0
 62
     2
100
AcDbLine
 10
86.76960344242025
 20
224.1115137832671
 30
0.0
 11
86.76960344242025
 21
227.6615136568383
 31
0.0
  0
LINE
  5
37B
330
1F
100
AcDbEntity
  8
0
 62
     2
100
AcDbLine
 10
86.76960344242025
 20
223.6115137832671
 30
0.0
 11
86.76960344242025
 21
224.1115137832671
 31
0.0
  0
LINE
  5
37C
330
1F
100
AcDbEntity
  8
0
 62
     2
100
AcDbLine
 10
86.76960344242025
 20
223.6115137832656
 30
0.0
 11
86.76960344242025
 21
223.1115137832663
 31
0.0
  0
LINE
  5
37D
330
1F
100
AcDbEntity
  8
0
 62
     2
100
AcDbLine
 10
86.76960344242025
 20
220.9115137832663
 30
0.0
 11
86.76960344242025
 21
223.1115137832663
 31
0.0
  0
LINE
  5
37E
330
1F
100
AcDbEntity
  8
0
 62
     2
100
AcDbLine
 10
86.76960344242025
 20
220.9115137832663
 30
0.0
 11
86.76960344242025
 21
220.4115137832656
 31
0.0
  0
LINE
  5
37F
330
1F
100
AcDbEntity
  8
0
 62
     2
100
AcDbLine
 10
86.76960344242025
 20
219.9115137832683
 30
0.0
 11
86.76960344242025
 21
220.4115137832672
 31
0.0
  0
LINE
  5
380
330
1F
100
AcDbEntity
  8
0
 62
     2
100
AcDbLine
 10
86.76960344242025
 20
216.3615139096983
 30
0.0
 11
86.76960344242025
 21
219.9115137832683
 31
0.0
  0
LINE
  5
381
330
1F
100
AcDbEntity
  8
0
 62
     2
100
AcDbLine
 10
86.76960344242025
 20
215.8615139096972
 30
0.0
 11
86.76960344242025
 21
216.3615139096983
 31
0.0
  0
LINE
  5
382
330
1F
100
AcDbEntity
  8
0
 62
     2
100
AcDbLine
 10
86.76960344242025
 20
215.8615139096956
 30
0.0
 11
86.76960344242025
 21
215.3615142893708
 31
0.0
  0
LINE
  5
383
330
1F
100
AcDbEntity
  8
0
 62
     2
100
AcDbLine
 10
86.76960344242025
 20
214.3189658162379
 30
0.0
 11
86.76960344242025
 21
215.3615142893708
 31
0.0
  0
LWPOLYLINE
  5
384
330
1F
100
AcDbEntity
  8
0
 62
     2
100
AcDbPolyline
 90
        7
 70
     0
 43
0.0
 10
122.9398616697913
 20
205.3353420151651
 10
122.8390899774819
 20
205.3751669133713
 10
122.8355399718193
 20
205.3766849497631
 10
122.735090851862
 20
205.4226324696117
 10
122.6541402338384
 20
205.463579855634
 10
122.5828907363827
 20
205.5023350695172
 10
122.4904798921091
 20
205.556391192225
  0
LWPOLYLINE
  5
385
330
1F
100
AcDbEntity
  8
0
 62
     2
100
AcDbPolyline
 90
       51
 70
     0
 43
0.0
 10
122.4888932788078
 20
205.5564671557521
 10
122.5616961732361
 20
205.666201002516
 10
122.637183374875
 20
205.7792995816916
 10
122.6542322446035
 20
205.8047366372652
 10
122.7153262484707
 20
205.895529539379
 10
122.7960774974335
 20
206.0145996442359
 10
122.839029788427
 20
206.0774695316016
 10
122.951905186873
 20
206.24105913412
 10
123.0294189521442
 20
206.3519795166709
 10
123.0403393544605
 20
206.3675112807481
 10
123.0529550188783
 20
206.3854246961371
 10
123.1427189958265
 20
206.5119651644387
 10
123.2235577185917
 20
206.6245036780385
 10
123.2340464688378
 20
206.6390007017195
 10
123.3264971757875
 20
206.7656684510592
 10
123.4196060712607
 20
206.8910715401584
 10
123.6156938722306
 20
207.1474206906379
 10
123.8097819641679
 20
207.3903385488513
 10
123.886404303158
 20
207.4832192582214
 10
124.0001722898791
 20
207.6180780513258
 10
124.0243797559227
 20
207.6463045719473
 10
124.1616922693619
 20
207.8032127959183
 10
124.1849672624424
 20
207.8292473353832
 10
124.3623968996688
 20
208.021774453568
 10
124.4130736439905
 20
208.0747815302835
 10
124.5268851445408
 20
208.1909515937216
 10
124.5307404035381
 20
208.1948237526125
 10
124.5498684042676
 20
208.2139802513303
 10
124.6883881109096
 20
208.3497837958542
 10
124.7317392391024
 20
208.3911293624747
 10
124.823096207652
 20
208.4762620667214
 10
124.8338548882594
 20
208.4861094795714
 10
124.8864952931918
 20
208.5337605505416
 10
124.9048206950219
 20
208.5501462404047
 10
124.9656218138801
 20
208.6037979147382
 10
124.9846836067675
 20
208.6204052839239
 10
125.0553332982025
 20
208.6811510497767
 10
125.082539393235
 20
208.7042002533702
 10
125.1423180640676
 20
208.7541501200195
 10
125.1834424485299
 20
208.7879474249315
 10
125.2673615932437
 20
208.8555173353403
 10
125.299418105391
 20
208.8808502923202
 10
125.3335057090854
 20
208.907468709919
 10
125.3452756776915
 20
208.9165779796577
 10
125.3720817512174
 20
208.9371639920249
 10
125.3811623824126
 20
208.944090186341
 10
125.3899758051173
 20
208.9507947661077
 10
125.392891875773
 20
208.9530095022063
 10
125.4077363804899
 20
208.9642498740497
 10
125.4099618618071
 20
208.9659290133451
 10
125.4195998743592
 20
208.9724914563249
  0
LWPOLYLINE
  5
386
330
1F
100
AcDbEntity
  8
0
 62
     2
100
AcDbPolyline
 90
       62
 70
     0
 43
0.0
 10
125.4195998743592
 20
208.9724914563249
 10
125.4179892247675
 20
208.9692480875316
 10
125.4131655474297
 20
208.9595179171207
 10
125.4099771916776
 20
208.953072654209
 10
125.4051536894444
 20
208.9433009450923
 10
125.3939947842864
 20
208.9206003704608
 10
125.3811687735694
 20
208.8944546340252
 10
125.3797423732639
 20
208.8915502199551
 10
125.3624571041879
 20
208.8564583084243
 10
125.342207863487
 20
208.8156444595723
 10
125.3334843777421
 20
208.7981666736241
 10
125.3190716160058
 20
208.7694284971033
 10
125.293133011855
 20
208.718130244721
 10
125.2673629734535
 20
208.667676012216
 10
125.2644839611186
 20
208.6620695261292
 10
125.2332231779824
 20
208.6015661638997
 10
125.199451577026
 20
208.5369371125938
 10
125.1834243596742
 20
208.5065232355838
 10
125.1483765222911
 20
208.4405781072131
 10
125.1247394991569
 20
208.3965317316564
 10
125.0839765551958
 20
208.3213676188451
 10
125.082584853709
 20
208.3188190150676
 10
125.0410598008222
 20
208.2433040356858
 10
124.9960765135505
 20
208.1626470905884
 10
124.9655639263208
 20
208.1086092066164
 10
124.9491126289768
 20
208.0796938887581
 10
124.900249273855
 20
207.9946848808496
 10
124.8495644268421
 20
207.9078385351262
 10
124.8337503313971
 20
207.8810106720773
 10
124.7971342892497
 20
207.819373271389
 10
124.743033361292
 20
207.7295075094397
 10
124.6883014182848
 20
207.6400244597397
 10
124.6873346307353
 20
207.6384564706815
 10
124.630110539586
 20
207.5464061220794
 10
124.5714327679266
 20
207.453526745375
 10
124.5307791765257
 20
207.3900466253811
 10
124.5113718728262
 20
207.3599884729113
 10
124.4499975233421
 20
207.2659583103202
 10
124.3917027630022
 20
207.1780481412487
 10
124.362352041498
 20
207.134287614989
 10
124.3235869848205
 20
207.0769936203625
 10
124.2586890872063
 20
206.9823307297839
 10
124.1927544685481
 20
206.8877255661355
 10
124.1849053580206
 20
206.8765662019157
 10
124.1258532667793
 20
206.7932932820744
 10
124.0580561895128
 20
206.6991425360868
 10
124.0002077625118
 20
206.6200019421863
 10
123.9894340373519
 20
206.6053819766574
 10
123.9200579362395
 20
206.5121193985395
 10
123.850000896855
 20
206.4194517682648
 10
123.8098315404957
 20
206.3669828299979
 10
123.7793374953898
 20
206.3274686119491
 10
123.7081429376045
 20
206.2362593095862
 10
123.6364932240026
 20
206.1459124713509
 10
123.6155934307357
 20
206.1198259773575
 10
123.5146906941692
 20
205.9955321439666
 10
123.4195988973892
 20
205.8808282151258
 10
123.2235656935101
 20
205.6514665155897
 10
123.178879681455
 20
205.6004727674755
 10
123.0589375158353
 20
205.4658587000671
 10
123.0294934417459
 20
205.4333046393267
 10
122.9398193768731
 20
205.335323403435
  0
LINE
  5
387
330
1F
100
AcDbEntity
  8
0
 62
     2
100
AcDbLine
 10
83.66960344242023
 20
203.0615203866559
 30
0.0
 11
91.11960344242016
 21
203.0615203866559
 31
0.0
  0
LINE
  5
388
330
1F
100
AcDbEntity
  8
0
 62
     2
100
AcDbLine
 10
83.66960344242023
 20
203.7962561680467
 30
0.0
 11
91.11960344242016
 21
203.7962561680467
 31
0.0
  0
LINE
  5
389
330
1F
100
AcDbEntity
  8
0
 62
     2
100
AcDbLine
 10
83.66960344242017
 20
204.5609312021115
 30
0.0
 11
91.11960344242016
 21
204.5609312021115
 31
0.0
  0
LINE
  5
38A
330
1F
100
AcDbEntity
  8
0
 62
     2
100
AcDbLine
 10
83.66960344242023
 20
204.9556968360989
 30
0.0
 11
91.11960344242016
 21
204.9556968360989
 31
0.0
  0
LINE
  5
38B
330
1F
100
AcDbEntity
  8
0
 62
     2
100
AcDbLine
 10
83.66960344241392
 20
206.8090073345435
 30
0.0
 11
91.11960344242016
 21
206.8090073345435
 31
0.0
  0
LINE
  5
38C
330
1F
100
AcDbEntity
  8
0
 62
     2
100
AcDbLine
 10
86.76960344242025
 20
215.3615142893708
 30
0.0
 11
91.11960344242016
 21
215.3615142893708
 31
0.0
  0
LINE
  5
38D
330
1F
100
AcDbEntity
  8
0
 62
     2
100
AcDbLine
 10
86.76960344242025
 20
215.8615139096956
 30
0.0
 11
91.11960344242016
 21
215.8615139096956
 31
0.0
  0
LINE
  5
38E
330
1F
100
AcDbEntity
  8
0
 62
     2
100
AcDbLine
 10
86.76960344242025
 20
216.3615139096983
 30
0.0
 11
91.11960344242016
 21
216.3615139096983
 31
0.0
  0
LINE
  5
38F
330
1F
100
AcDbEntity
  8
0
 62
     2
100
AcDbLine
 10
86.76960344242025
 20
219.9115137832683
 30
0.0
 11
91.11960344242016
 21
219.9115137832683
 31
0.0
  0
LINE
  5
390
330
1F
100
AcDbEntity
  8
0
 62
     2
100
AcDbLine
 10
86.76960344242025
 20
220.4115137832656
 30
0.0
 11
91.11960344242016
 21
220.4115137832656
 31
0.0
  0
LINE
  5
391
330
1F
100
AcDbEntity
  8
0
 62
     2
100
AcDbLine
 10
86.76960344242025
 20
220.9115137832663
 30
0.0
 11
91.11960344242016
 21
220.9115137832663
 31
0.0
  0
LINE
  5
392
330
1F
100
AcDbEntity
  8
0
 62
     2
100
AcDbLine
 10
86.76960344242025
 20
223.1115137832663
 30
0.0
 11
91.11960344242016
 21
223.1115137832663
 31
0.0
  0
LINE
  5
393
330
1F
100
AcDbEntity
  8
0
 62
     2
100
AcDbLine
 10
86.76960344242025
 20
223.6115137832656
 30
0.0
 11
91.11960344242016
 21
223.6115137832656
 31
0.0
  0
LINE
  5
394
330
1F
100
AcDbEntity
  8
0
 62
     2
100
AcDbLine
 10
86.76960344242025
 20
224.1115137832671
 30
0.0
 11
91.11960344242016
 21
224.1115137832671
 31
0.0
  0
LINE
  5
395
330
1F
100
AcDbEntity
  8
0
 62
     2
100
AcDbLine
 10
86.76960344242025
 20
227.6615136568383
 30
0.0
 11
91.11960344242016
 21
227.6615136568383
 31
0.0
  0
LINE
  5
396
330
1F
100
AcDbEntity
  8
0
 62
     2
100
AcDbLine
 10
86.76960344242025
 20
228.1615136568356
 30
0.0
 11
91.11960344242016
 21
228.1615136568356
 31
0.0
  0
LINE
  5
397
330
1F
100
AcDbEntity
  8
0
 62
     2
100
AcDbLine
 10
86.76960344242025
 20
228.6615136568354
 30
0.0
 11
91.11960344242016
 21
228.6615136568354
 31
0.0
  0
LINE
  5
398
330
1F
100
AcDbEntity
  8
0
 62
     2
100
AcDbLine
 10
83.66960344242023
 20
237.2140283627183
 30
0.0
 11
91.11960344242016
 21
237.2140283627183
 31
0.0
  0
LINE
  5
399
330
1F
100
AcDbEntity
  8
0
 62
     2
100
AcDbLine
 10
83.66960344242023
 20
239.0673383575709
 30
0.0
 11
91.11960344242016
 21
239.0673383575709
 31
0.0
  0
LINE
  5
39A
330
1F
100
AcDbEntity
  8
0
 62
     2
100
AcDbLine
 10
83.66960344242023
 20
239.4621040097507
 30
0.0
 11
91.11960344242016
 21
239.4621040097507
 31
0.0
  0
LINE
  5
39B
330
1F
100
AcDbEntity
  8
0
 62
     2
100
AcDbLine
 10
83.66960344242023
 20
240.2267789559645
 30
0.0
 11
91.11960344242016
 21
240.2267789559645
 31
0.0
  0
LINE
  5
39C
330
1F
100
AcDbEntity
  8
0
 62
     2
100
AcDbLine
 10
83.66960344242011
 20
240.9615147373569
 30
0.0
 11
91.11960344242016
 21
240.9615147373569
 31
0.0
  0
ARC
  5
39D
330
1F
100
AcDbEntity
  8
0
 62
     2
100
AcDbCircle
 10
111.9196034413512
 20
215.5115137832822
 30
0.0
 40
15.0
100
AcDbArc
 50
334.1554273060597
 51
0.0000000000001527
  0
ARC
  5
39E
330
1F
100
AcDbEntity
  8
0
 62
     2
100
AcDbCircle
 10
111.9196034413512
 20
215.5115137832822
 30
0.0
 40
15.0
100
AcDbArc
 50
270.0
 51
292.5871861427634
  0
ARC
  5
39F
330
1F
100
AcDbEntity
  8
0
 62
     2
100
AcDbCircle
 10
111.9196034413512
 20
228.5115137832822
 30
0.0
 40
15.0
100
AcDbArc
 50
67.4129525110986
 51
90.00000000000004
  0
ARC
  5
3A0
330
1F
100
AcDbEntity
  8
0
 62
     2
100
AcDbCircle
 10
111.9196034413512
 20
228.5115137832822
 30
0.0
 40
15.0
100
AcDbArc
 50
0.0
 51
22.58715226070611
  0
LINE
  5
3A1
330
1F
100
AcDbEntity
  8
0
 62
     2
100
AcDbLine
 10
92.36960344135161
 20
203.0589555789928
 30
0.0
 11
92.36960344135161
 21
204.0115137832822
 31
0.0
  0
LINE
  5
3A2
330
1F
100
AcDbEntity
  8
0
 62
     2
100
AcDbLine
 10
92.36960344135161
 20
200.5115137832822
 30
0.0
 11
92.36960344135161
 21
203.0589555789928
 31
0.0
  0
LINE
  5
3A3
330
1F
100
AcDbEntity
  8
0
 62
     2
100
AcDbLine
 10
111.9196034413512
 20
204.0115137832822
 30
0.0
 11
111.9196034413512
 21
200.5115137832822
 31
0.0
  0
LINE
  5
3A4
330
1F
100
AcDbEntity
  8
0
 62
     2
100
AcDbLine
 10
126.9196034413512
 20
215.5115137832823
 30
0.0
 11
123.4196034413512
 21
215.5115137832823
 31
0.0
  0
LINE
  5
3A5
330
1F
100
AcDbEntity
  8
0
 62
     2
100
AcDbLine
 10
92.36960344135161
 20
243.3793964736298
 30
0.0
 11
92.36960344135161
 21
243.5115137832822
 31
0.0
  0
LINE
  5
3A6
330
1F
100
AcDbEntity
  8
0
 62
     2
100
AcDbLine
 10
92.36960344135161
 20
240.0115137832823
 30
0.0
 11
92.36960344135161
 21
243.3793964736298
 31
0.0
  0
LINE
  5
3A7
330
1F
100
AcDbEntity
  8
0
 62
     2
100
AcDbLine
 10
123.4196034413512
 20
228.5115137832822
 30
0.0
 11
126.9196034413512
 21
228.5115137832822
 31
0.0
  0
LINE
  5
3A8
330
1F
100
AcDbEntity
  8
0
 62
     2
100
AcDbLine
 10
111.9196034413512
 20
243.5115137832822
 30
0.0
 11
111.9196034413512
 21
240.0115137832823
 31
0.0
  0
LINE
  5
3A9
330
1F
100
AcDbEntity
  8
0
 62
     2
100
AcDbLine
 10
91.11960344135122
 20
204.0115137832822
 30
0.0
 11
91.11960344135122
 21
240.0115137832823
 31
0.0
  0
LINE
  5
3AA
330
1F
100
AcDbEntity
  8
0
 62
     2
100
AcDbLine
 10
92.36960344135122
 20
204.0115137832822
 30
0.0
 11
92.36960344135122
 21
240.0115137832823
 31
0.0
  0
LINE
  5
3AB
330
1F
100
AcDbEntity
  8
0
 62
     2
100
AcDbLine
 10
91.11960344135122
 20
203.0588761881662
 30
0.0
 11
91.11960344135122
 21
204.0115137832822
 31
0.0
  0
LINE
  5
3AC
330
1F
100
AcDbEntity
  8
0
 62
     2
100
AcDbLine
 10
91.11960344135122
 20
201.7615137832822
 30
0.0
 11
91.11960344135122
 21
203.0588761881662
 31
0.0
  0
LINE
  5
3AD
330
1F
100
AcDbEntity
  8
0
 62
     2
100
AcDbLine
 10
91.11960344135122
 20
242.0498912167546
 30
0.0
 11
91.11960344135122
 21
242.2615137832822
 31
0.0
  0
LINE
  5
3AE
330
1F
100
AcDbEntity
  8
0
 62
     2
100
AcDbLine
 10
91.11960344135122
 20
240.0115137832823
 30
0.0
 11
91.11960344135122
 21
242.0498912167546
 31
0.0
  0
LINE
  5
3AF
330
1F
100
AcDbEntity
  8
0
 62
     2
100
AcDbLine
 10
125.7695998743592
 20
234.2729320938894
 30
0.0
 11
125.7690890109982
 21
234.2718109508781
 31
0.0
  0
LWPOLYLINE
  5
3B0
330
1F
100
AcDbEntity
  8
0
 62
     2
100
AcDbPolyline
 90
        7
 70
     0
 43
0.0
 10
122.1068876015726
 20
238.6988204734298
 10
122.1140297909531
 20
238.7059621473138
 10
122.163084411972
 20
238.755011925536
 10
122.2804733165823
 20
238.872393269089
 10
122.3118583093498
 20
238.9037783441921
 10
122.5203784779231
 20
239.1123025697749
 10
122.5261693454684
 20
239.1180934325144
  0
LWPOLYLINE
  5
3B1
330
1F
100
AcDbEntity
  8
0
 62
     2
100
AcDbPolyline
 90
       54
 70
     0
 43
0.0
 10
122.1067948310665
 20
238.6989719123783
 10
122.1139993548293
 20
238.6872112187136
 10
122.1853767610685
 20
238.5708829966891
 10
122.2675063970447
 20
238.4371877724421
 10
122.3118163016842
 20
238.3650406767811
 10
122.3532487186052
 20
238.297627836283
 10
122.4427572721899
 20
238.1524322681347
 10
122.5202933546328
 20
238.0274342556225
 10
122.5477764763884
 20
237.9833361237098
 10
122.6336607788075
 20
237.8462681908134
 10
122.7352162679556
 20
237.6856735558859
 10
122.7373461792312
 20
237.6823228380473
 10
122.853005999448
 20
237.5014626090656
 10
122.9611360731452
 20
237.3346020915593
 10
123.0638547420341
 20
237.1784829333904
 10
123.1804002036437
 20
237.0045177243098
 10
123.189305393637
 20
236.9913707599577
 10
123.4196187231006
 20
236.6590254062365
 10
123.6307128851313
 20
236.3683583420685
 10
123.64994053705
 20
236.3425687278737
 10
123.8780661367924
 20
236.0459076935226
 10
124.101779191574
 20
235.772508071036
 10
124.2916158245621
 20
235.5548470213642
 10
124.3189111013775
 20
235.5246223421542
 10
124.3323345885968
 20
235.5098557981053
 10
124.4843550005137
 20
235.3470798807255
 10
124.5273853454719
 20
235.3024852187256
 10
124.5314921530319
 20
235.2982630377604
 10
124.7251955486751
 20
235.1056939101753
 10
124.7977274148101
 20
235.0367593168129
 10
124.9104251907657
 20
234.9329773584164
 10
125.0813761692417
 20
234.7839675963383
 10
125.1348750238484
 20
234.7395532129882
 10
125.2361752734333
 20
234.6581549153626
 10
125.2771405660395
 20
234.6261084671129
 10
125.3570213076407
 20
234.5646254769416
 10
125.373553591687
 20
234.5520127581991
 10
125.3811020710814
 20
234.5462665341056
 10
125.4921128481744
 20
234.4630952968921
 10
125.4948058236376
 20
234.4611204064535
 10
125.552907346244
 20
234.4191781107789
 10
125.5605786451135
 20
234.413734623695
 10
125.5907533494913
 20
234.3925275632668
 10
125.6039563975692
 20
234.3833461042912
 10
125.6480531265481
 20
234.3530423140124
 10
125.6684290980147
 20
234.3391635833912
 10
125.682266623005
 20
234.3297540635545
 10
125.6852779508828
 20
234.32770817789
 10
125.7156800411358
 20
234.3071120202713
 10
125.7244663079214
 20
234.3011910605076
 10
125.734525856744
 20
234.2944423875363
 10
125.7511247617906
 20
234.2834254348735
 10
125.7582911442114
 20
234.2787341982183
 10
125.7695998743592
 20
234.2729320938894
  0
LWPOLYLINE
  5
3B2
330
1F
100
AcDbEntity
  8
0
 62
     2
100
AcDbPolyline
 90
       70
 70
     0
 43
0.0
 10
125.7695998743592
 20
234.2729320938894
 10
125.7679553724811
 20
234.2767403613762
 10
125.7630314901884
 20
234.2881652323268
 10
125.7582855096093
 20
234.2992091962425
 10
125.7548571112621
 20
234.3072067067412
 10
125.7434801245177
 20
234.3338647034646
 10
125.7289646416859
 20
234.3680377020142
 10
125.7244393547643
 20
234.3786845408596
 10
125.7113825149303
 20
234.4093247135773
 10
125.6908139880814
 20
234.4572697550489
 10
125.6684367201416
 20
234.5089181608263
 10
125.6673480618679
 20
234.5114168433239
 10
125.6410820309507
 20
234.5713099952974
 10
125.612120986193
 20
234.6364932278642
 10
125.5907342250961
 20
234.6840747824716
 10
125.5805744614671
 20
234.7065203784236
 10
125.546538880119
 20
234.7810059878276
 10
125.5101025810487
 20
234.8595877654056
 10
125.492073589852
 20
234.8980437778324
 10
125.4713512861408
 20
234.9419034665361
 10
125.4303680870146
 20
235.0275908465972
 10
125.3872334653047
 20
235.1162890937283
 10
125.3735513431594
 20
235.1441131328573
 10
125.3420259898721
 20
235.2076752783331
 10
125.2948225739427
 20
235.3014673121805
 10
125.2456978996349
 20
235.3973851326701
 10
125.2361896048189
 20
235.4157561790319
 10
125.1484163094507
 20
235.5824632001859
 10
125.1419714065038
 20
235.594505825081
 10
125.0875041146954
 20
235.6952501378052
 10
125.0813097229624
 20
235.7065929439781
 10
125.0313851882894
 20
235.7971812555228
 10
124.9736749835989
 20
235.9000985187803
 10
124.914431963039
 20
236.0038046908236
 10
124.9103778458338
 20
236.0108315041253
 10
124.8537151734574
 20
236.1081351246645
 10
124.7915835454563
 20
236.2129432191269
 10
124.7280947210147
 20
236.318082564387
 10
124.7251775368906
 20
236.3228671242916
 10
124.6633051952335
 20
236.4234071266957
 10
124.5972716801177
 20
236.528785384041
 10
124.530051736965
 20
236.6341046033421
 10
124.527400943281
 20
236.6382185777269
 10
124.4617024669925
 20
236.7392533009642
 10
124.3922805225474
 20
236.8441199937534
 10
124.3915866284827
 20
236.8451585514049
 10
124.3188386376132
 20
236.9530123336554
 10
124.2504485703711
 20
237.0525981874269
 10
124.1781572288952
 20
237.1560343656034
 10
124.105028637974
 20
237.2588208412185
 10
124.1016856896393
 20
237.2634761263344
 10
124.0311228748913
 20
237.3608718279648
 10
123.9565013467765
 20
237.4621065991609
 10
123.8812279732425
 20
237.5624550278304
 10
123.8780374813579
 20
237.5666699886484
 10
123.8053675848791
 20
237.6618483201622
 10
123.7289857513653
 20
237.760217682346
 10
123.6521490257666
 20
237.8574956657527
 10
123.6499121745791
 20
237.8603029473892
 10
123.5147589810713
 20
238.0274123605345
 10
123.419597629101
 20
238.1422008659877
 10
123.1893045680956
 20
238.4107054141219
 10
123.1613801940255
 20
238.4424041899997
 10
123.032419847326
 20
238.5864987559213
 10
122.9611406728477
 20
238.664565237102
 10
122.9040452051559
 20
238.7263095797224
 10
122.7766338173746
 20
238.8616302967773
 10
122.7374311143673
 20
238.902595200237
 10
122.526293914766
 20
239.1180034537577
 10
122.5261693454684
 20
239.1180934325144
  0
LWPOLYLINE
  5
3B3
330
1F
100
AcDbEntity
  8
0
 62
     2
100
AcDbPolyline
 90
       54
 70
     0
 43
0.0
 10
117.6809964272441
 20
242.3615207600068
 10
117.6868062444921
 20
242.3502123269843
 10
117.6914916536241
 20
242.3430461057446
 10
117.7025240418253
 20
242.3264219264764
 10
117.7092596304628
 20
242.3163880730409
 10
117.7151850867284
 20
242.3076019087078
 10
117.7357949011932
 20
242.2772002085845
 10
117.7378416531302
 20
242.2741889288371
 10
117.7472535891615
 20
242.2603516598036
 10
117.7611309933471
 20
242.239976185341
 10
117.7914216074702
 20
242.1958808446585
 10
117.8005985986741
 20
242.1826782364697
 10
117.821797081682
 20
242.1525044855431
 10
117.8272389609849
 20
242.1448334073906
 10
117.8691800178732
 20
242.0867330616737
 10
117.8711553879135
 20
242.0840401142072
 10
117.9543783936953
 20
241.9730039207591
 10
117.9601115344603
 20
241.9654744865648
 10
117.972721061856
 20
241.9489491805882
 10
118.0341931747818
 20
241.8690708334812
 10
118.0662348574779
 20
241.8280962110542
 10
118.1475994567874
 20
241.7268005921612
 10
118.1920091349194
 20
241.6732968561144
 10
118.3410375694799
 20
241.5023460027176
 10
118.4448295768478
 20
241.3896543576373
 10
118.5137692144475
 20
241.3171149094684
 10
118.7063394914464
 20
241.1233802828234
 10
118.7105274657827
 20
241.1193062856481
 10
118.7551064364302
 20
241.0762873350902
 10
118.9178818297323
 20
240.9242838230712
 10
118.932683274967
 20
240.910832575053
 10
118.9629180659827
 20
240.883536798543
 10
119.1806021272166
 20
240.6937011116193
 10
119.4537721821608
 20
240.469986940166
 10
119.7503904965801
 20
240.2418613369649
 10
119.7763179044794
 20
240.2225451744823
 10
120.0671686544114
 20
240.0114910411706
 10
120.3994889055692
 20
239.7812178564194
 10
120.412633979854
 20
239.7723123121578
 10
120.5865741027976
 20
239.6557624100411
 10
120.7426623602085
 20
239.5530568440473
 10
120.9095489984027
 20
239.4449131155002
 10
121.0903913063328
 20
239.3292743432851
 10
121.0937420095279
 20
239.3271446199099
 10
121.2543331831831
 20
239.2255963745073
 10
121.3913882984274
 20
239.1397134078299
 10
121.4355030792315
 20
239.1122142723668
 10
121.5604436577905
 20
239.0346852592404
 10
121.7055903648853
 20
238.9451637723371
 10
121.7729767513469
 20
238.9037371326512
 10
121.8451382373485
 20
238.8594232500874
 10
121.9788867240926
 20
238.7773200656978
 10
122.0952376887865
 20
238.7059555602037
 10
122.1069948625918
 20
238.698750113308
  0
LWPOLYLINE
  5
3B4
330
1F
100
AcDbEntity
  8
0
 62
     2
100
AcDbPolyline
 90
       69
 70
     0
 43
0.0
 10
122.5258592642348
 20
239.118438075617
 10
122.310597772901
 20
239.3294251072315
 10
122.2695218400328
 20
239.3687330315884
 10
122.1342329885946
 20
239.4961101671291
 10
122.0726466253188
 20
239.5530586475769
 10
121.9944568653201
 20
239.6244494826178
 10
121.8503996182055
 20
239.7533738012624
 10
121.8187092344764
 20
239.7812903289359
 10
121.5502746861898
 20
240.0115212343049
 10
121.4355019869665
 20
240.1066693491275
 10
121.2683793567625
 20
240.2418330756969
 10
121.2655720684854
 20
240.2440699269926
 10
121.1682938538069
 20
240.3209066557978
 10
121.069924255637
 20
240.3972884915316
 10
120.9747456936943
 20
240.4699583891978
 10
120.9705307226199
 20
240.473148881113
 10
120.8701820483643
 20
240.548422254824
 10
120.7689470264793
 20
240.6230437820436
 10
120.6715510808212
 20
240.6936065949577
 10
120.6668957839786
 20
240.6969495431836
 10
120.5641090478971
 20
240.770078131234
 10
120.4606726044036
 20
240.8423694689593
 10
120.3610864918575
 20
240.9107595318304
 10
120.2532324253243
 20
240.983507517191
 10
120.2521938649139
 20
240.9842014111989
 10
120.1473268913225
 20
241.0536233495752
 10
120.0462918931762
 20
241.1193218194265
 10
120.0421779075025
 20
241.1219726128371
 10
119.9368583965411
 20
241.1891925487147
 10
119.8314798420066
 20
241.2552260560725
 10
119.7309395507052
 20
241.3170983899551
 10
119.7261549769162
 20
241.3200155737019
 10
119.6210153232996
 20
241.3835043897456
 10
119.5162069150058
 20
241.4456360092916
 10
119.4189029969845
 20
241.5022986738928
 10
119.4118761619617
 20
241.5063527905431
 10
119.3081696654433
 20
241.5655958030707
 10
119.2052520724296
 20
241.6233060001284
 10
119.1146634634871
 20
241.6732305283562
 10
119.1033206195673
 20
241.6794249193
 10
119.0025759662054
 20
241.7338922042715
 10
118.9905528371734
 20
241.7403266619999
 10
118.8238256899101
 20
241.8281103912446
 10
118.8054545772068
 20
241.8376186849569
 10
118.7095364057591
 20
241.8867433539432
 10
118.6157440190468
 20
241.9339467658251
 10
118.5521816272541
 20
241.9654721173179
 10
118.5243574781035
 20
241.979154238974
 10
118.4356588705969
 20
242.022288860555
 10
118.3499711309839
 20
242.0632720619273
 10
118.3061112536367
 20
242.0839943677647
 10
118.2676550729586
 20
242.1020233614002
 10
118.1890729422796
 20
242.138459667213
 10
118.1145869847053
 20
242.1724952572693
 10
118.0921412808206
 20
242.1826550239894
 10
118.0445594921233
 20
242.2040417923643
 10
117.9793759303697
 20
242.233002847706
 10
117.9194824688306
 20
242.2592688888845
 10
117.9169837732719
 20
242.260357547604
 10
117.8653350949222
 20
242.2827348251928
 10
117.8173897960609
 20
242.3033033619845
 10
117.7867494567512
 20
242.3163602088671
 10
117.7761025596628
 20
242.3208854983992
 10
117.7419293731444
 20
242.3354009903256
 10
117.7152712292801
 20
242.3467779851371
 10
117.7072736746377
 20
242.3502063860898
 10
117.6962296497631
 20
242.3549523704083
 10
117.6848047157511
 20
242.3598762567424
 10
117.6809964272441
 20
242.3615207600068
  0
LWPOLYLINE
  5
3B5
330
1F
100
AcDbEntity
  8
0
 62
     2
100
AcDbPolyline
 90
       60
 70
     0
 43
0.0
 10
122.4899744266463
 20
205.5560885842541
 10
122.4003349576352
 20
205.5024239526935
 10
122.3755857703021
 20
205.4875561858977
 10
122.2565981652903
 20
205.4155961093903
 10
122.1328073534786
 20
205.3400848622879
 10
122.1181591719721
 20
205.3311193513306
 10
122.1069571120305
 20
205.3242597463762
 10
122.0952884987261
 20
205.317111611149
 10
122.0037641944391
 20
205.2609664522546
 10
121.8690194995183
 20
205.1781944949178
 10
121.7731333179565
 20
205.1193039500659
 10
121.7282316150969
 20
205.0917127358237
 10
121.581576316687
 20
205.0013720553909
 10
121.4355271011151
 20
204.9108268990846
 10
121.429379703151
 20
204.9069998544615
 10
121.2718821549281
 20
204.8084776866861
 10
121.2286546121651
 20
204.7812720948931
 10
121.0902872399541
 20
204.6936922690196
 10
120.9095520938595
 20
204.578111854996
 10
120.7426963436326
 20
204.469984776201
 10
120.5948227830656
 20
204.3727331661247
 10
120.4181358378781
 20
204.2544578568501
 10
120.3995274448459
 20
204.2418576079119
 10
120.0671198765034
 20
204.011501911321
 10
119.7764530676069
 20
203.8004077405459
 10
119.7506634899019
 20
203.7811800972919
 10
119.4540027613339
 20
203.5530544973491
 10
119.1806034517525
 20
203.3293414421779
 10
119.0786436347796
 20
203.2418363422315
 10
118.9327180276387
 20
203.1122095321682
 10
118.9179514554594
 20
203.0987860018062
 10
118.7551757632252
 20
202.9467655921224
 10
118.7105812076536
 20
202.9037352886693
 10
118.706353678058
 20
202.8996232691103
 10
118.5137901920295
 20
202.705925085189
 10
118.5003366861902
 20
202.6919047881883
 10
118.4836193517434
 20
202.6743920280155
 10
118.3703001459466
 20
202.5528966764542
 10
118.3410739190573
 20
202.5206954434604
 10
118.1920643880032
 20
202.3497444348013
 10
118.1821730717198
 20
202.3379386147637
 10
118.1812647047211
 20
202.3368513257729
 10
118.1032117776088
 20
202.2414553431405
 10
118.0662519597523
 20
202.1949453608191
 10
117.9777934708637
 20
202.0807330322183
 10
117.9601100071632
 20
202.0575670426523
 10
117.8711927195874
 20
201.9390077726095
 10
117.8374666654665
 20
201.8924935484197
 10
117.8006251414389
 20
201.8403672760041
 10
117.7914437030186
 20
201.8271642285606
 10
117.7611399811086
 20
201.7830675017171
 10
117.7474133625518
 20
201.7629150388148
 10
117.7472612820328
 20
201.7626915312496
 10
117.7358059026712
 20
201.7458426792157
 10
117.7152097923776
 20
201.7154405904856
 10
117.7092888463309
 20
201.7066543241441
 10
117.7025346762197
 20
201.6965865326985
 10
117.6959564933792
 20
201.6867090919518
 10
117.68683203701
 20
201.6728294895754
 10
117.6810299416902
 20
201.6615207600067
  0
LWPOLYLINE
  5
3B6
330
1F
100
AcDbEntity
  8
0
 62
     2
100
AcDbPolyline
 90
       75
 70
     0
 43
0.0
 10
117.6810299416902
 20
201.6615207600067
 10
117.684838202379
 20
201.6631652614363
 10
117.6962630529361
 20
201.6680891424221
 10
117.7073069971382
 20
201.6728351217918
 10
117.7153044933614
 20
201.6762635192965
 10
117.7419624425011
 20
201.687640503432
 10
117.7761353802638
 20
201.7021559833225
 10
117.7867822002739
 20
201.7066812694
 10
117.817422319118
 20
201.7197381069545
 10
117.8653672773527
 20
201.7403066305879
 10
117.9170155949835
 20
201.7626838954072
 10
117.9195142732573
 20
201.7637725535369
 10
117.979407325121
 20
201.7900385811357
 10
118.0445904512329
 20
201.8189996224705
 10
118.0921719301385
 20
201.8403863812136
 10
118.1146174911866
 20
201.850546143843
 10
118.1891029879965
 20
201.8845817223749
 10
118.267684651386
 20
201.9210180192648
 10
118.3061406094025
 20
201.9390470096729
 10
118.3500002371011
 20
201.9597693126965
 10
118.4356875008876
 20
202.0007525110962
 10
118.5243856314776
 20
202.0438871328479
 10
118.5522096350271
 20
202.0575692551513
 10
118.6157717008468
 20
202.0890946090188
 10
118.709563620582
 20
202.1362980262572
 10
118.8054813275759
 20
202.185422702286
 10
118.8238523524836
 20
202.1949309974588
 10
118.9905528650873
 20
202.2827009186244
 10
119.0026017947186
 20
202.2891491994419
 10
119.1033459972846
 20
202.3436164934612
 10
119.1146887912503
 20
202.3498108854495
 10
119.2052770066203
 20
202.3997354222067
 10
119.3081941632384
 20
202.4574456293657
 10
119.4119002303502
 20
202.5166886525231
 10
119.4189270366277
 20
202.5207427699079
 10
119.5162305609645
 20
202.5774054447986
 10
119.6210385539375
 20
202.639537075534
 10
119.7261777994788
 20
202.7030259026913
 10
119.7309623548932
 20
202.7059430869375
 10
119.8315022638712
 20
202.7678154311087
 10
119.9368804251089
 20
202.8338489487334
 10
120.0421995500906
 20
202.9010688942388
 10
120.0463135208245
 20
202.9037196880113
 10
120.1473481551595
 20
202.9694181663815
 10
120.2522147571406
 20
203.0388401127893
 10
120.2532533138998
 20
203.0395340068722
 10
120.3611070042164
 20
203.1122819995234
 10
120.4606927743033
 20
203.1806720681789
 10
120.5641288666793
 20
203.2529634108679
 10
120.6669152580625
 20
203.3260920027174
 10
120.6715705393863
 20
203.3294349510874
 10
120.7689661621008
 20
203.3999977664285
 10
120.8702008522273
 20
203.4746192948329
 10
120.9705492014771
 20
203.5498926683096
 10
120.9747641589783
 20
203.5530831601844
 10
121.0699424159743
 20
203.6257530562791
 10
121.1683117018428
 20
203.7021348890752
 10
121.2655896104588
 20
203.778971613637
 10
121.2683968899478
 20
203.7812084647895
 10
121.4355020288322
 20
203.9163582520085
 10
121.5502945956021
 20
204.0115230052553
 10
121.818802733772
 20
204.2418193866974
 10
121.8690926695805
 20
204.2861953266442
 10
122.0216566990106
 20
204.4232983538268
 10
122.0725918594853
 20
204.4699185892325
 10
122.3106121782895
 20
204.6936162917829
 10
122.3118613246788
 20
204.6948163834455
 10
122.449019244908
 20
204.8283003019984
 10
122.5262036618449
 20
204.904933865249
 10
122.5319810035656
 20
204.9107146946315
 10
122.5805995509624
 20
204.9596121755952
 10
122.7064032209035
 20
205.0882440156659
 10
122.7362398402261
 20
205.1192064807735
 10
122.9229581856995
 20
205.3170952573185
 10
122.9398853755622
 20
205.3353971695766
  0
LINE
  5
3B7
330
1F
100
AcDbEntity
  8
0
 62
     2
100
AcDbLine
 10
123.4196034413512
 20
222.5115174729866
 30
0.0
 11
126.9196034413512
 21
222.5115174729866
 31
0.0
  0
LINE
  5
3B8
330
1F
100
AcDbEntity
  8
0
 62
     2
100
AcDbLine
 10
92.36960344135122
 20
243.5115137832822
 30
0.0
 11
111.9196034413512
 21
243.5115137832822
 31
0.0
  0
LINE
  5
3B9
330
1F
100
AcDbEntity
  8
0
 62
     2
100
AcDbLine
 10
92.36960344135161
 20
240.0115137832822
 30
0.0
 11
111.9196034413519
 21
240.0115137832822
 31
0.0
  0
ARC
  5
3BA
330
1F
100
AcDbEntity
  8
0
 62
     2
100
AcDbCircle
 10
111.9196034413512
 20
228.5115137832822
 30
0.0
 40
11.49999999999999
100
AcDbArc
 50
0.0
 51
89.99999999999679
  0
LINE
  5
3BB
330
1F
100
AcDbEntity
  8
0
 62
     2
100
AcDbLine
 10
126.9196034413512
 20
222.5115174729866
 30
0.0
 11
126.9196034413512
 21
228.5115137832822
 31
0.0
  0
LINE
  5
3BC
330
1F
100
AcDbEntity
  8
0
 62
     2
100
AcDbLine
 10
123.4196034413512
 20
222.5115174729866
 30
0.0
 11
123.4196034413512
 21
228.5115137832822
 31
0.0
  0
LINE
  5
3BD
330
1F
100
AcDbEntity
  8
0
 62
     2
100
AcDbLine
 10
126.9196034413512
 20
221.5115174729866
 30
0.0
 11
123.4196034413512
 21
221.5115174729866
 31
0.0
  0
LINE
  5
3BE
330
1F
100
AcDbEntity
  8
0
 62
     2
100
AcDbLine
 10
126.9196034413512
 20
215.5115137832822
 30
0.0
 11
126.9196034413512
 21
221.5115174729866
 31
0.0
  0
LINE
  5
3BF
330
1F
100
AcDbEntity
  8
0
 62
     2
100
AcDbLine
 10
123.4196034413512
 20
215.5115137832823
 30
0.0
 11
123.4196034413512
 21
221.5115174729866
 31
0.0
  0
ARC
  5
3C0
330
1F
100
AcDbEntity
  8
0
 62
     2
100
AcDbCircle
 10
111.9196034413512
 20
215.5115137832822
 30
0.0
 40
11.49999999999999
100
AcDbArc
 50
270.0
 51
0.0000000000001018
  0
LINE
  5
3C1
330
1F
100
AcDbEntity
  8
0
 62
     2
100
AcDbLine
 10
92.36960344135127
 20
204.0115137832822
 30
0.0
 11
111.9196034413512
 21
204.0115137832822
 31
0.0
  0
LINE
  5
3C2
330
1F
100
AcDbEntity
  8
0
 62
     2
100
AcDbLine
 10
92.36960344135161
 20
200.5115137832822
 30
0.0
 11
111.9196034413519
 21
200.5115137832822
 31
0.0
  0
ARC
  5
3C3
330
1F
100
AcDbEntity
  8
0
 62
     2
100
AcDbCircle
 10
105.4196034413512
 20
222.0115174729866
 30
0.0
 40
12.8
100
AcDbArc
 50
2.238685960842613
 51
357.7613140391588
  0
LINE
  5
3C4
330
1F
100
AcDbEntity
  8
0
 62
     2
100
AcDbLine
 10
123.4196034413512
 20
222.5115174729866
 30
0.0
 11
118.2098340882161
 21
222.5115174729866
 31
0.0
  0
LINE
  5
3C5
330
1F
100
AcDbEntity
  8
0
 62
     2
100
AcDbLine
 10
118.2098340882161
 20
221.5115174729866
 30
0.0
 11
123.4196034413512
 21
221.5115174729866
 31
0.0
  0
LINE
  5
3C6
330
1F
100
AcDbEntity
  8
0
 62
     2
100
AcDbLine
 10
92.36960344135122
 20
243.5115137832822
 30
0.0
 11
91.11960344135122
 21
242.2615137832822
 31
0.0
  0
LINE
  5
3C7
330
1F
100
AcDbEntity
  8
0
 62
     2
100
AcDbLine
 10
91.11960344135122
 20
201.7615137832822
 30
0.0
 11
92.36960344135122
 21
200.5115137832822
 31
0.0
  0
LINE
  5
3C8
330
1F
100
AcDbEntity
  8
0
 62
     2
100
AcDbLine
 10
92.36960344135122
 20
240.0115137832822
 30
0.0
 11
91.11960344135122
 21
240.0115137832823
 31
0.0
  0
LINE
  5
3C9
330
1F
100
AcDbEntity
  8
0
 62
     2
100
AcDbLine
 10
92.36960344135122
 20
204.0115137832822
 30
0.0
 11
91.11960344135122
 21
204.0115137832822
 31
0.0
  0
LINE
  5
3CA
330
1F
100
AcDbEntity
  8
0
 62
     2
100
AcDbLine
 10
83.66960344242023
 20
229.8189658162379
 30
0.0
 11
83.66960344242023
 21
214.8189658162379
 31
0.0
  0
LINE
  5
3CB
330
1F
100
AcDbEntity
  8
0
 62
     2
100
AcDbLine
 10
83.66960344242017
 20
214.3189658162379
 30
0.0
 11
86.76960344242025
 21
214.3189658162379
 31
0.0
  0
LINE
  5
3CC
330
1F
100
AcDbEntity
  8
0
 62
     2
100
AcDbLine
 10
86.76960344242025
 20
230.3189658162379
 30
0.0
 11
83.66960344242017
 21
230.3189658162379
 31
0.0
  0
LINE
  5
3CD
330
1F
100
AcDbEntity
  8
0
 62
     2
100
AcDbLine
 10
83.66960344242023
 20
214.8189658162379
 30
0.0
 11
86.76960344242025
 21
214.8189658162379
 31
0.0
  0
LINE
  5
3CE
330
1F
100
AcDbEntity
  8
0
 62
     2
100
AcDbLine
 10
83.66960344242023
 20
229.8189658162379
 30
0.0
 11
86.76960344242025
 21
229.8189658162379
 31
0.0
  0
LINE
  5
3CF
330
1F
100
AcDbEntity
  8
0
 62
     2
100
AcDbLine
 10
83.66960344242023
 20
229.8189658162379
 30
0.0
 11
83.66960344242023
 21
230.3189658162379
 31
0.0
  0
LINE
  5
3D0
330
1F
100
AcDbEntity
  8
0
 62
     2
100
AcDbLine
 10
83.66960344242023
 20
214.3189658162379
 30
0.0
 11
83.66960344242023
 21
214.8189658162379
 31
0.0
  0
LINE
  5
3D1
330
1F
100
AcDbEntity
  8
0
 62
     2
100
AcDbLine
 10
83.66960344242017
 20
230.3189658162379
 30
0.0
 11
83.66960344242017
 21
230.8189658162376
 31
0.0
  0
LINE
  5
3D2
330
1F
100
AcDbEntity
  8
0
 62
     2
100
AcDbLine
 10
83.66960344242017
 20
213.818966195913
 30
0.0
 11
83.66960344242017
 21
214.3189658162379
 31
0.0
  0
LINE
  5
3D3
330
1F
100
AcDbEntity
  8
0
 62
     2
100
AcDbLine
 10
83.66960344242017
 20
240.9615147373569
 30
0.0
 11
83.26960344242019
 21
240.561514737357
 31
0.0
  0
LINE
  5
3D4
330
1F
100
AcDbEntity
  8
0
 62
     2
100
AcDbLine
 10
83.66960344242023
 20
240.2267789559645
 30
0.0
 11
83.26960344242019
 21
240.4145675810786
 31
0.0
  0
LINE
  5
3D5
330
1F
100
AcDbEntity
  8
0
 62
     2
100
AcDbLine
 10
83.66960344242023
 20
239.4621040097507
 30
0.0
 11
83.26960344242019
 21
239.6498926348648
 31
0.0
  0
LINE
  5
3D6
330
1F
100
AcDbEntity
  8
0
 62
     2
100
AcDbLine
 10
83.26960344242019
 20
238.9393144609413
 30
0.0
 11
83.66960344242023
 21
239.0673383575709
 31
0.0
  0
LINE
  5
3D7
330
1F
100
AcDbEntity
  8
0
 62
     2
100
AcDbLine
 10
83.66960344242023
 20
237.2140283627183
 30
0.0
 11
83.26960344242019
 21
237.2140283627184
 31
0.0
  0
LINE
  5
3D8
330
1F
100
AcDbEntity
  8
0
 62
     2
100
AcDbLine
 10
83.66960344242017
 20
230.8189658162376
 30
0.0
 11
83.26960344241763
 21
230.8189658162379
 31
0.0
  0
LINE
  5
3D9
330
1F
100
AcDbEntity
  8
0
 62
     2
100
AcDbLine
 10
83.66960344242017
 20
230.3189658162379
 30
0.0
 11
83.26960344242019
 21
230.7189658162378
 31
0.0
  0
LINE
  5
3DA
330
1F
100
AcDbEntity
  8
0
 62
     2
100
AcDbLine
 10
83.66960344242023
 20
229.8189658162379
 30
0.0
 11
83.26960344242019
 21
229.8189658162379
 31
0.0
  0
LINE
  5
3DB
330
1F
100
AcDbEntity
  8
0
 62
     2
100
AcDbLine
 10
83.66960344242017
 20
214.8189658162379
 30
0.0
 11
83.26960344242019
 21
214.8189658162379
 31
0.0
  0
LINE
  5
3DC
330
1F
100
AcDbEntity
  8
0
 62
     2
100
AcDbLine
 10
83.66960344242017
 20
214.3189658162379
 30
0.0
 11
83.26960344242019
 21
213.9189658162378
 31
0.0
  0
LINE
  5
3DD
330
1F
100
AcDbEntity
  8
0
 62
     2
100
AcDbLine
 10
83.66960344242017
 20
213.818966195913
 30
0.0
 11
83.26960344242019
 21
213.8189658921728
 31
0.0
  0
LINE
  5
3DE
330
1F
100
AcDbEntity
  8
0
 62
     2
100
AcDbLine
 10
83.66960344242017
 20
206.8090073345386
 30
0.0
 11
83.26960866663524
 21
206.8090070307994
 31
0.0
  0
LINE
  5
3DF
330
1F
100
AcDbEntity
  8
0
 62
     2
100
AcDbLine
 10
83.26960344242019
 20
205.0837207181762
 30
0.0
 11
83.66960344242023
 21
204.9556968360989
 31
0.0
  0
LINE
  5
3E0
330
1F
100
AcDbEntity
  8
0
 62
     2
100
AcDbLine
 10
83.26960344242019
 20
204.3731425769989
 30
0.0
 11
83.66960344242023
 21
204.5609312021116
 31
0.0
  0
LINE
  5
3E1
330
1F
100
AcDbEntity
  8
0
 62
     2
100
AcDbLine
 10
83.66960344242017
 20
203.7962561680467
 30
0.0
 11
83.26960344242019
 21
203.6084675429341
 31
0.0
  0
LINE
  5
3E2
330
1F
100
AcDbEntity
  8
0
 62
     2
100
AcDbLine
 10
83.66960344242023
 20
203.0615203866559
 30
0.0
 11
83.26960344242019
 21
203.4615203866559
 31
0.0
  0
ENDSEC
  0
SECTION
  2
OBJECTS
  0
DICTIONARY
  5
C
330
0
100
AcDbDictionary
281
     1
  3
ACAD_DETAILVIEWSTYLE
350
3EA
  3
ACAD_GROUP
350
D
  3
ACAD_LAYOUT
350
1A
  3
ACAD_MATERIAL
350
43
  3
ACAD_MLEADERSTYLE
350
6B
  3
ACAD_MLINESTYLE
350
17
  3
ACAD_PLOTSETTINGS
350
19
  3
ACAD_PLOTSTYLENAME
350
E
  3
ACAD_SCALELIST
350
47
  3
ACAD_SECTIONVIEWSTYLE
350
3EB
  3
ACAD_TABLESTYLE
350
69
  3
ACAD_VISUALSTYLE
350
2A
  3
ACDB_RECOMPOSE_DATA
350
3E7
  3
AcDbVariableDictionary
350
3E3
  0
SUN
  5
6D
330
29
100
AcDbSun
 90
        1
290
     0
 63
     7
421
 16777215
 40
1.0
291
     1
 91
  2455826
 92
 54000000
292
     0
 70
     2
 71
   256
280
     1
  0
DICTIONARY
  5
3EA
102
{ACAD_REACTORS
330
C
102
}
330
C
100
AcDbDictionary
281
     1
  0
DICTIONARY
  5
D
102
{ACAD_REACTORS
330
C
102
}
330
C
100
AcDbDictionary
281
     1
  0
DICTIONARY
  5
1A
102
{ACAD_REACTORS
330
C
102
}
330
C
100
AcDbDictionary
281
     1
  3
Layout1
350
1E
  3
Layout2
350
26
  3
Model
350
22
  0
DICTIONARY
  5
43
102
{ACAD_REACTORS
330
C
102
}
330
C
100
AcDbDictionary
281
     1
  3
ByBlock
350
45
  3
ByLayer
350
44
  3
Global
350
46
  0
DICTIONARY
  5
6B
102
{ACAD_REACTORS
330
C
102
}
330
C
100
AcDbDictionary
281
     1
  3
Standard
350
6C
  0
DICTIONARY
  5
17
102
{ACAD_REACTORS
330
C
102
}
330
C
100
AcDbDictionary
281
     1
  3
Standard
350
18
  0
DICTIONARY
  5
19
102
{ACAD_REACTORS
330
C
102
}
330
C
100
AcDbDictionary
281
     1
  0
ACDBDICTIONARYWDFLT
  5
E
102
{ACAD_REACTORS
330
C
102
}
330
C
100
AcDbDictionary
281
     1
  3
Normal
350
F
100
AcDbDictionaryWithDefault
340
F
  0
DICTIONARY
  5
47
102
{ACAD_REACTORS
330
C
102
}
330
C
100
AcDbDictionary
281
     1
  3
A0
350
48
  3
A1
350
49
  3
A2
350
4A
  3
A3
350
4B
  3
A4
350
4C
  3
A5
350
4D
  3
A6
350
4E
  3
A7
350
4F
  3
A8
350
50
  3
A9
350
51
  3
B0
350
52
  3
B1
350
53
  3
B2
350
54
  3
B3
350
55
  3
B4
350
56
  3
B5
350
57
  3
B6
350
58
  3
B7
350
59
  3
B8
350
5A
  3
B9
350
5B
  3
C0
350
5C
  3
C1
350
5D
  3
C2
350
5E
  3
C3
350
5F
  3
C4
350
60
  3
C5
350
61
  3
C6
350
62
  3
C7
350
63
  3
C8
350
64
  3
C9
350
65
  3
D0
350
66
  3
D1
350
67
  3
D2
350
68
  0
DICTIONARY
  5
3EB
102
{ACAD_REACTORS
330
C
102
}
330
C
100
AcDbDictionary
281
     1
  0
DICTIONARY
  5
69
102
{ACAD_REACTORS
330
C
102
}
330
C
100
AcDbDictionary
281
     1
  3
Standard
350
6A
  0
DICTIONARY
  5
2A
102
{ACAD_REACTORS
330
C
102
}
330
C
100
AcDbDictionary
281
     1
  3
2dWireframe
350
2F
  3
Basic
350
32
  3
Brighten
350
36
  3
ColorChange
350
3A
  3
Conceptual
350
34
  3
Dim
350
35
  3
EdgeColorOff
350
3D
  3
Facepattern
350
39
  3
Flat
350
2B
  3
FlatWithEdges
350
2C
  3
Gouraud
350
2D
  3
GouraudWithEdges
350
2E
  3
Hidden
350
31
  3
JitterOff
350
3B
  3
Linepattern
350
38
  3
OverhangOff
350
3C
  3
Realistic
350
33
  3
Shaded
350
42
  3
Shaded with edges
350
41
  3
Shades of Gray
350
3E
  3
Sketchy
350
3F
  3
Thicken
350
37
  3
Wireframe
350
30
  3
X-Ray
350
40
  0
XRECORD
  5
3E7
102
{ACAD_REACTORS
330
C
102
}
330
C
100
AcDbXrecord
280
     1
 90
        1
330
6A
  0
DICTIONARY
  5
3E3
102
{ACAD_REACTORS
330
C
102
}
330
C
100
AcDbDictionary
281
     1
  3
CANNOSCALE
350
3E4
  3
CMLEADERSTYLE
350
3E9
  3
CTABLESTYLE
350
3E8
  0
LAYOUT
  5
1E
102
{ACAD_REACTORS
330
1A
102
}
330
1A
100
AcDbPlotSettings
  1

  2
none_device
  4

  6

 40
0.0
 41
0.0
 42
0.0
 43
0.0
 44
0.0
 45
0.0
 46
0.0
 47
0.0
 48
0.0
 49
0.0
140
0.0
141
0.0
142
1.0
143
1.0
 70
   688
 72
     1
 73
     0
 74
     5
  7

 75
    16
 76
     0
 77
     2
 78
   300
147
1.0
148
0.0
149
0.0
100
AcDbLayout
  1
Layout1
 70
     1
 71
     1
 10
0.0
 20
0.0
 11
420.0
 21
297.0
 12
0.0
 22
0.0
 32
0.0
 14
1.000000000000000E+20
 24
1.000000000000000E+20
 34
1.000000000000000E+20
 15
-1.000000000000000E+20
 25
-1.000000000000000E+20
 35
-1.000000000000000E+20
146
0.0
 13
0.0
 23
0.0
 33
0.0
 16
1.0
 26
0.0
 36
0.0
 17
0.0
 27
1.0
 37
0.0
 76
     0
330
1B
  0
LAYOUT
  5
26
102
{ACAD_REACTORS
330
1A
102
}
330
1A
100
AcDbPlotSettings
  1

  2
none_device
  4

  6

 40
0.0
 41
0.0
 42
0.0
 43
0.0
 44
0.0
 45
0.0
 46
0.0
 47
0.0
 48
0.0
 49
0.0
140
0.0
141
0.0
142
1.0
143
1.0
 70
   688
 72
     1
 73
     0
 74
     5
  7

 75
    16
 76
     0
 77
     2
 78
   300
147
1.0
148
0.0
149
0.0
100
AcDbLayout
  1
Layout2
 70
     1
 71
     2
 10
0.0
 20
0.0
 11
0.0
 21
0.0
 12
0.0
 22
0.0
 32
0.0
 14
0.0
 24
0.0
 34
0.0
 15
0.0
 25
0.0
 35
0.0
146
0.0
 13
0.0
 23
0.0
 33
0.0
 16
1.0
 26
0.0
 36
0.0
 17
0.0
 27
1.0
 37
0.0
 76
     0
330
23
  0
LAYOUT
  5
22
102
{ACAD_REACTORS
330
1A
102
}
330
1A
100
AcDbPlotSettings
  1

  2
none_device
  4
Letter_(8.50_x_11.00_Inches)
  6

 40
6.35
 41
6.35
 42
6.35000508
 43
6.35000508
 44
215.9
 45
279.4
 46
0.0
 47
0.0
 48
0.0
 49
0.0
140
0.0
141
0.0
142
1.0
143
1.0
 70
  1712
 72
     1
 73
     0
 74
     0
  7

 75
     0
 76
     0
 77
     2
 78
   300
147
1.0
148
0.0
149
0.0
100
AcDbLayout
  1
Model
 70
     1
 71
     0
 10
0.0
 20
0.0
 11
210.0
 21
297.0
 12
0.0
 22
0.0
 32
0.0
 14
0.0
 24
0.0
 34
0.0
 15
210.0
 25
297.0
 35
0.0
146
0.0
 13
0.0
 23
0.0
 33
0.0
 16
1.0
 26
0.0
 36
0.0
 17
0.0
 27
1.0
 37
0.0
 76
     0
330
1F
331
29
  0
MATERIAL
  5
45
102
{ACAD_REACTORS
330
43
102
}
330
43
100
AcDbMaterial
  1
ByBlock
 72
     1
 94
      127
  0
MATERIAL
  5
44
102
{ACAD_REACTORS
330
43
102
}
330
43
100
AcDbMaterial
  1
ByLayer
 72
     1
 94
      127
  0
MATERIAL
  5
46
102
{ACAD_REACTORS
330
43
102
}
330
43
100
AcDbMaterial
  1
Global
 72
     1
 94
      127
  0
MLEADERSTYLE
  5
6C
102
{ACAD_REACTORS
330
6B
102
}
330
6B
100
AcDbMLeaderStyle
179
     2
170
     2
171
     1
172
     0
 90
        2
 40
0.0
 41
0.0
173
     1
 91
-1056964608
340
14
 92
       -2
290
     1
 42
2.0
291
     1
 43
8.0
  3
Standard
341
0
 44
4.0
300

342
11
174
     1
178
     6
175
     1
176
     0
 93
-1056964608
 45
4.0
292
     0
297
     0
 46
4.0
343
0
 94
-1056964608
 47
1.0
 49
1.0
140
1.0
293
     1
141
0.0
294
     1
177
     0
142
1.0
295
     0
296
     0
143
3.75
271
     0
272
     9
273
     9
298
     0
  0
MLINESTYLE
  5
18
102
{ACAD_REACTORS
330
17
102
}
330
17
100
AcDbMlineStyle
  2
Standard
 70
     0
  3

 62
   256
 51
90.0
 52
90.0
 71
     2
 49
0.5
 62
   256
  6
BYLAYER
 49
-0.5
 62
   256
  6
BYLAYER
  0
ACDBPLACEHOLDER
  5
F
102
{ACAD_REACTORS
330
E
102
}
330
E
  0
SCALE
  5
48
102
{ACAD_REACTORS
330
47
102
}
330
47
100
AcDbScale
 70
     0
300
1:1
140
1.0
141
1.0
290
     1
  0
SCALE
  5
49
102
{ACAD_REACTORS
330
47
102
}
330
47
100
AcDbScale
 70
     0
300
1:2
140
1.0
141
2.0
290
     0
  0
SCALE
  5
4A
102
{ACAD_REACTORS
330
47
102
}
330
47
100
AcDbScale
 70
     0
300
1:4
140
1.0
141
4.0
290
     0
  0
SCALE
  5
4B
102
{ACAD_REACTORS
330
47
102
}
330
47
100
AcDbScale
 70
     0
300
1:5
140
1.0
141
5.0
290
     0
  0
SCALE
  5
4C
102
{ACAD_REACTORS
330
47
102
}
330
47
100
AcDbScale
 70
     0
300
1:8
140
1.0
141
8.0
290
     0
  0
SCALE
  5
4D
102
{ACAD_REACTORS
330
47
102
}
330
47
100
AcDbScale
 70
     0
300
1:10
140
1.0
141
10.0
290
     0
  0
SCALE
  5
4E
102
{ACAD_REACTORS
330
47
102
}
330
47
100
AcDbScale
 70
     0
300
1:16
140
1.0
141
16.0
290
     0
  0
SCALE
  5
4F
102
{ACAD_REACTORS
330
47
102
}
330
47
100
AcDbScale
 70
     0
300
1:20
140
1.0
141
20.0
290
     0
  0
SCALE
  5
50
102
{ACAD_REACTORS
330
47
102
}
330
47
100
AcDbScale
 70
     0
300
1:30
140
1.0
141
30.0
290
     0
  0
SCALE
  5
51
102
{ACAD_REACTORS
330
47
102
}
330
47
100
AcDbScale
 70
     0
300
1:40
140
1.0
141
40.0
290
     0
  0
SCALE
  5
52
102
{ACAD_REACTORS
330
47
102
}
330
47
100
AcDbScale
 70
     0
300
1:50
140
1.0
141
50.0
290
     0
  0
SCALE
  5
53
102
{ACAD_REACTORS
330
47
102
}
330
47
100
AcDbScale
 70
     0
300
1:100
140
1.0
141
100.0
290
     0
  0
SCALE
  5
54
102
{ACAD_REACTORS
330
47
102
}
330
47
100
AcDbScale
 70
     0
300
2:1
140
2.0
141
1.0
290
     0
  0
SCALE
  5
55
102
{ACAD_REACTORS
330
47
102
}
330
47
100
AcDbScale
 70
     0
300
4:1
140
4.0
141
1.0
290
     0
  0
SCALE
  5
56
102
{ACAD_REACTORS
330
47
102
}
330
47
100
AcDbScale
 70
     0
300
8:1
140
8.0
141
1.0
290
     0
  0
SCALE
  5
57
102
{ACAD_REACTORS
330
47
102
}
330
47
100
AcDbScale
 70
     0
300
10:1
140
10.0
141
1.0
290
     0
  0
SCALE
  5
58
102
{ACAD_REACTORS
330
47
102
}
330
47
100
AcDbScale
 70
     0
300
100:1
140
100.0
141
1.0
290
     0
  0
SCALE
  5
59
102
{ACAD_REACTORS
330
47
102
}
330
47
100
AcDbScale
 70
     0
300
1/128" = 1'-0"
140
0.0078125
141
12.0
290
     0
  0
SCALE
  5
5A
102
{ACAD_REACTORS
330
47
102
}
330
47
100
AcDbScale
 70
     0
300
1/64" = 1'-0"
140
0.015625
141
12.0
290
     0
  0
SCALE
  5
5B
102
{ACAD_REACTORS
330
47
102
}
330
47
100
AcDbScale
 70
     0
300
1/32" = 1'-0"
140
0.03125
141
12.0
290
     0
  0
SCALE
  5
5C
102
{ACAD_REACTORS
330
47
102
}
330
47
100
AcDbScale
 70
     0
300
1/16" = 1'-0"
140
0.0625
141
12.0
290
     0
  0
SCALE
  5
5D
102
{ACAD_REACTORS
330
47
102
}
330
47
100
AcDbScale
 70
     0
300
3/32" = 1'-0"
140
0.09375
141
12.0
290
     0
  0
SCALE
  5
5E
102
{ACAD_REACTORS
330
47
102
}
330
47
100
AcDbScale
 70
     0
300
1/8" = 1'-0"
140
0.125
141
12.0
290
     0
  0
SCALE
  5
5F
102
{ACAD_REACTORS
330
47
102
}
330
47
100
AcDbScale
 70
     0
300
3/16" = 1'-0"
140
0.1875
141
12.0
290
     0
  0
SCALE
  5
60
102
{ACAD_REACTORS
330
47
102
}
330
47
100
AcDbScale
 70
     0
300
1/4" = 1'-0"
140
0.25
141
12.0
290
     0
  0
SCALE
  5
61
102
{ACAD_REACTORS
330
47
102
}
330
47
100
AcDbScale
 70
     0
300
3/8" = 1'-0"
140
0.375
141
12.0
290
     0
  0
SCALE
  5
62
102
{ACAD_REACTORS
330
47
102
}
330
47
100
AcDbScale
 70
     0
300
1/2" = 1'-0"
140
0.5
141
12.0
290
     0
  0
SCALE
  5
63
102
{ACAD_REACTORS
330
47
102
}
330
47
100
AcDbScale
 70
     0
300
3/4" = 1'-0"
140
0.75
141
12.0
290
     0
  0
SCALE
  5
64
102
{ACAD_REACTORS
330
47
102
}
330
47
100
AcDbScale
 70
     0
300
1" = 1'-0"
140
1.0
141
12.0
290
     0
  0
SCALE
  5
65
102
{ACAD_REACTORS
330
47
102
}
330
47
100
AcDbScale
 70
     0
300
1-1/2" = 1'-0"
140
1.5
141
12.0
290
     0
  0
SCALE
  5
66
102
{ACAD_REACTORS
330
47
102
}
330
47
100
AcDbScale
 70
     0
300
3" = 1'-0"
140
3.0
141
12.0
290
     0
  0
SCALE
  5
67
102
{ACAD_REACTORS
330
47
102
}
330
47
100
AcDbScale
 70
     0
300
6" = 1'-0"
140
6.0
141
12.0
290
     0
  0
SCALE
  5
68
102
{ACAD_REACTORS
330
47
102
}
330
47
100
AcDbScale
 70
     0
300
1'-0" = 1'-0"
140
12.0
141
12.0
290
     0
  0
TABLESTYLE
  5
6A
102
{ACAD_REACTORS
330
69
102
}
102
{ACAD_XDICTIONARY
360
3E5
102
}
330
69
100
AcDbTableStyle
  3
Standard
 70
     0
 71
     0
 40
0.06
 41
0.06
280
     0
281
     0
  7
Standard
140
4.5
170
     2
 62
     0
 63
   257
283
     0
 90
        4
 91
        0
  1

274
    -2
284
     1
 64
     0
275
    -2
285
     1
 65
     0
276
    -2
286
     1
 66
     0
277
    -2
287
     1
 67
     0
278
    -2
288
     1
 68
     0
279
    -2
289
     1
 69
     0
  7
Standard
140
6.0
170
     5
 62
     0
 63
   257
283
     0
 90
        4
 91
        0
  1

274
    -2
284
     1
 64
     0
275
    -2
285
     1
 65
     0
276
    -2
286
     1
 66
     0
277
    -2
287
     1
 67
     0
278
    -2
288
     1
 68
     0
279
    -2
289
     1
 69
     0
  7
Standard
140
4.5
170
     5
 62
     0
 63
   257
283
     0
 90
        4
 91
        0
  1

274
    -2
284
     1
 64
     0
275
    -2
285
     1
 65
     0
276
    -2
286
     1
 66
     0
277
    -2
287
     1
 67
     0
278
    -2
288
     1
 68
     0
279
    -2
289
     1
 69
     0
  0
VISUALSTYLE
  5
2F
102
{ACAD_REACTORS
330
2A
102
}
330
2A
100
AcDbVisualStyle
  2
2dWireframe
 70
     4
177
     3
291
     0
 70
    58
 90
        0
176
     1
 90
        2
176
     1
 90
        0
176
     1
 90
        0
176
     1
 40
0.6
176
     1
 40
30.0
176
     1
 62
     7
420
 16777215
176
     1
 90
        1
176
     1
 90
        4
176
     1
 62
     7
176
     1
 62
   257
176
     1
 90
        1
176
     1
 90
        1
176
     1
 40
1.0
176
     1
 90
        0
176
     1
 62
   257
176
     1
 40
1.0
176
     1
 90
        1
176
     1
 90
        6
176
     1
 90
        2
176
     1
 62
     7
176
     1
 90
        5
176
     1
 90
        0
176
     1
 90
        0
176
     1
290
     0
176
     1
 90
        1
176
     1
 40
0.0
176
     1
 90
        0
176
     1
290
     1
176
     1
290
     1
176
     1
290
     0
176
     1
290
     0
176
     1
290
     0
176
     1
290
     0
176
     1
290
     0
176
     1
290
     0
176
     1
290
     0
176
     1
 90
       50
176
     1
 40
0.0
176
     1
 40
1.0
176
     1
 90
        0
176
     1
 62
   178
420
        0
176
     1
 90
       50
176
     1
 90
        3
176
     1
 62
     5
420
      255
176
     1
290
     0
176
     1
 90
       50
176
     1
 90
       50
176
     1
 90
       50
176
     1
290
     0
176
     1
 90
       50
176
     1
 62
   256
176
     0
 40
1.0
176
     0
 90
        2
176
     1
  1
strokes_ogs.tif
176
     1
290
     0
176
     1
 40
1.0
176
     1
 40
1.0
176
     1
  0
VISUALSTYLE
  5
32
102
{ACAD_REACTORS
330
2A
102
}
330
2A
100
AcDbVisualStyle
  2
Basic
 70
     7
177
     3
291
     1
 70
    58
 90
        1
176
     1
 90
        0
176
     1
 90
        1
176
     1
 90
        0
176
     1
 40
0.6
176
     1
 40
30.0
176
     1
 62
     7
420
 16777215
176
     1
 90
        0
176
     1
 90
        4
176
     1
 62
     7
176
     1
 62
   257
176
     1
 90
        1
176
     1
 90
        1
176
     1
 40
1.0
176
     1
 90
        8
176
     1
 62
     7
176
     1
 40
1.0
176
     1
 90
        1
176
     1
 90
        6
176
     1
 90
        2
176
     1
 62
     7
176
     1
 90
        5
176
     1
 90
        0
176
     1
 90
        0
176
     1
290
     0
176
     1
 90
        1
176
     1
 40
0.0
176
     1
 90
        0
176
     1
290
     0
176
     1
290
     1
176
     1
290
     1
176
     1
290
     0
176
     1
290
     0
176
     1
290
     0
176
     1
290
     0
176
     1
290
     0
176
     1
290
     0
176
     1
 90
       50
176
     1
 40
0.0
176
     1
 40
1.0
176
     1
 90
        0
176
     1
 62
   178
420
        0
176
     1
 90
       50
176
     1
 90
        3
176
     1
 62
     5
420
      255
176
     1
290
     0
176
     1
 90
       50
176
     1
 90
       50
176
     1
 90
       50
176
     1
290
     0
176
     1
 90
       50
176
     1
 62
   256
176
     0
 40
1.0
176
     0
 90
        2
176
     1
  1
strokes_ogs.tif
176
     1
290
     0
176
     1
 40
1.0
176
     1
 40
1.0
176
     1
  0
VISUALSTYLE
  5
36
102
{ACAD_REACTORS
330
2A
102
}
330
2A
100
AcDbVisualStyle
  2
Brighten
 70
    12
177
     3
291
     1
 70
    58
 90
        2
176
     1
 90
        2
176
     1
 90
        0
176
     1
 90
        0
176
     1
 40
0.6
176
     1
 40
30.0
176
     1
 62
     7
420
 16777215
176
     1
 90
        1
176
     1
 90
        4
176
     1
 62
     7
176
     1
 62
   257
176
     1
 90
        1
176
     1
 90
        1
176
     1
 40
1.0
176
     1
 90
        8
176
     1
 62
     7
176
     1
 40
1.0
176
     1
 90
        1
176
     1
 90
        6
176
     1
 90
        2
176
     1
 62
     7
176
     1
 90
        5
176
     1
 90
        0
176
     1
 90
        0
176
     1
290
     0
176
     1
 90
        1
176
     1
 40
50.0
176
     1
 90
        0
176
     1
290
     0
176
     1
290
     1
176
     1
290
     1
176
     1
290
     0
176
     1
290
     0
176
     1
290
     0
176
     1
290
     0
176
     1
290
     0
176
     1
290
     0
176
     1
 90
       50
176
     1
 40
0.0
176
     1
 40
1.0
176
     1
 90
        0
176
     1
 62
   178
420
        0
176
     1
 90
       50
176
     1
 90
        3
176
     1
 62
     5
420
      255
176
     1
290
     0
176
     1
 90
       50
176
     1
 90
       50
176
     1
 90
       50
176
     1
290
     0
176
     1
 90
       50
176
     1
 62
   256
176
     0
 40
1.0
176
     0
 90
        2
176
     1
  1
strokes_ogs.tif
176
     1
290
     0
176
     1
 40
1.0
176
     1
 40
1.0
176
     1
  0
VISUALSTYLE
  5
3A
102
{ACAD_REACTORS
330
2A
102
}
330
2A
100
AcDbVisualStyle
  2
ColorChange
 70
    16
177
     3
291
     1
 70
    58
 90
        2
176
     1
 90
        2
176
     1
 90
        3
176
     1
 90
        0
176
     1
 40
0.6
176
     1
 40
30.0
176
     1
 62
     8
420
  8421504
176
     1
 90
        1
176
     1
 90
        4
176
     1
 62
     7
176
     1
 62
   257
176
     1
 90
        1
176
     1
 90
        1
176
     1
 40
1.0
176
     1
 90
        8
176
     1
 62
     8
420
  8421504
176
     1
 40
1.0
176
     1
 90
        1
176
     1
 90
        6
176
     1
 90
        2
176
     1
 62
     7
176
     1
 90
        5
176
     1
 90
        0
176
     1
 90
        0
176
     1
290
     0
176
     1
 90
        1
176
     1
 40
0.0
176
     1
 90
        0
176
     1
290
     0
176
     1
290
     1
176
     1
290
     1
176
     1
290
     0
176
     1
290
     0
176
     1
290
     0
176
     1
290
     0
176
     1
290
     0
176
     1
290
     0
176
     1
 90
       50
176
     1
 40
0.0
176
     1
 40
1.0
176
     1
 90
        0
176
     1
 62
   178
420
        0
176
     1
 90
       50
176
     1
 90
        3
176
     1
 62
     5
420
      255
176
     1
290
     0
176
     1
 90
       50
176
     1
 90
       50
176
     1
 90
       50
176
     1
290
     0
176
     1
 90
       50
176
     1
 62
   256
176
     0
 40
1.0
176
     0
 90
        2
176
     1
  1
strokes_ogs.tif
176
     1
290
     0
176
     1
 40
1.0
176
     1
 40
1.0
176
     1
  0
VISUALSTYLE
  5
34
102
{ACAD_REACTORS
330
2A
102
}
330
2A
100
AcDbVisualStyle
  2
Conceptual
 70
     9
177
     3
291
     0
 70
    58
 90
        3
176
     1
 90
        2
176
     1
 90
        0
176
     1
 90
        0
176
     1
 40
0.6
176
     1
 40
30.0
176
     1
 62
     7
420
 16777215
176
     1
 90
        2
176
     1
 90
        2
176
     1
 62
     7
176
     1
 62
   257
176
     1
 90
        1
176
     1
 90
        1
176
     1
 40
179.0
176
     1
 90
        8
176
     1
 62
     7
176
     1
 40
1.0
176
     1
 90
        1
176
     1
 90
        6
176
     1
 90
        2
176
     1
 62
     7
176
     1
 90
        3
176
     1
 90
        0
176
     1
 90
        0
176
     1
290
     0
176
     1
 90
        1
176
     1
 40
0.0
176
     1
 90
        0
176
     1
290
     0
176
     1
290
     1
176
     1
290
     1
176
     1
290
     0
176
     1
290
     0
176
     1
290
     0
176
     1
290
     0
176
     1
290
     0
176
     1
290
     0
176
     1
 90
       50
176
     1
 40
0.0
176
     1
 40
1.0
176
     1
 90
        0
176
     1
 62
   178
420
        0
176
     1
 90
       50
176
     1
 90
        3
176
     1
 62
     5
420
      255
176
     1
290
     0
176
     1
 90
       50
176
     1
 90
       50
176
     1
 90
       50
176
     1
290
     0
176
     1
 90
       50
176
     1
 62
   256
176
     0
 40
1.0
176
     0
 90
        2
176
     1
  1
strokes_ogs.tif
176
     1
290
     0
176
     1
 40
1.0
176
     1
 40
1.0
176
     1
  0
VISUALSTYLE
  5
35
102
{ACAD_REACTORS
330
2A
102
}
330
2A
100
AcDbVisualStyle
  2
Dim
 70
    11
177
     3
291
     1
 70
    58
 90
        2
176
     1
 90
        2
176
     1
 90
        0
176
     1
 90
        0
176
     1
 40
0.6
176
     1
 40
30.0
176
     1
 62
     7
420
 16777215
176
     1
 90
        1
176
     1
 90
        4
176
     1
 62
     7
176
     1
 62
   257
176
     1
 90
        1
176
     1
 90
        1
176
     1
 40
1.0
176
     1
 90
        8
176
     1
 62
     7
176
     1
 40
1.0
176
     1
 90
        1
176
     1
 90
        6
176
     1
 90
        2
176
     1
 62
     7
176
     1
 90
        5
176
     1
 90
        0
176
     1
 90
        0
176
     1
290
     0
176
     1
 90
        1
176
     1
 40
-50.0
176
     1
 90
        0
176
     1
290
     0
176
     1
290
     1
176
     1
290
     1
176
     1
290
     0
176
     1
290
     0
176
     1
290
     0
176
     1
290
     0
176
     1
290
     0
176
     1
290
     0
176
     1
 90
       50
176
     1
 40
0.0
176
     1
 40
1.0
176
     1
 90
        0
176
     1
 62
   178
420
        0
176
     1
 90
       50
176
     1
 90
        3
176
     1
 62
     5
420
      255
176
     1
290
     0
176
     1
 90
       50
176
     1
 90
       50
176
     1
 90
       50
176
     1
290
     0
176
     1
 90
       50
176
     1
 62
   256
176
     0
 40
1.0
176
     0
 90
        2
176
     1
  1
strokes_ogs.tif
176
     1
290
     0
176
     1
 40
1.0
176
     1
 40
1.0
176
     1
  0
VISUALSTYLE
  5
3D
102
{ACAD_REACTORS
330
2A
102
}
330
2A
100
AcDbVisualStyle
  2
EdgeColorOff
 70
    22
177
     3
291
     1
 70
    58
 90
        2
176
     0
 90
        2
176
     0
 90
        0
176
     0
 90
        0
176
     0
 40
0.6
176
     0
 40
30.0
176
     0
 62
     7
420
 16777215
176
     0
 90
        1
176
     0
 90
        4
176
     0
 62
     7
176
     0
 62
   257
176
     0
 90
        1
176
     0
 90
        1
176
     0
 40
1.0
176
     0
 90
        8
176
     2
 62
     7
176
     0
 40
1.0
176
     0
 90
        1
176
     0
 90
        6
176
     0
 90
        2
176
     0
 62
     7
176
     0
 90
        5
176
     0
 90
        0
176
     0
 90
        0
176
     0
290
     0
176
     0
 90
        1
176
     0
 40
0.0
176
     0
 90
        0
176
     0
290
     0
176
     0
290
     1
176
     0
290
     1
176
     0
290
     0
176
     0
290
     0
176
     0
290
     0
176
     0
290
     0
176
     0
290
     0
176
     0
290
     0
176
     0
 90
       50
176
     0
 40
0.0
176
     0
 40
1.0
176
     0
 90
        0
176
     0
 62
   178
420
        0
176
     0
 90
       50
176
     0
 90
        3
176
     0
 62
     5
420
      255
176
     0
290
     0
176
     0
 90
       50
176
     0
 90
       50
176
     0
 90
       50
176
     0
290
     0
176
     0
 90
       50
176
     0
 62
   256
176
     0
 40
1.0
176
     0
 90
        2
176
     0
  1
strokes_ogs.tif
176
     0
290
     0
176
     0
 40
1.0
176
     0
 40
1.0
176
     0
  0
VISUALSTYLE
  5
39
102
{ACAD_REACTORS
330
2A
102
}
330
2A
100
AcDbVisualStyle
  2
Facepattern
 70
    15
177
     3
291
     1
 70
    58
 90
        2
176
     1
 90
        2
176
     1
 90
        0
176
     1
 90
        0
176
     1
 40
0.6
176
     1
 40
30.0
176
     1
 62
     7
420
 16777215
176
     1
 90
        1
176
     1
 90
        4
176
     1
 62
     7
176
     1
 62
   257
176
     1
 90
        1
176
     1
 90
        1
176
     1
 40
1.0
176
     1
 90
        8
176
     1
 62
     7
176
     1
 40
1.0
176
     1
 90
        1
176
     1
 90
        6
176
     1
 90
        2
176
     1
 62
     7
176
     1
 90
        5
176
     1
 90
        0
176
     1
 90
        0
176
     1
290
     0
176
     1
 90
        1
176
     1
 40
0.0
176
     1
 90
        0
176
     1
290
     0
176
     1
290
     1
176
     1
290
     1
176
     1
290
     0
176
     1
290
     0
176
     1
290
     0
176
     1
290
     0
176
     1
290
     0
176
     1
290
     0
176
     1
 90
       50
176
     1
 40
0.0
176
     1
 40
1.0
176
     1
 90
        0
176
     1
 62
   178
420
        0
176
     1
 90
       50
176
     1
 90
        3
176
     1
 62
     5
420
      255
176
     1
290
     0
176
     1
 90
       50
176
     1
 90
       50
176
     1
 90
       50
176
     1
290
     0
176
     1
 90
       50
176
     1
 62
   256
176
     0
 40
1.0
176
     0
 90
        2
176
     1
  1
strokes_ogs.tif
176
     1
290
     0
176
     1
 40
1.0
176
     1
 40
1.0
176
     1
  0
VISUALSTYLE
  5
2B
102
{ACAD_REACTORS
330
2A
102
}
330
2A
100
AcDbVisualStyle
  2
Flat
 70
     0
177
     3
291
     1
 70
    58
 90
        2
176
     1
 90
        1
176
     1
 90
        1
176
     1
 90
        2
176
     1
 40
0.6
176
     1
 40
30.0
176
     1
 62
     7
420
 16777215
176
     1
 90
        0
176
     1
 90
        0
176
     1
 62
     7
176
     1
 62
   257
176
     1
 90
        1
176
     1
 90
        1
176
     1
 40
1.0
176
     1
 90
        8
176
     1
 62
     7
176
     1
 40
1.0
176
     1
 90
        1
176
     1
 90
        6
176
     1
 90
        2
176
     1
 62
     7
176
     1
 90
        5
176
     1
 90
        0
176
     1
 90
        0
176
     1
290
     0
176
     1
 90
       13
176
     1
 40
0.0
176
     1
 90
        0
176
     1
290
     0
176
     1
290
     1
176
     1
290
     1
176
     1
290
     0
176
     1
290
     0
176
     1
290
     0
176
     1
290
     0
176
     1
290
     0
176
     1
290
     0
176
     1
 90
       50
176
     1
 40
0.0
176
     1
 40
1.0
176
     1
 90
        0
176
     1
 62
   178
420
        0
176
     1
 90
       50
176
     1
 90
        3
176
     1
 62
     5
420
      255
176
     1
290
     0
176
     1
 90
       50
176
     1
 90
       50
176
     1
 90
       50
176
     1
290
     0
176
     1
 90
       50
176
     1
 62
   256
176
     0
 40
1.0
176
     0
 90
        2
176
     1
  1
strokes_ogs.tif
176
     1
290
     0
176
     1
 40
1.0
176
     1
 40
1.0
176
     1
  0
VISUALSTYLE
  5
2C
102
{ACAD_REACTORS
330
2A
102
}
330
2A
100
AcDbVisualStyle
  2
FlatWithEdges
 70
     1
177
     3
291
     1
 70
    58
 90
        2
176
     1
 90
        1
176
     1
 90
        1
176
     1
 90
        2
176
     1
 40
0.6
176
     1
 40
30.0
176
     1
 62
     7
420
 16777215
176
     1
 90
        1
176
     1
 90
        0
176
     1
 62
     7
176
     1
 62
   257
176
     1
 90
        1
176
     1
 90
        1
176
     1
 40
1.0
176
     1
 90
        0
176
     1
 62
   257
176
     1
 40
1.0
176
     1
 90
        1
176
     1
 90
        6
176
     1
 90
        2
176
     1
 62
     7
176
     1
 90
        5
176
     1
 90
        0
176
     1
 90
        0
176
     1
290
     0
176
     1
 90
       13
176
     1
 40
0.0
176
     1
 90
        0
176
     1
290
     0
176
     1
290
     1
176
     1
290
     1
176
     1
290
     0
176
     1
290
     0
176
     1
290
     0
176
     1
290
     0
176
     1
290
     0
176
     1
290
     0
176
     1
 90
       50
176
     1
 40
0.0
176
     1
 40
1.0
176
     1
 90
        0
176
     1
 62
   178
420
        0
176
     1
 90
       50
176
     1
 90
        3
176
     1
 62
     5
420
      255
176
     1
290
     0
176
     1
 90
       50
176
     1
 90
       50
176
     1
 90
       50
176
     1
290
     0
176
     1
 90
       50
176
     1
 62
   256
176
     0
 40
1.0
176
     0
 90
        2
176
     1
  1
strokes_ogs.tif
176
     1
290
     0
176
     1
 40
1.0
176
     1
 40
1.0
176
     1
  0
VISUALSTYLE
  5
2D
102
{ACAD_REACTORS
330
2A
102
}
330
2A
100
AcDbVisualStyle
  2
Gouraud
 70
     2
177
     3
291
     1
 70
    58
 90
        2
176
     1
 90
        2
176
     1
 90
        1
176
     1
 90
        2
176
     1
 40
0.6
176
     1
 40
30.0
176
     1
 62
     7
420
 16777215
176
     1
 90
        0
176
     1
 90
        0
176
     1
 62
     7
176
     1
 62
   257
176
     1
 90
        1
176
     1
 90
        1
176
     1
 40
1.0
176
     1
 90
        0
176
     1
 62
     7
176
     1
 40
1.0
176
     1
 90
        1
176
     1
 90
        6
176
     1
 90
        2
176
     1
 62
     7
176
     1
 90
        5
176
     1
 90
        0
176
     1
 90
        0
176
     1
290
     0
176
     1
 90
       13
176
     1
 40
0.0
176
     1
 90
        0
176
     1
290
     0
176
     1
290
     1
176
     1
290
     1
176
     1
290
     0
176
     1
290
     0
176
     1
290
     0
176
     1
290
     0
176
     1
290
     0
176
     1
290
     0
176
     1
 90
       50
176
     1
 40
0.0
176
     1
 40
1.0
176
     1
 90
        0
176
     1
 62
   178
420
        0
176
     1
 90
       50
176
     1
 90
        3
176
     1
 62
     5
420
      255
176
     1
290
     0
176
     1
 90
       50
176
     1
 90
       50
176
     1
 90
       50
176
     1
290
     0
176
     1
 90
       50
176
     1
 62
   256
176
     0
 40
1.0
176
     0
 90
        2
176
     1
  1
strokes_ogs.tif
176
     1
290
     0
176
     1
 40
1.0
176
     1
 40
1.0
176
     1
  0
VISUALSTYLE
  5
2E
102
{ACAD_REACTORS
330
2A
102
}
330
2A
100
AcDbVisualStyle
  2
GouraudWithEdges
 70
     3
177
     3
291
     1
 70
    58
 90
        2
176
     1
 90
        2
176
     1
 90
        1
176
     1
 90
        2
176
     1
 40
0.6
176
     1
 40
30.0
176
     1
 62
     7
420
 16777215
176
     1
 90
        1
176
     1
 90
        0
176
     1
 62
     7
176
     1
 62
   257
176
     1
 90
        1
176
     1
 90
        1
176
     1
 40
1.0
176
     1
 90
        0
176
     1
 62
   257
176
     1
 40
1.0
176
     1
 90
        1
176
     1
 90
        6
176
     1
 90
        2
176
     1
 62
     7
176
     1
 90
        5
176
     1
 90
        0
176
     1
 90
        0
176
     1
290
     0
176
     1
 90
       13
176
     1
 40
0.0
176
     1
 90
        0
176
     1
290
     0
176
     1
290
     1
176
     1
290
     1
176
     1
290
     0
176
     1
290
     0
176
     1
290
     0
176
     1
290
     0
176
     1
290
     0
176
     1
290
     0
176
     1
 90
       50
176
     1
 40
0.0
176
     1
 40
1.0
176
     1
 90
        0
176
     1
 62
   178
420
        0
176
     1
 90
       50
176
     1
 90
        3
176
     1
 62
     5
420
      255
176
     1
290
     0
176
     1
 90
       50
176
     1
 90
       50
176
     1
 90
       50
176
     1
290
     0
176
     1
 90
       50
176
     1
 62
   256
176
     0
 40
1.0
176
     0
 90
        2
176
     1
  1
strokes_ogs.tif
176
     1
290
     0
176
     1
 40
1.0
176
     1
 40
1.0
176
     1
  0
VISUALSTYLE
  5
31
102
{ACAD_REACTORS
330
2A
102
}
330
2A
100
AcDbVisualStyle
  2
Hidden
 70
     6
177
     3
291
     0
 70
    58
 90
        1
176
     1
 90
        2
176
     1
 90
        2
176
     1
 90
        0
176
     1
 40
0.6
176
     1
 40
30.0
176
     1
 62
     7
420
 16777215
176
     1
 90
        2
176
     1
 90
        2
176
     1
 62
     7
176
     1
 62
   257
176
     1
 90
        2
176
     1
 90
        1
176
     1
 40
40.0
176
     1
 90
        0
176
     1
 62
   257
176
     1
 40
1.0
176
     1
 90
        1
176
     1
 90
        6
176
     1
 90
        2
176
     1
 62
     7
176
     1
 90
        3
176
     1
 90
        0
176
     1
 90
        0
176
     1
290
     0
176
     1
 90
        1
176
     1
 40
0.0
176
     1
 90
        0
176
     1
290
     0
176
     1
290
     1
176
     1
290
     1
176
     1
290
     0
176
     1
290
     0
176
     1
290
     0
176
     1
290
     0
176
     1
290
     0
176
     1
290
     0
176
     1
 90
       50
176
     1
 40
0.0
176
     1
 40
1.0
176
     1
 90
        0
176
     1
 62
   178
420
        0
176
     1
 90
       50
176
     1
 90
        3
176
     1
 62
     5
420
      255
176
     1
290
     0
176
     1
 90
       50
176
     1
 90
       50
176
     1
 90
       50
176
     1
290
     0
176
     1
 90
       50
176
     1
 62
   256
176
     0
 40
1.0
176
     0
 90
        2
176
     1
  1
strokes_ogs.tif
176
     1
290
     0
176
     1
 40
1.0
176
     1
 40
1.0
176
     1
  0
VISUALSTYLE
  5
3B
102
{ACAD_REACTORS
330
2A
102
}
330
2A
100
AcDbVisualStyle
  2
JitterOff
 70
    20
177
     3
291
     1
 70
    58
 90
        2
176
     0
 90
        2
176
     0
 90
        0
176
     0
 90
        0
176
     0
 40
0.6
176
     0
 40
30.0
176
     0
 62
     7
420
 16777215
176
     0
 90
        1
176
     0
 90
        4
176
     0
 62
     7
176
     0
 62
   257
176
     0
 90
        1
176
     0
 90
        1
176
     0
 40
1.0
176
     0
 90
       10
176
     2
 62
     7
176
     0
 40
1.0
176
     0
 90
        1
176
     0
 90
        6
176
     0
 90
        2
176
     0
 62
     7
176
     0
 90
        5
176
     0
 90
        0
176
     0
 90
        0
176
     0
290
     0
176
     0
 90
        1
176
     0
 40
0.0
176
     0
 90
        0
176
     0
290
     0
176
     0
290
     1
176
     0
290
     1
176
     0
290
     0
176
     0
290
     0
176
     0
290
     0
176
     0
290
     0
176
     0
290
     0
176
     0
290
     0
176
     0
 90
       50
176
     0
 40
0.0
176
     0
 40
1.0
176
     0
 90
        0
176
     0
 62
   178
420
        0
176
     0
 90
       50
176
     0
 90
        3
176
     0
 62
     5
420
      255
176
     0
290
     0
176
     0
 90
       50
176
     0
 90
       50
176
     0
 90
       50
176
     0
290
     0
176
     0
 90
       50
176
     0
 62
   256
176
     0
 40
1.0
176
     0
 90
        2
176
     0
  1
strokes_ogs.tif
176
     0
290
     0
176
     0
 40
1.0
176
     0
 40
1.0
176
     0
  0
VISUALSTYLE
  5
38
102
{ACAD_REACTORS
330
2A
102
}
330
2A
100
AcDbVisualStyle
  2
Linepattern
 70
    14
177
     3
291
     1
 70
    58
 90
        2
176
     1
 90
        2
176
     1
 90
        0
176
     1
 90
        0
176
     1
 40
0.6
176
     1
 40
30.0
176
     1
 62
     7
420
 16777215
176
     1
 90
        1
176
     1
 90
        4
176
     1
 62
     7
176
     1
 62
   257
176
     1
 90
        7
176
     1
 90
        7
176
     1
 40
1.0
176
     1
 90
        8
176
     1
 62
     7
176
     1
 40
1.0
176
     1
 90
        1
176
     1
 90
        6
176
     1
 90
        2
176
     1
 62
     7
176
     1
 90
        5
176
     1
 90
        0
176
     1
 90
        0
176
     1
290
     0
176
     1
 90
        1
176
     1
 40
0.0
176
     1
 90
        0
176
     1
290
     0
176
     1
290
     1
176
     1
290
     1
176
     1
290
     0
176
     1
290
     0
176
     1
290
     0
176
     1
290
     0
176
     1
290
     0
176
     1
290
     0
176
     1
 90
       50
176
     1
 40
0.0
176
     1
 40
1.0
176
     1
 90
        0
176
     1
 62
   178
420
        0
176
     1
 90
       50
176
     1
 90
        3
176
     1
 62
     5
420
      255
176
     1
290
     0
176
     1
 90
       50
176
     1
 90
       50
176
     1
 90
       50
176
     1
290
     0
176
     1
 90
       50
176
     1
 62
   256
176
     0
 40
1.0
176
     0
 90
        2
176
     1
  1
strokes_ogs.tif
176
     1
290
     0
176
     1
 40
1.0
176
     1
 40
1.0
176
     1
  0
VISUALSTYLE
  5
3C
102
{ACAD_REACTORS
330
2A
102
}
330
2A
100
AcDbVisualStyle
  2
OverhangOff
 70
    21
177
     3
291
     1
 70
    58
 90
        2
176
     0
 90
        2
176
     0
 90
        0
176
     0
 90
        0
176
     0
 40
0.6
176
     0
 40
30.0
176
     0
 62
     7
420
 16777215
176
     0
 90
        1
176
     0
 90
        4
176
     0
 62
     7
176
     0
 62
   257
176
     0
 90
        1
176
     0
 90
        1
176
     0
 40
1.0
176
     0
 90
        9
176
     2
 62
     7
176
     0
 40
1.0
176
     0
 90
        1
176
     0
 90
        6
176
     0
 90
        2
176
     0
 62
     7
176
     0
 90
        5
176
     0
 90
        0
176
     0
 90
        0
176
     0
290
     0
176
     0
 90
        1
176
     0
 40
0.0
176
     0
 90
        0
176
     0
290
     0
176
     0
290
     1
176
     0
290
     1
176
     0
290
     0
176
     0
290
     0
176
     0
290
     0
176
     0
290
     0
176
     0
290
     0
176
     0
290
     0
176
     0
 90
       50
176
     0
 40
0.0
176
     0
 40
1.0
176
     0
 90
        0
176
     0
 62
   178
420
        0
176
     0
 90
       50
176
     0
 90
        3
176
     0
 62
     5
420
      255
176
     0
290
     0
176
     0
 90
       50
176
     0
 90
       50
176
     0
 90
       50
176
     0
290
     0
176
     0
 90
       50
176
     0
 62
   256
176
     0
 40
1.0
176
     0
 90
        2
176
     0
  1
strokes_ogs.tif
176
     0
290
     0
176
     0
 40
1.0
176
     0
 40
1.0
176
     0
  0
VISUALSTYLE
  5
33
102
{ACAD_REACTORS
330
2A
102
}
330
2A
100
AcDbVisualStyle
  2
Realistic
 70
     8
177
     3
291
     0
 70
    58
 90
        2
176
     1
 90
        3
176
     1
 90
        0
176
     1
 90
        2
176
     1
 40
0.6
176
     1
 40
30.0
176
     1
 62
     7
420
 16777215
176
     1
 90
        0
176
     1
 90
        0
176
     1
 62
     7
176
     1
 62
   257
176
     1
 90
        1
176
     1
 90
        1
176
     1
 40
1.0
176
     1
 90
        8
176
     1
 62
   257
176
     1
 40
1.0
176
     1
 90
        1
176
     1
 90
        6
176
     1
 90
        2
176
     1
 62
     7
176
     1
 90
        3
176
     1
 90
        0
176
     1
 90
        0
176
     1
290
     0
176
     1
 90
       13
176
     1
 40
0.0
176
     1
 90
        0
176
     1
290
     0
176
     1
290
     1
176
     1
290
     1
176
     1
290
     0
176
     1
290
     0
176
     1
290
     0
176
     1
290
     0
176
     1
290
     0
176
     1
290
     0
176
     1
 90
       50
176
     1
 40
0.0
176
     1
 40
1.0
176
     1
 90
        0
176
     1
 62
   178
420
        0
176
     1
 90
       50
176
     1
 90
        3
176
     1
 62
     5
420
      255
176
     1
290
     0
176
     1
 90
       50
176
     1
 90
       50
176
     1
 90
       50
176
     1
290
     0
176
     1
 90
       50
176
     1
 62
   256
176
     0
 40
1.0
176
     0
 90
        2
176
     1
  1
strokes_ogs.tif
176
     1
290
     0
176
     1
 40
1.0
176
     1
 40
1.0
176
     1
  0
VISUALSTYLE
  5
42
102
{ACAD_REACTORS
330
2A
102
}
330
2A
100
AcDbVisualStyle
  2
Shaded
 70
    27
177
     3
291
     0
 70
    58
 90
        2
176
     1
 90
        2
176
     1
 90
        1
176
     1
 90
        2
176
     1
 40
0.6
176
     1
 40
30.0
176
     1
 62
     7
420
 16777215
176
     1
 90
        0
176
     1
 90
        4
176
     1
 62
     7
176
     1
 62
   257
176
     1
 90
        1
176
     1
 90
        1
176
     1
 40
1.0
176
     1
 90
        8
176
     1
 62
   257
176
     1
 40
1.0
176
     1
 90
        1
176
     1
 90
        6
176
     1
 90
        2
176
     1
 62
     8
420
  7895160
176
     1
 90
        3
176
     1
 90
        0
176
     1
 90
        0
176
     1
290
     0
176
     1
 90
        5
176
     1
 40
0.0
176
     1
 90
        0
176
     1
290
     0
176
     1
290
     1
176
     1
290
     1
176
     1
290
     0
176
     1
290
     0
176
     1
290
     0
176
     1
290
     0
176
     1
290
     0
176
     1
290
     0
176
     1
 90
       50
176
     1
 40
0.0
176
     1
 40
1.0
176
     1
 90
        0
176
     1
 62
   178
420
        0
176
     1
 90
       50
176
     1
 90
        3
176
     1
 62
     5
420
      255
176
     1
290
     0
176
     1
 90
       50
176
     1
 90
       50
176
     1
 90
       50
176
     1
290
     0
176
     1
 90
       50
176
     1
 62
   256
176
     0
 40
1.0
176
     0
 90
        2
176
     1
  1
strokes_ogs.tif
176
     1
290
     0
176
     1
 40
1.0
176
     1
 40
1.0
176
     1
  0
VISUALSTYLE
  5
41
102
{ACAD_REACTORS
330
2A
102
}
330
2A
100
AcDbVisualStyle
  2
Shaded with edges
 70
    26
177
     3
291
     0
 70
    58
 90
        2
176
     1
 90
        2
176
     1
 90
        1
176
     1
 90
        2
176
     1
 40
0.6
176
     1
 40
30.0
176
     1
 62
     7
420
 16777215
176
     1
 90
        1
176
     1
 90
       10
176
     1
 62
     7
176
     1
 62
   257
176
     1
 90
        2
176
     1
 90
        1
176
     1
 40
1.0
176
     1
 90
        8
176
     1
 62
   257
176
     1
 40
1.0
176
     1
 90
        1
176
     1
 90
        6
176
     1
 90
        2
176
     1
 62
     7
176
     1
 90
        3
176
     1
 90
        0
176
     1
 90
        0
176
     1
290
     0
176
     1
 90
        5
176
     1
 40
0.0
176
     1
 90
        0
176
     1
290
     0
176
     1
290
     1
176
     1
290
     1
176
     1
290
     0
176
     1
290
     0
176
     1
290
     0
176
     1
290
     0
176
     1
290
     0
176
     1
290
     0
176
     1
 90
       50
176
     1
 40
0.0
176
     1
 40
1.0
176
     1
 90
        0
176
     1
 62
   178
420
        0
176
     1
 90
       50
176
     1
 90
        3
176
     1
 62
     5
420
      255
176
     1
290
     0
176
     1
 90
       50
176
     1
 90
       50
176
     1
 90
       50
176
     1
290
     0
176
     1
 90
       50
176
     1
 62
   256
176
     0
 40
1.0
176
     0
 90
        2
176
     1
  1
strokes_ogs.tif
176
     1
290
     0
176
     1
 40
1.0
176
     1
 40
1.0
176
     1
  0
VISUALSTYLE
  5
3E
102
{ACAD_REACTORS
330
2A
102
}
330
2A
100
AcDbVisualStyle
  2
Shades of Gray
 70
    23
177
     3
291
     0
 70
    58
 90
        2
176
     1
 90
        2
176
     1
 90
        3
176
     1
 90
        0
176
     1
 40
0.6
176
     1
 40
30.0
176
     1
 62
     7
420
 16777215
176
     1
 90
        2
176
     1
 90
        2
176
     1
 62
     7
176
     1
 62
     7
176
     1
 90
        1
176
     1
 90
        1
176
     1
 40
40.0
176
     1
 90
        8
176
     1
 62
     7
176
     1
 40
1.0
176
     1
 90
        1
176
     1
 90
        6
176
     1
 90
        2
176
     1
 62
     7
176
     1
 90
        3
176
     1
 90
        0
176
     1
 90
        0
176
     1
290
     0
176
     1
 90
        1
176
     1
 40
0.0
176
     1
 90
        0
176
     1
290
     0
176
     1
290
     1
176
     1
290
     1
176
     1
290
     0
176
     1
290
     0
176
     1
290
     0
176
     1
290
     0
176
     1
290
     0
176
     1
290
     0
176
     1
 90
       50
176
     1
 40
0.0
176
     1
 40
1.0
176
     1
 90
        0
176
     1
 62
   178
420
        0
176
     1
 90
       50
176
     1
 90
        3
176
     1
 62
     5
420
      255
176
     1
290
     0
176
     1
 90
       50
176
     1
 90
       50
176
     1
 90
       50
176
     1
290
     0
176
     1
 90
       50
176
     1
 62
   256
176
     0
 40
1.0
176
     0
 90
        2
176
     1
  1
strokes_ogs.tif
176
     1
290
     0
176
     1
 40
1.0
176
     1
 40
1.0
176
     1
  0
VISUALSTYLE
  5
3F
102
{ACAD_REACTORS
330
2A
102
}
330
2A
100
AcDbVisualStyle
  2
Sketchy
 70
    24
177
     3
291
     0
 70
    58
 90
        1
176
     1
 90
        2
176
     1
 90
        2
176
     1
 90
        0
176
     1
 40
0.6
176
     1
 40
30.0
176
     1
 62
     7
420
 16777215
176
     1
 90
        2
176
     1
 90
        2
176
     1
 62
     7
176
     1
 62
     7
176
     1
 90
        1
176
     1
 90
        1
176
     1
 40
40.0
176
     1
 90
       11
176
     1
 62
     7
176
     1
 40
1.0
176
     1
 90
        1
176
     1
 90
        6
176
     1
 90
        2
176
     1
 62
     7
176
     1
 90
        6
176
     1
 90
        0
176
     1
 90
        0
176
     1
290
     0
176
     1
 90
        1
176
     1
 40
0.0
176
     1
 90
        0
176
     1
290
     0
176
     1
290
     1
176
     1
290
     1
176
     1
290
     0
176
     1
290
     0
176
     1
290
     0
176
     1
290
     0
176
     1
290
     0
176
     1
290
     0
176
     1
 90
       50
176
     1
 40
0.0
176
     1
 40
1.0
176
     1
 90
        0
176
     1
 62
   178
420
        0
176
     1
 90
       50
176
     1
 90
        3
176
     1
 62
     5
420
      255
176
     1
290
     0
176
     1
 90
       50
176
     1
 90
       50
176
     1
 90
       50
176
     1
290
     0
176
     1
 90
       50
176
     1
 62
   256
176
     0
 40
1.0
176
     0
 90
        2
176
     1
  1
strokes_ogs.tif
176
     1
290
     0
176
     1
 40
1.0
176
     1
 40
1.0
176
     1
  0
VISUALSTYLE
  5
37
102
{ACAD_REACTORS
330
2A
102
}
330
2A
100
AcDbVisualStyle
  2
Thicken
 70
    13
177
     3
291
     1
 70
    58
 90
        2
176
     1
 90
        2
176
     1
 90
        0
176
     1
 90
        0
176
     1
 40
0.6
176
     1
 40
30.0
176
     1
 62
     7
420
 16777215
176
     1
 90
        1
176
     1
 90
        4
176
     1
 62
     7
176
     1
 62
   257
176
     1
 90
        1
176
     1
 90
        1
176
     1
 40
1.0
176
     1
 90
       12
176
     1
 62
     7
176
     1
 40
1.0
176
     1
 90
        1
176
     1
 90
        6
176
     1
 90
        2
176
     1
 62
     7
176
     1
 90
        5
176
     1
 90
        0
176
     1
 90
        0
176
     1
290
     0
176
     1
 90
        1
176
     1
 40
0.0
176
     1
 90
        0
176
     1
290
     0
176
     1
290
     1
176
     1
290
     1
176
     1
290
     0
176
     1
290
     0
176
     1
290
     0
176
     1
290
     0
176
     1
290
     0
176
     1
290
     0
176
     1
 90
       50
176
     1
 40
0.0
176
     1
 40
1.0
176
     1
 90
        0
176
     1
 62
   178
420
        0
176
     1
 90
       50
176
     1
 90
        3
176
     1
 62
     5
420
      255
176
     1
290
     0
176
     1
 90
       50
176
     1
 90
       50
176
     1
 90
       50
176
     1
290
     0
176
     1
 90
       50
176
     1
 62
   256
176
     0
 40
1.0
176
     0
 90
        2
176
     1
  1
strokes_ogs.tif
176
     1
290
     0
176
     1
 40
1.0
176
     1
 40
1.0
176
     1
  0
VISUALSTYLE
  5
30
102
{ACAD_REACTORS
330
2A
102
}
330
2A
100
AcDbVisualStyle
  2
Wireframe
 70
     5
177
     3
291
     0
 70
    58
 90
        0
176
     1
 90
        2
176
     1
 90
        0
176
     1
 90
        0
176
     1
 40
0.6
176
     1
 40
30.0
176
     1
 62
     7
420
 16777215
176
     1
 90
        1
176
     1
 90
        4
176
     1
 62
     7
176
     1
 62
   257
176
     1
 90
        1
176
     1
 90
        1
176
     1
 40
1.0
176
     1
 90
        0
176
     1
 62
   257
176
     1
 40
1.0
176
     1
 90
        1
176
     1
 90
        6
176
     1
 90
        2
176
     1
 62
     7
176
     1
 90
        3
176
     1
 90
        0
176
     1
 90
        0
176
     1
290
     0
176
     1
 90
        1
176
     1
 40
0.0
176
     1
 90
        0
176
     1
290
     0
176
     1
290
     1
176
     1
290
     1
176
     1
290
     0
176
     1
290
     0
176
     1
290
     0
176
     1
290
     0
176
     1
290
     0
176
     1
290
     0
176
     1
 90
       50
176
     1
 40
0.0
176
     1
 40
1.0
176
     1
 90
        0
176
     1
 62
   178
420
        0
176
     1
 90
       50
176
     1
 90
        3
176
     1
 62
     5
420
      255
176
     1
290
     0
176
     1
 90
       50
176
     1
 90
       50
176
     1
 90
       50
176
     1
290
     0
176
     1
 90
       50
176
     1
 62
   256
176
     0
 40
1.0
176
     0
 90
        2
176
     1
  1
strokes_ogs.tif
176
     1
290
     0
176
     1
 40
1.0
176
     1
 40
1.0
176
     1
  0
VISUALSTYLE
  5
40
102
{ACAD_REACTORS
330
2A
102
}
330
2A
100
AcDbVisualStyle
  2
X-Ray
 70
    25
177
     3
291
     0
 70
    58
 90
        2
176
     1
 90
        2
176
     1
 90
        1
176
     1
 90
        1
176
     1
 40
0.5
176
     1
 40
30.0
176
     1
 62
     7
420
 16777215
176
     1
 90
        1
176
     1
 90
        0
176
     1
 62
     7
176
     1
 62
   257
176
     1
 90
        1
176
     1
 90
        1
176
     1
 40
1.0
176
     1
 90
        8
176
     1
 62
     7
176
     1
 40
1.0
176
     1
 90
        1
176
     1
 90
        6
176
     1
 90
        2
176
     1
 62
     7
176
     1
 90
        3
176
     1
 90
        0
176
     1
 90
        0
176
     1
290
     0
176
     1
 90
       13
176
     1
 40
0.0
176
     1
 90
        0
176
     1
290
     0
176
     1
290
     1
176
     1
290
     1
176
     1
290
     0
176
     1
290
     0
176
     1
290
     0
176
     1
290
     0
176
     1
290
     0
176
     1
290
     0
176
     1
 90
       50
176
     1
 40
0.0
176
     1
 40
1.0
176
     1
 90
        0
176
     1
 62
   178
420
        0
176
     1
 90
       50
176
     1
 90
        3
176
     1
 62
     5
420
      255
176
     1
290
     0
176
     1
 90
       50
176
     1
 90
       50
176
     1
 90
       50
176
     1
290
     0
176
     1
 90
       50
176
     1
 62
   256
176
     0
 40
1.0
176
     0
 90
        2
176
     1
  1
strokes_ogs.tif
176
     1
290
     0
176
     1
 40
1.0
176
     1
 40
1.0
176
     1
  0
DICTIONARYVAR
  5
3E4
102
{ACAD_REACTORS
330
3E3
102
}
330
3E3
100
DictionaryVariables
280
     0
  1
1:1
  0
DICTIONARYVAR
  5
3E9
102
{ACAD_REACTORS
330
3E3
102
}
330
3E3
100
DictionaryVariables
280
     0
  1
Standard
  0
DICTIONARYVAR
  5
3E8
102
{ACAD_REACTORS
330
3E3
102
}
330
3E3
100
DictionaryVariables
280
     0
  1
Standard
  0
DICTIONARY
  5
3E5
330
6A
100
AcDbDictionary
280
     1
281
     1
  3
ACAD_ROUNDTRIP_2008_TABLESTYLE_CELLSTYLEMAP
360
3E6
  0
CELLSTYLEMAP
  5
3E6
102
{ACAD_REACTORS
330
3E5
102
}
330
3E5
100
AcDbCellStyleMap
 90
        3
300
CELLSTYLE
  1
TABLEFORMAT_BEGIN
 90
        5
170
     1
 91
        0
 92
    32768
 62
   257
 93
        1
300
CONTENTFORMAT
  1
CONTENTFORMAT_BEGIN
 90
        0
 91
        0
 92
        4
 93
        0
300

 40
0.0
140
1.0
 94
        5
 62
     0
340
11
144
6.0
309
CONTENTFORMAT_END
171
     1
301
MARGIN
  1
CELLMARGIN_BEGIN
 40
1.5
 40
1.5
 40
1.5
 40
1.5
 40
1.5
 40
1.5
309
CELLMARGIN_END
 94
        6
 95
        1
302
GRIDFORMAT
  1
GRIDFORMAT_BEGIN
 90
        0
 91
        1
 62
     0
 92
       -2
340
14
 93
        0
 40
0.045
309
GRIDFORMAT_END
 95
        2
302
GRIDFORMAT
  1
GRIDFORMAT_BEGIN
 90
        0
 91
        1
 62
     0
 92
       -2
340
14
 93
        0
 40
0.045
309
GRIDFORMAT_END
 95
        4
302
GRIDFORMAT
  1
GRIDFORMAT_BEGIN
 90
        0
 91
        1
 62
     0
 92
       -2
340
14
 93
        0
 40
0.045
309
GRIDFORMAT_END
 95
        8
302
GRIDFORMAT
  1
GRIDFORMAT_BEGIN
 90
        0
 91
        1
 62
     0
 92
       -2
340
14
 93
        0
 40
0.045
309
GRIDFORMAT_END
 95
       16
302
GRIDFORMAT
  1
GRIDFORMAT_BEGIN
 90
        0
 91
        1
 62
     0
 92
       -2
340
14
 93
        0
 40
0.045
309
GRIDFORMAT_END
 95
       32
302
GRIDFORMAT
  1
GRIDFORMAT_BEGIN
 90
        0
 91
        1
 62
     0
 92
       -2
340
14
 93
        0
 40
0.045
309
GRIDFORMAT_END
309
TABLEFORMAT_END
  1
CELLSTYLE_BEGIN
 90
        1
 91
        1
300
_TITLE
309
CELLSTYLE_END
300
CELLSTYLE
  1
TABLEFORMAT_BEGIN
 90
        5
170
     1
 91
        0
 92
        0
 62
   257
 93
        1
300
CONTENTFORMAT
  1
CONTENTFORMAT_BEGIN
 90
        0
 91
        0
 92
        4
 93
        0
300

 40
0.0
140
1.0
 94
        5
 62
     0
340
11
144
4.5
309
CONTENTFORMAT_END
171
     1
301
MARGIN
  1
CELLMARGIN_BEGIN
 40
1.5
 40
1.5
 40
1.5
 40
1.5
 40
1.5
 40
1.5
309
CELLMARGIN_END
 94
        6
 95
        1
302
GRIDFORMAT
  1
GRIDFORMAT_BEGIN
 90
        0
 91
        1
 62
     0
 92
       -2
340
14
 93
        0
 40
0.045
309
GRIDFORMAT_END
 95
        2
302
GRIDFORMAT
  1
GRIDFORMAT_BEGIN
 90
        0
 91
        1
 62
     0
 92
       -2
340
14
 93
        0
 40
0.045
309
GRIDFORMAT_END
 95
        4
302
GRIDFORMAT
  1
GRIDFORMAT_BEGIN
 90
        0
 91
        1
 62
     0
 92
       -2
340
14
 93
        0
 40
0.045
309
GRIDFORMAT_END
 95
        8
302
GRIDFORMAT
  1
GRIDFORMAT_BEGIN
 90
        0
 91
        1
 62
     0
 92
       -2
340
14
 93
        0
 40
0.045
309
GRIDFORMAT_END
 95
       16
302
GRIDFORMAT
  1
GRIDFORMAT_BEGIN
 90
        0
 91
        1
 62
     0
 92
       -2
340
14
 93
        0
 40
0.045
309
GRIDFORMAT_END
 95
       32
302
GRIDFORMAT
  1
GRIDFORMAT_BEGIN
 90
        0
 91
        1
 62
     0
 92
       -2
340
14
 93
        0
 40
0.045
309
GRIDFORMAT_END
309
TABLEFORMAT_END
  1
CELLSTYLE_BEGIN
 90
        2
 91
        1
300
_HEADER
309
CELLSTYLE_END
300
CELLSTYLE
  1
TABLEFORMAT_BEGIN
 90
        5
170
     1
 91
        0
 92
        0
 62
   257
 93
        1
300
CONTENTFORMAT
  1
CONTENTFORMAT_BEGIN
 90
        0
 91
        0
 92
        4
 93
        0
300

 40
0.0
140
1.0
 94
        2
 62
     0
340
11
144
4.5
309
CONTENTFORMAT_END
171
     1
301
MARGIN
  1
CELLMARGIN_BEGIN
 40
1.5
 40
1.5
 40
1.5
 40
1.5
 40
1.5
 40
1.5
309
CELLMARGIN_END
 94
        6
 95
        1
302
GRIDFORMAT
  1
GRIDFORMAT_BEGIN
 90
        0
 91
        1
 62
     0
 92
       -2
340
14
 93
        0
 40
0.045
309
GRIDFORMAT_END
 95
        2
302
GRIDFORMAT
  1
GRIDFORMAT_BEGIN
 90
        0
 91
        1
 62
     0
 92
       -2
340
14
 93
        0
 40
0.045
309
GRIDFORMAT_END
 95
        4
302
GRIDFORMAT
  1
GRIDFORMAT_BEGIN
 90
        0
 91
        1
 62
     0
 92
       -2
340
14
 93
        0
 40
0.045
309
GRIDFORMAT_END
 95
        8
302
GRIDFORMAT
  1
GRIDFORMAT_BEGIN
 90
        0
 91
        1
 62
     0
 92
       -2
340
14
 93
        0
 40
0.045
309
GRIDFORMAT_END
 95
       16
302
GRIDFORMAT
  1
GRIDFORMAT_BEGIN
 90
        0
 91
        1
 62
     0
 92
       -2
340
14
 93
        0
 40
0.045
309
GRIDFORMAT_END
 95
       32
302
GRIDFORMAT
  1
GRIDFORMAT_BEGIN
 90
        0
 91
        1
 62
     0
 92
       -2
340
14
 93
        0
 40
0.045
309
GRIDFORMAT_END
309
TABLEFORMAT_END
  1
CELLSTYLE_BEGIN
 90
        3
 91
        2
300
_DATA
309
CELLSTYLE_END
  0
ENDSEC
  0
EOF
