  0
SECTION
  2
HEADER
  9
$ACADVER
  1
AC1027
  9
$ACADMAINTVER
 70
     8
  9
$DWGCODEPAGE
  3
ANSI_1252
  9
$REQUIREDVERSIONS
160
                 0
  9
$INSBASE
 10
0.0
 20
0.0
 30
0.0
  9
$EXTMIN
 10
0.0
 20
0.0
 30
0.0
  9
$EXTMAX
 10
210.0
 20
297.0
 30
0.0
  9
$LIMMIN
 10
0.0
 20
0.0
  9
$LIMMAX
 10
210.0
 20
297.0
  9
$ORTHOMODE
 70
     0
  9
$REGENMODE
 70
     1
  9
$FILLMODE
 70
     1
  9
$QTEXTMODE
 70
     0
  9
$MIRRTEXT
 70
     1
  9
$LTSCALE
 40
1.0
  9
$ATTMODE
 70
     1
  9
$TEXTSIZE
 40
2.5
  9
$TRACEWID
 40
1.0
  9
$TEXTSTYLE
  7
Standard
  9
$CLAYER
  8
Dimension
  9
$CELTYPE
  6
ByLayer
  9
$CECOLOR
 62
   256
  9
$CELTSCALE
 40
1.0
  9
$DISPSILH
 70
     0
  9
$DIMSCALE
 40
1.0
  9
$DIMASZ
 40
2.5
  9
$DIMEXO
 40
0.625
  9
$DIMDLI
 40
3.75
  9
$DIMRND
 40
0.0
  9
$DIMDLE
 40
0.0
  9
$DIMEXE
 40
1.25
  9
$DIMTP
 40
0.0
  9
$DIMTM
 40
0.0
  9
$DIMTXT
 40
2.5
  9
$DIMCEN
 40
2.5
  9
$DIMTSZ
 40
0.0
  9
$DIMTOL
 70
     0
  9
$DIMLIM
 70
     0
  9
$DIMTIH
 70
     0
  9
$DIMTOH
 70
     0
  9
$DIMSE1
 70
     0
  9
$DIMSE2
 70
     0
  9
$DIMTAD
 70
     1
  9
$DIMZIN
 70
     8
  9
$DIMBLK
  1

  9
$DIMASO
 70
     1
  9
$DIMSHO
 70
     1
  9
$DIMPOST
  1

  9
$DIMAPOST
  1

  9
$DIMALT
 70
     0
  9
$DIMALTD
 70
     3
  9
$DIMALTF
 40
0.03937007874016
  9
$DIMLFAC
 40
1.0
  9
$DIMTOFL
 70
     1
  9
$DIMTVP
 40
0.0
  9
$DIMTIX
 70
     0
  9
$DIMSOXD
 70
     0
  9
$DIMSAH
 70
     0
  9
$DIMBLK1
  1

  9
$DIMBLK2
  1

  9
$DIMSTYLE
  2
ISO-25
  9
$DIMCLRD
 70
     0
  9
$DIMCLRE
 70
     0
  9
$DIMCLRT
 70
     0
  9
$DIMTFAC
 40
1.0
  9
$DIMGAP
 40
0.625
  9
$DIMJUST
 70
     0
  9
$DIMSD1
 70
     0
  9
$DIMSD2
 70
     0
  9
$DIMTOLJ
 70
     0
  9
$DIMTZIN
 70
     8
  9
$DIMALTZ
 70
     0
  9
$DIMALTTZ
 70
     0
  9
$DIMUPT
 70
     0
  9
$DIMDEC
 70
     2
  9
$DIMTDEC
 70
     2
  9
$DIMALTU
 70
     2
  9
$DIMALTTD
 70
     3
  9
$DIMTXSTY
  7
Standard
  9
$DIMAUNIT
 70
     0
  9
$DIMADEC
 70
     0
  9
$DIMALTRND
 40
0.0
  9
$DIMAZIN
 70
     0
  9
$DIMDSEP
 70
    44
  9
$DIMATFIT
 70
     3
  9
$DIMFRAC
 70
     0
  9
$DIMLDRBLK
  1

  9
$DIMLUNIT
 70
     2
  9
$DIMLWD
 70
    -2
  9
$DIMLWE
 70
    -2
  9
$DIMTMOVE
 70
     0
  9
$DIMFXL
 40
1.0
  9
$DIMFXLON
 70
     0
  9
$DIMJOGANG
 40
0.7853981633974483
  9
$DIMTFILL
 70
     0
  9
$DIMTFILLCLR
 70
     0
  9
$DIMARCSYM
 70
     0
  9
$DIMLTYPE
  6

  9
$DIMLTEX1
  6

  9
$DIMLTEX2
  6

  9
$DIMTXTDIRECTION
 70
     0
  9
$LUNITS
 70
     2
  9
$LUPREC
 70
     4
  9
$SKETCHINC
 40
1.0
  9
$FILLETRAD
 40
10.0
  9
$AUNITS
 70
     0
  9
$AUPREC
 70
     0
  9
$MENU
  1
.
  9
$ELEVATION
 40
0.0
  9
$PELEVATION
 40
0.0
  9
$THICKNESS
 40
0.0
  9
$LIMCHECK
 70
     0
  9
$CHAMFERA
 40
0.0
  9
$CHAMFERB
 40
0.0
  9
$CHAMFERC
 40
0.0
  9
$CHAMFERD
 40
0.0
  9
$SKPOLY
 70
     0
  9
$TDCREATE
 40
2457520.553263889
  9
$TDUCREATE
 40
2457520.844930556
  9
$TDUPDATE
 40
2457520.553263889
  9
$TDUUPDATE
 40
2457520.844930556
  9
$TDINDWG
 40
0.0000000116
  9
$TDUSRTIMER
 40
0.0000000116
  9
$USRTIMER
 70
     1
  9
$ANGBASE
 50
0.0
  9
$ANGDIR
 70
     0
  9
$PDMODE
 70
     0
  9
$PDSIZE
 40
0.0
  9
$PLINEWID
 40
0.0
  9
$SPLFRAME
 70
     0
  9
$SPLINETYPE
 70
     6
  9
$SPLINESEGS
 70
     8
  9
$HANDSEED
  5
46F
  9
$SURFTAB1
 70
     6
  9
$SURFTAB2
 70
     6
  9
$SURFTYPE
 70
     6
  9
$SURFU
 70
     6
  9
$SURFV
 70
     6
  9
$UCSBASE
  2

  9
$UCSNAME
  2

  9
$UCSORG
 10
0.0
 20
0.0
 30
0.0
  9
$UCSXDIR
 10
1.0
 20
0.0
 30
0.0
  9
$UCSYDIR
 10
0.0
 20
1.0
 30
0.0
  9
$UCSORTHOREF
  2

  9
$UCSORTHOVIEW
 70
     0
  9
$UCSORGTOP
 10
0.0
 20
0.0
 30
0.0
  9
$UCSORGBOTTOM
 10
0.0
 20
0.0
 30
0.0
  9
$UCSORGLEFT
 10
0.0
 20
0.0
 30
0.0
  9
$UCSORGRIGHT
 10
0.0
 20
0.0
 30
0.0
  9
$UCSORGFRONT
 10
0.0
 20
0.0
 30
0.0
  9
$UCSORGBACK
 10
0.0
 20
0.0
 30
0.0
  9
$PUCSBASE
  2

  9
$PUCSNAME
  2

  9
$PUCSORG
 10
0.0
 20
0.0
 30
0.0
  9
$PUCSXDIR
 10
1.0
 20
0.0
 30
0.0
  9
$PUCSYDIR
 10
0.0
 20
1.0
 30
0.0
  9
$PUCSORTHOREF
  2

  9
$PUCSORTHOVIEW
 70
     0
  9
$PUCSORGTOP
 10
0.0
 20
0.0
 30
0.0
  9
$PUCSORGBOTTOM
 10
0.0
 20
0.0
 30
0.0
  9
$PUCSORGLEFT
 10
0.0
 20
0.0
 30
0.0
  9
$PUCSORGRIGHT
 10
0.0
 20
0.0
 30
0.0
  9
$PUCSORGFRONT
 10
0.0
 20
0.0
 30
0.0
  9
$PUCSORGBACK
 10
0.0
 20
0.0
 30
0.0
  9
$USERI1
 70
     0
  9
$USERI2
 70
     0
  9
$USERI3
 70
     0
  9
$USERI4
 70
     0
  9
$USERI5
 70
     0
  9
$USERR1
 40
0.0
  9
$USERR2
 40
0.0
  9
$USERR3
 40
0.0
  9
$USERR4
 40
0.0
  9
$USERR5
 40
0.0
  9
$WORLDVIEW
 70
     1
  9
$SHADEDGE
 70
     3
  9
$SHADEDIF
 70
    70
  9
$TILEMODE
 70
     1
  9
$MAXACTVP
 70
    64
  9
$PINSBASE
 10
0.0
 20
0.0
 30
0.0
  9
$PLIMCHECK
 70
     0
  9
$PEXTMIN
 10
1.000000000000000E+20
 20
1.000000000000000E+20
 30
1.000000000000000E+20
  9
$PEXTMAX
 10
-1.000000000000000E+20
 20
-1.000000000000000E+20
 30
-1.000000000000000E+20
  9
$PLIMMIN
 10
0.0
 20
0.0
  9
$PLIMMAX
 10
420.0
 20
297.0
  9
$UNITMODE
 70
     0
  9
$VISRETAIN
 70
     1
  9
$PLINEGEN
 70
     0
  9
$PSLTSCALE
 70
     1
  9
$TREEDEPTH
 70
  3020
  9
$CMLSTYLE
  2
Standard
  9
$CMLJUST
 70
     0
  9
$CMLSCALE
 40
20.0
  9
$PROXYGRAPHICS
 70
     1
  9
$MEASUREMENT
 70
     1
  9
$CELWEIGHT
370
    -1
  9
$ENDCAPS
280
     0
  9
$JOINSTYLE
280
     0
  9
$LWDISPLAY
290
     0
  9
$INSUNITS
 70
     4
  9
$HYPERLINKBASE
  1

  9
$STYLESHEET
  1

  9
$XEDIT
290
     1
  9
$CEPSNTYPE
380
     0
  9
$PSTYLEMODE
290
     1
  9
$FINGERPRINTGUID
  2
{e0e5a95d-4e2d-43ed-9c4e-985715db62bd}
  9
$VERSIONGUID
  2
{FAEB1C32-E019-11D5-929B-00C0DF256EC4}
  9
$EXTNAMES
290
     1
  9
$PSVPSCALE
 40
0.0
  9
$OLESTARTUP
290
     0
  9
$SORTENTS
280
   127
  9
$INDEXCTL
280
     0
  9
$HIDETEXT
280
     1
  9
$XCLIPFRAME
280
     2
  9
$HALOGAP
280
     0
  9
$OBSCOLOR
 70
   257
  9
$OBSLTYPE
280
     0
  9
$INTERSECTIONDISPLAY
280
     0
  9
$INTERSECTIONCOLOR
 70
   257
  9
$DIMASSOC
280
     2
  9
$PROJECTNAME
  1

  9
$CAMERADISPLAY
290
     0
  9
$LENSLENGTH
 40
50.0
  9
$CAMERAHEIGHT
 40
0.0
  9
$STEPSPERSEC
 40
2.0
  9
$STEPSIZE
 40
6.0
  9
$3DDWFPREC
 40
2.0
  9
$PSOLWIDTH
 40
5.0
  9
$PSOLHEIGHT
 40
80.0
  9
$LOFTANG1
 40
1.570796326794897
  9
$LOFTANG2
 40
1.570796326794897
  9
$LOFTMAG1
 40
0.0
  9
$LOFTMAG2
 40
0.0
  9
$LOFTPARAM
 70
     7
  9
$LOFTNORMALS
280
     1
  9
$LATITUDE
 40
37.795
  9
$LONGITUDE
 40
-122.394
  9
$NORTHDIRECTION
 40
0.0
  9
$TIMEZONE
 70
 -8000
  9
$LIGHTGLYPHDISPLAY
280
     1
  9
$TILEMODELIGHTSYNCH
280
     1
  9
$CMATERIAL
347
44
  9
$SOLIDHIST
280
     0
  9
$SHOWHIST
280
     1
  9
$DWFFRAME
280
     2
  9
$DGNFRAME
280
     2
  9
$REALWORLDSCALE
290
     1
  9
$INTERFERECOLOR
 62
   256
  9
$CSHADOW
280
     0
  9
$SHADOWPLANELOCATION
 40
0.0
  0
ENDSEC
  0
SECTION
  2
CLASSES
  0
CLASS
  1
ACDBDICTIONARYWDFLT
  2
AcDbDictionaryWithDefault
  3
ObjectDBX Classes
 90
        0
 91
        4
280
     0
281
     0
  0
CLASS
  1
VISUALSTYLE
  2
AcDbVisualStyle
  3
ObjectDBX Classes
 90
     4095
 91
        4
280
     0
281
     0
  0
CLASS
  1
MATERIAL
  2
AcDbMaterial
  3
ObjectDBX Classes
 90
     1153
 91
        4
280
     0
281
     0
  0
CLASS
  1
SCALE
  2
AcDbScale
  3
ObjectDBX Classes
 90
     1153
 91
        4
280
     0
281
     0
  0
CLASS
  1
TABLESTYLE
  2
AcDbTableStyle
  3
ObjectDBX Classes
 90
     4095
 91
        4
280
     0
281
     0
  0
CLASS
  1
MLEADERSTYLE
  2
AcDbMLeaderStyle
  3
ACDB_MLEADERSTYLE_CLASS
 90
     4095
 91
        4
280
     0
281
     0
  0
CLASS
  1
SUN
  2
AcDbSun
  3
SCENEOE
 90
     1153
 91
        4
280
     0
281
     0
  0
CLASS
  1
DICTIONARYVAR
  2
AcDbDictionaryVar
  3
ObjectDBX Classes
 90
        0
 91
        4
280
     0
281
     0
  0
CLASS
  1
CELLSTYLEMAP
  2
AcDbCellStyleMap
  3
ObjectDBX Classes
 90
     1152
 91
        4
280
     0
281
     0
  0
ENDSEC
  0
SECTION
  2
TABLES
  0
TABLE
  2
VPORT
  5
8
330
0
100
AcDbSymbolTable
 70
     1
  0
VPORT
  5
29
330
8
100
AcDbSymbolTableRecord
100
AcDbViewportTableRecord
  2
*Active
 70
     0
 10
0.0
 20
0.0
 11
1.0
 21
1.0
 12
125.5617121067925
 22
151.1971331612253
 13
0.0
 23
0.0
 14
10.0
 24
10.0
 15
10.0
 25
10.0
 16
0.0
 26
0.0
 36
1.0
 17
0.0
 27
0.0
 37
0.0
 40
318.1818181818202
 41
1.863590772316951
 42
50.0
 43
0.0
 44
0.0
 50
0.0
 51
0.0
 71
     0
 72
   100
 73
     1
 74
     3
 75
     0
 76
     0
 77
     0
 78
     0
281
     0
 65
     1
110
0.0
120
0.0
130
0.0
111
1.0
121
0.0
131
0.0
112
0.0
122
1.0
132
0.0
 79
     0
146
0.0
348
2F
 60
     3
 61
     5
292
     1
282
     1
141
0.0
142
0.0
 63
   250
361
6D
  0
ENDTAB
  0
TABLE
  2
LTYPE
  5
5
330
0
100
AcDbSymbolTable
 70
     7
  0
LTYPE
  5
14
330
5
100
AcDbSymbolTableRecord
100
AcDbLinetypeTableRecord
  2
ByBlock
 70
     0
  3

 72
    65
 73
     0
 40
0.0
  0
LTYPE
  5
15
330
5
100
AcDbSymbolTableRecord
100
AcDbLinetypeTableRecord
  2
ByLayer
 70
     0
  3

 72
    65
 73
     0
 40
0.0
  0
LTYPE
  5
16
330
5
100
AcDbSymbolTableRecord
100
AcDbLinetypeTableRecord
  2
Continuous
 70
     0
  3
Solid line
 72
    65
 73
     0
 40
0.0
  0
LTYPE
  5
6E
330
5
100
AcDbSymbolTableRecord
100
AcDbLinetypeTableRecord
  2
DOT
 70
     0
  3
Dot . . . . . . . . . . . . . . . . . . . . . . . .
 72
    65
 73
     2
 40
2.032
 49
1.016
 74
     0
 49
-1.016
 74
     0
  0
LTYPE
  5
6F
330
5
100
AcDbSymbolTableRecord
100
AcDbLinetypeTableRecord
  2
CENTER
 70
     0
  3
Center ____ _ ____ _ ____ _ ____ _ ____ _ ____
 72
    65
 73
     4
 40
13.208
 49
8.128
 74
     0
 49
-1.524
 74
     0
 49
2.032
 74
     0
 49
-1.524
 74
     0
  0
LTYPE
  5
70
330
5
100
AcDbSymbolTableRecord
100
AcDbLinetypeTableRecord
  2
HIDDEN2
 70
     0
  3
Hidden (.5x) _ _ _ _ _ _ _ _ _ _ _ _ _ _ _ _ _
 72
    65
 73
     2
 40
4.762499999999999
 49
3.175
 74
     0
 49
-1.5875
 74
     0
  0
LTYPE
  5
71
330
5
100
AcDbSymbolTableRecord
100
AcDbLinetypeTableRecord
  2
DASHED
 70
     0
  3
Dashed __ __ __ __ __ __ __ __ __ __ __ __ __ _
 72
    65
 73
     2
 40
9.652
 49
8.128
 74
     0
 49
-1.524
 74
     0
  0
LTYPE
  5
72
330
5
100
AcDbSymbolTableRecord
100
AcDbLinetypeTableRecord
  2
PHANTOM2
 70
     0
  3
Phantom (.5x) ___ _ _ ___ _ _ ___ _ _ ___ _ _
 72
    65
 73
     6
 40
14.732
 49
8.128
 74
     0
 49
-1.524
 74
     0
 49
1.016
 74
     0
 49
-1.524
 74
     0
 49
1.016
 74
     0
 49
-1.524
 74
     0
  0
LTYPE
  5
73
330
5
100
AcDbSymbolTableRecord
100
AcDbLinetypeTableRecord
  2
DASHDOT
 70
     0
  3
Dash dot __ . __ . __ . __ . __ . __ . __ . __
 72
    65
 73
     4
 40
11.176
 49
8.128
 74
     0
 49
-1.524
 74
     0
 49
0.0
 74
     0
 49
-1.524
 74
     0
  0
ENDTAB
  0
TABLE
  2
LAYER
  5
2
330
0
100
AcDbSymbolTable
 70
     8
  0
LAYER
  5
10
330
2
100
AcDbSymbolTableRecord
100
AcDbLayerTableRecord
  2
0
 70
     0
 62
     7
  6
Continuous
370
    -3
390
F
347
46
348
0
  0
LAYER
  5
74
330
2
100
AcDbSymbolTableRecord
100
AcDbLayerTableRecord
  2
Outline
 70
     0
 62
     7
  6
Continuous
370
    -3
390
F
347
46
348
0
  0
LAYER
  5
75
330
2
100
AcDbSymbolTableRecord
100
AcDbLayerTableRecord
  2
Axis
 70
     0
 62
     5
  6
DASHDOT
370
    -3
390
F
347
46
348
0
  0
LAYER
  5
76
330
2
100
AcDbSymbolTableRecord
100
AcDbLayerTableRecord
  2
Dimension
 70
     0
 62
     7
  6
Continuous
370
    -3
390
F
347
46
348
0
  0
LAYER
  5
77
330
2
100
AcDbSymbolTableRecord
100
AcDbLayerTableRecord
  2
Hatch
 70
     0
 62
     5
  6
Continuous
370
    -3
390
F
347
46
348
0
  0
LAYER
  5
78
330
2
100
AcDbSymbolTableRecord
100
AcDbLayerTableRecord
  2
Auxiliary
 70
     0
 62
     1
  6
DOT
370
    -3
390
F
347
46
348
0
  0
LAYER
  5
79
330
2
100
AcDbSymbolTableRecord
100
AcDbLayerTableRecord
  2
Invisible
 70
     0
 62
     6
  6
DOT
370
    -3
390
F
347
46
348
0
  0
LAYER
  5
A3
330
2
100
AcDbSymbolTableRecord
100
AcDbLayerTableRecord
  2
Defpoints
 70
     0
 62
     7
  6
Continuous
290
     0
370
    -3
390
F
347
46
348
0
  0
ENDTAB
  0
TABLE
  2
STYLE
  5
3
330
0
100
AcDbSymbolTable
 70
    33
  0
STYLE
  5
11
330
3
100
AcDbSymbolTableRecord
100
AcDbTextStyleTableRecord
  2
Standard
 70
     0
 40
0.0
 41
1.0
 50
0.0
 71
     0
 42
2.5
  3
txt
  4

  0
STYLE
  5
7A
330
3
100
AcDbSymbolTableRecord
100
AcDbTextStyleTableRecord
  2
VCDSTYLE01
 70
     0
 40
0.0
 41
1.0
 50
0.0
 71
     0
 42
2.5
  3
txt
  4

  0
STYLE
  5
7B
330
3
100
AcDbSymbolTableRecord
100
AcDbTextStyleTableRecord
  2
VCDSTYLE02
 70
     0
 40
0.0
 41
1.0
 50
0.0
 71
     0
 42
2.5
  3
txt
  4

  0
STYLE
  5
7C
330
3
100
AcDbSymbolTableRecord
100
AcDbTextStyleTableRecord
  2
VCDSTYLE03
 70
     0
 40
0.0
 41
1.0
 50
0.0
 71
     0
 42
2.5
  3
txt
  4

  0
STYLE
  5
7D
330
3
100
AcDbSymbolTableRecord
100
AcDbTextStyleTableRecord
  2
VCDSTYLE04
 70
     0
 40
0.0
 41
1.0
 50
0.0
 71
     0
 42
2.5
  3
txt
  4

  0
STYLE
  5
7E
330
3
100
AcDbSymbolTableRecord
100
AcDbTextStyleTableRecord
  2
VCDSTYLE05
 70
     0
 40
0.0
 41
1.0
 50
0.0
 71
     0
 42
2.5
  3
txt
  4

  0
STYLE
  5
7F
330
3
100
AcDbSymbolTableRecord
100
AcDbTextStyleTableRecord
  2
VCDSTYLE06
 70
     0
 40
0.0
 41
1.0
 50
0.0
 71
     0
 42
2.5
  3
txt
  4

  0
STYLE
  5
80
330
3
100
AcDbSymbolTableRecord
100
AcDbTextStyleTableRecord
  2
VCDSTYLE07
 70
     0
 40
0.0
 41
1.0
 50
0.0
 71
     0
 42
2.5
  3
txt
  4

  0
STYLE
  5
81
330
3
100
AcDbSymbolTableRecord
100
AcDbTextStyleTableRecord
  2
VCDSTYLE08
 70
     0
 40
0.0
 41
1.0
 50
0.0
 71
     0
 42
2.5
  3
txt
  4

  0
STYLE
  5
82
330
3
100
AcDbSymbolTableRecord
100
AcDbTextStyleTableRecord
  2
VCDSTYLE09
 70
     0
 40
0.0
 41
1.0
 50
0.0
 71
     0
 42
2.5
  3
txt
  4

  0
STYLE
  5
83
330
3
100
AcDbSymbolTableRecord
100
AcDbTextStyleTableRecord
  2
VCDSTYLE10
 70
     0
 40
0.0
 41
1.0
 50
0.0
 71
     0
 42
2.5
  3
Sans Serif.ttf
  4

1001
ACAD
1000
Sans Serif
1071
        0
  0
STYLE
  5
84
330
3
100
AcDbSymbolTableRecord
100
AcDbTextStyleTableRecord
  2
VCDSTYLE11
 70
     0
 40
0.0
 41
1.0
 50
0.0
 71
     0
 42
2.5
  3
Sans Serif.ttf
  4

1001
ACAD
1000
Sans Serif
1071
 16777216
  0
STYLE
  5
85
330
3
100
AcDbSymbolTableRecord
100
AcDbTextStyleTableRecord
  2
VCDSTYLE12
 70
     0
 40
0.0
 41
1.0
 50
0.0
 71
     0
 42
2.5
  3
DejaVu Sans.ttf
  4

1001
ACAD
1000
DejaVu Sans
1071
        0
  0
STYLE
  5
86
330
3
100
AcDbSymbolTableRecord
100
AcDbTextStyleTableRecord
  2
VCDSTYLE13
 70
     0
 40
0.0
 41
1.0
 50
0.0
 71
     0
 42
2.5
  3
DejaVu Sans.ttf
  4

1001
ACAD
1000
DejaVu Sans
1071
 16777216
  0
STYLE
  5
87
330
3
100
AcDbSymbolTableRecord
100
AcDbTextStyleTableRecord
  2
VCDSTYLE14
 70
     0
 40
0.0
 41
1.0
 50
0.0
 71
     0
 42
2.5
  3
DejaVu Sans Mono.ttf
  4

1001
ACAD
1000
DejaVu Sans Mono
1071
        0
  0
STYLE
  5
88
330
3
100
AcDbSymbolTableRecord
100
AcDbTextStyleTableRecord
  2
VCDSTYLE15
 70
     0
 40
0.0
 41
1.0
 50
0.0
 71
     0
 42
2.5
  3
DejaVu Sans Mono.ttf
  4

1001
ACAD
1000
DejaVu Sans Mono
1071
 16777216
  0
STYLE
  5
89
330
3
100
AcDbSymbolTableRecord
100
AcDbTextStyleTableRecord
  2
VCDSTYLE16
 70
     0
 40
0.0
 41
1.0
 50
0.0
 71
     0
 42
2.5
  3
UnDotum.ttf
  4

1001
ACAD
1000
UnDotum
1071
        0
  0
STYLE
  5
8A
330
3
100
AcDbSymbolTableRecord
100
AcDbTextStyleTableRecord
  2
VCDSTYLE17
 70
     0
 40
0.0
 41
1.0
 50
0.0
 71
     0
 42
2.5
  3
UnDotum.ttf
  4

1001
ACAD
1000
UnDotum
1071
 16777216
  0
STYLE
  5
8B
330
3
100
AcDbSymbolTableRecord
100
AcDbTextStyleTableRecord
  2
VCDSTYLE18
 70
     0
 40
0.0
 41
1.0
 50
0.0
 71
     0
 42
2.5
  3
Sans Serif.ttf
  4

1001
ACAD
1000
Sans Serif
1071
        0
  0
STYLE
  5
8C
330
3
100
AcDbSymbolTableRecord
100
AcDbTextStyleTableRecord
  2
VCDSTYLE19
 70
     0
 40
0.0
 41
1.0
 50
0.0
 71
     0
 42
2.5
  3
Sans Serif.ttf
  4

1001
ACAD
1000
Sans Serif
1071
 16777216
  0
STYLE
  5
8D
330
3
100
AcDbSymbolTableRecord
100
AcDbTextStyleTableRecord
  2
VCDSTYLE20
 70
     0
 40
0.0
 41
1.0
 50
0.0
 71
     0
 42
2.5
  3
Sans Serif.ttf
  4

1001
ACAD
1000
Sans Serif
1071
        0
  0
STYLE
  5
8E
330
3
100
AcDbSymbolTableRecord
100
AcDbTextStyleTableRecord
  2
VCDSTYLE21
 70
     0
 40
0.0
 41
1.0
 50
0.0
 71
     0
 42
2.5
  3
Sans Serif.ttf
  4

1001
ACAD
1000
Sans Serif
1071
 16777216
  0
STYLE
  5
8F
330
3
100
AcDbSymbolTableRecord
100
AcDbTextStyleTableRecord
  2
VCDSTYLE22
 70
     0
 40
0.0
 41
1.0
 50
0.0
 71
     0
 42
2.5
  3
Monospace.ttf
  4

1001
ACAD
1000
Monospace
1071
        0
  0
STYLE
  5
90
330
3
100
AcDbSymbolTableRecord
100
AcDbTextStyleTableRecord
  2
VCDSTYLE23
 70
     0
 40
0.0
 41
1.0
 50
0.0
 71
     0
 42
2.5
  3
Monospace.ttf
  4

1001
ACAD
1000
Monospace
1071
 16777216
  0
STYLE
  5
91
330
3
100
AcDbSymbolTableRecord
100
AcDbTextStyleTableRecord
  2
VCDSTYLE24
 70
     0
 40
0.0
 41
1.0
 50
0.0
 71
     0
 42
2.5
  3
URW Gothic L.ttf
  4

1001
ACAD
1000
URW Gothic L
1071
        0
  0
STYLE
  5
92
330
3
100
AcDbSymbolTableRecord
100
AcDbTextStyleTableRecord
  2
VCDSTYLE25
 70
     0
 40
0.0
 41
1.0
 50
0.0
 71
     0
 42
2.5
  3
URW Gothic L.ttf
  4

1001
ACAD
1000
URW Gothic L
1071
 16777216
  0
STYLE
  5
93
330
3
100
AcDbSymbolTableRecord
100
AcDbTextStyleTableRecord
  2
VCDSTYLE26
 70
     0
 40
0.0
 41
1.0
 50
0.0
 71
     0
 42
2.5
  3
Waree.ttf
  4

1001
ACAD
1000
Waree
1071
        0
  0
STYLE
  5
94
330
3
100
AcDbSymbolTableRecord
100
AcDbTextStyleTableRecord
  2
VCDSTYLE27
 70
     0
 40
0.0
 41
1.0
 50
0.0
 71
     0
 42
2.5
  3
Waree.ttf
  4

1001
ACAD
1000
Waree
1071
 16777216
  0
STYLE
  5
95
330
3
100
AcDbSymbolTableRecord
100
AcDbTextStyleTableRecord
  2
VCDSTYLE28
 70
     0
 40
0.0
 41
1.0
 50
0.0
 71
     0
 42
2.5
  3
Nimbus Mono L.ttf
  4

1001
ACAD
1000
Nimbus Mono L
1071
        0
  0
STYLE
  5
96
330
3
100
AcDbSymbolTableRecord
100
AcDbTextStyleTableRecord
  2
VCDSTYLE29
 70
     0
 40
0.0
 41
1.0
 50
0.0
 71
     0
 42
2.5
  3
Nimbus Sans L.ttf
  4

1001
ACAD
1000
Nimbus Sans L
1071
        0
  0
STYLE
  5
97
330
3
100
AcDbSymbolTableRecord
100
AcDbTextStyleTableRecord
  2
VCDSTYLE30
 70
     0
 40
0.0
 41
1.0
 50
0.0
 71
     0
 42
2.5
  3
Nimbus Sans L.ttf
  4

1001
ACAD
1000
Nimbus Sans L
1071
 16777216
  0
STYLE
  5
98
330
3
100
AcDbSymbolTableRecord
100
AcDbTextStyleTableRecord
  2
VCDSTYLE31
 70
     0
 40
0.0
 41
1.0
 50
0.0
 71
     0
 42
2.5
  3
Serif.ttf
  4

1001
ACAD
1000
Serif
1071
        0
  0
STYLE
  5
99
330
3
100
AcDbSymbolTableRecord
100
AcDbTextStyleTableRecord
  2
VCDSTYLE32
 70
     0
 40
0.0
 41
1.0
 50
0.0
 71
     0
 42
2.5
  3
Serif.ttf
  4

1001
ACAD
1000
Serif
1071
 16777216
  0
ENDTAB
  0
TABLE
  2
VIEW
  5
6
330
0
100
AcDbSymbolTable
 70
     0
  0
ENDTAB
  0
TABLE
  2
UCS
  5
7
330
0
100
AcDbSymbolTable
 70
     0
  0
ENDTAB
  0
TABLE
  2
APPID
  5
9
330
0
100
AcDbSymbolTable
 70
     1
  0
APPID
  5
12
330
9
100
AcDbSymbolTableRecord
100
AcDbRegAppTableRecord
  2
ACAD
 70
     0
  0
ENDTAB
  0
TABLE
  2
DIMSTYLE
  5
A
330
0
100
AcDbSymbolTable
 70
     2
100
AcDbDimStyleTable
  0
DIMSTYLE
105
27
330
A
100
AcDbSymbolTableRecord
100
AcDbDimStyleTableRecord
  2
ISO-25
 70
     0
 41
2.5
 42
0.625
 43
3.75
 44
1.25
 73
     0
 74
     0
 77
     1
 78
     8
140
2.5
141
2.5
143
0.03937007874016
147
0.625
171
     3
172
     1
178
     0
271
     2
272
     2
274
     3
278
    44
283
     0
284
     8
340
11
  0
DIMSTYLE
105
A1
102
{ACAD_REACTORS
330
A2
330
B0
330
BD
102
}
330
A
100
AcDbSymbolTableRecord
100
AcDbDimStyleTableRecord
  2
VCDDIMSTYLE01
 70
     0
 41
5.0
 42
0.0
 43
8.0
 44
1.0
 73
     0
 74
     0
 77
     1
 78
     8
 79
     2
140
4.0
147
1.0
172
     1
173
     1
178
     0
179
     3
271
     5
275
     1
288
     1
289
     0
340
7B
  0
ENDTAB
  0
TABLE
  2
BLOCK_RECORD
  5
1
330
0
100
AcDbSymbolTable
 70
    12
  0
BLOCK_RECORD
  5
1F
330
1
100
AcDbSymbolTableRecord
100
AcDbBlockTableRecord
  2
*Model_Space
340
22
 70
     0
280
     1
281
     0
  0
BLOCK_RECORD
  5
1B
330
1
100
AcDbSymbolTableRecord
100
AcDbBlockTableRecord
  2
*Paper_Space
340
1E
 70
     0
280
     1
281
     0
  0
BLOCK_RECORD
  5
23
330
1
100
AcDbSymbolTableRecord
100
AcDbBlockTableRecord
  2
*Paper_Space0
340
26
 70
     0
280
     1
281
     0
  0
BLOCK_RECORD
  5
9A
330
1
100
AcDbSymbolTableRecord
100
AcDbBlockTableRecord
  2
*D1
340
0
 70
     0
280
     1
281
     0
  0
BLOCK_RECORD
  5
A9
330
1
100
AcDbSymbolTableRecord
100
AcDbBlockTableRecord
  2
*D2
340
0
 70
     0
280
     1
281
     0
  0
BLOCK_RECORD
  5
B6
330
1
100
AcDbSymbolTableRecord
100
AcDbBlockTableRecord
  2
*D3
340
0
 70
     0
280
     1
281
     0
  0
BLOCK_RECORD
  5
411
330
1
100
AcDbSymbolTableRecord
100
AcDbBlockTableRecord
  2
$AttrValue elphel_parts
340
0
102
{BLKREFS
331
413
102
}
 70
     0
280
     1
281
     0
  0
BLOCK_RECORD
  5
416
330
1
100
AcDbSymbolTableRecord
100
AcDbBlockTableRecord
  2
$AttrValue elphel_parts(1)
340
0
102
{BLKREFS
331
418
102
}
 70
     0
280
     1
281
     0
  0
BLOCK_RECORD
  5
41B
330
1
100
AcDbSymbolTableRecord
100
AcDbBlockTableRecord
  2
$AttrValue elphel_parts(2)
340
0
102
{BLKREFS
331
41D
102
}
 70
     0
280
     1
281
     0
  0
BLOCK_RECORD
  5
420
330
1
100
AcDbSymbolTableRecord
100
AcDbBlockTableRecord
  2
$AttrValue elphel_parts(3)
340
0
102
{BLKREFS
331
422
102
}
 70
     0
280
     1
281
     0
  0
BLOCK_RECORD
  5
425
330
1
100
AcDbSymbolTableRecord
100
AcDbBlockTableRecord
  2
$AttrValue elphel_parts(4)
340
0
102
{BLKREFS
331
427
102
}
 70
     0
280
     1
281
     0
  0
BLOCK_RECORD
  5
42A
330
1
100
AcDbSymbolTableRecord
100
AcDbBlockTableRecord
  2
$AttrValue elphel_parts(5)
340
0
102
{BLKREFS
331
42C
102
}
 70
     0
280
     1
281
     0
  0
BLOCK_RECORD
  5
42F
330
1
100
AcDbSymbolTableRecord
100
AcDbBlockTableRecord
  2
$TitleBlock elphel_parts
340
0
102
{BLKREFS
331
45D
102
}
 70
     0
280
     1
281
     0
  0
BLOCK_RECORD
  5
460
330
1
100
AcDbSymbolTableRecord
100
AcDbBlockTableRecord
  2
Sheet Border
340
0
102
{BLKREFS
331
463
102
}
 70
     0
280
     1
281
     0
  0
ENDTAB
  0
ENDSEC
  0
SECTION
  2
BLOCKS
  0
BLOCK
  5
20
330
1F
100
AcDbEntity
  8
0
100
AcDbBlockBegin
  2
*Model_Space
 70
     0
 10
0.0
 20
0.0
 30
0.0
  3
*Model_Space
  1

  0
ENDBLK
  5
21
330
1F
100
AcDbEntity
  8
0
100
AcDbBlockEnd
  0
BLOCK
  5
1C
330
1B
100
AcDbEntity
 67
     1
  8
0
100
AcDbBlockBegin
  2
*Paper_Space
 70
     0
 10
0.0
 20
0.0
 30
0.0
  3
*Paper_Space
  1

  0
ENDBLK
  5
1D
330
1B
100
AcDbEntity
 67
     1
  8
0
100
AcDbBlockEnd
  0
BLOCK
  5
24
330
23
100
AcDbEntity
  8
0
100
AcDbBlockBegin
  2
*Paper_Space0
 70
     0
 10
0.0
 20
0.0
 30
0.0
  3
*Paper_Space0
  1

  0
ENDBLK
  5
25
330
23
100
AcDbEntity
  8
0
100
AcDbBlockEnd
  0
BLOCK
  5
A7
330
9A
100
AcDbEntity
  8
0
100
AcDbBlockBegin
  2
*D1
 70
     1
 10
0.0
 20
0.0
 30
0.0
  3
*D1
  1

  0
LINE
  5
9B
330
9A
100
AcDbEntity
  8
Dimension
 62
     0
370
    -2
100
AcDbLine
 10
126.8037243103936
 20
268.0655331283448
 30
0.0
 11
141.2140103095454
 21
268.0655331283448
 31
0.0
  0
LINE
  5
9C
330
9A
100
AcDbEntity
  8
Dimension
 62
     0
370
    -2
100
AcDbLine
 10
127.0537243103937
 20
157.6529582165524
 30
0.0
 11
141.2140103095454
 21
157.6529582165524
 31
0.0
  0
LINE
  5
9D
330
9A
100
AcDbEntity
  8
Dimension
 62
     0
370
    -2
100
AcDbLine
 10
140.2140103095454
 20
263.0655331283448
 30
0.0
 11
140.2140103095454
 21
162.6529582165524
 31
0.0
  0
SOLID
  5
9E
330
9A
100
AcDbEntity
  8
Dimension
 62
     0
100
AcDbTrace
 10
141.0473436428787
 20
263.0655331283448
 30
0.0
 11
139.380676976212
 21
263.0655331283448
 31
0.0
 12
140.2140103095454
 22
268.0655331283448
 32
0.0
 13
140.2140103095454
 23
268.0655331283448
 33
0.0
  0
SOLID
  5
9F
330
9A
100
AcDbEntity
  8
Dimension
 62
     0
100
AcDbTrace
 10
139.380676976212
 20
162.6529582165524
 30
0.0
 11
141.0473436428787
 21
162.6529582165524
 31
0.0
 12
140.2140103095454
 22
157.6529582165524
 32
0.0
 13
140.2140103095454
 23
157.6529582165524
 33
0.0
  0
MTEXT
  5
A0
330
9A
100
AcDbEntity
  8
Dimension
 62
     0
100
AcDbMText
 10
137.2140103095454
 20
211.9159059753332
 30
0.0
 40
4.0
 41
0.0
 46
0.0
 71
     5
 72
     1
  1
\A1;110.4
  7
VCDSTYLE02
 11
0.0
 21
1.0
 31
0.0
 73
     1
 44
1.0
  0
POINT
  5
A4
330
9A
100
AcDbEntity
  8
Defpoints
 62
     0
100
AcDbPoint
 10
126.8037243103936
 20
268.0655331283448
 30
0.0
  0
POINT
  5
A5
330
9A
100
AcDbEntity
  8
Defpoints
 62
     0
100
AcDbPoint
 10
127.0537243103937
 20
157.6529582165524
 30
0.0
  0
POINT
  5
A6
330
9A
100
AcDbEntity
  8
Defpoints
 62
     0
100
AcDbPoint
 10
140.2140103095454
 20
157.6529582165524
 30
0.0
  0
ENDBLK
  5
A8
330
9A
100
AcDbEntity
  8
0
100
AcDbBlockEnd
  0
BLOCK
  5
B4
330
A9
100
AcDbEntity
  8
0
100
AcDbBlockBegin
  2
*D2
 70
     1
 10
0.0
 20
0.0
 30
0.0
  3
*D2
  1

  0
LINE
  5
AA
330
A9
100
AcDbEntity
  8
Dimension
 62
     0
370
    -2
100
AcDbLine
 10
124.8037243103934
 20
125.6529582165535
 30
0.0
 11
137.8843419491491
 21
125.6529582165535
 31
0.0
  0
LINE
  5
AB
330
A9
100
AcDbEntity
  8
Dimension
 62
     0
370
    -2
100
AcDbLine
 10
124.8037243103935
 20
85.15295821655437
 30
0.0
 11
137.8843419491491
 21
85.15295821655437
 31
0.0
  0
LINE
  5
AC
330
A9
100
AcDbEntity
  8
Dimension
 62
     0
370
    -2
100
AcDbLine
 10
136.8843419491491
 20
120.6529582165535
 30
0.0
 11
136.8843419491491
 21
90.15295821655437
 31
0.0
  0
SOLID
  5
AD
330
A9
100
AcDbEntity
  8
Dimension
 62
     0
100
AcDbTrace
 10
137.7176752824825
 20
120.6529582165535
 30
0.0
 11
136.0510086158158
 21
120.6529582165535
 31
0.0
 12
136.8843419491491
 22
125.6529582165535
 32
0.0
 13
136.8843419491491
 23
125.6529582165535
 33
0.0
  0
SOLID
  5
AE
330
A9
100
AcDbEntity
  8
Dimension
 62
     0
100
AcDbTrace
 10
136.0510086158158
 20
90.15295821655437
 30
0.0
 11
137.7176752824825
 21
90.15295821655437
 31
0.0
 12
136.8843419491491
 22
85.15295821655437
 32
0.0
 13
136.8843419491491
 23
85.15295821655437
 33
0.0
  0
MTEXT
  5
AF
330
A9
100
AcDbEntity
  8
Dimension
 62
     0
100
AcDbMText
 10
133.8843419491491
 20
104.9308484277476
 30
0.0
 40
4.0
 41
0.0
 46
0.0
 71
     5
 72
     1
  1
\A1;40.5
  7
VCDSTYLE02
 11
0.0
 21
1.0
 31
0.0
 73
     1
 44
1.0
  0
POINT
  5
B1
330
A9
100
AcDbEntity
  8
Defpoints
 62
     0
100
AcDbPoint
 10
124.8037243103934
 20
125.6529582165535
 30
0.0
  0
POINT
  5
B2
330
A9
100
AcDbEntity
  8
Defpoints
 62
     0
100
AcDbPoint
 10
124.8037243103935
 20
85.15295821655437
 30
0.0
  0
POINT
  5
B3
330
A9
100
AcDbEntity
  8
Defpoints
 62
     0
100
AcDbPoint
 10
136.8843419491491
 20
85.15295821655437
 30
0.0
  0
ENDBLK
  5
B5
330
A9
100
AcDbEntity
  8
0
100
AcDbBlockEnd
  0
BLOCK
  5
C1
330
B6
100
AcDbEntity
  8
0
100
AcDbBlockBegin
  2
*D3
 70
     1
 10
0.0
 20
0.0
 30
0.0
  3
*D3
  1

  0
LINE
  5
B7
330
B6
100
AcDbEntity
  8
Dimension
 62
     0
370
    -2
100
AcDbLine
 10
86.55372431039137
 20
87.40295821655323
 30
0.0
 11
86.55372431039137
 21
74.13626375370244
 31
0.0
  0
LINE
  5
B8
330
B6
100
AcDbEntity
  8
Dimension
 62
     0
370
    -2
100
AcDbLine
 10
127.0537243103934
 20
87.40295821655434
 30
0.0
 11
127.0537243103934
 21
74.13626375370244
 31
0.0
  0
LINE
  5
B9
330
B6
100
AcDbEntity
  8
Dimension
 62
     0
370
    -2
100
AcDbLine
 10
91.55372431039137
 20
75.13626375370244
 30
0.0
 11
122.0537243103934
 21
75.13626375370244
 31
0.0
  0
SOLID
  5
BA
330
B6
100
AcDbEntity
  8
Dimension
 62
     0
100
AcDbTrace
 10
91.55372431039137
 20
75.96959708703577
 30
0.0
 11
91.55372431039137
 21
74.30293042036911
 31
0.0
 12
86.55372431039137
 22
75.13626375370244
 32
0.0
 13
86.55372431039137
 23
75.13626375370244
 33
0.0
  0
SOLID
  5
BB
330
B6
100
AcDbEntity
  8
Dimension
 62
     0
100
AcDbTrace
 10
122.0537243103934
 20
74.30293042036911
 30
0.0
 11
122.0537243103934
 21
75.96959708703577
 31
0.0
 12
127.0537243103934
 22
75.13626375370244
 32
0.0
 13
127.0537243103934
 23
75.13626375370244
 33
0.0
  0
MTEXT
  5
BC
330
B6
100
AcDbEntity
  8
Dimension
 62
     0
100
AcDbMText
 10
106.8492625871282
 20
78.13626375370244
 30
0.0
 40
4.0
 41
0.0
 46
0.0
 71
     5
 72
     1
  1
\A1;40.5
  7
VCDSTYLE02
 73
     1
 44
1.0
  0
POINT
  5
BE
330
B6
100
AcDbEntity
  8
Defpoints
 62
     0
100
AcDbPoint
 10
86.55372431039137
 20
87.40295821655323
 30
0.0
  0
POINT
  5
BF
330
B6
100
AcDbEntity
  8
Defpoints
 62
     0
100
AcDbPoint
 10
127.0537243103934
 20
87.40295821655434
 30
0.0
  0
POINT
  5
C0
330
B6
100
AcDbEntity
  8
Defpoints
 62
     0
100
AcDbPoint
 10
127.0537243103934
 20
75.13626375370244
 30
0.0
  0
ENDBLK
  5
C2
330
B6
100
AcDbEntity
  8
0
100
AcDbBlockEnd
  0
BLOCK
  5
414
330
411
100
AcDbEntity
  8
0
100
AcDbBlockBegin
  2
$AttrValue elphel_parts
 70
     0
 10
0.0
 20
0.0
 30
0.0
  3
$AttrValue elphel_parts
  1

  0
TEXT
  5
412
330
411
100
AcDbEntity
  8
0
100
AcDbText
 10
0.0
 20
0.0
 30
0.0
 40
1.5
  1
2016
  7
VCDSTYLE10
100
AcDbText
  0
ENDBLK
  5
415
330
411
100
AcDbEntity
  8
0
100
AcDbBlockEnd
  0
BLOCK
  5
419
330
416
100
AcDbEntity
  8
0
100
AcDbBlockBegin
  2
$AttrValue elphel_parts(1)
 70
     0
 10
0.0
 20
0.0
 30
0.0
  3
$AttrValue elphel_parts(1)
  1

  0
TEXT
  5
417
330
416
100
AcDbEntity
  8
0
 62
     2
100
AcDbText
 10
0.0
 20
0.0
 30
0.0
 40
2.0
  1
custom designs
  7
VCDSTYLE03
100
AcDbText
  0
ENDBLK
  5
41A
330
416
100
AcDbEntity
  8
0
100
AcDbBlockEnd
  0
BLOCK
  5
41E
330
41B
100
AcDbEntity
  8
0
100
AcDbBlockBegin
  2
$AttrValue elphel_parts(2)
 70
     0
 10
0.0
 20
0.0
 30
0.0
  3
$AttrValue elphel_parts(2)
  1

  0
TEXT
  5
41C
330
41B
100
AcDbEntity
  8
0
 62
     2
100
AcDbText
 10
0.0
 20
0.0
 30
0.0
 40
2.0
  1
boolean operations in
  7
VCDSTYLE03
100
AcDbText
  0
ENDBLK
  5
41F
330
41B
100
AcDbEntity
  8
0
100
AcDbBlockEnd
  0
BLOCK
  5
423
330
420
100
AcDbEntity
  8
0
100
AcDbBlockBegin
  2
$AttrValue elphel_parts(3)
 70
     0
 10
0.0
 20
0.0
 30
0.0
  3
$AttrValue elphel_parts(3)
  1

  0
TEXT
  5
421
330
420
100
AcDbEntity
  8
0
 62
     2
100
AcDbText
 10
0.0
 20
0.0
 30
0.0
 40
2.0
  1
This part is intended for
  7
VCDSTYLE03
100
AcDbText
  0
ENDBLK
  5
424
330
420
100
AcDbEntity
  8
0
100
AcDbBlockEnd
  0
BLOCK
  5
428
330
425
100
AcDbEntity
  8
0
100
AcDbBlockBegin
  2
$AttrValue elphel_parts(4)
 70
     0
 10
0.0
 20
0.0
 30
0.0
  3
$AttrValue elphel_parts(4)
  1

  0
TEXT
  5
426
330
425
100
AcDbEntity
  8
0
 62
     2
100
AcDbText
 10
0.0
 20
0.0
 30
0.0
 40
3.0
  1
SFE cutout part
  7
VCDSTYLE04
100
AcDbText
  0
ENDBLK
  5
429
330
425
100
AcDbEntity
  8
0
100
AcDbBlockEnd
  0
BLOCK
  5
42D
330
42A
100
AcDbEntity
  8
0
100
AcDbBlockBegin
  2
$AttrValue elphel_parts(5)
 70
     0
 10
0.0
 20
0.0
 30
0.0
  3
$AttrValue elphel_parts(5)
  1

  0
TEXT
  5
42B
330
42A
100
AcDbEntity
  8
0
 62
     2
100
AcDbText
 10
0.0
 20
0.0
 30
0.0
 40
6.0
  1
0393-27-07
  7
VCDSTYLE22
100
AcDbText
  0
ENDBLK
  5
42E
330
42A
100
AcDbEntity
  8
0
100
AcDbBlockEnd
  0
BLOCK
  5
45E
330
42F
100
AcDbEntity
  8
0
100
AcDbBlockBegin
  2
$TitleBlock elphel_parts
 70
     0
 10
0.0
 20
0.0
 30
0.0
  3
$TitleBlock elphel_parts
  1

  0
TEXT
  5
430
330
42F
100
AcDbEntity
  8
Outline
 62
     2
100
AcDbText
 10
-168.3495635986328
 20
16.18584442138672
 30
0.0
 40
1.841060042381287
  1
Surface
  7
VCDSTYLE02
100
AcDbText
  0
LWPOLYLINE
  5
431
330
42F
100
AcDbEntity
  8
Outline
 62
     2
100
AcDbPolyline
 90
        5
 70
     0
 43
0.0
 10
-0.4602650136366151
 20
0.4602650136366293
 10
-82.38743744095697
 20
0.4602650136366293
 10
-82.38743744095697
 20
15.18874545000888
 10
-0.4602650136366151
 20
15.18874545000888
 10
-0.4602650136366151
 20
0.0
  0
LINE
  5
432
330
42F
100
AcDbEntity
  8
Outline
 62
     2
100
AcDbLine
 10
0.0000000000000568
 20
15.64901046364552
 30
0.0
 11
0.0000000000000568
 21
0.0
 31
0.0
  0
LINE
  5
433
330
42F
100
AcDbEntity
  8
Outline
 62
     2
100
AcDbLine
 10
-97.57618289096607
 20
15.64901046364552
 30
0.0
 11
-97.57618289096607
 21
19.56126307955689
 31
0.0
  0
LINE
  5
434
330
42F
100
AcDbEntity
  8
Outline
 62
     2
100
AcDbLine
 10
-170.298055045554
 20
15.64901046364552
 30
0.0
 11
-82.84770245459381
 21
15.64901046364552
 31
0.0
  0
LINE
  5
435
330
42F
100
AcDbEntity
  8
Outline
 62
     2
100
AcDbLine
 10
-170.298055045554
 20
0.0
 30
0.0
 11
-82.84770245459381
 21
0.0
 31
0.0
  0
LINE
  5
436
330
42F
100
AcDbEntity
  8
Outline
 62
     2
100
AcDbLine
 10
-82.84770245459381
 20
0.0
 30
0.0
 11
-82.84770245459381
 21
15.64901046364552
 31
0.0
  0
LINE
  5
437
330
42F
100
AcDbEntity
  8
Outline
 62
     2
100
AcDbLine
 10
-170.298055045554
 20
19.56126307955689
 30
0.0
 11
0.0000000000000568
 21
19.56126307955689
 31
0.0
  0
LINE
  5
438
330
42F
100
AcDbEntity
  8
Outline
 62
     2
100
AcDbLine
 10
0.0000000000000568
 20
0.0
 30
0.0
 11
-82.84770245459381
 21
0.0
 31
0.0
  0
LINE
  5
439
330
42F
100
AcDbEntity
  8
Outline
 62
     2
100
AcDbLine
 10
-82.84770245459381
 20
15.64901046364552
 30
0.0
 11
0.0000000000000568
 21
15.64901046364552
 31
0.0
  0
TEXT
  5
43A
330
42F
100
AcDbEntity
  8
Outline
 62
     2
100
AcDbText
 10
-81.25203704833984
 20
44.91454315185547
 30
0.0
 40
0.9205300211906433
  1
Description
  7
VCDSTYLE02
100
AcDbText
  0
LINE
  5
43B
330
42F
100
AcDbEntity
  8
Outline
 62
     2
100
AcDbLine
 10
-170.298055045554
 20
27.38576831137964
 30
0.0
 11
0.0000000000000568
 21
27.38576831137964
 31
0.0
  0
LINE
  5
43C
330
42F
100
AcDbEntity
  8
Outline
 62
     2
100
AcDbLine
 10
0.0000000000000568
 20
46.94703139093654
 30
0.0
 11
-170.298055045554
 21
46.94703139093654
 31
0.0
  0
LINE
  5
43D
330
42F
100
AcDbEntity
  8
Outline
 62
     2
100
AcDbLine
 10
-170.298055045554
 20
27.38576831137964
 30
0.0
 11
-82.84770245459381
 21
27.38576831137964
 31
0.0
  0
LINE
  5
43E
330
42F
100
AcDbEntity
  8
Outline
 62
     2
100
AcDbLine
 10
-170.298055045554
 20
31.29802092729101
 30
0.0
 11
-170.298055045554
 21
46.94703139093654
 31
0.0
  0
LINE
  5
43F
330
42F
100
AcDbEntity
  8
Outline
 62
     2
100
AcDbLine
 10
-82.84770245459381
 20
46.94703139093654
 30
0.0
 11
-82.84770245459381
 21
31.29802092729101
 31
0.0
  0
LINE
  5
440
330
42F
100
AcDbEntity
  8
Outline
 62
     2
100
AcDbLine
 10
0.0000000000000568
 20
31.29802092729101
 30
0.0
 11
0.0000000000000568
 21
46.94703139093654
 31
0.0
  0
LINE
  5
441
330
42F
100
AcDbEntity
  8
Outline
 62
     2
100
AcDbLine
 10
-157.0483207857146
 20
46.94703139093654
 30
0.0
 11
-157.0483207857146
 21
31.29802092729101
 31
0.0
  0
TEXT
  5
442
330
42F
100
AcDbEntity
  8
Outline
 62
     2
100
AcDbText
 10
-168.3495635986328
 20
28.04717826843262
 30
0.0
 40
1.841060042381287
  1
Material
  7
VCDSTYLE02
100
AcDbText
  0
LINE
  5
443
330
42F
100
AcDbEntity
  8
Outline
 62
     2
100
AcDbLine
 10
-170.298055045554
 20
0.0
 30
0.0
 11
-170.298055045554
 21
31.29802092729101
 31
0.0
  0
LINE
  5
444
330
42F
100
AcDbEntity
  8
Outline
 62
     2
100
AcDbLine
 10
-150.9056121242796
 20
15.64901046364552
 30
0.0
 11
-150.9056121242796
 21
31.29802092729101
 31
0.0
  0
LINE
  5
445
330
42F
100
AcDbEntity
  8
Outline
 62
     2
100
AcDbLine
 10
-82.84770245459381
 20
31.29802092729101
 30
0.0
 11
-82.84770245459381
 21
15.64901046364552
 31
0.0
  0
LINE
  5
446
330
42F
100
AcDbEntity
  8
Outline
100
AcDbLine
 10
-170.298055045554
 20
23.47351569546827
 30
0.0
 11
-82.84770245459381
 21
23.47351569546827
 31
0.0
  0
LINE
  5
447
330
42F
100
AcDbEntity
  8
Outline
 62
     2
100
AcDbLine
 10
-170.298055045554
 20
23.47351569546827
 30
0.0
 11
0.0000000000000568
 21
23.47351569546827
 31
0.0
  0
TEXT
  5
448
330
42F
100
AcDbEntity
  8
Outline
 62
     2
100
AcDbText
 10
-168.3495635986328
 20
24.13492584228516
 30
0.0
 40
1.841060042381287
  1
Finish
  7
VCDSTYLE02
100
AcDbText
  0
LINE
  5
449
330
42F
100
AcDbEntity
  8
Outline
 62
     2
100
AcDbLine
 10
0.0000000000000568
 20
15.64901046364552
 30
0.0
 11
0.0000000000000568
 21
31.29802092729101
 31
0.0
  0
TEXT
  5
44A
330
42F
100
AcDbEntity
  8
Outline
 62
     2
100
AcDbText
 10
-81.25203704833984
 20
12.55433559417725
 30
0.0
 40
0.9205300211906433
  1
Notes
  7
VCDSTYLE02
100
AcDbText
  0
LINE
  5
44B
330
42F
100
AcDbEntity
  8
Outline
 62
     2
100
AcDbLine
 10
-170.298055045554
 20
31.29802092729101
 30
0.0
 11
-82.84770245459381
 21
31.29802092729101
 31
0.0
  0
TEXT
  5
44C
330
42F
100
AcDbEntity
  8
Outline
 62
     2
100
AcDbText
 10
-168.3495635986328
 20
20.20714569091797
 30
0.0
 40
1.841060042381287
  1
Weight(g)
  7
VCDSTYLE02
100
AcDbText
  0
TEXT
  5
44D
330
42F
100
AcDbEntity
  8
Outline
100
AcDbText
 10
-167.9451904296875
 20
7.327913284301758
 30
0.0
 40
1.200000047683716
  1
Permission is also granted to copy, distribute and/or modify this document under the terms of the
 50
360.0
  7
VCDSTYLE10
100
AcDbText
  0
TEXT
  5
44E
330
42F
100
AcDbEntity
  8
Outline
100
AcDbText
 10
-167.9451904296875
 20
5.407913684844971
 30
0.0
 40
1.200000047683716
  1
GNU Free Documentation License, Version 1.3 or any later version published by the Free Software
 50
360.0
  7
VCDSTYLE10
100
AcDbText
  0
TEXT
  5
44F
330
42F
100
AcDbEntity
  8
Outline
100
AcDbText
 10
-167.9451904296875
 20
3.487913608551025
 30
0.0
 40
1.200000047683716
  1
Foundation; with no Invariant Sections, no Front-Cover Texts, and no Back-Cover Texts.  A copy of
 50
360.0
  7
VCDSTYLE10
100
AcDbText
  0
TEXT
  5
450
330
42F
100
AcDbEntity
  8
Outline
100
AcDbText
 10
-167.9451904296875
 20
1.56791353225708
 30
0.0
 40
1.200000047683716
  1
the license is included in the section entitled "GNU Free Documentation License".
 50
360.0
  7
VCDSTYLE10
100
AcDbText
  0
TEXT
  5
451
330
42F
100
AcDbEntity
  8
Outline
 62
     2
100
AcDbText
 10
-156.5416564941406
 20
45.10939788818359
 30
0.0
 40
0.9205300211906433
  1
Part #
  7
VCDSTYLE02
100
AcDbText
  0
TEXT
  5
452
330
42F
100
AcDbEntity
  8
Outline
 62
     2
100
AcDbText
 10
-169.0979461669922
 20
45.19255065917969
 30
0.0
 40
0.9205300211906433
  1
Revision
  7
VCDSTYLE02
100
AcDbText
  0
TEXT
  5
453
330
42F
100
AcDbEntity
  8
Outline
100
AcDbText
 10
-168.0283508300781
 20
12.77079391479492
 30
0.0
 40
1.5
  1
Copyright (c)                 Elphel, Inc.
 50
360.0
  7
VCDSTYLE10
100
AcDbText
  0
TEXT
  5
454
330
42F
100
AcDbEntity
  8
Outline
100
AcDbText
 10
-168.0283508300781
 20
10.37079429626465
 30
0.0
 40
1.5
  1
Licensed under CERN OHL v.1.1 or later - see http://ohwr.org/cernohl
 50
360.0
  7
VCDSTYLE10
100
AcDbText
  0
TEXT
  5
455
330
42F
100
AcDbEntity
  8
Outline
100
AcDbText
 10
-168.0283508300781
 20
7.970794200897217
 30
0.0
 40
1.5
  1
 
 50
360.0
  7
VCDSTYLE10
100
AcDbText
  0
LINE
  5
456
330
42F
100
AcDbEntity
  8
Outline
 62
     2
100
AcDbLine
 10
-59.83011277766059
 20
27.38576831137964
 30
0.0
 11
-59.83011277766059
 21
15.64901046364552
 31
0.0
  0
TEXT
  5
457
330
42F
100
AcDbEntity
  8
Outline
 62
     2
100
AcDbText
 10
-82.25203704833984
 20
24.13492584228516
 30
0.0
 40
1.841060042381287
  1
Serial No.
  7
VCDSTYLE02
100
AcDbText
  0
TEXT
  5
458
330
42F
100
AcDbEntity
  8
Outline
 62
     2
100
AcDbText
 10
-82.25203704833984
 20
16.18584442138672
 30
0.0
 40
1.841060042381287
  1
Date
  7
VCDSTYLE02
100
AcDbText
  0
TEXT
  5
459
330
42F
100
AcDbEntity
  8
Outline
 62
     2
100
AcDbText
 10
-82.25203704833984
 20
20.20714569091797
 30
0.0
 40
1.841060042381287
  1
Assembly No.
  7
VCDSTYLE02
100
AcDbText
  0
LINE
  5
45A
330
42F
100
AcDbEntity
  8
Outline
 62
     2
100
AcDbLine
 10
-14.79493342379411
 20
19.56126307955689
 30
0.0
 11
-14.79493342379411
 21
15.64901046364552
 31
0.0
  0
LINE
  5
45B
330
42F
100
AcDbEntity
  8
Outline
 62
     2
100
AcDbLine
 10
-26.81252310072733
 20
19.56126307955689
 30
0.0
 11
-26.81252310072733
 21
15.64901046364552
 31
0.0
  0
TEXT
  5
45C
330
42F
100
AcDbEntity
  8
Outline
 62
     2
100
AcDbText
 10
-25.21685791015625
 20
16.18584442138672
 30
0.0
 40
1.841060042381287
  1
Scale
  7
VCDSTYLE02
100
AcDbText
  0
ENDBLK
  5
45F
330
42F
100
AcDbEntity
  8
0
100
AcDbBlockEnd
  0
BLOCK
  5
464
330
460
100
AcDbEntity
  8
0
100
AcDbBlockBegin
  2
Sheet Border
 70
     0
 10
0.0
 20
0.0
 30
0.0
  3
Sheet Border
  1

  0
LWPOLYLINE
  5
461
330
460
100
AcDbEntity
  8
Outline
 62
     2
100
AcDbPolyline
 90
        5
 70
     0
 43
0.0
 10
5.0
 20
5.0
 10
205.0
 20
5.0
 10
205.0
 20
292.0
 10
5.0
 20
292.0
 10
5.0
 20
5.0
  0
LWPOLYLINE
  5
462
330
460
100
AcDbEntity
  8
Outline
 62
     2
100
AcDbPolyline
 90
        5
 70
     0
 43
0.0
 10
0.0
 20
0.0
 10
210.0
 20
0.0
 10
210.0
 20
297.0
 10
0.0
 20
297.0
 10
0.0
 20
0.0
  0
ENDBLK
  5
465
330
460
100
AcDbEntity
  8
0
100
AcDbBlockEnd
  0
ENDSEC
  0
SECTION
  2
ENTITIES
  0
DIMENSION
  5
A2
330
1F
100
AcDbEntity
  8
Dimension
100
AcDbDimension
280
     0
  2
*D1
 10
140.2140103095454
 20
157.6529582165524
 30
0.0
 11
140.2140103095454
 21
211.9159059753332
 31
0.0
 70
   160
  1
110.4
 71
     5
 42
110.4125749117923
 73
     0
 74
     0
 75
     0
  3
VCDDIMSTYLE01
100
AcDbAlignedDimension
 13
126.8037243103936
 23
268.0655331283448
 33
0.0
 14
127.0537243103937
 24
157.6529582165524
 34
0.0
 50
90.0
100
AcDbRotatedDimension
1001
ACAD
1000
DSTYLE
1002
{
1070
   271
1070
     3
1002
}
  0
DIMENSION
  5
B0
330
1F
100
AcDbEntity
  8
Dimension
100
AcDbDimension
280
     0
  2
*D2
 10
136.8843419491491
 20
85.15295821655437
 30
0.0
 11
136.8843419491491
 21
104.9308484277476
 31
0.0
 70
   160
 71
     5
 42
40.49999999999909
 73
     0
 74
     0
 75
     0
  3
VCDDIMSTYLE01
100
AcDbAlignedDimension
 13
124.8037243103934
 23
125.6529582165535
 33
0.0
 14
124.8037243103935
 24
85.15295821655437
 34
0.0
 50
90.0
100
AcDbRotatedDimension
1001
ACAD
1000
DSTYLE
1002
{
1070
   271
1070
     4
1002
}
  0
DIMENSION
  5
BD
330
1F
100
AcDbEntity
  8
Dimension
100
AcDbDimension
280
     0
  2
*D3
 10
127.0537243103934
 20
75.13626375370244
 30
0.0
 11
106.8492625871282
 21
75.13626375370244
 31
0.0
 70
   160
 71
     5
 42
40.50000000000207
 73
     0
 74
     0
 75
     0
  3
VCDDIMSTYLE01
100
AcDbAlignedDimension
 13
86.55372431039137
 23
87.40295821655323
 33
0.0
 14
127.0537243103934
 24
87.40295821655434
 34
0.0
100
AcDbRotatedDimension
1001
ACAD
1000
DSTYLE
1002
{
1070
   271
1070
     4
1002
}
  0
ARC
  5
C3
330
1F
100
AcDbEntity
  8
0
 62
     2
100
AcDbCircle
 10
93.63386337842908
 20
92.23418489768713
 30
0.0
 40
2.499999999999916
100
AcDbArc
 50
115.3759048274925
 51
334.6220377512711
  0
ARC
  5
C4
330
1F
100
AcDbEntity
  8
0
 62
     2
100
AcDbCircle
 10
92.13489783358747
 20
115.4105646606649
 30
0.0
 40
1.000000000000054
100
AcDbArc
 50
359.997201126058
 51
64.62203775118705
  0
ARC
  5
C5
330
1F
100
AcDbEntity
  8
0
 62
     2
100
AcDbCircle
 10
119.9735851015387
 20
118.5717241560105
 30
0.0
 40
2.499999999999944
100
AcDbArc
 50
295.3759048275319
 51
154.6220377511907
  0
ARC
  5
C6
330
1F
100
AcDbEntity
  8
0
 62
     2
100
AcDbCircle
 10
121.4725506463782
 20
95.39534439303378
 30
0.0
 40
1.000000000000053
100
AcDbArc
 50
179.9972011263184
 51
244.6220377513134
  0
ARC
  5
C7
330
1F
100
AcDbEntity
  8
0
 62
     2
100
AcDbCircle
 10
112.8037278479246
 20
89.20295476358328
 30
0.0
 40
0.7499999999999432
100
AcDbArc
 50
0.0
 51
90.00000226064824
  0
ARC
  5
C8
330
1F
100
AcDbEntity
  8
0
 62
     2
100
AcDbCircle
 10
90.60372400325647
 20
111.4029580137974
 30
0.0
 40
0.750000000000029
100
AcDbArc
 50
0.0000022588727439
 51
90.00000021225527
  0
ARC
  5
C9
330
1F
100
AcDbEntity
  8
0
 62
     2
100
AcDbCircle
 10
100.8037206320432
 20
121.6029542901144
 30
0.0
 40
0.7499999999999147
100
AcDbArc
 50
180.0
 51
269.9999999999862
  0
ARC
  5
CA
330
1F
100
AcDbEntity
  8
0
 62
     2
100
AcDbCircle
 10
123.0037244767113
 20
99.40295103990033
 30
0.0
 40
0.750000000000029
100
AcDbArc
 50
180.0000022588727
 51
269.9999999983064
  0
ARC
  5
CB
330
1F
100
AcDbEntity
  8
0
 62
     2
100
AcDbCircle
 10
110.0037243103875
 20
123.5529590092579
 30
0.0
 40
0.5000000000000284
100
AcDbArc
 50
180.0
 51
269.9999999999841
  0
ARC
  5
CC
330
1F
100
AcDbEntity
  8
0
 62
     2
100
AcDbCircle
 10
124.9537251030838
 20
108.6029582165588
 30
0.0
 40
0.5000000000000284
100
AcDbArc
 50
180.0
 51
269.9999999998673
  0
ARC
  5
CD
330
1F
100
AcDbEntity
  8
0
 62
     2
100
AcDbCircle
 10
124.9537251031001
 20
101.5529583430002
 30
0.0
 40
0.5000000000000284
100
AcDbArc
 50
180.0
 51
269.9999999998648
  0
ARC
  5
CE
330
1F
100
AcDbEntity
  8
0
 62
     2
100
AcDbCircle
 10
110.6537241839789
 20
87.25295742386515
 30
0.0
 40
0.4999999999999716
100
AcDbArc
 50
0.0
 51
90.00000000008058
  0
ARC
  5
CF
330
1F
100
AcDbEntity
  8
0
 62
     2
100
AcDbCircle
 10
103.6037243103975
 20
87.25295742384861
 30
0.0
 40
0.5000000000000284
100
AcDbArc
 50
0.0
 51
90.00000000022632
  0
ARC
  5
D0
330
1F
100
AcDbEntity
  8
0
 62
     2
100
AcDbCircle
 10
88.65372351770117
 20
102.2029582165478
 30
0.0
 40
0.5000000000000284
100
AcDbArc
 50
0.0
 51
89.9999999998787
  0
ARC
  5
D1
330
1F
100
AcDbEntity
  8
0
 62
     2
100
AcDbCircle
 10
88.65372351768482
 20
109.2529580901064
 30
0.0
 40
0.5000000000000568
100
AcDbArc
 50
0.0
 51
89.99999999991857
  0
ARC
  5
D2
330
1F
100
AcDbEntity
  8
0
 62
     2
100
AcDbCircle
 10
102.953724436806
 20
123.5529590092414
 30
0.0
 40
0.5000000000000284
100
AcDbArc
 50
180.0
 51
269.9999999999438
  0
LINE
  5
D3
330
1F
100
AcDbEntity
  8
0
 62
     2
100
AcDbLine
 10
122.7251216214867
 20
124.4529516048197
 30
0.0
 11
111.6537241839457
 21
124.4529517723531
 31
0.0
  0
LINE
  5
D4
330
1F
100
AcDbEntity
  8
0
 62
     2
100
AcDbLine
 10
122.7251216290528
 20
124.8529516048196
 30
0.0
 11
111.6537241839457
 21
124.8529516048193
 31
0.0
  0
ARC
  5
D5
330
1F
100
AcDbEntity
  8
0
 62
     2
100
AcDbCircle
 10
111.6537241839457
 20
124.3529517723531
 30
0.0
 40
0.0999999999999943
100
AcDbArc
 50
90.0
 51
180.0000000000469
  0
ARC
  5
D6
330
1F
100
AcDbEntity
  8
0
 62
     2
100
AcDbCircle
 10
111.6537241839457
 20
124.3529517723531
 30
0.0
 40
0.4999999999999716
100
AcDbArc
 50
90.0
 51
180.0000000000488
  0
LINE
  5
D7
330
1F
100
AcDbEntity
  8
0
 62
     2
100
AcDbLine
 10
111.5537241839458
 20
124.352951772353
 30
0.0
 11
111.5537241839465
 21
123.5529590092603
 31
0.0
  0
LINE
  5
D8
330
1F
100
AcDbEntity
  8
0
 62
     2
100
AcDbLine
 10
111.1537241839458
 20
124.3529517723526
 30
0.0
 11
111.1537241839465
 21
123.55295900926
 31
0.0
  0
ARC
  5
D9
330
1F
100
AcDbEntity
  8
0
 62
     2
100
AcDbCircle
 10
110.6537241839464
 20
123.5529590092595
 30
0.0
 40
0.8999999999999488
100
AcDbArc
 50
270.0000000001339
 51
0.000000000055418
  0
ARC
  5
DA
330
1F
100
AcDbEntity
  8
0
 62
     2
100
AcDbCircle
 10
110.6537241839464
 20
123.5529590092595
 30
0.0
 40
0.5
100
AcDbArc
 50
270.0000000001368
 51
0.0000000000598453
  0
LINE
  5
DB
330
1F
100
AcDbEntity
  8
0
 62
     2
100
AcDbLine
 10
110.6537241839485
 20
122.6529590092595
 30
0.0
 11
110.0037243103895
 21
122.652959009258
 31
0.0
  0
LINE
  5
DC
330
1F
100
AcDbEntity
  8
0
 62
     2
100
AcDbLine
 10
110.6537241839476
 20
123.0529590092595
 30
0.0
 11
110.0037243103886
 21
123.0529590092595
 31
0.0
  0
LINE
  5
DD
330
1F
100
AcDbEntity
  8
0
 62
     2
100
AcDbLine
 10
109.1037243103874
 20
123.5529590092576
 30
0.0
 11
109.1037243103872
 21
124.3529519915552
 31
0.0
  0
LINE
  5
DE
330
1F
100
AcDbEntity
  8
0
 62
     2
100
AcDbLine
 10
109.5037243103874
 20
123.5529590092578
 30
0.0
 11
109.5037243103872
 21
124.3529519915554
 31
0.0
  0
ARC
  5
DF
330
1F
100
AcDbEntity
  8
0
 62
     2
100
AcDbCircle
 10
109.0037243103872
 20
124.3529519915552
 30
0.0
 40
0.0999999999999943
100
AcDbArc
 50
0.0
 51
89.9999957684659
  0
ARC
  5
E0
330
1F
100
AcDbEntity
  8
0
 62
     2
100
AcDbCircle
 10
109.0037243103872
 20
124.3529519915552
 30
0.0
 40
0.5000000000000284
100
AcDbArc
 50
0.0
 51
89.99999576845202
  0
LINE
  5
E1
330
1F
100
AcDbEntity
  8
0
 62
     2
100
AcDbLine
 10
109.0037243177726
 20
124.4529519915552
 30
0.0
 11
104.6037243103871
 21
124.4529523165131
 31
0.0
  0
LINE
  5
E2
330
1F
100
AcDbEntity
  8
0
 62
     2
100
AcDbLine
 10
109.0037243473143
 20
124.8529519915552
 30
0.0
 11
104.6037243103871
 21
124.852951991555
 31
0.0
  0
ARC
  5
E3
330
1F
100
AcDbEntity
  8
0
 62
     2
100
AcDbCircle
 10
104.6037243103871
 20
124.3529523165132
 30
0.0
 40
0.0999999999999943
100
AcDbArc
 50
89.99999999998371
 51
179.9999999999939
  0
ARC
  5
E4
330
1F
100
AcDbEntity
  8
0
 62
     2
100
AcDbCircle
 10
104.6037243103871
 20
124.3529523165132
 30
0.0
 40
0.4999999999999716
100
AcDbArc
 50
90.0
 51
180.0000000000159
  0
LINE
  5
E5
330
1F
100
AcDbEntity
  8
0
 62
     2
100
AcDbLine
 10
104.503724310387
 20
124.3529523165131
 30
0.0
 11
104.5037243103872
 21
123.5529590092432
 31
0.0
  0
LINE
  5
E6
330
1F
100
AcDbEntity
  8
0
 62
     2
100
AcDbLine
 10
104.103724310387
 20
124.352952316513
 30
0.0
 11
104.1037243103873
 21
123.5529590092431
 31
0.0
  0
ARC
  5
E7
330
1F
100
AcDbEntity
  8
0
 62
     2
100
AcDbCircle
 10
103.6037243103872
 20
123.552959009243
 30
0.0
 40
0.8999999999999773
100
AcDbArc
 50
270.0000000001356
 51
0.0000000000194396
  0
ARC
  5
E8
330
1F
100
AcDbEntity
  8
0
 62
     2
100
AcDbCircle
 10
103.6037243103872
 20
123.552959009243
 30
0.0
 40
0.4999999999999716
100
AcDbArc
 50
270.0000000001335
 51
0.0000000000179129
  0
ARC
  5
E9
330
1F
100
AcDbEntity
  8
0
 62
     2
100
AcDbCircle
 10
88.65372351768636
 20
108.6029582165475
 30
0.0
 40
0.8999999999999488
100
AcDbArc
 50
270.0000000000235
 51
0.0000000001325146
  0
ARC
  5
EA
330
1F
100
AcDbEntity
  8
0
 62
     2
100
AcDbCircle
 10
88.65372351768636
 20
108.6029582165475
 30
0.0
 40
0.4999999999999716
100
AcDbArc
 50
270.0000000000163
 51
0.0000000001327182
  0
LINE
  5
EB
330
1F
100
AcDbEntity
  8
0
 62
     2
100
AcDbLine
 10
103.6037243103893
 20
122.652959009243
 30
0.0
 11
102.9537244368081
 21
122.6529590092414
 31
0.0
  0
LINE
  5
EC
330
1F
100
AcDbEntity
  8
0
 62
     2
100
AcDbLine
 10
103.6037243103884
 20
123.052959009243
 30
0.0
 11
102.9537244368072
 21
123.052959009243
 31
0.0
  0
ARC
  5
ED
330
1F
100
AcDbEntity
  8
0
 62
     2
100
AcDbCircle
 10
102.953724436806
 20
123.5529590092414
 30
0.0
 40
0.9000000000000625
100
AcDbArc
 50
180.0
 51
269.9999999999423
  0
LINE
  5
EE
330
1F
100
AcDbEntity
  8
0
 62
     2
100
AcDbLine
 10
102.053724436806
 20
123.5529590092405
 30
0.0
 11
102.0537244368053
 21
124.3529522747347
 31
0.0
  0
LINE
  5
EF
330
1F
100
AcDbEntity
  8
0
 62
     2
100
AcDbLine
 10
102.453724436806
 20
123.5529590092409
 30
0.0
 11
102.4537244368053
 21
124.3529522747351
 31
0.0
  0
ARC
  5
F0
330
1F
100
AcDbEntity
  8
0
 62
     2
100
AcDbCircle
 10
101.9537244368053
 20
124.3529522747346
 30
0.0
 40
0.1000000000000227
100
AcDbArc
 50
0.0
 51
89.99996175020564
  0
ARC
  5
F1
330
1F
100
AcDbEntity
  8
0
 62
     2
100
AcDbCircle
 10
101.9537244368053
 20
124.3529522747346
 30
0.0
 40
0.5000000000000284
100
AcDbArc
 50
0.0
 51
89.9999617502122
  0
LINE
  5
F2
330
1F
100
AcDbEntity
  8
0
 62
     2
100
AcDbLine
 10
101.9537245035636
 20
124.4529522747346
 30
0.0
 11
90.88233448257623
 21
124.4529596658145
 31
0.0
  0
LINE
  5
F3
330
1F
100
AcDbEntity
  8
0
 62
     2
100
AcDbLine
 10
101.9537247705971
 20
124.8529522747345
 30
0.0
 11
90.88233448257634
 21
124.8529522747342
 31
0.0
  0
ARC
  5
F4
330
1F
100
AcDbEntity
  8
0
 62
     2
100
AcDbCircle
 10
90.88233448257634
 20
124.3529596658145
 30
0.0
 40
0.0999999999999943
100
AcDbArc
 50
90.00000000001629
 51
207.9999999999714
  0
ARC
  5
F5
330
1F
100
AcDbEntity
  8
0
 62
     2
100
AcDbCircle
 10
90.88233448257634
 20
124.3529596658145
 30
0.0
 40
0.4999999999999716
100
AcDbArc
 50
90.0
 51
155.0078853951356
  0
ARC
  5
F6
330
1F
100
AcDbEntity
  8
0
 62
     2
100
AcDbCircle
 10
123.1128141988844
 20
122.9520408273493
 30
0.0
 40
0.9000000000000266
100
AcDbArc
 50
152.000000000273
 51
194.9314452422338
  0
ARC
  5
F7
330
1F
100
AcDbEntity
  8
0
 62
     2
100
AcDbCircle
 10
123.1128141988844
 20
122.9520408273493
 30
0.0
 40
0.5000000000000387
100
AcDbArc
 50
152.0000000002795
 51
194.9314452422342
  0
ARC
  5
F8
330
1F
100
AcDbEntity
  8
0
 62
     2
100
AcDbCircle
 10
124.803725122326
 20
123.4029512940566
 30
0.0
 40
2.650000000000129
100
AcDbArc
 50
194.9314452422323
 51
255.0685514682071
  0
ARC
  5
F9
330
1F
100
AcDbEntity
  8
0
 62
     2
100
AcDbCircle
 10
124.803725122326
 20
123.4029512940566
 30
0.0
 40
2.250000000000107
100
AcDbArc
 50
194.9314452422343
 51
255.0685514682061
  0
ARC
  5
FA
330
1F
100
AcDbEntity
  8
0
 62
     2
100
AcDbCircle
 10
124.3528145585373
 20
121.7120403965036
 30
0.0
 40
0.900000000000005
100
AcDbArc
 50
255.0685514682027
 51
297.9999999999536
  0
ARC
  5
FB
330
1F
100
AcDbEntity
  8
0
 62
     2
100
AcDbCircle
 10
124.3528145585373
 20
121.7120403965035
 30
0.0
 40
0.5000000000000079
100
AcDbArc
 50
255.068551468199
 51
297.9999999999487
  0
LINE
  5
FC
330
1F
100
AcDbEntity
  8
0
 62
     2
100
AcDbLine
 10
125.7067786033773
 20
121.4126428036546
 30
0.0
 11
124.775338965044
 21
120.9173875629303
 31
0.0
  0
LINE
  5
FD
330
1F
100
AcDbEntity
  8
0
 62
     2
100
AcDbLine
 10
124.8398836707998
 20
121.4047346120198
 30
0.0
 11
124.5875503399299
 21
121.270566600074
 31
0.0
  0
LINE
  5
FE
330
1F
100
AcDbEntity
  8
0
 62
     2
100
AcDbLine
 10
124.775331327693
 20
89.88852116163832
 30
0.0
 11
125.7067705423819
 21
89.39326614617477
 31
0.0
  0
LINE
  5
FF
330
1F
100
AcDbEntity
  8
0
 62
     2
100
AcDbLine
 10
124.5875427025804
 20
89.53534212449384
 30
0.0
 11
124.8398592824571
 21
89.40118301921041
 31
0.0
  0
ARC
  5
100
330
1F
100
AcDbEntity
  8
0
 62
     2
100
AcDbCircle
 10
87.85373092212492
 20
121.3243555276457
 30
0.0
 40
0.0999999999999907
100
AcDbArc
 50
62.00000000026318
 51
179.9999991329787
  0
ARC
  5
101
330
1F
100
AcDbEntity
  8
0
 62
     2
100
AcDbCircle
 10
87.85373092212492
 20
121.3243555276457
 30
0.0
 40
0.4999999999999731
100
AcDbArc
 50
114.9935202520581
 51
179.9999991329916
  0
LINE
  5
102
330
1F
100
AcDbEntity
  8
0
 62
     2
100
AcDbLine
 10
87.75373092212493
 20
121.3243555291589
 30
0.0
 11
87.75373075459123
 21
110.2529580901056
 31
0.0
  0
LINE
  5
103
330
1F
100
AcDbEntity
  8
0
 62
     2
100
AcDbLine
 10
87.35373092212495
 20
121.3243555352118
 30
0.0
 11
87.3537307545912
 21
110.2529580901056
 31
0.0
  0
ARC
  5
104
330
1F
100
AcDbEntity
  8
0
 62
     2
100
AcDbCircle
 10
87.85373075459123
 20
110.2529580901056
 30
0.0
 40
0.0999999999999943
100
AcDbArc
 50
180.0
 51
270.000000000002
  0
ARC
  5
105
330
1F
100
AcDbEntity
  8
0
 62
     2
100
AcDbCircle
 10
87.85373075459123
 20
110.2529580901056
 30
0.0
 40
0.5000000000000284
100
AcDbArc
 50
180.0
 51
269.9999999999996
  0
LINE
  5
106
330
1F
100
AcDbEntity
  8
0
 62
     2
100
AcDbLine
 10
87.85373075459131
 20
110.1529580901056
 30
0.0
 11
88.653723517684
 21
110.1529580901064
 31
0.0
  0
LINE
  5
107
330
1F
100
AcDbEntity
  8
0
 62
     2
100
AcDbLine
 10
87.85373075459168
 20
109.7529580901056
 30
0.0
 11
88.6537235176844
 21
109.7529580901056
 31
0.0
  0
ARC
  5
108
330
1F
100
AcDbEntity
  8
0
 62
     2
100
AcDbCircle
 10
88.65372351768482
 20
109.2529580901064
 30
0.0
 40
0.900000000000091
100
AcDbArc
 50
0.0
 51
89.99999999992714
  0
LINE
  5
109
330
1F
100
AcDbEntity
  8
0
 62
     2
100
AcDbLine
 10
89.55372351768492
 20
109.2529580901085
 30
0.0
 11
89.55372351768642
 21
108.6029582165496
 31
0.0
  0
LINE
  5
10A
330
1F
100
AcDbEntity
  8
0
 62
     2
100
AcDbLine
 10
89.15372351768488
 20
109.2529580901075
 30
0.0
 11
89.15372351768639
 21
108.6029582165486
 31
0.0
  0
LINE
  5
10B
330
1F
100
AcDbEntity
  8
0
 62
     2
100
AcDbLine
 10
88.65372351768664
 20
107.7029582165475
 30
0.0
 11
87.85373053538896
 21
107.7029582165472
 31
0.0
  0
LINE
  5
10C
330
1F
100
AcDbEntity
  8
0
 62
     2
100
AcDbLine
 10
88.6537235176865
 20
108.1029582165475
 30
0.0
 11
87.85373053538888
 21
108.1029582165475
 31
0.0
  0
ARC
  5
10D
330
1F
100
AcDbEntity
  8
0
 62
     2
100
AcDbCircle
 10
87.85373053538902
 20
107.6029582165473
 30
0.0
 40
0.0999999999999943
100
AcDbArc
 50
90.00000000003257
 51
179.9999957684883
  0
ARC
  5
10E
330
1F
100
AcDbEntity
  8
0
 62
     2
100
AcDbCircle
 10
87.85373053538902
 20
107.6029582165473
 30
0.0
 40
0.5
100
AcDbArc
 50
90.00000000001629
 51
179.999995768472
  0
LINE
  5
10F
330
1F
100
AcDbEntity
  8
0
 62
     2
100
AcDbLine
 10
87.753730535389
 20
107.6029582239327
 30
0.0
 11
87.75373021043092
 21
103.2029582165475
 31
0.0
  0
LINE
  5
110
330
1F
100
AcDbEntity
  8
0
 62
     2
100
AcDbLine
 10
87.35373053538899
 20
107.6029582534743
 30
0.0
 11
87.35373021043088
 21
103.2029582165475
 31
0.0
  0
ARC
  5
111
330
1F
100
AcDbEntity
  8
0
 62
     2
100
AcDbCircle
 10
87.85373021043094
 20
103.2029582165475
 30
0.0
 40
0.0999999999999943
100
AcDbArc
 50
180.0
 51
269.9999999999797
  0
ARC
  5
112
330
1F
100
AcDbEntity
  8
0
 62
     2
100
AcDbCircle
 10
87.85373021043094
 20
103.2029582165475
 30
0.0
 40
0.5000000000000284
100
AcDbArc
 50
180.0
 51
270.0
  0
LINE
  5
113
330
1F
100
AcDbEntity
  8
0
 62
     2
100
AcDbLine
 10
87.85373021043097
 20
103.1029582165475
 30
0.0
 11
88.65372351770091
 21
103.1029582165478
 31
0.0
  0
LINE
  5
114
330
1F
100
AcDbEntity
  8
0
 62
     2
100
AcDbLine
 10
87.85373021043108
 20
102.7029582165475
 30
0.0
 11
88.65372351770102
 21
102.7029582165475
 31
0.0
  0
ARC
  5
115
330
1F
100
AcDbEntity
  8
0
 62
     2
100
AcDbCircle
 10
88.65372351770117
 20
102.2029582165478
 30
0.0
 40
0.9000000000000341
100
AcDbArc
 50
0.0
 51
89.99999999987877
  0
ARC
  5
116
330
1F
100
AcDbEntity
  8
0
 62
     2
100
AcDbCircle
 10
103.6037243103975
 20
87.25295742384861
 30
0.0
 40
0.9000000000000341
100
AcDbArc
 50
0.0
 51
90.0000000001194
  0
LINE
  5
117
330
1F
100
AcDbEntity
  8
0
 62
     2
100
AcDbLine
 10
89.55372351770126
 20
102.2029582165499
 30
0.0
 11
89.55372351770279
 21
101.5529583429688
 31
0.0
  0
LINE
  5
118
330
1F
100
AcDbEntity
  8
0
 62
     2
100
AcDbLine
 10
89.15372351770125
 20
102.202958216549
 30
0.0
 11
89.15372351770276
 21
101.5529583429678
 31
0.0
  0
ARC
  5
119
330
1F
100
AcDbEntity
  8
0
 62
     2
100
AcDbCircle
 10
88.65372351770267
 20
101.5529583429667
 30
0.0
 40
0.9000000000000057
100
AcDbArc
 50
270.0000000000452
 51
0.0000000001370946
  0
ARC
  5
11A
330
1F
100
AcDbEntity
  8
0
 62
     2
100
AcDbCircle
 10
88.65372351770267
 20
101.5529583429667
 30
0.0
 40
0.4999999999999716
100
AcDbArc
 50
270.0000000000521
 51
0.0000000001376035
  0
LINE
  5
11B
330
1F
100
AcDbEntity
  8
0
 62
     2
100
AcDbLine
 10
88.65372351770347
 20
100.6529583429667
 30
0.0
 11
87.85373025220923
 21
100.6529583429659
 31
0.0
  0
LINE
  5
11C
330
1F
100
AcDbEntity
  8
0
 62
     2
100
AcDbLine
 10
88.65372351770313
 20
101.0529583429667
 30
0.0
 11
87.85373025220898
 21
101.0529583429667
 31
0.0
  0
ARC
  5
11D
330
1F
100
AcDbEntity
  8
0
 62
     2
100
AcDbCircle
 10
87.8537302522094
 20
100.552958342966
 30
0.0
 40
0.0999999999999943
100
AcDbArc
 50
90.00000000008141
 51
179.9999617503054
  0
ARC
  5
11E
330
1F
100
AcDbEntity
  8
0
 62
     2
100
AcDbCircle
 10
87.8537302522094
 20
100.5529583429659
 30
0.0
 40
0.5
100
AcDbArc
 50
90.00000000004886
 51
179.9999617502679
  0
LINE
  5
11F
330
1F
100
AcDbEntity
  8
0
 62
     2
100
AcDbLine
 10
87.75373025220944
 20
100.5529584097243
 30
0.0
 11
87.75372286112918
 21
89.481568388738
 31
0.0
  0
LINE
  5
120
330
1F
100
AcDbEntity
  8
0
 62
     2
100
AcDbLine
 10
87.35373025220949
 20
100.5529586767578
 30
0.0
 11
87.35372286112903
 21
89.48156838873797
 31
0.0
  0
ARC
  5
121
330
1F
100
AcDbEntity
  8
0
 62
     2
100
AcDbCircle
 10
87.85372286112917
 20
89.48156838873794
 30
0.0
 40
0.0999999999999943
100
AcDbArc
 50
180.0
 51
297.999999999943
  0
ARC
  5
122
330
1F
100
AcDbEntity
  8
0
 62
     2
100
AcDbCircle
 10
87.85372286112917
 20
89.48156838873794
 30
0.0
 40
0.5000000000000284
100
AcDbArc
 50
180.0
 51
245.0078853951327
  0
ARC
  5
123
330
1F
100
AcDbEntity
  8
0
 62
     2
100
AcDbCircle
 10
124.3528069211895
 20
89.09386832806325
 30
0.0
 40
0.8999999999999998
100
AcDbArc
 50
62.00000000027626
 51
104.9314452422388
  0
ARC
  5
124
330
1F
100
AcDbEntity
  8
0
 62
     2
100
AcDbCircle
 10
124.3528069211895
 20
89.09386832806325
 30
0.0
 40
0.4999999999999886
100
AcDbArc
 50
62.00000000027639
 51
104.9314452422384
  0
ARC
  5
125
330
1F
100
AcDbEntity
  8
0
 62
     2
100
AcDbCircle
 10
124.8037173878968
 20
87.40295740462182
 30
0.0
 40
2.64999999999987
100
AcDbArc
 50
104.9314452422471
 51
165.068551468207
  0
ARC
  5
126
330
1F
100
AcDbEntity
  8
0
 62
     2
100
AcDbCircle
 10
124.8037173878968
 20
87.40295740462179
 30
0.0
 40
2.249999999999915
100
AcDbArc
 50
104.9314452422357
 51
165.0685514682085
  0
ARC
  5
127
330
1F
100
AcDbEntity
  8
0
 62
     2
100
AcDbCircle
 10
123.1128064903436
 20
87.85386796841041
 30
0.0
 40
0.9000000000000525
100
AcDbArc
 50
165.0685514682053
 51
207.9999999999628
  0
ARC
  5
128
330
1F
100
AcDbEntity
  8
0
 62
     2
100
AcDbCircle
 10
123.1128064903436
 20
87.85386796841041
 30
0.0
 40
0.5000000000000628
100
AcDbArc
 50
165.0685514682007
 51
207.9999999999604
  0
LINE
  5
129
330
1F
100
AcDbEntity
  8
0
 62
     2
100
AcDbLine
 10
122.8134088974946
 20
86.4999039235706
 30
0.0
 11
122.3181536567703
 21
87.43134356190367
 31
0.0
  0
LINE
  5
12A
330
1F
100
AcDbEntity
  8
0
 62
     2
100
AcDbLine
 10
122.8055007058598
 20
87.36679885614802
 30
0.0
 11
122.671332693914
 21
87.61913218701775
 31
0.0
  0
LINE
  5
12B
330
1F
100
AcDbEntity
  8
0
 62
     2
100
AcDbLine
 10
91.2892872554757
 20
87.43135119925387
 30
0.0
 11
90.79403224001211
 21
86.49991198456505
 31
0.0
  0
LINE
  5
12C
330
1F
100
AcDbEntity
  8
0
 62
     2
100
AcDbLine
 10
90.93610821833121
 20
87.61913982436647
 30
0.0
 11
90.80194911304761
 21
87.36682324448947
 31
0.0
  0
ARC
  5
12D
330
1F
100
AcDbEntity
  8
0
 62
     2
100
AcDbCircle
 10
90.88232699929821
 20
86.45296482828692
 30
0.0
 40
0.0999999999999506
100
AcDbArc
 50
152.0000000003063
 51
270.0000000000108
  0
ARC
  5
12E
330
1F
100
AcDbEntity
  8
0
 62
     2
100
AcDbCircle
 10
90.88232699929821
 20
86.45296482828692
 30
0.0
 40
0.4999999999999958
100
AcDbArc
 50
265.4945925240978
 51
270.0000000000009
  0
ARC
  5
12F
330
1F
100
AcDbEntity
  8
0
 62
     2
100
AcDbCircle
 10
90.88232699929821
 20
86.45296482828692
 30
0.0
 40
0.5000000000000246
100
AcDbArc
 50
204.9935202520553
 51
264.380951555241
  0
LINE
  5
130
330
1F
100
AcDbEntity
  8
0
 62
     2
100
AcDbLine
 10
90.88232699778499
 20
86.35296482828693
 30
0.0
 11
101.9537244368392
 21
86.35296466075349
 31
0.0
  0
LINE
  5
131
330
1F
100
AcDbEntity
  8
0
 62
     2
100
AcDbLine
 10
90.88232699173213
 20
85.95296482828692
 30
0.0
 11
101.9537244368392
 21
85.95296482828724
 31
0.0
  0
ARC
  5
132
330
1F
100
AcDbEntity
  8
0
 62
     2
100
AcDbCircle
 10
101.9537244368392
 20
86.45296466075351
 30
0.0
 40
0.0999999999999943
100
AcDbArc
 50
270.0
 51
0.0000000000447822
  0
ARC
  5
133
330
1F
100
AcDbEntity
  8
0
 62
     2
100
AcDbCircle
 10
101.9537244368392
 20
86.45296466075351
 30
0.0
 40
0.5000000000000284
100
AcDbArc
 50
270.0
 51
359.5695153061732
  0
LINE
  5
134
330
1F
100
AcDbEntity
  8
0
 62
     2
100
AcDbLine
 10
102.0537244368392
 20
86.45296466075357
 30
0.0
 11
102.0537244368385
 21
87.25295742384623
 31
0.0
  0
LINE
  5
135
330
1F
100
AcDbEntity
  8
0
 62
     2
100
AcDbLine
 10
102.4537244368392
 20
86.45296466075396
 30
0.0
 11
102.4537244368385
 21
87.25295742384662
 31
0.0
  0
ARC
  5
136
330
1F
100
AcDbEntity
  8
0
 62
     2
100
AcDbCircle
 10
102.9537244368385
 20
87.25295742384705
 30
0.0
 40
0.8999999999999773
100
AcDbArc
 50
90.0000000001339
 51
180.0000000000516
  0
ARC
  5
137
330
1F
100
AcDbEntity
  8
0
 62
     2
100
AcDbCircle
 10
102.9537244368385
 20
87.25295742384708
 30
0.0
 40
0.4999999999999716
100
AcDbArc
 50
90.00000000013354
 51
180.0000000000505
  0
LINE
  5
138
330
1F
100
AcDbEntity
  8
0
 62
     2
100
AcDbLine
 10
102.9537244368364
 20
88.15295742384706
 30
0.0
 11
103.6037243103954
 21
88.15295742384859
 31
0.0
  0
LINE
  5
139
330
1F
100
AcDbEntity
  8
0
 62
     2
100
AcDbLine
 10
102.9537244368374
 20
87.75295742384705
 30
0.0
 11
103.6037243103963
 21
87.75295742384708
 31
0.0
  0
LINE
  5
13A
330
1F
100
AcDbEntity
  8
0
 62
     2
100
AcDbLine
 10
104.5037243103975
 20
87.2529574238489
 30
0.0
 11
104.5037243103978
 21
86.45296444155139
 31
0.0
  0
LINE
  5
13B
330
1F
100
AcDbEntity
  8
0
 62
     2
100
AcDbLine
 10
104.1037243103975
 20
87.25295742384876
 30
0.0
 11
104.1037243103978
 21
86.45296444155122
 31
0.0
  0
ARC
  5
13C
330
1F
100
AcDbEntity
  8
0
 62
     2
100
AcDbCircle
 10
104.6037243103978
 20
86.45296444155139
 30
0.0
 40
0.1000000000000227
100
AcDbArc
 50
180.0
 51
269.9999999999959
  0
ARC
  5
13D
330
1F
100
AcDbEntity
  8
0
 62
     2
100
AcDbCircle
 10
104.6037243103978
 20
86.45296444155139
 30
0.0
 40
0.5000000000000284
100
AcDbArc
 50
180.0
 51
269.9999999999837
  0
LINE
  5
13E
330
1F
100
AcDbEntity
  8
0
 62
     2
100
AcDbLine
 10
104.6037243030123
 20
86.35296444155139
 30
0.0
 11
109.003724310398
 21
86.3529641165934
 31
0.0
  0
LINE
  5
13F
330
1F
100
AcDbEntity
  8
0
 62
     2
100
AcDbLine
 10
104.6037242734707
 20
85.95296444155139
 30
0.0
 11
109.0037243103979
 21
85.9529644415515
 31
0.0
  0
ARC
  5
140
330
1F
100
AcDbEntity
  8
0
 62
     2
100
AcDbCircle
 10
109.0037243103979
 20
86.45296411659339
 30
0.0
 40
0.0999999999999659
100
AcDbArc
 50
270.0000000000163
 51
0.0000000000407111
  0
ARC
  5
141
330
1F
100
AcDbEntity
  8
0
 62
     2
100
AcDbCircle
 10
109.0037243103979
 20
86.45296411659339
 30
0.0
 40
0.5
100
AcDbArc
 50
270.0
 51
359.569515306139
  0
LINE
  5
142
330
1F
100
AcDbEntity
  8
0
 62
     2
100
AcDbLine
 10
109.1037243103979
 20
86.45296411659345
 30
0.0
 11
109.1037243103977
 21
87.25295742386334
 31
0.0
  0
LINE
  5
143
330
1F
100
AcDbEntity
  8
0
 62
     2
100
AcDbLine
 10
109.5037243103979
 20
86.45296411659359
 30
0.0
 11
109.5037243103977
 21
87.25295742386345
 31
0.0
  0
ARC
  5
144
330
1F
100
AcDbEntity
  8
0
 62
     2
100
AcDbCircle
 10
110.0037243103977
 20
87.25295742386359
 30
0.0
 40
0.9000000000000057
100
AcDbArc
 50
90.00000000013571
 51
180.0000000000149
  0
ARC
  5
145
330
1F
100
AcDbEntity
  8
0
 62
     2
100
AcDbCircle
 10
110.0037243103977
 20
87.25295742386359
 30
0.0
 40
0.4999999999999716
100
AcDbArc
 50
90.00000000013354
 51
180.000000000013
  0
ARC
  5
146
330
1F
100
AcDbEntity
  8
0
 62
     2
100
AcDbCircle
 10
124.9537251030986
 20
102.2029582165591
 30
0.0
 40
0.8999999999999773
100
AcDbArc
 50
90.00000000001447
 51
180.0000000001321
  0
ARC
  5
147
330
1F
100
AcDbEntity
  8
0
 62
     2
100
AcDbCircle
 10
124.9537251030986
 20
102.2029582165591
 30
0.0
 40
0.4999999999999716
100
AcDbArc
 50
90.00000000001303
 51
180.0000000001319
  0
LINE
  5
148
330
1F
100
AcDbEntity
  8
0
 62
     2
100
AcDbLine
 10
110.0037243103956
 20
88.1529574238636
 30
0.0
 11
110.6537241839769
 21
88.15295742386513
 31
0.0
  0
LINE
  5
149
330
1F
100
AcDbEntity
  8
0
 62
     2
100
AcDbLine
 10
110.0037243103966
 20
87.75295742386356
 30
0.0
 11
110.6537241839777
 21
87.75295742386359
 31
0.0
  0
ARC
  5
14A
330
1F
100
AcDbEntity
  8
0
 62
     2
100
AcDbCircle
 10
110.6537241839789
 20
87.25295742386513
 30
0.0
 40
0.9000000000000341
100
AcDbArc
 50
0.0
 51
90.00000000007508
  0
LINE
  5
14B
330
1F
100
AcDbEntity
  8
0
 62
     2
100
AcDbLine
 10
111.553724183979
 20
87.25295742386595
 30
0.0
 11
111.5537241839797
 21
86.45296415837183
 31
0.0
  0
LINE
  5
14C
330
1F
100
AcDbEntity
  8
0
 62
     2
100
AcDbLine
 10
111.153724183979
 20
87.25295742386558
 30
0.0
 11
111.1537241839797
 21
86.45296415837149
 31
0.0
  0
ARC
  5
14D
330
1F
100
AcDbEntity
  8
0
 62
     2
100
AcDbCircle
 10
111.6537241839797
 20
86.45296415837197
 30
0.0
 40
0.0999999999999659
100
AcDbArc
 50
180.0
 51
269.9999617502199
  0
ARC
  5
14E
330
1F
100
AcDbEntity
  8
0
 62
     2
100
AcDbCircle
 10
111.6537241839797
 20
86.45296415837197
 30
0.0
 40
0.5000000000000284
100
AcDbArc
 50
180.0
 51
269.9999617502191
  0
LINE
  5
14F
330
1F
100
AcDbEntity
  8
0
 62
     2
100
AcDbLine
 10
111.6537241172213
 20
86.35296415837203
 30
0.0
 11
122.7251141382087
 21
86.35295676729206
 31
0.0
  0
LINE
  5
150
330
1F
100
AcDbEntity
  8
0
 62
     2
100
AcDbLine
 10
111.6537238501878
 20
85.95296415837208
 30
0.0
 11
122.7251141382086
 21
85.9529641583724
 31
0.0
  0
ARC
  5
151
330
1F
100
AcDbEntity
  8
0
 62
     2
100
AcDbCircle
 10
122.7251141382086
 20
86.45295676729208
 30
0.0
 40
0.1000000000000227
100
AcDbArc
 50
270.0
 51
27.99999999995836
  0
ARC
  5
152
330
1F
100
AcDbEntity
  8
0
 62
     2
100
AcDbCircle
 10
122.7251141382086
 20
86.45295676729208
 30
0.0
 40
0.5000000000000284
100
AcDbArc
 50
270.0
 51
335.0078853951453
  0
ARC
  5
153
330
1F
100
AcDbEntity
  8
0
 62
     2
100
AcDbCircle
 10
90.49463442190057
 20
87.85387560575722
 30
0.0
 40
0.8999999999999966
100
AcDbArc
 50
332.0000000002844
 51
14.93144524224145
  0
ARC
  5
154
330
1F
100
AcDbEntity
  8
0
 62
     2
100
AcDbCircle
 10
90.49463442190057
 20
87.85387560575722
 30
0.0
 40
0.5000000000000254
100
AcDbArc
 50
332.0000000002823
 51
14.93144524224074
  0
ARC
  5
155
330
1F
100
AcDbEntity
  8
0
 62
     2
100
AcDbCircle
 10
88.80372349845894
 20
87.40296513905
 30
0.0
 40
2.650000000000139
100
AcDbArc
 50
14.93144524223788
 51
75.06855146820394
  0
ARC
  5
156
330
1F
100
AcDbEntity
  8
0
 62
     2
100
AcDbCircle
 10
88.80372349845894
 20
87.40296513905
 30
0.0
 40
2.250000000000127
100
AcDbArc
 50
14.93144524223348
 51
75.06855146820371
  0
ARC
  5
157
330
1F
100
AcDbEntity
  8
0
 62
     2
100
AcDbCircle
 10
89.25463406224767
 20
89.093876036603
 30
0.0
 40
0.8999999999999776
100
AcDbArc
 50
75.06855146820216
 51
117.9999999999594
  0
ARC
  5
158
330
1F
100
AcDbEntity
  8
0
 62
     2
100
AcDbCircle
 10
89.25463406224767
 20
89.093876036603
 30
0.0
 40
0.5000000000000006
100
AcDbArc
 50
75.06855146820219
 51
117.9999999999552
  0
LINE
  5
159
330
1F
100
AcDbEntity
  8
0
 62
     2
100
AcDbLine
 10
87.90067001740766
 20
89.39327362945201
 30
0.0
 11
88.83210965574091
 21
89.88852887017632
 31
0.0
  0
LINE
  5
15A
330
1F
100
AcDbEntity
  8
0
 62
     2
100
AcDbLine
 10
88.76756494998548
 20
89.40118182108694
 30
0.0
 11
89.01989828085502
 21
89.53534983303257
 31
0.0
  0
LINE
  5
15B
330
1F
100
AcDbEntity
  8
0
 62
     2
100
AcDbLine
 10
88.83211729309195
 20
120.9173952714682
 30
0.0
 11
87.90067807840302
 21
121.4126502869318
 31
0.0
  0
LINE
  5
15C
330
1F
100
AcDbEntity
  8
0
 62
     2
100
AcDbLine
 10
89.01990591820456
 20
121.2705743086127
 30
0.0
 11
88.76758933832744
 21
121.4047334138964
 31
0.0
  0
ARC
  5
15D
330
1F
100
AcDbEntity
  8
0
 62
     2
100
AcDbCircle
 10
125.75371769866
 20
89.48156090546092
 30
0.0
 40
0.099999999999964
100
AcDbArc
 50
242.0000000002919
 51
359.9999991329884
  0
ARC
  5
15E
330
1F
100
AcDbEntity
  8
0
 62
     2
100
AcDbCircle
 10
125.75371769866
 20
89.48156090546092
 30
0.0
 40
0.4999999999999697
100
AcDbArc
 50
294.9935202520726
 51
359.9999991329902
  0
LINE
  5
15F
330
1F
100
AcDbEntity
  8
0
 62
     2
100
AcDbLine
 10
125.8537176986601
 20
89.48156090394767
 30
0.0
 11
125.8537178661938
 21
100.5529583430009
 31
0.0
  0
LINE
  5
160
330
1F
100
AcDbEntity
  8
0
 62
     2
100
AcDbLine
 10
126.2537176986601
 20
89.48156089789478
 30
0.0
 11
126.2537178661938
 21
100.5529583430009
 31
0.0
  0
ARC
  5
161
330
1F
100
AcDbEntity
  8
0
 62
     2
100
AcDbCircle
 10
125.7537178661937
 20
100.5529583430009
 30
0.0
 40
0.0999999999999659
100
AcDbArc
 50
0.0
 51
90.00000000005292
  0
ARC
  5
162
330
1F
100
AcDbEntity
  8
0
 62
     2
100
AcDbCircle
 10
125.7537178661937
 20
100.5529583430009
 30
0.0
 40
0.5000000000000284
100
AcDbArc
 50
0.0
 51
90.00000000005213
  0
LINE
  5
163
330
1F
100
AcDbEntity
  8
0
 62
     2
100
AcDbLine
 10
125.7537178661937
 20
100.652958343001
 30
0.0
 11
124.9537251031009
 21
100.6529583430002
 31
0.0
  0
LINE
  5
164
330
1F
100
AcDbEntity
  8
0
 62
     2
100
AcDbLine
 10
125.7537178661933
 20
101.0529583430009
 30
0.0
 11
124.9537251031006
 21
101.0529583430009
 31
0.0
  0
ARC
  5
165
330
1F
100
AcDbEntity
  8
0
 62
     2
100
AcDbCircle
 10
124.9537251031001
 20
101.5529583430002
 30
0.0
 40
0.9000000000000625
100
AcDbArc
 50
180.0
 51
269.9999999998666
  0
LINE
  5
166
330
1F
100
AcDbEntity
  8
0
 62
     2
100
AcDbLine
 10
124.0537251031001
 20
101.552958342998
 30
0.0
 11
124.0537251030986
 21
102.2029582165569
 31
0.0
  0
LINE
  5
167
330
1F
100
AcDbEntity
  8
0
 62
     2
100
AcDbLine
 10
124.4537251031001
 20
101.552958342999
 30
0.0
 11
124.4537251030986
 21
102.2029582165579
 31
0.0
  0
LINE
  5
168
330
1F
100
AcDbEntity
  8
0
 62
     2
100
AcDbLine
 10
124.9537251030984
 20
103.102958216559
 30
0.0
 11
125.753718085396
 21
103.1029582165593
 31
0.0
  0
LINE
  5
169
330
1F
100
AcDbEntity
  8
0
 62
     2
100
AcDbLine
 10
124.9537251030985
 20
102.702958216559
 30
0.0
 11
125.7537180853961
 21
102.7029582165591
 31
0.0
  0
ARC
  5
16A
330
1F
100
AcDbEntity
  8
0
 62
     2
100
AcDbCircle
 10
125.7537180853959
 20
103.2029582165593
 30
0.0
 40
0.1000000000000227
100
AcDbArc
 50
270.0000000000326
 51
359.9999957684801
  0
ARC
  5
16B
330
1F
100
AcDbEntity
  8
0
 62
     2
100
AcDbCircle
 10
125.7537180853959
 20
103.2029582165593
 30
0.0
 40
0.5
100
AcDbArc
 50
270.0000000000196
 51
359.5695110948379
  0
LINE
  5
16C
330
1F
100
AcDbEntity
  8
0
 62
     2
100
AcDbLine
 10
125.8537180853959
 20
103.2029582091739
 30
0.0
 11
125.853718410354
 21
107.6029582165591
 31
0.0
  0
LINE
  5
16D
330
1F
100
AcDbEntity
  8
0
 62
     2
100
AcDbLine
 10
126.253718085396
 20
103.2029581796322
 30
0.0
 11
126.2537184103541
 21
107.602958216559
 31
0.0
  0
ARC
  5
16E
330
1F
100
AcDbEntity
  8
0
 62
     2
100
AcDbCircle
 10
125.753718410354
 20
107.6029582165591
 30
0.0
 40
0.1000000000000227
100
AcDbArc
 50
0.0
 51
90.00000000003664
  0
ARC
  5
16F
330
1F
100
AcDbEntity
  8
0
 62
     2
100
AcDbCircle
 10
125.753718410354
 20
107.602958216559
 30
0.0
 40
0.5000000000000284
100
AcDbArc
 50
0.0
 51
90.00000000001629
  0
LINE
  5
170
330
1F
100
AcDbEntity
  8
0
 62
     2
100
AcDbLine
 10
125.753718410354
 20
107.7029582165591
 30
0.0
 11
124.9537251030841
 21
107.7029582165588
 31
0.0
  0
LINE
  5
171
330
1F
100
AcDbEntity
  8
0
 62
     2
100
AcDbLine
 10
125.7537184103539
 20
108.102958216559
 30
0.0
 11
124.9537251030839
 21
108.102958216559
 31
0.0
  0
ARC
  5
172
330
1F
100
AcDbEntity
  8
0
 62
     2
100
AcDbCircle
 10
124.9537251030838
 20
108.6029582165588
 30
0.0
 40
0.9000000000000625
100
AcDbArc
 50
180.0
 51
269.9999999998657
  0
ARC
  5
173
330
1F
100
AcDbEntity
  8
0
 62
     2
100
AcDbCircle
 10
110.0037243103875
 20
123.5529590092579
 30
0.0
 40
0.9000000000000341
100
AcDbArc
 50
180.0
 51
269.9999999999869
  0
LINE
  5
174
330
1F
100
AcDbEntity
  8
0
 62
     2
100
AcDbLine
 10
124.0537251030838
 20
108.6029582165566
 30
0.0
 11
124.0537251030822
 21
109.2529580901378
 31
0.0
  0
LINE
  5
175
330
1F
100
AcDbEntity
  8
0
 62
     2
100
AcDbLine
 10
124.4537251030838
 20
108.6029582165576
 30
0.0
 11
124.4537251030823
 21
109.2529580901387
 31
0.0
  0
ARC
  5
176
330
1F
100
AcDbEntity
  8
0
 62
     2
100
AcDbCircle
 10
124.9537251030823
 20
109.2529580901399
 30
0.0
 40
0.9000000000000057
100
AcDbArc
 50
90.0000000000398
 51
180.0000000001321
  0
ARC
  5
177
330
1F
100
AcDbEntity
  8
0
 62
     2
100
AcDbCircle
 10
124.9537251030823
 20
109.2529580901399
 30
0.0
 40
0.4999999999999716
100
AcDbArc
 50
90.00000000005213
 51
180.0000000001335
  0
LINE
  5
178
330
1F
100
AcDbEntity
  8
0
 62
     2
100
AcDbLine
 10
124.9537251030815
 20
110.1529580901399
 30
0.0
 11
125.7537183685757
 21
110.1529580901406
 31
0.0
  0
LINE
  5
179
330
1F
100
AcDbEntity
  8
0
 62
     2
100
AcDbLine
 10
124.9537251030818
 20
109.7529580901399
 30
0.0
 11
125.753718368576
 21
109.7529580901399
 31
0.0
  0
ARC
  5
17A
330
1F
100
AcDbEntity
  8
0
 62
     2
100
AcDbCircle
 10
125.7537183685756
 20
110.2529580901406
 30
0.0
 40
0.0999999999999943
100
AcDbArc
 50
270.0000000000651
 51
359.9999617502728
  0
ARC
  5
17B
330
1F
100
AcDbEntity
  8
0
 62
     2
100
AcDbCircle
 10
125.7537183685756
 20
110.2529580901406
 30
0.0
 40
0.5
100
AcDbArc
 50
270.0000000000456
 51
359.5694772393405
  0
LINE
  5
17C
330
1F
100
AcDbEntity
  8
0
 62
     2
100
AcDbLine
 10
125.8537183685755
 20
110.2529580233823
 30
0.0
 11
125.8537257596558
 21
121.3243480443686
 31
0.0
  0
LINE
  5
17D
330
1F
100
AcDbEntity
  8
0
 62
     2
100
AcDbLine
 10
126.2537183685754
 20
110.2529577563487
 30
0.0
 11
126.2537257596559
 21
121.3243480443686
 31
0.0
  0
ARC
  5
17E
330
1F
100
AcDbEntity
  8
0
 62
     2
100
AcDbCircle
 10
125.7537257596558
 20
121.3243480443686
 30
0.0
 40
0.1000000000000227
100
AcDbArc
 50
0.0
 51
117.999999999955
  0
ARC
  5
17F
330
1F
100
AcDbEntity
  8
0
 62
     2
100
AcDbCircle
 10
125.7537257596558
 20
121.3243480443686
 30
0.0
 40
0.5000000000000284
100
AcDbArc
 50
0.0
 51
65.00788539515088
  0
ARC
  5
180
330
1F
100
AcDbEntity
  8
0
 62
     2
100
AcDbCircle
 10
89.2546416995954
 20
121.7120481050433
 30
0.0
 40
0.8999999999999598
100
AcDbArc
 50
242.000000000281
 51
284.9314452422355
  0
ARC
  5
181
330
1F
100
AcDbEntity
  8
0
 62
     2
100
AcDbCircle
 10
89.2546416995954
 20
121.7120481050433
 30
0.0
 40
0.5000000000000019
100
AcDbArc
 50
242.0000000002735
 51
284.9314452422358
  0
ARC
  5
182
330
1F
100
AcDbEntity
  8
0
 62
     2
100
AcDbCircle
 10
88.80373123288817
 20
123.4029590284848
 30
0.0
 40
2.649999999999927
100
AcDbArc
 50
284.9314452422493
 51
345.068551468202
  0
ARC
  5
183
330
1F
100
AcDbEntity
  8
0
 62
     2
100
AcDbCircle
 10
88.80373123288817
 20
123.4029590284848
 30
0.0
 40
2.249999999999934
100
AcDbArc
 50
284.9314452422349
 51
345.068551468202
  0
ARC
  5
184
330
1F
100
AcDbEntity
  8
0
 62
     2
100
AcDbCircle
 10
90.49464213044132
 20
122.9520484646961
 30
0.0
 40
0.90000000000006
100
AcDbArc
 50
345.0685514682036
 51
27.99999999995765
  0
ARC
  5
185
330
1F
100
AcDbEntity
  8
0
 62
     2
100
AcDbCircle
 10
90.49464213044132
 20
122.9520484646961
 30
0.0
 40
0.5000000000000353
100
AcDbArc
 50
345.0685514681999
 51
27.99999999995337
  0
LINE
  5
186
330
1F
100
AcDbEntity
  8
0
 62
     2
100
AcDbLine
 10
90.79403972329035
 20
124.306012509536
 30
0.0
 11
91.28929496401466
 21
123.3745728712029
 31
0.0
  0
LINE
  5
187
330
1F
100
AcDbEntity
  8
0
 62
     2
100
AcDbLine
 10
90.80194791492517
 20
123.4391175769585
 30
0.0
 11
90.93611592687094
 21
123.1867842460888
 31
0.0
  0
LINE
  5
188
330
1F
100
AcDbEntity
  8
0
 62
     2
100
AcDbLine
 10
122.3181613653093
 20
123.3745652338528
 30
0.0
 11
122.8134163807728
 21
124.3060044485415
 31
0.0
  0
LINE
  5
189
330
1F
100
AcDbEntity
  8
0
 62
     2
100
AcDbLine
 10
122.6713404024538
 20
123.1867766087401
 30
0.0
 11
122.8054995077373
 21
123.4390931886171
 31
0.0
  0
ARC
  5
18A
330
1F
100
AcDbEntity
  8
0
 62
     2
100
AcDbCircle
 10
122.7251216214867
 20
124.3529516048197
 30
0.0
 40
0.0999999999999907
100
AcDbArc
 50
332.0000000002632
 51
89.99999999997425
  0
ARC
  5
18B
330
1F
100
AcDbEntity
  8
0
 62
     2
100
AcDbCircle
 10
122.7251216214867
 20
124.3529516048197
 30
0.0
 40
0.5000000000000436
100
AcDbArc
 50
24.99352025250705
 51
89.99999956648557
  0
LINE
  5
18C
330
1F
100
AcDbEntity
  8
0
 62
     2
100
AcDbLine
 10
114.0538806556917
 20
88.28317975585531
 30
0.0
 11
119.9742557575325
 21
88.28418495462168
 31
0.0
  0
ARC
  5
18D
330
1F
100
AcDbEntity
  8
0
 62
     2
100
AcDbCircle
 10
114.0537278479962
 20
89.18317974288342
 30
0.0
 40
0.900000000001171
100
AcDbArc
 50
180.0
 51
270.0097278261414
  0
LINE
  5
18E
330
1F
100
AcDbEntity
  8
0
 62
     2
100
AcDbLine
 10
113.1537278479223
 20
89.20295476358325
 30
0.0
 11
113.1537278479962
 21
89.18317973952284
 31
0.0
  0
ARC
  5
18F
330
1F
100
AcDbEntity
  8
0
 62
     2
100
AcDbCircle
 10
112.8037278479246
 20
89.20295476358328
 30
0.0
 40
0.3499999999998806
100
AcDbArc
 50
0.0
 51
90.00000226055127
  0
LINE
  5
190
330
1F
100
AcDbEntity
  8
0
 62
     2
100
AcDbLine
 10
100.8037207392254
 20
89.55295429012284
 30
0.0
 11
112.8037278341146
 21
89.55295476358327
 31
0.0
  0
ARC
  5
191
330
1F
100
AcDbEntity
  8
0
 62
     2
100
AcDbCircle
 10
100.8037207530344
 20
89.20295429012262
 30
0.0
 40
0.3499999999999377
100
AcDbArc
 50
90.00000226055013
 51
179.9999770186027
  0
LINE
  5
192
330
1F
100
AcDbEntity
  8
0
 62
     2
100
AcDbLine
 10
100.4537207484816
 20
89.1830906240406
 30
0.0
 11
100.4537207530344
 21
89.20295419844237
 31
0.0
  0
ARC
  5
193
330
1F
100
AcDbEntity
  8
0
 62
     2
100
AcDbCircle
 10
99.55372074848154
 20
89.18309047089588
 30
0.0
 40
0.8999999999999733
100
AcDbArc
 50
269.9999682591892
 51
0.0000058187723742
  0
LINE
  5
194
330
1F
100
AcDbEntity
  8
0
 62
     2
100
AcDbLine
 10
93.63495461082141
 20
88.2830936652949
 30
0.0
 11
99.5537203005826
 21
88.2830907197289
 31
0.0
  0
ARC
  5
195
330
1F
100
AcDbEntity
  8
0
 62
     2
100
AcDbCircle
 10
93.63495461082141
 20
92.23309366529477
 30
0.0
 40
3.949999999999996
100
AcDbArc
 50
243.9921507102383
 51
269.9999999999984
  0
ARC
  5
196
330
1F
100
AcDbEntity
  8
0
 62
     2
100
AcDbCircle
 10
93.63495461082141
 20
92.23309366529477
 30
0.0
 40
3.950000000000183
100
AcDbArc
 50
180.009728039906
 51
243.992150710238
  0
LINE
  5
197
330
1F
100
AcDbEntity
  8
0
 62
     2
100
AcDbLine
 10
89.6839494689884
 20
98.1527981127769
 30
0.0
 11
89.68495466775488
 21
92.2324230093005
 31
0.0
  0
ARC
  5
198
330
1F
100
AcDbEntity
  8
0
 62
     2
100
AcDbCircle
 10
90.58394945601702
 20
98.15295091563607
 30
0.0
 40
0.9000000000000057
100
AcDbArc
 50
90.00000025542506
 51
180.0097277810476
  0
LINE
  5
199
330
1F
100
AcDbEntity
  8
0
 62
     2
100
AcDbLine
 10
90.60372447671674
 20
99.05295091891048
 30
0.0
 11
90.58394945265668
 21
99.05295091883664
 31
0.0
  0
ARC
  5
19A
330
1F
100
AcDbEntity
  8
0
 62
     2
100
AcDbCircle
 10
90.60372447671674
 20
99.4029509189082
 30
0.0
 40
0.3499999999999943
100
AcDbArc
 50
270.0
 51
0.000002260561785
  0
LINE
  5
19B
330
1F
100
AcDbEntity
  8
0
 62
     2
100
AcDbLine
 10
90.95372400325678
 20
111.4029580276064
 30
0.0
 11
90.95372447671681
 21
99.40295093271828
 31
0.0
  0
ARC
  5
19C
330
1F
100
AcDbEntity
  8
0
 62
     2
100
AcDbCircle
 10
90.60372400325647
 20
111.4029580137974
 30
0.0
 40
0.3499999999999946
100
AcDbArc
 50
0.0000022588727439
 51
89.99997701690265
  0
LINE
  5
19D
330
1F
100
AcDbEntity
  8
0
 62
     2
100
AcDbLine
 10
90.583860226582
 20
111.7529580183501
 30
0.0
 11
90.6037239115762
 21
111.7529580137974
 31
0.0
  0
ARC
  5
19E
330
1F
100
AcDbEntity
  8
0
 62
     2
100
AcDbCircle
 10
90.58386043286262
 20
112.6529580137973
 30
0.0
 40
0.9000000000000623
100
AcDbArc
 50
179.9999712239015
 51
269.9999868666632
  0
LINE
  5
19F
330
1F
100
AcDbEntity
  8
0
 62
     2
100
AcDbLine
 10
89.68386337842884
 20
118.5717241560097
 30
0.0
 11
89.6838604328627
 21
112.6529584662491
 31
0.0
  0
ARC
  5
1A0
330
1F
100
AcDbEntity
  8
0
 62
     2
100
AcDbCircle
 10
93.63386337842908
 20
118.5717241560098
 30
0.0
 40
3.950000000000087
100
AcDbArc
 50
153.9921507102421
 51
180.000000000003
  0
ARC
  5
1A1
330
1F
100
AcDbEntity
  8
0
 62
     2
100
AcDbCircle
 10
93.63386337842908
 20
118.5717241560098
 30
0.0
 40
3.94999999999987
100
AcDbArc
 50
90.00972803988216
 51
153.9921507102393
  0
LINE
  5
1A2
330
1F
100
AcDbEntity
  8
0
 62
     2
100
AcDbLine
 10
99.553567824276
 20
122.5227292978423
 30
0.0
 11
93.63319272243493
 21
122.521724099076
 31
0.0
  0
ARC
  5
1A3
330
1F
100
AcDbEntity
  8
0
 62
     2
100
AcDbCircle
 10
99.55372063197152
 20
121.6227293108142
 30
0.0
 40
0.9000000000011426
100
AcDbArc
 50
0.0
 51
90.00972782614691
  0
LINE
  5
1A4
330
1F
100
AcDbEntity
  8
0
 62
     2
100
AcDbLine
 10
100.4537206320454
 20
121.6029542901144
 30
0.0
 11
100.4537206319716
 21
121.6227293141748
 31
0.0
  0
ARC
  5
1A5
330
1F
100
AcDbEntity
  8
0
 62
     2
100
AcDbCircle
 10
100.8037206320432
 20
121.6029542901144
 30
0.0
 40
0.3499999999999091
100
AcDbArc
 50
180.0
 51
269.9999999999971
  0
LINE
  5
1A6
330
1F
100
AcDbEntity
  8
0
 62
     2
100
AcDbLine
 10
112.8037277407424
 20
121.2529547635748
 30
0.0
 11
100.8037206458532
 21
121.2529542901144
 31
0.0
  0
ARC
  5
1A7
330
1F
100
AcDbEntity
  8
0
 62
     2
100
AcDbCircle
 10
112.8037277269334
 20
121.602954763575
 30
0.0
 40
0.3499999999999662
100
AcDbArc
 50
270.0000022605595
 51
359.9999770186004
  0
LINE
  5
1A8
330
1F
100
AcDbEntity
  8
0
 62
     2
100
AcDbLine
 10
113.1537277314862
 20
121.6228184296571
 30
0.0
 11
113.1537277269334
 21
121.6029548552553
 31
0.0
  0
ARC
  5
1A9
330
1F
100
AcDbEntity
  8
0
 62
     2
100
AcDbCircle
 10
114.0537277314863
 20
121.6228185828018
 30
0.0
 40
0.9000000000000017
100
AcDbArc
 50
89.99996825919106
 51
180.0000058187687
  0
LINE
  5
1AA
330
1F
100
AcDbEntity
  8
0
 62
     2
100
AcDbLine
 10
119.9724938691464
 20
122.5228153884028
 30
0.0
 11
114.0537281793852
 21
122.5228183339688
 31
0.0
  0
ARC
  5
1AB
330
1F
100
AcDbEntity
  8
0
 62
     2
100
AcDbCircle
 10
119.9724938691464
 20
118.5728153884029
 30
0.0
 40
3.949999999999932
100
AcDbArc
 50
63.99215071023825
 51
89.99999999999808
  0
ARC
  5
1AC
330
1F
100
AcDbEntity
  8
0
 62
     2
100
AcDbCircle
 10
119.9724938691464
 20
118.5728153884029
 30
0.0
 40
3.950000000000126
100
AcDbArc
 50
0.0097280398685539
 51
63.9921507102094
  0
LINE
  5
1AD
330
1F
100
AcDbEntity
  8
0
 62
     2
100
AcDbLine
 10
123.9234990109794
 20
112.6531109409208
 30
0.0
 11
123.9224938122129
 21
118.5734860443972
 31
0.0
  0
ARC
  5
1AE
330
1F
100
AcDbEntity
  8
0
 62
     2
100
AcDbCircle
 10
123.0234990239509
 20
112.6529581380616
 30
0.0
 40
0.899999999999892
100
AcDbArc
 50
270.000000255416
 51
0.0097277810413465
  0
LINE
  5
1AF
330
1F
100
AcDbEntity
  8
0
 62
     2
100
AcDbLine
 10
123.0037240032511
 20
111.7529581347872
 30
0.0
 11
123.0234990273111
 21
111.752958134861
 31
0.0
  0
ARC
  5
1B0
330
1F
100
AcDbEntity
  8
0
 62
     2
100
AcDbCircle
 10
123.0037240032511
 20
111.4029581347895
 30
0.0
 40
0.3499999999999659
100
AcDbArc
 50
90.0
 51
180.00000226056
  0
LINE
  5
1B1
330
1F
100
AcDbEntity
  8
0
 62
     2
100
AcDbLine
 10
122.653724476711
 20
99.40295102609136
 30
0.0
 11
122.653724003251
 21
111.4029581209795
 31
0.0
  0
ARC
  5
1B2
330
1F
100
AcDbEntity
  8
0
 62
     2
100
AcDbCircle
 10
123.0037244767113
 20
99.40295103990036
 30
0.0
 40
0.350000000000023
100
AcDbArc
 50
180.0000022588727
 51
269.999977016909
  0
LINE
  5
1B3
330
1F
100
AcDbEntity
  8
0
 62
     2
100
AcDbLine
 10
123.0235882533857
 20
99.05295103534755
 30
0.0
 11
123.0037245683915
 21
99.05295103990034
 31
0.0
  0
ARC
  5
1B4
330
1F
100
AcDbEntity
  8
0
 62
     2
100
AcDbCircle
 10
123.0235880471052
 20
98.15295103990036
 30
0.0
 40
0.9000000000000339
100
AcDbArc
 50
359.9999712239015
 51
89.99998686666451
  0
LINE
  5
1B5
330
1F
100
AcDbEntity
  8
0
 62
     2
100
AcDbLine
 10
123.9235851015389
 20
92.23418489768798
 30
0.0
 11
123.9235880471051
 21
98.15295058744857
 31
0.0
  0
ARC
  5
1B6
330
1F
100
AcDbEntity
  8
0
 62
     2
100
AcDbCircle
 10
119.9735851015387
 20
92.2341848976879
 30
0.0
 40
3.950000000000125
100
AcDbArc
 50
333.992150710241
 51
0.0000000000020356
  0
ARC
  5
1B7
330
1F
100
AcDbEntity
  8
0
 62
     2
100
AcDbCircle
 10
119.9735851015387
 20
92.2341848976879
 30
0.0
 40
3.949999999999872
100
AcDbArc
 50
270.0097280400277
 51
333.992150710238
  0
LINE
  5
1B8
330
1F
100
AcDbEntity
  8
0
 62
     2
100
AcDbLine
 10
123.0235880471051
 20
98.15295103534763
 30
0.0
 11
123.0235801447009
 21
92.23418489769045
 31
0.0
  0
LINE
  5
1B9
330
1F
100
AcDbEntity
  8
0
 62
     2
100
AcDbLine
 10
123.5235880471051
 20
98.1529507865148
 30
0.0
 11
123.5235851015388
 21
92.23418489768801
 31
0.0
  0
LINE
  5
1BA
330
1F
100
AcDbEntity
  8
0
 62
     2
100
AcDbLine
 10
123.003724481379
 20
98.15295103990033
 30
0.0
 11
123.0235880471052
 21
98.1529510353476
 31
0.0
  0
LINE
  5
1BB
330
1F
100
AcDbEntity
  8
0
 62
     2
100
AcDbLine
 10
123.0037244767113
 20
98.65295103990033
 30
0.0
 11
123.0235881617055
 21
98.65295103990033
 31
0.0
  0
ARC
  5
1BC
330
1F
100
AcDbEntity
  8
0
 62
     2
100
AcDbCircle
 10
123.0037244767113
 20
99.40295103990033
 30
0.0
 40
1.250000000000058
100
AcDbArc
 50
180.0000020913098
 51
269.99999983068
  0
LINE
  5
1BD
330
1F
100
AcDbEntity
  8
0
 62
     2
100
AcDbLine
 10
121.7537242794359
 20
111.4029580854695
 30
0.0
 11
121.753725226356
 21
99.40295099058213
 31
0.0
  0
LINE
  5
1BE
330
1F
100
AcDbEntity
  8
0
 62
     2
100
AcDbLine
 10
122.2537240032509
 20
111.4029581051975
 30
0.0
 11
122.253724476711
 21
99.40295101030958
 31
0.0
  0
ARC
  5
1BF
330
1F
100
AcDbEntity
  8
0
 62
     2
100
AcDbCircle
 10
123.0037240032511
 20
111.4029581347895
 30
0.0
 40
1.249999999999943
100
AcDbArc
 50
89.99999927886508
 51
180.0000022606629
  0
ARC
  5
1C0
330
1F
100
AcDbEntity
  8
0
 62
     2
100
AcDbCircle
 10
123.0037240032511
 20
111.4029581347895
 30
0.0
 40
0.7499999999999716
100
AcDbArc
 50
89.99999943911612
 51
180.0000022606624
  0
LINE
  5
1C1
330
1F
100
AcDbEntity
  8
0
 62
     2
100
AcDbLine
 10
123.023499025818
 20
112.652958136728
 30
0.0
 11
123.0037240032511
 21
112.6529581347872
 31
0.0
  0
LINE
  5
1C2
330
1F
100
AcDbEntity
  8
0
 62
     2
100
AcDbLine
 10
123.0234990258178
 20
112.152958136728
 30
0.0
 11
123.0037240032511
 21
112.152958136728
 31
0.0
  0
LINE
  5
1C3
330
1F
100
AcDbEntity
  8
0
 62
     2
100
AcDbLine
 10
123.0224938251846
 20
118.573333236702
 30
0.0
 11
123.0234990239502
 21
112.652958134861
 31
0.0
  0
LINE
  5
1C4
330
1F
100
AcDbEntity
  8
0
 62
     2
100
AcDbLine
 10
123.5224938179783
 20
118.5734181298658
 30
0.0
 11
123.5234990167446
 21
112.6530430280253
 31
0.0
  0
ARC
  5
1C5
330
1F
100
AcDbEntity
  8
0
 62
     2
100
AcDbCircle
 10
119.9724938691464
 20
118.5728153884029
 30
0.0
 40
3.050000000000115
100
AcDbArc
 50
0.0097280400558808
 51
89.9999999997833
  0
ARC
  5
1C6
330
1F
100
AcDbEntity
  8
0
 62
     2
100
AcDbCircle
 10
119.9724938691464
 20
118.5728153884029
 30
0.0
 40
3.550000000000157
100
AcDbArc
 50
0.0097280400558808
 51
90.00000000002252
  0
LINE
  5
1C7
330
1F
100
AcDbEntity
  8
0
 62
     2
100
AcDbLine
 10
114.0537279803192
 20
121.6228185828018
 30
0.0
 11
119.9724938691472
 21
121.6228153884027
 31
0.0
  0
LINE
  5
1C8
330
1F
100
AcDbEntity
  8
0
 62
     2
100
AcDbLine
 10
114.0537279803191
 20
122.1228185828017
 30
0.0
 11
119.9724938691464
 21
122.1228185828019
 31
0.0
  0
LINE
  5
1C9
330
1F
100
AcDbEntity
  8
0
 62
     2
100
AcDbLine
 10
114.0537283446175
 20
121.6029547682425
 30
0.0
 11
114.053728353723
 21
121.6228183339688
 31
0.0
  0
LINE
  5
1CA
330
1F
100
AcDbEntity
  8
0
 62
     2
100
AcDbLine
 10
113.5537277269334
 20
121.6029547635751
 30
0.0
 11
113.5537277314862
 21
121.6228184485693
 31
0.0
  0
ARC
  5
1CB
330
1F
100
AcDbEntity
  8
0
 62
     2
100
AcDbCircle
 10
112.8037277269334
 20
121.602954763575
 30
0.0
 40
1.249999999999943
100
AcDbArc
 50
270.0
 51
0.0000002139472623
  0
ARC
  5
1CC
330
1F
100
AcDbEntity
  8
0
 62
     2
100
AcDbCircle
 10
112.8037277269334
 20
121.602954763575
 30
0.0
 40
0.7499999999999716
100
AcDbArc
 50
270.0
 51
0.0000002139471605
  0
LINE
  5
1CD
330
1F
100
AcDbEntity
  8
0
 62
     2
100
AcDbLine
 10
100.8037206813632
 20
120.3529542901144
 30
0.0
 11
112.8037277565241
 21
120.3529547635749
 31
0.0
  0
LINE
  5
1CE
330
1F
100
AcDbEntity
  8
0
 62
     2
100
AcDbLine
 10
100.8037206616352
 20
120.8529542901144
 30
0.0
 11
112.8037277565241
 21
120.8529542901148
 31
0.0
  0
ARC
  5
1CF
330
1F
100
AcDbEntity
  8
0
 62
     2
100
AcDbCircle
 10
100.8037206320432
 20
121.6029542901144
 30
0.0
 40
1.249999999999943
100
AcDbArc
 50
180.0
 51
270.0000003467899
  0
LINE
  5
1D0
330
1F
100
AcDbEntity
  8
0
 62
     2
100
AcDbLine
 10
99.55372063197157
 20
121.6227293108147
 30
0.0
 11
99.55372064404767
 21
121.6029542882476
 31
0.0
  0
LINE
  5
1D1
330
1F
100
AcDbEntity
  8
0
 62
     2
100
AcDbLine
 10
100.0537206319716
 20
121.6227293126814
 30
0.0
 11
100.0537206320454
 21
121.6029542901144
 31
0.0
  0
LINE
  5
1D2
330
1F
100
AcDbEntity
  8
0
 62
     2
100
AcDbLine
 10
93.6333455301301
 20
121.6217241120484
 30
0.0
 11
99.5537206319716
 21
121.6227293108147
 31
0.0
  0
LINE
  5
1D3
330
1F
100
AcDbEntity
  8
0
 62
     2
100
AcDbLine
 10
93.63326063696638
 20
122.1217241048415
 30
0.0
 11
99.55363573880737
 21
122.1227293036085
 31
0.0
  0
ARC
  5
1D4
330
1F
100
AcDbEntity
  8
0
 62
     2
100
AcDbCircle
 10
93.63386337842908
 20
118.5717241560098
 30
0.0
 40
3.049999999999888
100
AcDbArc
 50
90.00972804003088
 51
180.0000727110556
  0
ARC
  5
1D5
330
1F
100
AcDbEntity
  8
0
 62
     2
100
AcDbCircle
 10
93.63386337842908
 20
118.5717241560098
 30
0.0
 40
3.549999999999873
100
AcDbArc
 50
90.00972804002953
 51
180.0
  0
LINE
  5
1D6
330
1F
100
AcDbEntity
  8
0
 62
     2
100
AcDbLine
 10
90.58386043286262
 20
112.6529580183501
 30
0.0
 11
90.58386901489175
 21
118.5717239071741
 31
0.0
  0
LINE
  5
1D7
330
1F
100
AcDbEntity
  8
0
 62
     2
100
AcDbLine
 10
90.08386043286265
 20
112.6529582671828
 30
0.0
 11
90.0838633784289
 21
118.5717241560097
 31
0.0
  0
LINE
  5
1D8
330
1F
100
AcDbEntity
  8
0
 62
     2
100
AcDbLine
 10
90.60372399858883
 20
112.6529580137973
 30
0.0
 11
90.5838604328626
 21
112.6529580183501
 31
0.0
  0
LINE
  5
1D9
330
1F
100
AcDbEntity
  8
0
 62
     2
100
AcDbLine
 10
90.6037240032565
 20
112.1529580137973
 30
0.0
 11
90.58386031826228
 21
112.1529580137973
 31
0.0
  0
ARC
  5
1DA
330
1F
100
AcDbEntity
  8
0
 62
     2
100
AcDbCircle
 10
90.60372400325647
 20
111.4029580137974
 30
0.0
 40
1.250000000000058
100
AcDbArc
 50
0.0000020913097892
 51
90.00000004463203
  0
LINE
  5
1DB
330
1F
100
AcDbEntity
  8
0
 62
     2
100
AcDbLine
 10
91.8537242005319
 20
99.4029509682282
 30
0.0
 11
91.85372325361178
 21
111.4029580631156
 31
0.0
  0
LINE
  5
1DC
330
1F
100
AcDbEntity
  8
0
 62
     2
100
AcDbLine
 10
91.35372447671685
 20
99.40295094850023
 30
0.0
 11
91.35372400325679
 21
111.4029580433881
 31
0.0
  0
ARC
  5
1DD
330
1F
100
AcDbEntity
  8
0
 62
     2
100
AcDbCircle
 10
90.60372447671674
 20
99.4029509189082
 30
0.0
 40
1.249999999999972
100
AcDbArc
 50
270.0
 51
0.0000022606632574
  0
ARC
  5
1DE
330
1F
100
AcDbEntity
  8
0
 62
     2
100
AcDbCircle
 10
90.60372447671674
 20
99.4029509189082
 30
0.0
 40
0.75
100
AcDbArc
 50
270.0
 51
0.0000022606624432
  0
LINE
  5
1DF
330
1F
100
AcDbEntity
  8
0
 62
     2
100
AcDbLine
 10
90.58394945414977
 20
98.15295091696964
 30
0.0
 11
90.60372447671676
 21
98.1529509189105
 31
0.0
  0
LINE
  5
1E0
330
1F
100
AcDbEntity
  8
0
 62
     2
100
AcDbLine
 10
90.58394945415003
 20
98.65295091696962
 30
0.0
 11
90.60372447671676
 21
98.65295091696962
 31
0.0
  0
LINE
  5
1E1
330
1F
100
AcDbEntity
  8
0
 62
     2
100
AcDbLine
 10
90.58495465477995
 20
92.23257581699568
 30
0.0
 11
90.58394945601052
 21
98.1529509188367
 31
0.0
  0
LINE
  5
1E2
330
1F
100
AcDbEntity
  8
0
 62
     2
100
AcDbLine
 10
90.08495466198946
 20
92.23249092383188
 30
0.0
 11
90.08394946322326
 21
98.15286602567241
 31
0.0
  0
ARC
  5
1E3
330
1F
100
AcDbEntity
  8
0
 62
     2
100
AcDbCircle
 10
93.63495461082141
 20
92.23309366529477
 30
0.0
 40
3.050000000000115
100
AcDbArc
 50
180.0097280400558
 51
270.0000000000235
  0
ARC
  5
1E4
330
1F
100
AcDbEntity
  8
0
 62
     2
100
AcDbCircle
 10
93.63495461082141
 20
92.23309366529477
 30
0.0
 40
3.550000000000157
100
AcDbArc
 50
180.0097280400558
 51
270.0000000000237
  0
LINE
  5
1E5
330
1F
100
AcDbEntity
  8
0
 62
     2
100
AcDbLine
 10
99.55372049964873
 20
89.18309047089588
 30
0.0
 11
93.63495461082061
 21
89.18309366529496
 31
0.0
  0
LINE
  5
1E6
330
1F
100
AcDbEntity
  8
0
 62
     2
100
AcDbLine
 10
99.55372049964873
 20
88.68309047089593
 30
0.0
 11
93.63495461082141
 21
88.68309047089576
 31
0.0
  0
LINE
  5
1E7
330
1F
100
AcDbEntity
  8
0
 62
     2
100
AcDbLine
 10
99.55372013535029
 20
89.20295428545509
 30
0.0
 11
99.55372012624483
 21
89.18309071972888
 31
0.0
  0
LINE
  5
1E8
330
1F
100
AcDbEntity
  8
0
 62
     2
100
AcDbLine
 10
100.0537207530344
 20
89.20295429012256
 30
0.0
 11
100.0537207484816
 21
89.1830906051284
 31
0.0
  0
ARC
  5
1E9
330
1F
100
AcDbEntity
  8
0
 62
     2
100
AcDbCircle
 10
100.8037207530344
 20
89.20295429012265
 30
0.0
 40
1.249999999999972
100
AcDbArc
 50
89.99999830457485
 51
180.0000002139505
  0
ARC
  5
1EA
330
1F
100
AcDbEntity
  8
0
 62
     2
100
AcDbCircle
 10
100.8037207530344
 20
89.20295429012262
 30
0.0
 40
0.7499999999999719
100
AcDbArc
 50
89.99999830457702
 51
180.0000002139471
  0
LINE
  5
1EB
330
1F
100
AcDbEntity
  8
0
 62
     2
100
AcDbLine
 10
112.8037277986046
 20
90.45295476358325
 30
0.0
 11
100.8037207234437
 21
90.45295429012282
 31
0.0
  0
LINE
  5
1EC
330
1F
100
AcDbEntity
  8
0
 62
     2
100
AcDbLine
 10
112.8037278183326
 20
89.95295476358325
 30
0.0
 11
100.8037207234437
 21
89.95295476358291
 31
0.0
  0
ARC
  5
1ED
330
1F
100
AcDbEntity
  8
0
 62
     2
100
AcDbCircle
 10
112.8037278479246
 20
89.20295476358328
 30
0.0
 40
1.249999999999972
100
AcDbArc
 50
0.0
 51
90.00000260743293
  0
LINE
  5
1EE
330
1F
100
AcDbEntity
  8
0
 62
     2
100
AcDbLine
 10
114.0537278479962
 20
89.18317974288297
 30
0.0
 11
114.0537278359201
 21
89.20295476545002
 31
0.0
  0
LINE
  5
1EF
330
1F
100
AcDbEntity
  8
0
 62
     2
100
AcDbLine
 10
113.5537278479962
 20
89.18317974101623
 30
0.0
 11
113.5537278479224
 21
89.20295476358334
 31
0.0
  0
LINE
  5
1F0
330
1F
100
AcDbEntity
  8
0
 62
     2
100
AcDbLine
 10
119.9741029498377
 20
89.18418494164933
 30
0.0
 11
114.0537278479962
 21
89.18317974288297
 31
0.0
  0
LINE
  5
1F1
330
1F
100
AcDbEntity
  8
0
 62
     2
100
AcDbLine
 10
119.9741878430014
 20
88.68418494885617
 30
0.0
 11
114.0538127411604
 21
88.68317975008915
 31
0.0
  0
ARC
  5
1F2
330
1F
100
AcDbEntity
  8
0
 62
     2
100
AcDbCircle
 10
119.9735851015387
 20
92.23418489768787
 30
0.0
 40
3.049999999999859
100
AcDbArc
 50
270.0097280400319
 51
359.9999999999992
  0
ARC
  5
1F3
330
1F
100
AcDbEntity
  8
0
 62
     2
100
AcDbCircle
 10
119.9735851015387
 20
92.23418489768787
 30
0.0
 40
3.549999999999873
100
AcDbArc
 50
270.0097280400313
 51
0.0000000000004071
  0
LINE
  5
1F4
330
1F
100
AcDbEntity
  8
0
 62
     2
100
AcDbLine
 10
114.0538127411604
 20
88.68317975008915
 30
0.0
 11
119.9741878430014
 21
88.68418494885617
 31
0.0
  0
LINE
  5
1F5
330
1F
100
AcDbEntity
  8
0
 62
     2
100
AcDbLine
 10
120.9725506469755
 20
95.39536881781464
 30
0.0
 11
120.9735283258508
 21
115.4094439898936
 31
0.0
  0
ARC
  5
1F6
330
1F
100
AcDbEntity
  8
0
 62
     2
100
AcDbCircle
 10
121.4725506463782
 20
95.39534439303378
 30
0.0
 40
0.5000000000000835
100
AcDbArc
 50
179.9972011263184
 51
244.6220377513188
  0
ARC
  5
1F7
330
1F
100
AcDbEntity
  8
0
 62
     2
100
AcDbCircle
 10
119.9724938691464
 20
92.23309366529551
 30
0.0
 40
3.000000000000152
100
AcDbArc
 50
350.4012405364182
 51
64.62203775126741
  0
ARC
  5
1F8
330
1F
100
AcDbEntity
  8
0
 62
     2
100
AcDbCircle
 10
119.9724938691464
 20
92.23309366529551
 30
0.0
 40
3.000000000000199
100
AcDbArc
 50
205.3759048274035
 51
350.4012405364151
  0
ARC
  5
1F9
330
1F
100
AcDbEntity
  8
0
 62
     2
100
AcDbCircle
 10
116.8101892782432
 20
90.73315044158542
 30
0.0
 40
0.5000000000000149
100
AcDbArc
 50
25.37590482738768
 51
89.99720112604274
  0
LINE
  5
1FA
330
1F
100
AcDbEntity
  8
0
 62
     2
100
AcDbLine
 10
96.79613853095097
 20
91.23412811985773
 30
0.0
 11
116.8102137030253
 21
91.23315044098311
 31
0.0
  0
ARC
  5
1FB
330
1F
100
AcDbEntity
  8
0
 62
     2
100
AcDbCircle
 10
96.79611410616761
 20
90.73412812045572
 30
0.0
 40
0.5000000000000552
100
AcDbArc
 50
89.99720112598804
 51
154.6220377512694
  0
ARC
  5
1FC
330
1F
100
AcDbEntity
  8
0
 62
     2
100
AcDbCircle
 10
93.63386337842908
 20
92.23418489768713
 30
0.0
 40
2.999999999999942
100
AcDbArc
 50
260.4012405364159
 51
334.622037751272
  0
ARC
  5
1FD
330
1F
100
AcDbEntity
  8
0
 62
     2
100
AcDbCircle
 10
93.63386337842908
 20
92.23418489768713
 30
0.0
 40
2.999999999999938
100
AcDbArc
 50
115.3759048274918
 51
260.401240536419
  0
ARC
  5
1FE
330
1F
100
AcDbEntity
  8
0
 62
     2
100
AcDbCircle
 10
92.13392015471359
 20
95.39648948858746
 30
0.0
 40
0.4999999999999451
100
AcDbArc
 50
295.3759048274924
 51
359.9972011261059
  0
LINE
  5
1FF
330
1F
100
AcDbEntity
  8
0
 62
     2
100
AcDbLine
 10
92.63489783299198
 20
115.4105402358825
 30
0.0
 11
92.6339201541168
 21
95.39646506380404
 31
0.0
  0
ARC
  5
200
330
1F
100
AcDbEntity
  8
0
 62
     2
100
AcDbCircle
 10
92.13489783358747
 20
115.4105646606649
 30
0.0
 40
0.5000000000000268
100
AcDbArc
 50
359.997201126058
 51
64.622037751189
  0
ARC
  5
201
330
1F
100
AcDbEntity
  8
0
 62
     2
100
AcDbCircle
 10
93.63495461082141
 20
118.5728153884021
 30
0.0
 40
3.000000000000165
100
AcDbArc
 50
170.4012405364266
 51
244.6220377512273
  0
ARC
  5
202
330
1F
100
AcDbEntity
  8
0
 62
     2
100
AcDbCircle
 10
93.63495461082141
 20
118.5728153884021
 30
0.0
 40
3.000000000000159
100
AcDbArc
 50
25.37590482752223
 51
170.4012405364243
  0
ARC
  5
203
330
1F
100
AcDbEntity
  8
0
 62
     2
100
AcDbCircle
 10
96.79725920172137
 20
120.0727586121191
 30
0.0
 40
0.5000000000000047
100
AcDbArc
 50
205.3759048275144
 51
269.9972011260518
  0
LINE
  5
204
330
1F
100
AcDbEntity
  8
0
 62
     2
100
AcDbLine
 10
116.8113099490189
 20
119.5717809338396
 30
0.0
 11
96.797234776939
 21
119.5727586127141
 31
0.0
  0
ARC
  5
205
330
1F
100
AcDbEntity
  8
0
 62
     2
100
AcDbCircle
 10
116.8113343738023
 20
120.0717809332465
 30
0.0
 40
0.5000000000000268
100
AcDbArc
 50
269.9972011259815
 51
334.6220377511839
  0
ARC
  5
206
330
1F
100
AcDbEntity
  8
0
 62
     2
100
AcDbCircle
 10
119.9735851015387
 20
118.5717241560105
 30
0.0
 40
2.999999999999965
100
AcDbArc
 50
80.40124053641983
 51
154.622037751187
  0
ARC
  5
207
330
1F
100
AcDbEntity
  8
0
 62
     2
100
AcDbCircle
 10
119.9735851015387
 20
118.5717241560105
 30
0.0
 40
2.99999999999995
100
AcDbArc
 50
295.3759048275277
 51
80.40124053642228
  0
ARC
  5
208
330
1F
100
AcDbEntity
  8
0
 62
     2
100
AcDbCircle
 10
121.4735283252563
 20
115.4094195651112
 30
0.0
 40
0.4999999999999494
100
AcDbArc
 50
115.3759048275391
 51
179.9972011260928
  0
LINE
  5
209
330
1F
100
AcDbEntity
  8
0
 62
     2
100
AcDbLine
 10
116.8102869773734
 20
92.73315043919334
 30
0.0
 11
96.79621180530125
 21
92.73412811806796
 31
0.0
  0
LINE
  5
20A
330
1F
100
AcDbEntity
  8
0
 62
     2
100
AcDbLine
 10
116.8102381278082
 20
91.73315044038651
 30
0.0
 11
96.79616295573447
 21
91.7341281192655
 31
0.0
  0
ARC
  5
20B
330
1F
100
AcDbEntity
  8
0
 62
     2
100
AcDbCircle
 10
116.8101892782432
 20
90.73315044158542
 30
0.0
 40
2.000000000000076
100
AcDbArc
 50
25.37590482740007
 51
89.99720112608381
  0
ARC
  5
20C
330
1F
100
AcDbEntity
  8
0
 62
     2
100
AcDbCircle
 10
116.8101892782432
 20
90.73315044158542
 30
0.0
 40
1.000000000000015
100
AcDbArc
 50
25.37590482739351
 51
89.99720112607677
  0
ARC
  5
20D
330
1F
100
AcDbEntity
  8
0
 62
     2
100
AcDbCircle
 10
119.9724938691464
 20
92.23309366529551
 30
0.0
 40
1.500000000000117
100
AcDbArc
 50
205.375904827396
 51
64.62203775126848
  0
ARC
  5
20E
330
1F
100
AcDbEntity
  8
0
 62
     2
100
AcDbCircle
 10
119.9724938691464
 20
92.23309366529551
 30
0.0
 40
2.500000000000183
100
AcDbArc
 50
205.3759048273945
 51
64.62203775126741
  0
ARC
  5
20F
330
1F
100
AcDbEntity
  8
0
 62
     2
100
AcDbCircle
 10
121.4725506463782
 20
95.39534439303378
 30
0.0
 40
2.000000000000108
100
AcDbArc
 50
179.9972011255371
 51
244.6220377512327
  0
LINE
  5
210
330
1F
100
AcDbEntity
  8
0
 62
     2
100
AcDbLine
 10
119.4735283276431
 20
115.4095172642415
 30
0.0
 11
119.4725506487723
 21
95.39544209216095
 31
0.0
  0
LINE
  5
211
330
1F
100
AcDbEntity
  8
0
 62
     2
100
AcDbLine
 10
120.4735283264473
 20
115.4094684146763
 30
0.0
 11
120.4725506475721
 21
95.39539324259567
 31
0.0
  0
ARC
  5
212
330
1F
100
AcDbEntity
  8
0
 62
     2
100
AcDbCircle
 10
121.4735283252563
 20
115.4094195651112
 30
0.0
 40
1.999999999999892
100
AcDbArc
 50
115.3759048275315
 51
179.9972011260886
  0
ARC
  5
213
330
1F
100
AcDbEntity
  8
0
 62
     2
100
AcDbCircle
 10
121.4735283252563
 20
115.4094195651112
 30
0.0
 40
0.9999999999999231
100
AcDbArc
 50
115.406969444846
 51
179.9972011260824
  0
ARC
  5
214
330
1F
100
AcDbEntity
  8
0
 62
     2
100
AcDbCircle
 10
119.9735851015387
 20
118.5717241560105
 30
0.0
 40
1.499999999999954
100
AcDbArc
 50
295.3759048275323
 51
154.6220377511908
  0
ARC
  5
215
330
1F
100
AcDbEntity
  8
0
 62
     2
100
AcDbCircle
 10
116.8113343738023
 20
120.0717809332465
 30
0.0
 40
1.999999999999993
100
AcDbArc
 50
269.9972011262551
 51
334.6220377511878
  0
ARC
  5
216
330
1F
100
AcDbEntity
  8
0
 62
     2
100
AcDbCircle
 10
116.8113343738023
 20
120.0717809332465
 30
0.0
 40
1.000000000000025
100
AcDbArc
 50
269.9972011259848
 51
334.6220377511879
  0
LINE
  5
217
330
1F
100
AcDbEntity
  8
0
 62
     2
100
AcDbLine
 10
96.79716150259097
 20
118.0727586145038
 30
0.0
 11
116.8112366746697
 21
118.0717809356294
 31
0.0
  0
LINE
  5
218
330
1F
100
AcDbEntity
  8
0
 62
     2
100
AcDbLine
 10
96.79721035215633
 20
119.0727586133107
 30
0.0
 11
116.8112855242355
 21
119.0717809344317
 31
0.0
  0
ARC
  5
219
330
1F
100
AcDbEntity
  8
0
 62
     2
100
AcDbCircle
 10
96.79725920172137
 20
120.0727586121191
 30
0.0
 40
2.000000000000118
100
AcDbArc
 50
205.3759048275185
 51
269.9972011260853
  0
ARC
  5
21A
330
1F
100
AcDbEntity
  8
0
 62
     2
100
AcDbCircle
 10
96.79725920172137
 20
120.0727586121191
 30
0.0
 40
1.000000000000059
100
AcDbArc
 50
205.3759048275166
 51
269.9972011260787
  0
ARC
  5
21B
330
1F
100
AcDbEntity
  8
0
 62
     2
100
AcDbCircle
 10
93.63495461082141
 20
118.5728153884021
 30
0.0
 40
1.500000000000076
100
AcDbArc
 50
25.3759048275169
 51
244.6220377512274
  0
ARC
  5
21C
330
1F
100
AcDbEntity
  8
0
 62
     2
100
AcDbCircle
 10
93.63495461082141
 20
118.5728153884021
 30
0.0
 40
2.500000000000122
100
AcDbArc
 50
25.37590482751766
 51
244.6220377512283
  0
ARC
  5
21D
330
1F
100
AcDbEntity
  8
0
 62
     2
100
AcDbCircle
 10
92.13489783358747
 20
115.4105646606649
 30
0.0
 40
2.000000000000107
100
AcDbArc
 50
359.997201126058
 51
64.62203775128084
  0
LINE
  5
21E
330
1F
100
AcDbEntity
  8
0
 62
     2
100
AcDbLine
 10
94.13392015232441
 20
95.3963917894558
 30
0.0
 11
94.13489783119522
 21
115.4104669615346
 31
0.0
  0
LINE
  5
21F
330
1F
100
AcDbEntity
  8
0
 62
     2
100
AcDbLine
 10
93.13392015352025
 20
95.39644063902139
 30
0.0
 11
93.13489783239544
 21
115.4105158111
 31
0.0
  0
ARC
  5
220
330
1F
100
AcDbEntity
  8
0
 62
     2
100
AcDbCircle
 10
92.13392015471359
 20
95.39648948858746
 30
0.0
 40
1.999999999999948
100
AcDbArc
 50
295.3759048274893
 51
359.9972011260479
  0
ARC
  5
221
330
1F
100
AcDbEntity
  8
0
 62
     2
100
AcDbCircle
 10
92.13392015471359
 20
95.39648948858746
 30
0.0
 40
0.9999999999999659
100
AcDbArc
 50
295.375904827494
 51
359.9972011260618
  0
ARC
  5
222
330
1F
100
AcDbEntity
  8
0
 62
     2
100
AcDbCircle
 10
93.63386337842908
 20
92.23418489768713
 30
0.0
 40
1.499999999999949
100
AcDbArc
 50
115.375904827494
 51
334.6220377512764
  0
ARC
  5
223
330
1F
100
AcDbEntity
  8
0
 62
     2
100
AcDbCircle
 10
96.79611410616761
 20
90.73412812045572
 30
0.0
 40
1.999999999999993
100
AcDbArc
 50
89.99720112598885
 51
154.6220377512684
  0
ARC
  5
224
330
1F
100
AcDbEntity
  8
0
 62
     2
100
AcDbCircle
 10
96.79611410616761
 20
90.73412812045572
 30
0.0
 40
1.000000000000025
100
AcDbArc
 50
89.99720112598804
 51
154.6220377512706
  0
ARC
  5
225
330
1F
100
AcDbEntity
  8
0
 62
     2
100
AcDbCircle
 10
99.30372431039214
 20
97.90295821655326
 30
0.0
 40
2.000000000000114
100
AcDbArc
 50
180.0
 51
270.0000000000004
  0
ARC
  5
226
330
1F
100
AcDbEntity
  8
0
 62
     2
100
AcDbCircle
 10
99.30372431039206
 20
112.9029582165529
 30
0.0
 40
1.999999999999943
100
AcDbArc
 50
89.99999999999919
 51
179.9999999999989
  0
ARC
  5
227
330
1F
100
AcDbEntity
  8
0
 62
     2
100
AcDbCircle
 10
114.303724310393
 20
112.9029582165533
 30
0.0
 40
2.000000000000114
100
AcDbArc
 50
0.0
 51
90.0
  0
ARC
  5
228
330
1F
100
AcDbEntity
  8
0
 62
     2
100
AcDbCircle
 10
114.3037243103929
 20
97.90295821655374
 30
0.0
 40
1.999999999999943
100
AcDbArc
 50
270.0000000000016
 51
0.0000000000002036
  0
LINE
  5
229
330
1F
100
AcDbEntity
  8
0
 62
     2
100
AcDbLine
 10
114.303724310393
 20
96.90295821655377
 30
0.0
 11
99.3037243103922
 21
96.90295821655332
 31
0.0
  0
LINE
  5
22A
330
1F
100
AcDbEntity
  8
0
 62
     2
100
AcDbLine
 10
114.303724310393
 20
95.90295821655377
 30
0.0
 11
99.303724310392
 21
95.90295821655334
 31
0.0
  0
ARC
  5
22B
330
1F
100
AcDbEntity
  8
0
 62
     2
100
AcDbCircle
 10
114.303724310393
 20
97.90295821655371
 30
0.0
 40
0.9999999999999716
100
AcDbArc
 50
270.0
 51
359.999999999998
  0
LINE
  5
22C
330
1F
100
AcDbEntity
  8
0
 62
     2
100
AcDbLine
 10
115.303724310393
 20
112.9029582165534
 30
0.0
 11
115.303724310393
 21
97.90295821655383
 31
0.0
  0
LINE
  5
22D
330
1F
100
AcDbEntity
  8
0
 62
     2
100
AcDbLine
 10
116.3037243103931
 20
112.9029582165533
 30
0.0
 11
116.3037243103931
 21
97.90295821655377
 31
0.0
  0
ARC
  5
22E
330
1F
100
AcDbEntity
  8
0
 62
     2
100
AcDbCircle
 10
114.303724310393
 20
112.9029582165533
 30
0.0
 40
1.000000000000057
100
AcDbArc
 50
0.0
 51
90.00000000000102
  0
LINE
  5
22F
330
1F
100
AcDbEntity
  8
0
 62
     2
100
AcDbLine
 10
99.30372431039203
 20
113.9029582165528
 30
0.0
 11
114.3037243103929
 21
113.9029582165533
 31
0.0
  0
LINE
  5
230
330
1F
100
AcDbEntity
  8
0
 62
     2
100
AcDbLine
 10
99.30372431039211
 20
114.9029582165528
 30
0.0
 11
114.303724310393
 21
114.9029582165532
 31
0.0
  0
ARC
  5
231
330
1F
100
AcDbEntity
  8
0
 62
     2
100
AcDbCircle
 10
99.30372431039211
 20
112.9029582165529
 30
0.0
 40
0.9999999999999716
100
AcDbArc
 50
90.00000000000651
 51
180.0000000000013
  0
LINE
  5
232
330
1F
100
AcDbEntity
  8
0
 62
     2
100
AcDbLine
 10
98.303724310392
 20
97.9029582165532
 30
0.0
 11
98.30372431039197
 21
112.9029582165528
 31
0.0
  0
LINE
  5
233
330
1F
100
AcDbEntity
  8
0
 62
     2
100
AcDbLine
 10
97.303724310392
 20
97.90295821655323
 30
0.0
 11
97.303724310392
 21
112.9029582165528
 31
0.0
  0
ARC
  5
234
330
1F
100
AcDbEntity
  8
0
 62
     2
100
AcDbCircle
 10
99.30372431039214
 20
97.90295821655329
 30
0.0
 40
1.000000000000085
100
AcDbArc
 50
180.0
 51
269.9999999999987
  0
LINE
  5
235
330
1F
100
AcDbEntity
  8
0
 62
     2
100
AcDbLine
 10
97.303724310392
 20
97.90295821655323
 30
0.0
 11
98.30372431039206
 21
97.90295821655326
 31
0.0
  0
LINE
  5
236
330
1F
100
AcDbEntity
  8
0
 62
     2
100
AcDbLine
 10
97.303724310392
 20
112.9029582165528
 30
0.0
 11
98.30372431039197
 21
112.9029582165528
 31
0.0
  0
LINE
  5
237
330
1F
100
AcDbEntity
  8
0
 62
     2
100
AcDbLine
 10
99.3037243103922
 20
114.9029582165528
 30
0.0
 11
99.30372431039211
 21
113.9029582165529
 31
0.0
  0
LINE
  5
238
330
1F
100
AcDbEntity
  8
0
 62
     2
100
AcDbLine
 10
114.3037243103929
 20
114.9029582165532
 30
0.0
 11
114.3037243103929
 21
113.9029582165533
 31
0.0
  0
LINE
  5
239
330
1F
100
AcDbEntity
  8
0
 62
     2
100
AcDbLine
 10
116.3037243103931
 20
112.9029582165533
 30
0.0
 11
115.303724310393
 21
112.9029582165533
 31
0.0
  0
LINE
  5
23A
330
1F
100
AcDbEntity
  8
0
 62
     2
100
AcDbLine
 10
116.3037243103931
 20
97.90295821655377
 30
0.0
 11
115.303724310393
 21
97.90295821655374
 31
0.0
  0
LINE
  5
23B
330
1F
100
AcDbEntity
  8
0
 62
     2
100
AcDbLine
 10
99.3037243103922
 20
95.90295821655332
 30
0.0
 11
99.30372431039217
 21
96.90295821655329
 31
0.0
  0
LINE
  5
23C
330
1F
100
AcDbEntity
  8
0
 62
     2
100
AcDbLine
 10
114.303724310393
 20
95.90295821655374
 30
0.0
 11
114.303724310393
 21
96.90295821655374
 31
0.0
  0
LINE
  5
23D
330
1F
100
AcDbEntity
  8
0
 62
     2
100
AcDbLine
 10
94.989113690317
 20
91.59130342173088
 30
0.0
 11
95.89261389824227
 21
91.16271577109333
 31
0.0
  0
LINE
  5
23E
330
1F
100
AcDbEntity
  8
0
 62
     2
100
AcDbLine
 10
92.56247536148945
 20
94.49297389118735
 30
0.0
 11
92.99103056826527
 21
93.58945829378726
 31
0.0
  0
LINE
  5
23F
330
1F
100
AcDbEntity
  8
0
 62
     2
100
AcDbLine
 10
94.13392015232742
 20
95.39639178945583
 30
0.0
 11
93.13392015352048
 21
95.39644063902165
 31
0.0
  0
LINE
  5
240
330
1F
100
AcDbEntity
  8
0
 62
     2
100
AcDbLine
 10
93.13489783239544
 20
115.4105158111
 30
0.0
 11
94.13489783119522
 21
115.4104669615346
 31
0.0
  0
LINE
  5
241
330
1F
100
AcDbEntity
  8
0
 62
     2
100
AcDbLine
 10
92.992073134864
 20
117.2175650765147
 30
0.0
 11
92.56348548422574
 21
116.3140648685898
 31
0.0
  0
LINE
  5
242
330
1F
100
AcDbEntity
  8
0
 62
     2
100
AcDbLine
 10
95.89374360432137
 20
119.6442034053428
 30
0.0
 11
94.99022800692137
 21
119.2156481985666
 31
0.0
  0
LINE
  5
243
330
1F
100
AcDbEntity
  8
0
 62
     2
100
AcDbLine
 10
96.79716150259105
 20
118.0727586145054
 30
0.0
 11
96.79721035215621
 21
119.0727586133123
 31
0.0
  0
LINE
  5
244
330
1F
100
AcDbEntity
  8
0
 62
     2
100
AcDbLine
 10
116.8112855242354
 20
119.0717809344317
 30
0.0
 11
116.8112366746698
 21
118.0717809356294
 31
0.0
  0
LINE
  5
245
330
1F
100
AcDbEntity
  8
0
 62
     2
100
AcDbLine
 10
118.6183347896518
 20
119.2146056319688
 30
0.0
 11
117.714834581727
 21
119.6431932826076
 31
0.0
  0
LINE
  5
246
330
1F
100
AcDbEntity
  8
0
 62
     2
100
AcDbLine
 10
121.0449731184798
 20
116.312935162511
 30
0.0
 11
120.6164179117034
 21
117.2164507599108
 31
0.0
  0
LINE
  5
247
330
1F
100
AcDbEntity
  8
0
 62
     2
100
AcDbLine
 10
119.4735283276424
 20
115.4095172642416
 30
0.0
 11
120.4735283264494
 21
115.4094684146764
 31
0.0
  0
LINE
  5
248
330
1F
100
AcDbEntity
  8
0
 62
     2
100
AcDbLine
 10
120.4725506475721
 20
95.39539324259567
 30
0.0
 11
119.4725506487723
 21
95.39544209216103
 31
0.0
  0
LINE
  5
249
330
1F
100
AcDbEntity
  8
0
 62
     2
100
AcDbLine
 10
120.6153753451029
 20
93.58834397718337
 30
0.0
 11
121.0439629957406
 21
94.49184418510856
 31
0.0
  0
LINE
  5
24A
330
1F
100
AcDbEntity
  8
0
 62
     2
100
AcDbLine
 10
117.7137048756441
 20
91.16170564835969
 30
0.0
 11
118.617220473045
 21
91.590260855134
 31
0.0
  0
LINE
  5
24B
330
1F
100
AcDbEntity
  8
0
 62
     2
100
AcDbLine
 10
96.79621180530128
 20
92.73412811806944
 30
0.0
 11
96.79616295573445
 21
91.7341281192626
 31
0.0
  0
LINE
  5
24C
330
1F
100
AcDbEntity
  8
0
 62
     2
100
AcDbLine
 10
116.8102869773734
 20
92.73315043919908
 30
0.0
 11
116.8102381278083
 21
91.73315044039225
 31
0.0
  0
LINE
  5
24D
330
1F
100
AcDbEntity
  8
0
 62
     2
100
AcDbLine
 10
121.259250721868
 20
115.8611773638111
 30
0.0
 11
121.0452156675934
 21
116.3124238003719
 31
0.0
  0
LINE
  5
24E
330
1F
100
AcDbEntity
  8
0
 62
     2
100
AcDbLine
 10
117.714834581727
 20
119.6431932826076
 30
0.0
 11
117.2630844777646
 21
119.857487107927
 31
0.0
  0
LINE
  5
24F
330
1F
100
AcDbEntity
  8
0
 62
     2
100
AcDbLine
 10
116.8113099490189
 20
119.571780933843
 30
0.0
 11
116.8112855242355
 21
119.0717809344396
 31
0.0
  0
LINE
  5
250
330
1F
100
AcDbEntity
  8
0
 62
     2
100
AcDbLine
 10
96.79723477693906
 20
119.5727586127141
 30
0.0
 11
96.79721035215624
 21
119.072758613304
 31
0.0
  0
LINE
  5
251
330
1F
100
AcDbEntity
  8
0
 62
     2
100
AcDbLine
 10
96.34550140302139
 20
119.8584810087309
 30
0.0
 11
95.8937436043214
 21
119.6442034053428
 31
0.0
  0
LINE
  5
252
330
1F
100
AcDbEntity
  8
0
 62
     2
100
AcDbLine
 10
92.56348548422574
 20
116.3140648685899
 30
0.0
 11
92.34919165890659
 21
115.8623147646274
 31
0.0
  0
LINE
  5
253
330
1F
100
AcDbEntity
  8
0
 62
     2
100
AcDbLine
 10
92.63489783299093
 20
115.4105402358825
 30
0.0
 11
93.13489783239439
 21
115.4105158111
 31
0.0
  0
LINE
  5
254
330
1F
100
AcDbEntity
  8
0
 62
     2
100
AcDbLine
 10
92.6339201541168
 20
95.39646506380413
 30
0.0
 11
93.13392015352025
 21
95.39644063902142
 31
0.0
  0
LINE
  5
255
330
1F
100
AcDbEntity
  8
0
 62
     2
100
AcDbLine
 10
92.34819775810146
 20
94.94473168988742
 30
0.0
 11
92.56223281237581
 21
94.49348525332644
 31
0.0
  0
LINE
  5
256
330
1F
100
AcDbEntity
  8
0
 62
     2
100
AcDbLine
 10
95.89312525167145
 20
91.16247320361748
 30
0.0
 11
96.34436400220497
 21
90.94842194577453
 31
0.0
  0
LINE
  5
257
330
1F
100
AcDbEntity
  8
0
 62
     2
100
AcDbLine
 10
96.79613853095103
 20
91.23412811985921
 30
0.0
 11
96.79616295573445
 21
91.7341281192626
 31
0.0
  0
LINE
  5
258
330
1F
100
AcDbEntity
  8
0
 62
     2
100
AcDbLine
 10
116.8102137030254
 20
91.23315044098311
 30
0.0
 11
116.8102381278083
 21
91.73315044039308
 31
0.0
  0
LINE
  5
259
330
1F
100
AcDbEntity
  8
0
 62
     2
100
AcDbLine
 10
117.2619470769436
 20
90.94742804497255
 30
0.0
 11
117.7137048756441
 21
91.16170564835974
 31
0.0
  0
LINE
  5
25A
330
1F
100
AcDbEntity
  8
0
 62
     2
100
AcDbLine
 10
121.0439629957405
 20
94.4918441851085
 30
0.0
 11
121.2582568210593
 21
94.94359428907111
 31
0.0
  0
LINE
  5
25B
330
1F
100
AcDbEntity
  8
0
 62
     2
100
AcDbLine
 10
120.9735283258528
 20
115.4094439898938
 30
0.0
 11
120.4735283264494
 21
115.4094684146764
 31
0.0
  0
LINE
  5
25C
330
1F
100
AcDbEntity
  8
0
 62
     2
100
AcDbLine
 10
120.9725506469747
 20
95.3953688178147
 30
0.0
 11
120.4730037536629
 21
95.39539322046164
 31
0.0
  0
ARC
  5
25D
330
1F
100
AcDbEntity
  8
0
 62
     2
100
AcDbCircle
 10
123.0235880471052
 20
98.15295103990039
 30
0.0
 40
0.5000000000000357
100
AcDbArc
 50
359.999970971696
 51
89.99997114560968
  0
ARC
  5
25E
330
1F
100
AcDbEntity
  8
0
 62
     2
100
AcDbCircle
 10
123.0234990239509
 20
112.6529581380616
 30
0.0
 40
0.4999999999999716
100
AcDbArc
 50
270.0
 51
0.009727673321659
  0
ARC
  5
25F
330
1F
100
AcDbEntity
  8
0
 62
     2
100
AcDbCircle
 10
114.0537277314863
 20
121.6228185828018
 30
0.0
 40
0.500000000000005
100
AcDbArc
 50
89.99997148585443
 51
179.999980990561
  0
ARC
  5
260
330
1F
100
AcDbEntity
  8
0
 62
     2
100
AcDbCircle
 10
99.55372063197154
 20
121.6227293108142
 30
0.0
 40
0.5000000000000284
100
AcDbArc
 50
0.0
 51
90.00972782611892
  0
ARC
  5
261
330
1F
100
AcDbEntity
  8
0
 62
     2
100
AcDbCircle
 10
90.58386043286262
 20
112.6529580137973
 30
0.0
 40
0.5000000000000357
100
AcDbArc
 50
179.999970971696
 51
269.9999711455991
  0
ARC
  5
262
330
1F
100
AcDbEntity
  8
0
 62
     2
100
AcDbCircle
 10
90.58394945601702
 20
98.15295091563607
 30
0.0
 40
0.4999999999999716
100
AcDbArc
 50
89.99999987778529
 51
180.0097276733224
  0
ARC
  5
263
330
1F
100
AcDbEntity
  8
0
 62
     2
100
AcDbCircle
 10
99.55372074848154
 20
89.18309047089588
 30
0.0
 40
0.500000000000005
100
AcDbArc
 50
269.9999714858577
 51
359.999980990561
  0
ARC
  5
264
330
1F
100
AcDbEntity
  8
0
 62
     2
100
AcDbCircle
 10
114.0537278479962
 20
89.18317974288342
 30
0.0
 40
0.5000000000000284
100
AcDbArc
 50
180.0
 51
270.0097278261136
  0
LINE
  5
265
330
1F
100
AcDbEntity
  8
0
 62
     2
100
AcDbLine
 10
123.5235851015389
 20
92.23418489768798
 30
0.0
 11
123.9235851015389
 21
92.23418489768798
 31
0.0
  0
LINE
  5
266
330
1F
100
AcDbEntity
  8
0
 62
     2
100
AcDbLine
 10
123.9235880471051
 20
98.15295058744857
 30
0.0
 11
123.5235880471051
 21
98.15295078651482
 31
0.0
  0
LINE
  5
267
330
1F
100
AcDbEntity
  8
0
 62
     2
100
AcDbLine
 10
123.0235881617055
 20
98.65295103990033
 30
0.0
 11
123.0235882533857
 21
99.05295103990034
 31
0.0
  0
LINE
  5
268
330
1F
100
AcDbEntity
  8
0
 62
     2
100
AcDbLine
 10
123.0037245683915
 20
99.05295103990034
 30
0.0
 11
123.0037245683915
 21
98.6529895123326
 31
0.0
  0
LINE
  5
269
330
1F
100
AcDbEntity
  8
0
 62
     2
100
AcDbLine
 10
122.6537244767113
 20
99.40295102609133
 30
0.0
 11
122.2537623269822
 21
99.40295101031109
 31
0.0
  0
LINE
  5
26A
330
1F
100
AcDbEntity
  8
0
 62
     2
100
AcDbLine
 10
122.653724003251
 20
111.4029581209795
 30
0.0
 11
122.253724003251
 21
111.4029581051975
 31
0.0
  0
LINE
  5
26B
330
1F
100
AcDbEntity
  8
0
 62
     2
100
AcDbLine
 10
123.0037240032511
 20
111.7529581347895
 30
0.0
 11
123.0037240032511
 21
112.1529581347895
 31
0.0
  0
LINE
  5
26C
330
1F
100
AcDbEntity
  8
0
 62
     2
100
AcDbLine
 10
123.0234990273111
 20
111.752958134861
 30
0.0
 11
123.0234990273111
 21
112.1529581449966
 31
0.0
  0
LINE
  5
26D
330
1F
100
AcDbEntity
  8
0
 62
     2
100
AcDbLine
 10
123.5234990167443
 20
112.6530430291777
 30
0.0
 11
123.9234990107657
 21
112.6531109429951
 31
0.0
  0
LINE
  5
26E
330
1F
100
AcDbEntity
  8
0
 62
     2
100
AcDbLine
 10
123.9224938122129
 20
118.5734860443972
 30
0.0
 11
123.5224938179784
 21
118.5734181298658
 31
0.0
  0
LINE
  5
26F
330
1F
100
AcDbEntity
  8
0
 62
     2
100
AcDbLine
 10
119.9724938691464
 20
122.1228153884028
 30
0.0
 11
119.9724938691464
 21
122.5228153884027
 31
0.0
  0
LINE
  5
270
330
1F
100
AcDbEntity
  8
0
 62
     2
100
AcDbLine
 10
114.0537281793852
 20
122.5228183339688
 30
0.0
 11
114.0537281793852
 21
122.1228237215626
 31
0.0
  0
LINE
  5
271
330
1F
100
AcDbEntity
  8
0
 62
     2
100
AcDbLine
 10
113.5537277314862
 20
121.6228185381675
 30
0.0
 11
113.1537277314862
 21
121.6228185909339
 31
0.0
  0
LINE
  5
272
330
1F
100
AcDbEntity
  8
0
 62
     2
100
AcDbLine
 10
113.1537277269334
 20
121.6029548552553
 30
0.0
 11
113.5537277269334
 21
121.6029547635751
 31
0.0
  0
LINE
  5
273
330
1F
100
AcDbEntity
  8
0
 62
     2
100
AcDbLine
 10
112.8037277407424
 20
121.2529547635751
 30
0.0
 11
112.8037277565241
 21
120.8529547635751
 31
0.0
  0
LINE
  5
274
330
1F
100
AcDbEntity
  8
0
 62
     2
100
AcDbLine
 10
100.8037206458532
 20
121.2529542901144
 30
0.0
 11
100.8037206458532
 21
120.852991410555
 31
0.0
  0
LINE
  5
275
330
1F
100
AcDbEntity
  8
0
 62
     2
100
AcDbLine
 10
100.4537206320433
 20
121.6029542901144
 30
0.0
 11
100.0537584823142
 21
121.6029542901144
 31
0.0
  0
LINE
  5
276
330
1F
100
AcDbEntity
  8
0
 62
     2
100
AcDbLine
 10
100.4537206319716
 20
121.6227293141748
 30
0.0
 11
100.0537206319716
 21
121.6227293126814
 31
0.0
  0
LINE
  5
277
330
1F
100
AcDbEntity
  8
0
 62
     2
100
AcDbLine
 10
99.55363573880732
 20
122.1227293036085
 30
0.0
 11
99.55356782427594
 21
122.5227292978433
 31
0.0
  0
LINE
  5
278
330
1F
100
AcDbEntity
  8
0
 62
     2
100
AcDbLine
 10
93.6331927224349
 20
122.521724099076
 30
0.0
 11
93.63326063696633
 21
122.1217241048427
 31
0.0
  0
LINE
  5
279
330
1F
100
AcDbEntity
  8
0
 62
     2
100
AcDbLine
 10
90.08386337842893
 20
118.5717241560097
 30
0.0
 11
89.6838633784289
 21
118.5717241560097
 31
0.0
  0
LINE
  5
27A
330
1F
100
AcDbEntity
  8
0
 62
     2
100
AcDbLine
 10
89.6838604328627
 20
112.6529584662491
 30
0.0
 11
90.08386043286265
 21
112.6529582671828
 31
0.0
  0
LINE
  5
27B
330
1F
100
AcDbEntity
  8
0
 62
     2
100
AcDbLine
 10
90.58386031826228
 20
112.1529580137973
 30
0.0
 11
90.58386022658203
 21
111.7529580137973
 31
0.0
  0
LINE
  5
27C
330
1F
100
AcDbEntity
  8
0
 62
     2
100
AcDbLine
 10
90.60372391157622
 20
111.7529580137974
 30
0.0
 11
90.60372391157622
 21
112.1529195413651
 31
0.0
  0
LINE
  5
27D
330
1F
100
AcDbEntity
  8
0
 62
     2
100
AcDbLine
 10
90.95372400325647
 20
111.4029580276064
 30
0.0
 11
91.3536861529856
 21
111.4029580433866
 31
0.0
  0
LINE
  5
27E
330
1F
100
AcDbEntity
  8
0
 62
     2
100
AcDbLine
 10
90.95372447671681
 20
99.4029509327182
 30
0.0
 11
91.35372447671682
 21
99.40295094850023
 31
0.0
  0
LINE
  5
27F
330
1F
100
AcDbEntity
  8
0
 62
     2
100
AcDbLine
 10
90.60372447671674
 20
99.05295091890821
 30
0.0
 11
90.60372447671674
 21
98.6529509189082
 31
0.0
  0
LINE
  5
280
330
1F
100
AcDbEntity
  8
0
 62
     2
100
AcDbLine
 10
90.58394945265668
 20
99.05295091883664
 30
0.0
 11
90.58394945265667
 21
98.65295090870109
 31
0.0
  0
LINE
  5
281
330
1F
100
AcDbEntity
  8
0
 62
     2
100
AcDbLine
 10
90.08252503659781
 20
98.15286578269155
 30
0.0
 11
89.68394946920213
 21
98.15279811070252
 31
0.0
  0
LINE
  5
282
330
1F
100
AcDbEntity
  8
0
 62
     2
100
AcDbLine
 10
89.68495466775488
 20
92.2324230093005
 30
0.0
 11
90.08495466198943
 21
92.2324909238319
 31
0.0
  0
LINE
  5
283
330
1F
100
AcDbEntity
  8
0
 62
     2
100
AcDbLine
 10
93.63495461082141
 20
88.6830936652949
 30
0.0
 11
93.63495461082141
 21
88.28309366529493
 31
0.0
  0
LINE
  5
284
330
1F
100
AcDbEntity
  8
0
 62
     2
100
AcDbLine
 10
99.55372030058257
 20
88.2830907197289
 30
0.0
 11
99.55372030058257
 21
88.68308533213511
 31
0.0
  0
LINE
  5
285
330
1F
100
AcDbEntity
  8
0
 62
     2
100
AcDbLine
 10
100.0537207484816
 20
89.18309051553021
 30
0.0
 11
100.4537207484816
 21
89.1830904627638
 31
0.0
  0
LINE
  5
286
330
1F
100
AcDbEntity
  8
0
 62
     2
100
AcDbLine
 10
100.4537207530344
 20
89.20295419844237
 30
0.0
 11
100.0537207530343
 21
89.20295429012262
 31
0.0
  0
LINE
  5
287
330
1F
100
AcDbEntity
  8
0
 62
     2
100
AcDbLine
 10
100.8037207392254
 20
89.55295429012256
 30
0.0
 11
100.8037207234437
 21
89.95295429012259
 31
0.0
  0
LINE
  5
288
330
1F
100
AcDbEntity
  8
0
 62
     2
100
AcDbLine
 10
112.8037278341145
 20
89.55295476358327
 30
0.0
 11
112.8037278341145
 21
89.95291764314271
 31
0.0
  0
LINE
  5
289
330
1F
100
AcDbEntity
  8
0
 62
     2
100
AcDbLine
 10
113.1537278479245
 20
89.20295476358328
 30
0.0
 11
113.5536899976537
 21
89.20295476358328
 31
0.0
  0
LINE
  5
28A
330
1F
100
AcDbEntity
  8
0
 62
     2
100
AcDbLine
 10
113.1537278479962
 20
89.18317973952284
 30
0.0
 11
113.5537278479962
 21
89.18317974101626
 31
0.0
  0
LINE
  5
28B
330
1F
100
AcDbEntity
  8
0
 62
     2
100
AcDbLine
 10
119.9741880812821
 20
88.68278153438601
 30
0.0
 11
119.9742557575325
 21
88.28418495462213
 31
0.0
  0
LINE
  5
28C
330
1F
100
AcDbEntity
  8
0
 62
     2
100
AcDbLine
 10
114.0538127411604
 20
88.68317975008918
 30
0.0
 11
114.0538806556918
 21
88.28317975585443
 31
0.0
  0
LINE
  5
28D
330
1F
100
AcDbEntity
  8
0
 62
     2
100
AcDbLine
 10
123.5235851015389
 20
92.23418489768798
 30
0.0
 11
123.0235851015388
 21
92.23418489768795
 31
0.0
  0
LINE
  5
28E
330
1F
100
AcDbEntity
  8
0
 62
     2
100
AcDbLine
 10
114.0537278479961
 20
89.18317974288229
 30
0.0
 11
114.0538127411604
 21
88.68317975008918
 31
0.0
  0
LINE
  5
28F
330
1F
100
AcDbEntity
  8
0
 62
     2
100
AcDbLine
 10
119.9741878430015
 20
88.68418494885663
 30
0.0
 11
119.9741029498377
 21
89.18418494164979
 31
0.0
  0
LINE
  5
290
330
1F
100
AcDbEntity
  8
0
 62
     2
100
AcDbLine
 10
100.0537206655372
 20
89.18309030500725
 30
0.0
 11
99.5537204996487
 21
89.18309047089588
 31
0.0
  0
LINE
  5
291
330
1F
100
AcDbEntity
  8
0
 62
     2
100
AcDbLine
 10
114.0537278479961
 20
89.18317974288229
 30
0.0
 11
113.5537278479956
 21
89.18317974101623
 31
0.0
  0
LINE
  5
292
330
1F
100
AcDbEntity
  8
0
 62
     2
100
AcDbLine
 10
113.5537278479223
 20
89.2029547635833
 30
0.0
 11
114.0537278359201
 21
89.20295476545002
 31
0.0
  0
LINE
  5
293
330
1F
100
AcDbEntity
  8
0
 62
     2
100
AcDbLine
 10
112.8037277986046
 20
90.45295476358311
 30
0.0
 11
112.8037278183326
 21
89.95295476358314
 31
0.0
  0
LINE
  5
294
330
1F
100
AcDbEntity
  8
0
 62
     2
100
AcDbLine
 10
100.8037207234437
 20
89.95295476358291
 30
0.0
 11
100.8037207234437
 21
90.45295429012282
 31
0.0
  0
LINE
  5
295
330
1F
100
AcDbEntity
  8
0
 62
     2
100
AcDbLine
 10
99.55372075303433
 20
89.20295428545498
 30
0.0
 11
100.0537207530344
 21
89.202954287322
 31
0.0
  0
LINE
  5
296
330
1F
100
AcDbEntity
  8
0
 62
     2
100
AcDbLine
 10
90.58394945601643
 20
98.1529509188367
 30
0.0
 11
90.08394946322326
 21
98.15286602567241
 31
0.0
  0
LINE
  5
297
330
1F
100
AcDbEntity
  8
0
 62
     2
100
AcDbLine
 10
99.5537204996487
 20
88.68309047089593
 30
0.0
 11
99.5537204996487
 21
89.18309047089588
 31
0.0
  0
LINE
  5
298
330
1F
100
AcDbEntity
  8
0
 62
     2
100
AcDbLine
 10
93.63495461082061
 20
88.68309047089576
 30
0.0
 11
93.63495461082061
 21
89.18309366529496
 31
0.0
  0
LINE
  5
299
330
1F
100
AcDbEntity
  8
0
 62
     2
100
AcDbLine
 10
90.08495466198988
 20
92.2324909238319
 30
0.0
 11
90.58495465478305
 21
92.23257581699568
 31
0.0
  0
LINE
  5
29A
330
1F
100
AcDbEntity
  8
0
 62
     2
100
AcDbLine
 10
90.58386018099463
 20
112.152958015315
 30
0.0
 11
90.58386040817524
 21
112.6039494481707
 31
0.0
  0
LINE
  5
29B
330
1F
100
AcDbEntity
  8
0
 62
     2
100
AcDbLine
 10
90.58394945601643
 20
98.1529509188367
 30
0.0
 11
90.58394945708355
 21
98.65295091652516
 31
0.0
  0
LINE
  5
29C
330
1F
100
AcDbEntity
  8
0
 62
     2
100
AcDbLine
 10
90.60372447671674
 20
98.65295091696962
 30
0.0
 11
90.60372447671674
 21
98.1529509189105
 31
0.0
  0
LINE
  5
29D
330
1F
100
AcDbEntity
  8
0
 62
     2
100
AcDbLine
 10
91.85372447671679
 20
99.40295096822823
 30
0.0
 11
91.35372447671676
 21
99.40295094850023
 31
0.0
  0
LINE
  5
29E
330
1F
100
AcDbEntity
  8
0
 62
     2
100
AcDbLine
 10
91.35372400325679
 20
111.4029580433882
 30
0.0
 11
91.85372325361178
 21
111.4029580631156
 31
0.0
  0
LINE
  5
29F
330
1F
100
AcDbEntity
  8
0
 62
     2
100
AcDbLine
 10
90.6037239985888
 20
112.6529580137973
 30
0.0
 11
90.60372400045586
 21
112.1529580137974
 31
0.0
  0
LINE
  5
2A0
330
1F
100
AcDbEntity
  8
0
 62
     2
100
AcDbLine
 10
99.55372063197163
 20
121.6227293108153
 30
0.0
 11
99.55363573880734
 21
122.1227293036085
 31
0.0
  0
LINE
  5
2A1
330
1F
100
AcDbEntity
  8
0
 62
     2
100
AcDbLine
 10
90.08386043286265
 20
112.6529582671828
 30
0.0
 11
90.58386043286262
 21
112.6529580183501
 31
0.0
  0
LINE
  5
2A2
330
1F
100
AcDbEntity
  8
0
 62
     2
100
AcDbLine
 10
90.08386337842893
 20
118.5717241560097
 30
0.0
 11
90.58386901489175
 21
118.5717239071741
 31
0.0
  0
LINE
  5
2A3
330
1F
100
AcDbEntity
  8
0
 62
     2
100
AcDbLine
 10
93.6332606369663
 20
122.121724104841
 30
0.0
 11
93.63334553013007
 21
121.6217241120479
 31
0.0
  0
LINE
  5
2A4
330
1F
100
AcDbEntity
  8
0
 62
     2
100
AcDbLine
 10
113.5537278144306
 20
121.6228187486904
 30
0.0
 11
114.0537279803191
 21
121.6228185828018
 31
0.0
  0
LINE
  5
2A5
330
1F
100
AcDbEntity
  8
0
 62
     2
100
AcDbLine
 10
99.55372063197163
 20
121.6227293108153
 30
0.0
 11
100.0537206319722
 21
121.6227293126814
 31
0.0
  0
LINE
  5
2A6
330
1F
100
AcDbEntity
  8
0
 62
     2
100
AcDbLine
 10
100.0537206320454
 20
121.6029542901144
 30
0.0
 11
99.55372064404767
 21
121.6029542882476
 31
0.0
  0
LINE
  5
2A7
330
1F
100
AcDbEntity
  8
0
 62
     2
100
AcDbLine
 10
100.8037206813632
 20
120.3529542901146
 30
0.0
 11
100.8037206616352
 21
120.8529542901145
 31
0.0
  0
LINE
  5
2A8
330
1F
100
AcDbEntity
  8
0
 62
     2
100
AcDbLine
 10
112.8037277565241
 20
120.8529542901148
 30
0.0
 11
112.8037277565241
 21
120.3529547635749
 31
0.0
  0
LINE
  5
2A9
330
1F
100
AcDbEntity
  8
0
 62
     2
100
AcDbLine
 10
114.0537277269335
 20
121.6029547682427
 30
0.0
 11
113.5537277269334
 21
121.6029547663756
 31
0.0
  0
LINE
  5
2AA
330
1F
100
AcDbEntity
  8
0
 62
     2
100
AcDbLine
 10
123.0234990239514
 20
112.652958134861
 30
0.0
 11
123.5234990167446
 21
112.6530430280253
 31
0.0
  0
LINE
  5
2AB
330
1F
100
AcDbEntity
  8
0
 62
     2
100
AcDbLine
 10
114.0537279803191
 20
122.1228185828017
 30
0.0
 11
114.0537279803191
 21
121.6228185828018
 31
0.0
  0
LINE
  5
2AC
330
1F
100
AcDbEntity
  8
0
 62
     2
100
AcDbLine
 10
119.9724938691472
 20
122.1228185828019
 30
0.0
 11
119.9724938691472
 21
121.6228153884027
 31
0.0
  0
LINE
  5
2AD
330
1F
100
AcDbEntity
  8
0
 62
     2
100
AcDbLine
 10
123.5224938179779
 20
118.5734181298658
 30
0.0
 11
123.0224938251847
 21
118.573333236702
 31
0.0
  0
LINE
  5
2AE
330
1F
100
AcDbEntity
  8
0
 62
     2
100
AcDbLine
 10
123.0235882989731
 20
98.65295103838272
 30
0.0
 11
123.0235880471051
 21
98.1529510353476
 31
0.0
  0
LINE
  5
2AF
330
1F
100
AcDbEntity
  8
0
 62
     2
100
AcDbLine
 10
123.0234990239514
 20
112.652958134861
 30
0.0
 11
123.0234990228842
 21
112.1529581371725
 31
0.0
  0
LINE
  5
2B0
330
1F
100
AcDbEntity
  8
0
 62
     2
100
AcDbLine
 10
123.0037240032511
 20
112.152958136728
 30
0.0
 11
123.0037240032511
 21
112.6529581347872
 31
0.0
  0
LINE
  5
2B1
330
1F
100
AcDbEntity
  8
0
 62
     2
100
AcDbLine
 10
121.753724003251
 20
111.4029580854695
 30
0.0
 11
122.253724003251
 21
111.4029581051975
 31
0.0
  0
LINE
  5
2B2
330
1F
100
AcDbEntity
  8
0
 62
     2
100
AcDbLine
 10
122.253724476711
 20
99.40295101030955
 30
0.0
 11
121.753725226356
 21
99.4029509905821
 31
0.0
  0
LINE
  5
2B3
330
1F
100
AcDbEntity
  8
0
 62
     2
100
AcDbLine
 10
123.003724481379
 20
98.15295103990036
 30
0.0
 11
123.0037244795119
 21
98.65295103990033
 31
0.0
  0
LINE
  5
2B4
330
1F
100
AcDbEntity
  8
0
 62
     2
100
AcDbLine
 10
123.5235880471051
 20
98.15295078651482
 30
0.0
 11
123.0235880471051
 21
98.1529510353476
 31
0.0
  0
ARC
  5
2B5
330
1F
100
AcDbEntity
  8
0
 62
     2
100
AcDbCircle
 10
88.80372431039149
 20
87.40295821655329
 30
0.0
 40
2.250000000000114
100
AcDbArc
 50
180.0
 51
270.0000000000002
  0
ARC
  5
2B6
330
1F
100
AcDbEntity
  8
0
 62
     2
100
AcDbCircle
 10
124.8037243103935
 20
123.4029582165533
 30
0.0
 40
2.250000000000142
100
AcDbArc
 50
0.0
 51
90.00000000000018
  0
ARC
  5
2B7
330
1F
100
AcDbEntity
  8
0
 62
     2
100
AcDbCircle
 10
88.80372431039146
 20
123.4029582165523
 30
0.0
 40
2.249999999999915
100
AcDbArc
 50
90.00000000000217
 51
180.0000000000024
  0
ARC
  5
2B8
330
1F
100
AcDbEntity
  8
0
 62
     2
100
AcDbCircle
 10
124.8037243103935
 20
87.40295821655431
 30
0.0
 40
2.249999999999943
100
AcDbArc
 50
270.0
 51
0.0000000000005598
  0
LINE
  5
2B9
330
1F
100
AcDbEntity
  8
0
 62
     2
100
AcDbLine
 10
127.0537243103936
 20
87.40295821655437
 30
0.0
 11
127.0537243103936
 21
123.4029582165534
 31
0.0
  0
LINE
  5
2BA
330
1F
100
AcDbEntity
  8
0
 62
     2
100
AcDbLine
 10
88.80372431039146
 20
85.15295821655334
 30
0.0
 11
124.8037243103935
 21
85.15295821655437
 31
0.0
  0
LINE
  5
2BB
330
1F
100
AcDbEntity
  8
0
 62
     2
100
AcDbLine
 10
86.55372431039135
 20
123.4029582165522
 30
0.0
 11
86.55372431039137
 21
87.40295821655323
 31
0.0
  0
LINE
  5
2BC
330
1F
100
AcDbEntity
  8
0
 62
     2
100
AcDbLine
 10
124.8037243103935
 20
125.6529582165532
 30
0.0
 11
88.80372431039146
 21
125.6529582165522
 31
0.0
  0
CIRCLE
  5
2BD
330
1F
100
AcDbEntity
  8
0
 62
     2
100
AcDbCircle
 10
124.8037243103935
 20
123.4029582165534
 30
0.0
 40
2.0
  0
CIRCLE
  5
2BE
330
1F
100
AcDbEntity
  8
0
 62
     2
100
AcDbCircle
 10
88.80372431039143
 20
123.4029582165523
 30
0.0
 40
2.0
  0
CIRCLE
  5
2BF
330
1F
100
AcDbEntity
  8
0
 62
     2
100
AcDbCircle
 10
88.80372431039146
 20
87.40295821655337
 30
0.0
 40
2.0
  0
CIRCLE
  5
2C0
330
1F
100
AcDbEntity
  8
0
 62
     2
100
AcDbCircle
 10
124.8037243103935
 20
87.4029582165544
 30
0.0
 40
2.0
  0
LINE
  5
2C1
330
1F
100
AcDbEntity
  8
0
 62
     2
100
AcDbLine
 10
122.9799038263981
 20
124.2174815034504
 30
0.0
 11
122.8134163807728
 21
124.3060044485415
 31
0.0
  0
LINE
  5
2C2
330
1F
100
AcDbEntity
  8
0
 62
     2
100
AcDbLine
 10
91.28929496401463
 20
123.3745728712029
 30
0.0
 11
90.93611592687088
 21
123.1867842460888
 31
0.0
  0
LINE
  5
2C3
330
1F
100
AcDbEntity
  8
0
 62
     2
100
AcDbLine
 10
91.36425344918297
 20
122.7201516033191
 30
0.0
 11
90.97775952974223
 21
122.8232168750422
 31
0.0
  0
LINE
  5
2C4
330
1F
100
AcDbEntity
  8
0
 62
     2
100
AcDbLine
 10
89.48653851104478
 20
120.8424367729877
 30
0.0
 11
89.38347326151171
 21
121.2289306983457
 31
0.0
  0
LINE
  5
2C5
330
1F
100
AcDbEntity
  8
0
 62
     2
100
AcDbLine
 10
126.2537257596558
 20
121.3243480443686
 30
0.0
 11
125.8537257596558
 21
121.3243480443686
 31
0.0
  0
LINE
  5
2C6
330
1F
100
AcDbEntity
  8
0
 62
     2
100
AcDbLine
 10
125.8537183685755
 20
110.2529580233823
 30
0.0
 11
126.2537183685755
 21
110.2529577563488
 31
0.0
  0
LINE
  5
2C7
330
1F
100
AcDbEntity
  8
0
 62
     2
100
AcDbLine
 10
125.7537183685758
 20
109.7529580901406
 30
0.0
 11
125.7537183685757
 21
110.1529580901406
 31
0.0
  0
LINE
  5
2C8
330
1F
100
AcDbEntity
  8
0
 62
     2
100
AcDbLine
 10
124.9537251030816
 20
110.1529580901399
 30
0.0
 11
124.9537251030816
 21
109.7529580901419
 31
0.0
  0
LINE
  5
2C9
330
1F
100
AcDbEntity
  8
0
 62
     2
100
AcDbLine
 10
124.0537251030822
 20
109.2529580901378
 30
0.0
 11
124.4537251030823
 21
109.2529580901387
 31
0.0
  0
LINE
  5
2CA
330
1F
100
AcDbEntity
  8
0
 62
     2
100
AcDbLine
 10
124.0537251030838
 20
108.6029582165566
 30
0.0
 11
124.4537251030838
 21
108.6029582165576
 31
0.0
  0
LINE
  5
2CB
330
1F
100
AcDbEntity
  8
0
 62
     2
100
AcDbLine
 10
124.9537251030841
 20
107.7029582165588
 30
0.0
 11
124.9537251030839
 21
108.1029582165588
 31
0.0
  0
LINE
  5
2CC
330
1F
100
AcDbEntity
  8
0
 62
     2
100
AcDbLine
 10
125.753718410354
 20
107.7029582165591
 30
0.0
 11
125.753718410354
 21
108.1029582165584
 31
0.0
  0
LINE
  5
2CD
330
1F
100
AcDbEntity
  8
0
 62
     2
100
AcDbLine
 10
126.2537184103541
 20
107.602958216559
 30
0.0
 11
125.853718410354
 21
107.6029582165591
 31
0.0
  0
LINE
  5
2CE
330
1F
100
AcDbEntity
  8
0
 62
     2
100
AcDbLine
 10
125.8537180853959
 20
103.2029582091739
 30
0.0
 11
126.253718085396
 21
103.2029581796322
 31
0.0
  0
LINE
  5
2CF
330
1F
100
AcDbEntity
  8
0
 62
     2
100
AcDbLine
 10
125.7537180853961
 20
102.7029582165593
 30
0.0
 11
125.753718085396
 21
103.1029582165593
 31
0.0
  0
LINE
  5
2D0
330
1F
100
AcDbEntity
  8
0
 62
     2
100
AcDbLine
 10
124.0537251031001
 20
101.552958342998
 30
0.0
 11
124.4537251031001
 21
101.552958342999
 31
0.0
  0
LINE
  5
2D1
330
1F
100
AcDbEntity
  8
0
 62
     2
100
AcDbLine
 10
124.953725103101
 20
100.6529583430002
 30
0.0
 11
124.9537251031006
 21
101.0529583430002
 31
0.0
  0
LINE
  5
2D2
330
1F
100
AcDbEntity
  8
0
 62
     2
100
AcDbLine
 10
125.7537178661937
 20
100.652958343001
 30
0.0
 11
125.7537178661937
 21
101.0529583429989
 31
0.0
  0
LINE
  5
2D3
330
1F
100
AcDbEntity
  8
0
 62
     2
100
AcDbLine
 10
126.2537178661938
 20
100.5529583430009
 30
0.0
 11
125.8537178661937
 21
100.5529583430009
 31
0.0
  0
LINE
  5
2D4
330
1F
100
AcDbEntity
  8
0
 62
     2
100
AcDbLine
 10
125.8537176986601
 20
89.48156090394767
 30
0.0
 11
126.2537176986601
 21
89.48156089789481
 31
0.0
  0
LINE
  5
2D5
330
1F
100
AcDbEntity
  8
0
 62
     2
100
AcDbLine
 10
88.83211729309193
 20
120.9173952714683
 30
0.0
 11
89.01990591820459
 21
121.2705743086127
 31
0.0
  0
LINE
  5
2D6
330
1F
100
AcDbEntity
  8
0
 62
     2
100
AcDbLine
 10
88.83210965574091
 20
89.88852887017632
 30
0.0
 11
89.01989828085502
 21
89.5353498330326
 31
0.0
  0
LINE
  5
2D7
330
1F
100
AcDbEntity
  8
0
 62
     2
100
AcDbLine
 10
89.48653092362471
 20
89.9634873553446
 30
0.0
 11
89.38346565190159
 21
89.57699343590389
 31
0.0
  0
LINE
  5
2D8
330
1F
100
AcDbEntity
  8
0
 62
     2
100
AcDbLine
 10
91.36424575395625
 20
88.08577241720667
 30
0.0
 11
90.97775182859814
 21
87.98270716767357
 31
0.0
  0
LINE
  5
2D9
330
1F
100
AcDbEntity
  8
0
 62
     2
100
AcDbLine
 10
122.7251141382086
 20
85.95295676729208
 30
0.0
 11
122.7251141382086
 21
86.35295676729206
 31
0.0
  0
LINE
  5
2DA
330
1F
100
AcDbEntity
  8
0
 62
     2
100
AcDbLine
 10
111.6537241172213
 20
86.35296415837203
 30
0.0
 11
111.6537241172213
 21
85.9529600515283
 31
0.0
  0
LINE
  5
2DB
330
1F
100
AcDbEntity
  8
0
 62
     2
100
AcDbLine
 10
111.1537241839796
 20
86.4529641583716
 30
0.0
 11
111.5537241839797
 21
86.45296415837186
 31
0.0
  0
LINE
  5
2DC
330
1F
100
AcDbEntity
  8
0
 62
     2
100
AcDbLine
 10
111.553724183979
 20
87.25295742386595
 30
0.0
 11
111.1537241839789
 21
87.25295742386558
 31
0.0
  0
LINE
  5
2DD
330
1F
100
AcDbEntity
  8
0
 62
     2
100
AcDbLine
 10
110.6537241839768
 20
88.1529574238651
 30
0.0
 11
110.6537241839778
 21
87.75295742386507
 31
0.0
  0
LINE
  5
2DE
330
1F
100
AcDbEntity
  8
0
 62
     2
100
AcDbLine
 10
124.0537251030986
 20
102.2029582165569
 30
0.0
 11
124.4537251030986
 21
102.2029582165579
 31
0.0
  0
LINE
  5
2DF
330
1F
100
AcDbEntity
  8
0
 62
     2
100
AcDbLine
 10
124.9537251030984
 20
103.102958216559
 30
0.0
 11
124.9537251030984
 21
102.7029582165597
 31
0.0
  0
LINE
  5
2E0
330
1F
100
AcDbEntity
  8
0
 62
     2
100
AcDbLine
 10
110.0037243103956
 20
88.1529574238636
 30
0.0
 11
110.0037243103956
 21
87.75295742386879
 31
0.0
  0
LINE
  5
2E1
330
1F
100
AcDbEntity
  8
0
 62
     2
100
AcDbLine
 10
109.1037243103977
 20
87.25295742386328
 30
0.0
 11
109.5037243103977
 21
87.25295742386345
 31
0.0
  0
LINE
  5
2E2
330
1F
100
AcDbEntity
  8
0
 62
     2
100
AcDbLine
 10
109.1037243103979
 20
86.45296411659345
 30
0.0
 11
109.5037243103979
 21
86.45296411659359
 31
0.0
  0
LINE
  5
2E3
330
1F
100
AcDbEntity
  8
0
 62
     2
100
AcDbLine
 10
109.0037243103978
 20
85.95296411659339
 30
0.0
 11
109.0037243103979
 21
86.3529641165934
 31
0.0
  0
LINE
  5
2E4
330
1F
100
AcDbEntity
  8
0
 62
     2
100
AcDbLine
 10
104.6037243030123
 20
86.35296444155139
 30
0.0
 11
104.6037243030123
 21
85.95296417198378
 31
0.0
  0
LINE
  5
2E5
330
1F
100
AcDbEntity
  8
0
 62
     2
100
AcDbLine
 10
104.1037243103978
 20
86.45296444155116
 30
0.0
 11
104.5037243103978
 21
86.45296444155139
 31
0.0
  0
LINE
  5
2E6
330
1F
100
AcDbEntity
  8
0
 62
     2
100
AcDbLine
 10
102.9537244368364
 20
88.15295742384706
 30
0.0
 11
102.9537244368364
 21
87.75295742385222
 31
0.0
  0
LINE
  5
2E7
330
1F
100
AcDbEntity
  8
0
 62
     2
100
AcDbLine
 10
102.0537244368385
 20
87.25295742384623
 30
0.0
 11
102.4537244368385
 21
87.25295742384662
 31
0.0
  0
LINE
  5
2E8
330
1F
100
AcDbEntity
  8
0
 62
     2
100
AcDbLine
 10
102.0537244368392
 20
86.45296466075357
 30
0.0
 11
102.4537244368392
 21
86.45296466075396
 31
0.0
  0
LINE
  5
2E9
330
1F
100
AcDbEntity
  8
0
 62
     2
100
AcDbLine
 10
101.9537244368393
 20
85.95296466075348
 30
0.0
 11
101.9537244368392
 21
86.35296466075349
 31
0.0
  0
LINE
  5
2EA
330
1F
100
AcDbEntity
  8
0
 62
     2
100
AcDbLine
 10
90.88232699778499
 20
86.35296482828693
 30
0.0
 11
90.88232699778501
 21
85.9529647351975
 31
0.0
  0
LINE
  5
2EB
330
1F
100
AcDbEntity
  8
0
 62
     2
100
AcDbLine
 10
90.62754479438686
 20
86.58843492965616
 30
0.0
 11
90.79403224001211
 21
86.49991198456502
 31
0.0
  0
LINE
  5
2EC
330
1F
100
AcDbEntity
  8
0
 62
     2
100
AcDbLine
 10
91.2892872554757
 20
87.43135119925387
 30
0.0
 11
90.93610821833119
 21
87.61913982436644
 31
0.0
  0
LINE
  5
2ED
330
1F
100
AcDbEntity
  8
0
 62
     2
100
AcDbLine
 10
122.9798963431195
 20
86.5884268686624
 30
0.0
 11
122.8134088974946
 21
86.49990392357057
 31
0.0
  0
LINE
  5
2EE
330
1F
100
AcDbEntity
  8
0
 62
     2
100
AcDbLine
 10
122.3181536567703
 20
87.43134356190367
 30
0.0
 11
122.6713326939141
 21
87.61913218701778
 31
0.0
  0
LINE
  5
2EF
330
1F
100
AcDbEntity
  8
0
 62
     2
100
AcDbLine
 10
122.243195171602
 20
88.08576482978745
 30
0.0
 11
122.6296890910427
 21
87.98269955806435
 31
0.0
  0
LINE
  5
2F0
330
1F
100
AcDbEntity
  8
0
 62
     2
100
AcDbLine
 10
124.1209101097402
 20
89.96347966011885
 30
0.0
 11
124.2239753592733
 21
89.57698573476077
 31
0.0
  0
LINE
  5
2F1
330
1F
100
AcDbEntity
  8
0
 62
     2
100
AcDbLine
 10
87.90067001740769
 20
89.39327362945204
 30
0.0
 11
87.98890489200986
 21
89.22732796562093
 31
0.0
  0
LINE
  5
2F2
330
1F
100
AcDbEntity
  8
0
 62
     2
100
AcDbLine
 10
87.35372286112914
 20
89.48156838873788
 30
0.0
 11
87.75372286112918
 21
89.48156838873797
 31
0.0
  0
LINE
  5
2F3
330
1F
100
AcDbEntity
  8
0
 62
     2
100
AcDbLine
 10
87.75373025220944
 20
100.5529584097243
 30
0.0
 11
87.35373025220949
 21
100.5529586767578
 31
0.0
  0
LINE
  5
2F4
330
1F
100
AcDbEntity
  8
0
 62
     2
100
AcDbLine
 10
87.85373025220909
 20
101.052958342966
 30
0.0
 11
87.85373025220926
 21
100.6529583429659
 31
0.0
  0
LINE
  5
2F5
330
1F
100
AcDbEntity
  8
0
 62
     2
100
AcDbLine
 10
88.65372351770347
 20
100.6529583429667
 30
0.0
 11
88.65372351770347
 21
101.0529583429646
 31
0.0
  0
LINE
  5
2F6
330
1F
100
AcDbEntity
  8
0
 62
     2
100
AcDbLine
 10
89.55372351770274
 20
101.5529583429688
 30
0.0
 11
89.1537235177027
 21
101.5529583429678
 31
0.0
  0
LINE
  5
2F7
330
1F
100
AcDbEntity
  8
0
 62
     2
100
AcDbLine
 10
103.6037243103954
 20
88.15295742384859
 30
0.0
 11
103.6037243103954
 21
87.75295742385379
 31
0.0
  0
LINE
  5
2F8
330
1F
100
AcDbEntity
  8
0
 62
     2
100
AcDbLine
 10
104.5037243103975
 20
87.2529574238489
 30
0.0
 11
104.1037243103975
 21
87.25295742384876
 31
0.0
  0
LINE
  5
2F9
330
1F
100
AcDbEntity
  8
0
 62
     2
100
AcDbLine
 10
89.55372351770126
 20
102.2029582165499
 30
0.0
 11
89.15372351770122
 21
102.202958216549
 31
0.0
  0
LINE
  5
2FA
330
1F
100
AcDbEntity
  8
0
 62
     2
100
AcDbLine
 10
88.65372351770094
 20
103.1029582165477
 30
0.0
 11
88.65372351770105
 21
102.7029582165478
 31
0.0
  0
LINE
  5
2FB
330
1F
100
AcDbEntity
  8
0
 62
     2
100
AcDbLine
 10
87.85373021043097
 20
103.1029582165475
 30
0.0
 11
87.85373021043097
 21
102.7029582165482
 31
0.0
  0
LINE
  5
2FC
330
1F
100
AcDbEntity
  8
0
 62
     2
100
AcDbLine
 10
87.35373021043091
 20
103.2029582165476
 30
0.0
 11
87.75373021043094
 21
103.2029582165475
 31
0.0
  0
LINE
  5
2FD
330
1F
100
AcDbEntity
  8
0
 62
     2
100
AcDbLine
 10
87.753730535389
 20
107.6029582239327
 30
0.0
 11
87.35373053538902
 21
107.6029582534743
 31
0.0
  0
LINE
  5
2FE
330
1F
100
AcDbEntity
  8
0
 62
     2
100
AcDbLine
 10
87.85373053538893
 20
108.1029582165473
 30
0.0
 11
87.85373053538899
 21
107.7029582165472
 31
0.0
  0
LINE
  5
2FF
330
1F
100
AcDbEntity
  8
0
 62
     2
100
AcDbLine
 10
89.55372351768492
 20
109.2529580901085
 30
0.0
 11
89.15372351768482
 21
109.2529580901075
 31
0.0
  0
LINE
  5
300
330
1F
100
AcDbEntity
  8
0
 62
     2
100
AcDbLine
 10
88.653723517684
 20
110.1529580901064
 30
0.0
 11
88.65372351768437
 21
109.7529580901064
 31
0.0
  0
LINE
  5
301
330
1F
100
AcDbEntity
  8
0
 62
     2
100
AcDbLine
 10
87.85373075459128
 20
110.1529580901056
 30
0.0
 11
87.85373075459128
 21
109.7529580901076
 31
0.0
  0
LINE
  5
302
330
1F
100
AcDbEntity
  8
0
 62
     2
100
AcDbLine
 10
87.3537307545912
 20
110.2529580901056
 30
0.0
 11
87.75373075459123
 21
110.2529580901056
 31
0.0
  0
LINE
  5
303
330
1F
100
AcDbEntity
  8
0
 62
     2
100
AcDbLine
 10
87.75373092212493
 20
121.3243555291589
 30
0.0
 11
87.35373092212492
 21
121.3243555352118
 31
0.0
  0
LINE
  5
304
330
1F
100
AcDbEntity
  8
0
 62
     2
100
AcDbLine
 10
87.90067807840302
 20
121.4126502869318
 30
0.0
 11
87.98920102349416
 21
121.5791377325571
 31
0.0
  0
LINE
  5
305
330
1F
100
AcDbEntity
  8
0
 62
     2
100
AcDbLine
 10
125.6185404669848
 20
89.22732950833395
 30
0.0
 11
125.7067705423819
 21
89.39326614617482
 31
0.0
  0
LINE
  5
306
330
1F
100
AcDbEntity
  8
0
 62
     2
100
AcDbLine
 10
124.775331327693
 20
89.88852116163832
 30
0.0
 11
124.5875427025804
 21
89.53534212449384
 31
0.0
  0
LINE
  5
307
330
1F
100
AcDbEntity
  8
0
 62
     2
100
AcDbLine
 10
125.6182556582854
 20
121.5791302492794
 30
0.0
 11
125.7067786033773
 21
121.4126428036545
 31
0.0
  0
LINE
  5
308
330
1F
100
AcDbEntity
  8
0
 62
     2
100
AcDbLine
 10
124.775338965044
 20
120.9173875629303
 30
0.0
 11
124.5875503399299
 21
121.2705666000739
 31
0.0
  0
LINE
  5
309
330
1F
100
AcDbEntity
  8
0
 62
     2
100
AcDbLine
 10
124.1209176971602
 20
120.842429077762
 30
0.0
 11
124.2239829688833
 21
121.2289229972027
 31
0.0
  0
LINE
  5
30A
330
1F
100
AcDbEntity
  8
0
 62
     2
100
AcDbLine
 10
122.2432028668287
 20
122.7201440158999
 30
0.0
 11
122.6296967921868
 21
122.823209265433
 31
0.0
  0
LINE
  5
30B
330
1F
100
AcDbEntity
  8
0
 62
     2
100
AcDbLine
 10
122.3181613653093
 20
123.3745652338528
 30
0.0
 11
122.6713404024538
 21
123.1867766087402
 31
0.0
  0
LINE
  5
30C
330
1F
100
AcDbEntity
  8
0
 62
     2
100
AcDbLine
 10
90.79403972329035
 20
124.306012509536
 30
0.0
 11
90.62755227766544
 21
124.2174895644442
 31
0.0
  0
LINE
  5
30D
330
1F
100
AcDbEntity
  8
0
 62
     2
100
AcDbLine
 10
90.88233448257637
 20
124.8529596658145
 30
0.0
 11
90.88233448257631
 21
124.4529596658145
 31
0.0
  0
LINE
  5
30E
330
1F
100
AcDbEntity
  8
0
 62
     2
100
AcDbLine
 10
101.9537245035636
 20
124.4529522747346
 30
0.0
 11
101.9537245035636
 21
124.8529563815783
 31
0.0
  0
LINE
  5
30F
330
1F
100
AcDbEntity
  8
0
 62
     2
100
AcDbLine
 10
102.4537244368053
 20
124.352952274735
 30
0.0
 11
102.0537244368053
 21
124.3529522747347
 31
0.0
  0
LINE
  5
310
330
1F
100
AcDbEntity
  8
0
 62
     2
100
AcDbLine
 10
102.053724436806
 20
123.5529590092405
 30
0.0
 11
102.453724436806
 21
123.5529590092409
 31
0.0
  0
LINE
  5
311
330
1F
100
AcDbEntity
  8
0
 62
     2
100
AcDbLine
 10
102.9537244368081
 20
122.6529590092414
 30
0.0
 11
102.9537244368072
 21
123.0529590092414
 31
0.0
  0
LINE
  5
312
330
1F
100
AcDbEntity
  8
0
 62
     2
100
AcDbLine
 10
89.55372351768642
 20
108.6029582165496
 30
0.0
 11
89.15372351768633
 21
108.6029582165486
 31
0.0
  0
LINE
  5
313
330
1F
100
AcDbEntity
  8
0
 62
     2
100
AcDbLine
 10
88.65372351768664
 20
107.7029582165475
 30
0.0
 11
88.65372351768664
 21
108.1029582165469
 31
0.0
  0
LINE
  5
314
330
1F
100
AcDbEntity
  8
0
 62
     2
100
AcDbLine
 10
103.6037243103893
 20
122.652959009243
 30
0.0
 11
103.6037243103893
 21
123.0529590092378
 31
0.0
  0
LINE
  5
315
330
1F
100
AcDbEntity
  8
0
 62
     2
100
AcDbLine
 10
104.5037243103873
 20
123.5529590092433
 30
0.0
 11
104.1037243103873
 21
123.5529590092431
 31
0.0
  0
LINE
  5
316
330
1F
100
AcDbEntity
  8
0
 62
     2
100
AcDbLine
 10
104.503724310387
 20
124.3529523165131
 30
0.0
 11
104.103724310387
 21
124.352952316513
 31
0.0
  0
LINE
  5
317
330
1F
100
AcDbEntity
  8
0
 62
     2
100
AcDbLine
 10
104.603724310387
 20
124.8529523165132
 30
0.0
 11
104.6037243103871
 21
124.4529523165132
 31
0.0
  0
LINE
  5
318
330
1F
100
AcDbEntity
  8
0
 62
     2
100
AcDbLine
 10
109.0037243177726
 20
124.4529519915552
 30
0.0
 11
109.0037243177726
 21
124.8529522611228
 31
0.0
  0
LINE
  5
319
330
1F
100
AcDbEntity
  8
0
 62
     2
100
AcDbLine
 10
109.5037243103872
 20
124.3529519915554
 30
0.0
 11
109.1037243103872
 21
124.3529519915552
 31
0.0
  0
LINE
  5
31A
330
1F
100
AcDbEntity
  8
0
 62
     2
100
AcDbLine
 10
109.1037243103874
 20
123.5529590092576
 30
0.0
 11
109.5037243103874
 21
123.5529590092578
 31
0.0
  0
LINE
  5
31B
330
1F
100
AcDbEntity
  8
0
 62
     2
100
AcDbLine
 10
110.0037243103895
 20
122.652959009258
 30
0.0
 11
110.0037243103886
 21
123.052959009258
 31
0.0
  0
LINE
  5
31C
330
1F
100
AcDbEntity
  8
0
 62
     2
100
AcDbLine
 10
110.6537241839485
 20
122.6529590092595
 30
0.0
 11
110.6537241839485
 21
123.0529590092543
 31
0.0
  0
LINE
  5
31D
330
1F
100
AcDbEntity
  8
0
 62
     2
100
AcDbLine
 10
111.5537241839465
 20
123.5529590092603
 30
0.0
 11
111.1537241839465
 21
123.55295900926
 31
0.0
  0
LINE
  5
31E
330
1F
100
AcDbEntity
  8
0
 62
     2
100
AcDbLine
 10
111.5537241839458
 20
124.352951772353
 30
0.0
 11
111.1537241839457
 21
124.3529517723526
 31
0.0
  0
LINE
  5
31F
330
1F
100
AcDbEntity
  8
0
 62
     2
100
AcDbLine
 10
111.6537241839457
 20
124.8529517723531
 30
0.0
 11
111.6537241839457
 21
124.4529517723531
 31
0.0
  0
LINE
  5
320
330
1F
100
AcDbEntity
  8
0
 62
     2
100
AcDbLine
 10
122.7251216214867
 20
124.8529516048197
 30
0.0
 11
122.7251216214867
 21
124.4529516048197
 31
0.0
  0
LINE
  5
321
330
1F
100
AcDbEntity
  8
0
 62
     2
100
AcDbLine
 10
123.2251141382087
 20
159.6529582165523
 30
0.0
 11
123.2251141317177
 21
164.2529582165522
 31
0.0
  0
LINE
  5
322
330
1F
100
AcDbEntity
  8
0
 62
     2
100
AcDbLine
 10
90.38232699929821
 20
159.6529582165514
 30
0.0
 11
90.38232700578891
 21
164.2529582165513
 31
0.0
  0
LINE
  5
323
330
1F
100
AcDbEntity
  8
0
 62
     2
100
AcDbLine
 10
91.13386337870409
 20
166.5029582165512
 30
0.0
 11
91.13386337848453
 21
167.0029582165512
 31
0.0
  0
LINE
  5
324
330
1F
100
AcDbEntity
  8
0
 62
     2
100
AcDbLine
 10
122.4724938677882
 20
166.5029582165521
 30
0.0
 11
122.4724938680778
 21
167.0029582165521
 31
0.0
  0
ARC
  5
325
330
1F
100
AcDbEntity
  8
0
 62
     2
100
AcDbCircle
 10
92.133863378429
 20
167.0029582165512
 30
0.0
 40
0.9999999999999432
100
AcDbArc
 50
90.0
 51
180.0000000000001
  0
ARC
  5
326
330
1F
100
AcDbEntity
  8
0
 62
     2
100
AcDbCircle
 10
92.13495461082132
 20
167.0029582165512
 30
0.0
 40
0.9999999999999716
100
AcDbArc
 50
89.99999999999837
 51
95.62500000002873
  0
ARC
  5
327
330
1F
100
AcDbEntity
  8
0
 62
     2
100
AcDbCircle
 10
92.13495461082132
 20
167.0029582165512
 30
0.0
 40
1.000000000000024
100
AcDbArc
 50
129.4592864862731
 51
135.0000000000054
  0
ARC
  5
328
330
1F
100
AcDbEntity
  8
0
 62
     2
100
AcDbCircle
 10
121.4735851015388
 20
167.0029582165521
 30
0.0
 40
0.9999999999999891
100
AcDbArc
 50
73.12499999999572
 51
78.74999999999571
  0
ARC
  5
329
330
1F
100
AcDbEntity
  8
0
 62
     2
100
AcDbCircle
 10
121.4735851015388
 20
167.0029582165521
 30
0.0
 40
1.000000000000033
100
AcDbArc
 50
50.62499999999702
 51
56.24999999999691
  0
ARC
  5
32A
330
1F
100
AcDbEntity
  8
0
 62
     2
100
AcDbCircle
 10
121.4735851015388
 20
167.0029582165521
 30
0.0
 40
1.000000000000045
100
AcDbArc
 50
39.37499999999611
 51
44.99999999999553
  0
ARC
  5
32B
330
1F
100
AcDbEntity
  8
0
 62
     2
100
AcDbCircle
 10
121.4735851015388
 20
167.0029582165521
 30
0.0
 40
1.000000000000088
100
AcDbArc
 50
5.919112872828958
 51
22.50000000000221
  0
ARC
  5
32C
330
1F
100
AcDbEntity
  8
0
 62
     2
100
AcDbCircle
 10
121.4724938691465
 20
167.0029582165521
 30
0.0
 40
1.000000000000057
100
AcDbArc
 50
0.0
 51
78.74999999999866
  0
ARC
  5
32D
330
1F
100
AcDbEntity
  8
0
 62
     2
100
AcDbCircle
 10
122.9735851015388
 20
166.5029582165521
 30
0.0
 40
0.4999999999999686
100
AcDbArc
 50
253.1250000000015
 51
258.7500000000017
  0
ARC
  5
32E
330
1F
100
AcDbEntity
  8
0
 62
     2
100
AcDbCircle
 10
122.9735851015388
 20
166.5029582165521
 30
0.0
 40
0.4999999999999666
100
AcDbArc
 50
236.2499999999951
 51
247.4999999999953
  0
ARC
  5
32F
330
1F
100
AcDbEntity
  8
0
 62
     2
100
AcDbCircle
 10
122.9735851015388
 20
166.5029582165521
 30
0.0
 40
0.4999999999999697
100
AcDbArc
 50
219.3749999999969
 51
230.6249999999971
  0
ARC
  5
330
330
1F
100
AcDbEntity
  8
0
 62
     2
100
AcDbCircle
 10
122.9735851015388
 20
166.5029582165521
 30
0.0
 40
0.4999999999999603
100
AcDbArc
 50
196.8749999999954
 51
213.7499999999947
  0
ARC
  5
331
330
1F
100
AcDbEntity
  8
0
 62
     2
100
AcDbCircle
 10
122.9735851015388
 20
166.5029582165521
 30
0.0
 40
0.5
100
AcDbArc
 50
180.0
 51
185.6249999999993
  0
ARC
  5
332
330
1F
100
AcDbEntity
  8
0
 62
     2
100
AcDbCircle
 10
90.63495461082127
 20
166.5029582165512
 30
0.0
 40
0.4999999999999716
100
AcDbArc
 50
270.0000000000032
 51
275.6250000000024
  0
ARC
  5
333
330
1F
100
AcDbEntity
  8
0
 62
     2
100
AcDbCircle
 10
90.63495461082127
 20
166.5029582165512
 30
0.0
 40
0.4999999999999736
100
AcDbArc
 50
309.3749999999898
 51
314.999999999999
  0
ARC
  5
334
330
1F
100
AcDbEntity
  8
0
 62
     2
100
AcDbCircle
 10
90.63495461082127
 20
166.5029582165512
 30
0.0
 40
0.4999999999999981
100
AcDbArc
 50
326.2499999999968
 51
331.8750000000028
  0
ARC
  5
335
330
1F
100
AcDbEntity
  8
0
 62
     2
100
AcDbCircle
 10
90.63386337842896
 20
166.5029582165512
 30
0.0
 40
0.4999999999999716
100
AcDbArc
 50
269.9999999999968
 51
359.9999999999967
  0
ARC
  5
336
330
1F
100
AcDbEntity
  8
0
 62
     2
100
AcDbCircle
 10
122.9724938691465
 20
166.5029582165521
 30
0.0
 40
0.5000000000000284
100
AcDbArc
 50
180.0
 51
269.2669029673346
  0
ARC
  5
337
330
1F
100
AcDbEntity
  8
0
 62
     2
100
AcDbCircle
 10
90.5839494560164
 20
165.5029582165512
 30
0.0
 40
0.500000000000004
100
AcDbArc
 50
135.0000000000046
 51
139.5538299314457
  0
ARC
  5
338
330
1F
100
AcDbEntity
  8
0
 62
     2
100
AcDbCircle
 10
90.5839494560164
 20
165.5029582165512
 30
0.0
 40
0.5000000000000296
100
AcDbArc
 50
123.7499999999995
 51
129.3750000000018
  0
LINE
  5
339
330
1F
100
AcDbEntity
  8
0
 62
     2
100
AcDbLine
 10
90.20372431039166
 20
166.6529582165513
 30
0.0
 11
90.20372431039166
 21
159.6529582165516
 31
0.0
  0
LINE
  5
33A
330
1F
100
AcDbEntity
  8
0
 62
     2
100
AcDbLine
 10
90.55372431039163
 20
172.6529582165513
 30
0.0
 11
90.55372431039163
 21
166.6529582165515
 31
0.0
  0
LINE
  5
33B
330
1F
100
AcDbEntity
  8
0
 62
     2
100
AcDbLine
 10
90.8037243103916
 20
172.9029582165513
 30
0.0
 11
90.55372431039163
 21
172.6529582165513
 31
0.0
  0
LINE
  5
33C
330
1F
100
AcDbEntity
  8
0
 62
     2
100
AcDbLine
 10
90.80372431039163
 20
268.0655331283438
 30
0.0
 11
90.8037243103916
 21
172.9029582165513
 31
0.0
  0
LINE
  5
33D
330
1F
100
AcDbEntity
  8
0
 62
     2
100
AcDbLine
 10
87.40372431039125
 20
166.6529582165513
 30
0.0
 11
87.40372431039125
 21
159.6529582165515
 31
0.0
  0
LINE
  5
33E
330
1F
100
AcDbEntity
  8
0
 62
     2
100
AcDbLine
 10
87.05372431039135
 20
172.6529582165512
 30
0.0
 11
87.05372431039137
 21
166.6529582165513
 31
0.0
  0
LINE
  5
33F
330
1F
100
AcDbEntity
  8
0
 62
     2
100
AcDbLine
 10
86.80372431039129
 20
172.9029582165512
 30
0.0
 11
87.05372431039135
 21
172.6529582165512
 31
0.0
  0
LINE
  5
340
330
1F
100
AcDbEntity
  8
0
 62
     2
100
AcDbLine
 10
86.80372431039133
 20
268.0655331283437
 30
0.0
 11
86.80372431039129
 21
172.9029582165512
 31
0.0
  0
LINE
  5
341
330
1F
100
AcDbEntity
  8
0
 62
     2
100
AcDbLine
 10
126.2037243103937
 20
166.6529582165524
 30
0.0
 11
126.2037243103937
 21
159.6529582165526
 31
0.0
  0
LINE
  5
342
330
1F
100
AcDbEntity
  8
0
 62
     2
100
AcDbLine
 10
126.5537243103936
 20
172.6529582165523
 30
0.0
 11
126.5537243103936
 21
166.6529582165525
 31
0.0
  0
LINE
  5
343
330
1F
100
AcDbEntity
  8
0
 62
     2
100
AcDbLine
 10
126.8037243103936
 20
172.9029582165523
 30
0.0
 11
126.5537243103936
 21
172.6529582165523
 31
0.0
  0
LINE
  5
344
330
1F
100
AcDbEntity
  8
0
 62
     2
100
AcDbLine
 10
126.8037243103936
 20
268.0655331283448
 30
0.0
 11
126.8037243103936
 21
172.9029582165523
 31
0.0
  0
LINE
  5
345
330
1F
100
AcDbEntity
  8
0
 62
     2
100
AcDbLine
 10
123.4037243103933
 20
166.6529582165523
 30
0.0
 11
123.4037243103933
 21
159.6529582165525
 31
0.0
  0
LINE
  5
346
330
1F
100
AcDbEntity
  8
0
 62
     2
100
AcDbLine
 10
123.0537243103934
 20
172.6529582165522
 30
0.0
 11
123.0537243103934
 21
166.6529582165523
 31
0.0
  0
LINE
  5
347
330
1F
100
AcDbEntity
  8
0
 62
     2
100
AcDbLine
 10
122.8037243103934
 20
172.9029582165522
 30
0.0
 11
123.0537243103934
 21
172.6529582165522
 31
0.0
  0
LINE
  5
348
330
1F
100
AcDbEntity
  8
0
 62
     2
100
AcDbLine
 10
122.8037243103934
 20
268.0655331283447
 30
0.0
 11
122.8037243103934
 21
172.9029582165522
 31
0.0
  0
ARC
  5
349
330
1F
100
AcDbEntity
  8
0
 62
     2
100
AcDbCircle
 10
122.8251141382086
 20
164.2529582165522
 30
0.0
 40
0.3999999999999688
100
AcDbArc
 50
78.74999999998751
 51
86.72801889752309
  0
ARC
  5
34A
330
1F
100
AcDbEntity
  8
0
 62
     2
100
AcDbCircle
 10
122.8251141382086
 20
164.2529582165522
 30
0.0
 40
0.3999999999999624
100
AcDbArc
 50
67.49999999998842
 51
73.12499999998941
  0
ARC
  5
34B
330
1F
100
AcDbEntity
  8
0
 62
     2
100
AcDbCircle
 10
122.8251141382086
 20
164.2529582165522
 30
0.0
 40
0.4000000000000003
100
AcDbArc
 50
50.62499999998388
 51
56.24999999998229
  0
ARC
  5
34C
330
1F
100
AcDbEntity
  8
0
 62
     2
100
AcDbCircle
 10
122.8251141382086
 20
164.2529582165522
 30
0.0
 40
0.4000000000000057
100
AcDbArc
 50
0.0
 51
39.37499999999356
  0
ARC
  5
34D
330
1F
100
AcDbEntity
  8
0
 62
     2
100
AcDbCircle
 10
90.78232699929825
 20
164.2529582165512
 30
0.0
 40
0.3999999999999863
100
AcDbArc
 50
90.44129722566264
 51
180.0000000000031
  0
LINE
  5
34E
330
1F
100
AcDbEntity
  8
0
 62
     2
100
AcDbLine
 10
104.5037243103975
 20
164.6529582165516
 30
0.0
 11
103.6037243103954
 21
164.6529582165516
 31
0.0
  0
LINE
  5
34F
330
1F
100
AcDbEntity
  8
0
 62
     2
100
AcDbLine
 10
104.1037243103975
 20
164.2529582165516
 30
0.0
 11
103.6037243103963
 21
164.2529582165516
 31
0.0
  0
LINE
  5
350
330
1F
100
AcDbEntity
  8
0
 62
     2
100
AcDbLine
 10
87.35372286112914
 20
164.2529582165512
 30
0.0
 11
87.40372431039125
 21
164.2529582165512
 31
0.0
  0
LINE
  5
351
330
1F
100
AcDbEntity
  8
0
 62
     2
100
AcDbLine
 10
122.8024612974821
 20
164.6529582165522
 30
0.0
 11
122.76349762839
 21
164.6529582165522
 31
0.0
  0
LINE
  5
352
330
1F
100
AcDbEntity
  8
0
 62
     2
100
AcDbLine
 10
123.4037243103933
 20
164.6529582165522
 30
0.0
 11
122.8082957137471
 21
164.6529582165522
 31
0.0
  0
LINE
  5
353
330
1F
100
AcDbEntity
  8
0
 62
     2
100
AcDbLine
 10
123.4037243103933
 20
164.2529582165522
 30
0.0
 11
123.2251141317177
 21
164.2529582165522
 31
0.0
  0
LINE
  5
354
330
1F
100
AcDbEntity
  8
0
 62
     2
100
AcDbLine
 10
90.78232700059635
 20
164.6529582165512
 30
0.0
 11
90.88232699778499
 21
164.6529582165512
 31
0.0
  0
LINE
  5
355
330
1F
100
AcDbEntity
  8
0
 62
     2
100
AcDbLine
 10
90.38232700578891
 20
164.2529582165513
 30
0.0
 11
90.88232699173216
 21
164.2529582165513
 31
0.0
  0
LINE
  5
356
330
1F
100
AcDbEntity
  8
0
 62
     2
100
AcDbLine
 10
90.88232699778499
 20
164.6529582165512
 30
0.0
 11
101.9537244368392
 21
164.6529582165515
 31
0.0
  0
LINE
  5
357
330
1F
100
AcDbEntity
  8
0
 62
     2
100
AcDbLine
 10
90.88232699173216
 20
164.2529582165513
 30
0.0
 11
101.9537244368392
 21
164.2529582165516
 31
0.0
  0
LINE
  5
358
330
1F
100
AcDbEntity
  8
0
 62
     2
100
AcDbLine
 10
101.9537244368392
 20
164.6529582165515
 30
0.0
 11
102.0537244368392
 21
164.6529582165515
 31
0.0
  0
LINE
  5
359
330
1F
100
AcDbEntity
  8
0
 62
     2
100
AcDbLine
 10
101.9537244368392
 20
164.2529582165516
 30
0.0
 11
102.4537244368392
 21
164.2529582165516
 31
0.0
  0
LINE
  5
35A
330
1F
100
AcDbEntity
  8
0
 62
     2
100
AcDbLine
 10
102.9537244368364
 20
164.6529582165516
 30
0.0
 11
102.0537244368385
 21
164.6529582165516
 31
0.0
  0
LINE
  5
35B
330
1F
100
AcDbEntity
  8
0
 62
     2
100
AcDbLine
 10
102.9537244368374
 20
164.2529582165516
 30
0.0
 11
102.4537244368385
 21
164.2529582165516
 31
0.0
  0
LINE
  5
35C
330
1F
100
AcDbEntity
  8
0
 62
     2
100
AcDbLine
 10
102.9537244368364
 20
164.6529582165516
 30
0.0
 11
103.6037243103954
 21
164.6529582165516
 31
0.0
  0
LINE
  5
35D
330
1F
100
AcDbEntity
  8
0
 62
     2
100
AcDbLine
 10
102.9537244368374
 20
164.2529582165516
 30
0.0
 11
103.6037243103963
 21
164.2529582165516
 31
0.0
  0
LINE
  5
35E
330
1F
100
AcDbEntity
  8
0
 62
     2
100
AcDbLine
 10
104.5037243103978
 20
164.6529582165516
 30
0.0
 11
104.6037243030124
 21
164.6529582165516
 31
0.0
  0
LINE
  5
35F
330
1F
100
AcDbEntity
  8
0
 62
     2
100
AcDbLine
 10
104.1037243103978
 20
164.2529582165516
 30
0.0
 11
104.6037242734707
 21
164.2529582165517
 31
0.0
  0
LINE
  5
360
330
1F
100
AcDbEntity
  8
0
 62
     2
100
AcDbLine
 10
104.6037243030124
 20
164.6529582165516
 30
0.0
 11
109.003724310398
 21
164.6529582165517
 31
0.0
  0
LINE
  5
361
330
1F
100
AcDbEntity
  8
0
 62
     2
100
AcDbLine
 10
104.6037242734707
 20
164.2529582165517
 30
0.0
 11
109.0037243103979
 21
164.2529582165518
 31
0.0
  0
LINE
  5
362
330
1F
100
AcDbEntity
  8
0
 62
     2
100
AcDbLine
 10
109.003724310398
 20
164.6529582165517
 30
0.0
 11
109.1037243103979
 21
164.6529582165517
 31
0.0
  0
LINE
  5
363
330
1F
100
AcDbEntity
  8
0
 62
     2
100
AcDbLine
 10
109.0037243103979
 20
164.2529582165518
 30
0.0
 11
109.5037243103979
 21
164.2529582165518
 31
0.0
  0
LINE
  5
364
330
1F
100
AcDbEntity
  8
0
 62
     2
100
AcDbLine
 10
110.0037243103956
 20
164.6529582165518
 30
0.0
 11
109.1037243103977
 21
164.6529582165518
 31
0.0
  0
LINE
  5
365
330
1F
100
AcDbEntity
  8
0
 62
     2
100
AcDbLine
 10
110.0037243103965
 20
164.2529582165518
 30
0.0
 11
109.5037243103977
 21
164.2529582165518
 31
0.0
  0
LINE
  5
366
330
1F
100
AcDbEntity
  8
0
 62
     2
100
AcDbLine
 10
110.0037243103956
 20
164.6529582165518
 30
0.0
 11
110.6537241839769
 21
164.6529582165518
 31
0.0
  0
LINE
  5
367
330
1F
100
AcDbEntity
  8
0
 62
     2
100
AcDbLine
 10
110.0037243103965
 20
164.2529582165518
 30
0.0
 11
110.6537241839777
 21
164.2529582165518
 31
0.0
  0
LINE
  5
368
330
1F
100
AcDbEntity
  8
0
 62
     2
100
AcDbLine
 10
111.553724183979
 20
164.6529582165518
 30
0.0
 11
110.653724183977
 21
164.6529582165518
 31
0.0
  0
LINE
  5
369
330
1F
100
AcDbEntity
  8
0
 62
     2
100
AcDbLine
 10
111.1537241839789
 20
164.2529582165518
 30
0.0
 11
110.6537241839779
 21
164.2529582165518
 31
0.0
  0
LINE
  5
36A
330
1F
100
AcDbEntity
  8
0
 62
     2
100
AcDbLine
 10
111.5537241839797
 20
164.6529582165518
 30
0.0
 11
111.6537241172213
 21
164.6529582165518
 31
0.0
  0
LINE
  5
36B
330
1F
100
AcDbEntity
  8
0
 62
     2
100
AcDbLine
 10
111.1537241839796
 20
164.2529582165518
 30
0.0
 11
111.6537238501878
 21
164.2529582165519
 31
0.0
  0
LINE
  5
36C
330
1F
100
AcDbEntity
  8
0
 62
     2
100
AcDbLine
 10
111.6537241172213
 20
164.6529582165518
 30
0.0
 11
122.7251141382087
 21
164.6529582165522
 31
0.0
  0
LINE
  5
36D
330
1F
100
AcDbEntity
  8
0
 62
     2
100
AcDbLine
 10
111.6537238501878
 20
164.2529582165519
 30
0.0
 11
122.7251141382086
 21
164.2529582165522
 31
0.0
  0
LINE
  5
36E
330
1F
100
AcDbEntity
  8
0
 62
     2
100
AcDbLine
 10
122.7251141382086
 20
164.6529582165521
 30
0.0
 11
122.8251141369105
 21
164.6529582165521
 31
0.0
  0
LINE
  5
36F
330
1F
100
AcDbEntity
  8
0
 62
     2
100
AcDbLine
 10
122.7251141382086
 20
164.2529582165522
 30
0.0
 11
123.2251141317177
 21
164.2529582165522
 31
0.0
  0
LINE
  5
370
330
1F
100
AcDbEntity
  8
0
 62
     2
100
AcDbLine
 10
90.82668362574043
 20
164.6529582165512
 30
0.0
 11
90.20372431039168
 21
164.6529582165512
 31
0.0
  0
LINE
  5
371
330
1F
100
AcDbEntity
  8
0
 62
     2
100
AcDbLine
 10
90.8723702146383
 20
164.6529582165512
 30
0.0
 11
90.83508657265142
 21
164.6529582165512
 31
0.0
  0
LINE
  5
372
330
1F
100
AcDbEntity
  8
0
 62
     2
100
AcDbLine
 10
90.38232700578891
 20
164.2529582165513
 30
0.0
 11
90.20372431039164
 21
164.2529582165512
 31
0.0
  0
LINE
  5
373
330
1F
100
AcDbEntity
  8
0
 62
     2
100
AcDbLine
 10
126.2037243103937
 20
164.2529582165523
 30
0.0
 11
126.25371769866
 21
164.2529582165523
 31
0.0
  0
LINE
  5
374
330
1F
100
AcDbEntity
  8
0
 62
     2
100
AcDbLine
 10
122.7251141382087
 20
159.6529582165523
 30
0.0
 11
122.7251141382086
 21
164.2529582165522
 31
0.0
  0
LINE
  5
375
330
1F
100
AcDbEntity
  8
0
 62
     2
100
AcDbLine
 10
111.6537238501878
 20
159.652958216552
 30
0.0
 11
111.6537238501878
 21
164.2529582165519
 31
0.0
  0
LINE
  5
376
330
1F
100
AcDbEntity
  8
0
 62
     2
100
AcDbLine
 10
111.1537241839796
 20
159.652958216552
 30
0.0
 11
111.1537241839796
 21
164.2529582165518
 31
0.0
  0
LINE
  5
377
330
1F
100
AcDbEntity
  8
0
 62
     2
100
AcDbLine
 10
110.6537241839777
 20
159.652958216552
 30
0.0
 11
110.6537241839777
 21
164.2529582165518
 31
0.0
  0
LINE
  5
378
330
1F
100
AcDbEntity
  8
0
 62
     2
100
AcDbLine
 10
110.0037243103966
 20
159.6529582165519
 30
0.0
 11
110.0037243103965
 21
164.2529582165518
 31
0.0
  0
LINE
  5
379
330
1F
100
AcDbEntity
  8
0
 62
     2
100
AcDbLine
 10
109.503724310398
 20
159.6529582165519
 30
0.0
 11
109.5037243103979
 21
164.2529582165518
 31
0.0
  0
LINE
  5
37A
330
1F
100
AcDbEntity
  8
0
 62
     2
100
AcDbLine
 10
109.0037243103979
 20
159.6529582165519
 30
0.0
 11
109.0037243103979
 21
164.2529582165518
 31
0.0
  0
LINE
  5
37B
330
1F
100
AcDbEntity
  8
0
 62
     2
100
AcDbLine
 10
104.6037242734707
 20
159.6529582165518
 30
0.0
 11
104.6037242734707
 21
164.2529582165517
 31
0.0
  0
LINE
  5
37C
330
1F
100
AcDbEntity
  8
0
 62
     2
100
AcDbLine
 10
104.1037243103978
 20
159.6529582165517
 30
0.0
 11
104.1037243103978
 21
164.2529582165516
 31
0.0
  0
LINE
  5
37D
330
1F
100
AcDbEntity
  8
0
 62
     2
100
AcDbLine
 10
103.6037243103964
 20
159.6529582165518
 30
0.0
 11
103.6037243103963
 21
164.2529582165516
 31
0.0
  0
LINE
  5
37E
330
1F
100
AcDbEntity
  8
0
 62
     2
100
AcDbLine
 10
102.9537244368374
 20
159.6529582165517
 30
0.0
 11
102.9537244368374
 21
164.2529582165516
 31
0.0
  0
LINE
  5
37F
330
1F
100
AcDbEntity
  8
0
 62
     2
100
AcDbLine
 10
102.4537244368392
 20
159.6529582165517
 30
0.0
 11
102.4537244368392
 21
164.2529582165516
 31
0.0
  0
LINE
  5
380
330
1F
100
AcDbEntity
  8
0
 62
     2
100
AcDbLine
 10
101.9537244368392
 20
159.6529582165517
 30
0.0
 11
101.9537244368392
 21
164.2529582165516
 31
0.0
  0
LINE
  5
381
330
1F
100
AcDbEntity
  8
0
 62
     2
100
AcDbLine
 10
90.88232699173213
 20
159.6529582165514
 30
0.0
 11
90.88232699173216
 21
164.2529582165513
 31
0.0
  0
LINE
  5
382
330
1F
100
AcDbEntity
  8
0
 62
     2
100
AcDbLine
 10
87.35372286112914
 20
159.6529582165513
 30
0.0
 11
87.35372286112914
 21
164.2529582165512
 31
0.0
  0
LINE
  5
383
330
1F
100
AcDbEntity
  8
0
 62
     2
100
AcDbLine
 10
126.2537176986602
 20
159.6529582165524
 30
0.0
 11
126.2537176986601
 21
164.2529582165523
 31
0.0
  0
LINE
  5
384
330
1F
100
AcDbEntity
  8
0
 62
     2
100
AcDbLine
 10
90.58495465478305
 20
166.0029582165512
 30
0.0
 11
93.63495461080868
 21
166.0029582165513
 31
0.0
  0
LINE
  5
385
330
1F
100
AcDbEntity
  8
0
 62
     2
100
AcDbLine
 10
90.20372431039168
 20
165.5029582165512
 30
0.0
 11
93.63495461082141
 21
165.5029582165513
 31
0.0
  0
LINE
  5
386
330
1F
100
AcDbEntity
  8
0
 62
     2
100
AcDbLine
 10
99.55372049964873
 20
166.0029582165514
 30
0.0
 11
93.63495461082061
 21
166.0029582165411
 31
0.0
  0
LINE
  5
387
330
1F
100
AcDbEntity
  8
0
 62
     2
100
AcDbLine
 10
99.55372049964873
 20
165.5029582165515
 30
0.0
 11
93.63495461082141
 21
165.5029582165513
 31
0.0
  0
LINE
  5
388
330
1F
100
AcDbEntity
  8
0
 62
     2
100
AcDbLine
 10
100.8037207900229
 20
166.0029582165515
 30
0.0
 11
99.5537207530343
 21
166.0029582165515
 31
0.0
  0
LINE
  5
389
330
1F
100
AcDbEntity
  8
0
 62
     2
100
AcDbLine
 10
100.8037207752274
 20
165.5029582165515
 30
0.0
 11
100.0537207530344
 21
165.5029582165515
 31
0.0
  0
LINE
  5
38A
330
1F
100
AcDbEntity
  8
0
 62
     2
100
AcDbLine
 10
112.8037277986046
 20
166.0029582165518
 30
0.0
 11
100.8037207234437
 21
166.0029582165513
 31
0.0
  0
LINE
  5
38B
330
1F
100
AcDbEntity
  8
0
 62
     2
100
AcDbLine
 10
112.8037278183326
 20
165.5029582165519
 30
0.0
 11
100.8037207234437
 21
165.5029582165515
 31
0.0
  0
LINE
  5
38C
330
1F
100
AcDbEntity
  8
0
 62
     2
100
AcDbLine
 10
114.0478306955079
 20
166.0029582165519
 30
0.0
 11
112.8037277986045
 21
166.0029582165518
 31
0.0
  0
LINE
  5
38D
330
1F
100
AcDbEntity
  8
0
 62
     2
100
AcDbLine
 10
113.5537278479245
 20
165.5029582165519
 30
0.0
 11
112.8037278183326
 21
165.5029582165518
 31
0.0
  0
LINE
  5
38E
330
1F
100
AcDbEntity
  8
0
 62
     2
100
AcDbLine
 10
119.9741029498377
 20
166.002958216552
 30
0.0
 11
114.0537278479963
 21
166.0029582165519
 31
0.0
  0
LINE
  5
38F
330
1F
100
AcDbEntity
  8
0
 62
     2
100
AcDbLine
 10
119.9741878430015
 20
165.502958216552
 30
0.0
 11
114.0538127411604
 21
165.5029582165519
 31
0.0
  0
LINE
  5
390
330
1F
100
AcDbEntity
  8
0
 62
     2
100
AcDbLine
 10
119.9741029498376
 20
166.002958216552
 30
0.0
 11
123.0235851015388
 21
166.0029582165521
 31
0.0
  0
LINE
  5
391
330
1F
100
AcDbEntity
  8
0
 62
     2
100
AcDbLine
 10
119.9741878430013
 20
165.502958216552
 30
0.0
 11
123.4037243103933
 21
165.5029582165521
 31
0.0
  0
LINE
  5
392
330
1F
100
AcDbEntity
  8
0
 62
     2
100
AcDbLine
 10
114.0538127411604
 20
165.0529582165519
 30
0.0
 11
119.9741878430014
 21
165.0529582165521
 31
0.0
  0
LINE
  5
393
330
1F
100
AcDbEntity
  8
0
 62
     2
100
AcDbLine
 10
113.5537278479245
 20
165.0529582165519
 30
0.0
 11
112.8037278183326
 21
165.0529582165519
 31
0.0
  0
LINE
  5
394
330
1F
100
AcDbEntity
  8
0
 62
     2
100
AcDbLine
 10
100.8037207234437
 20
165.0529582165515
 30
0.0
 11
112.8037278183326
 21
165.0529582165519
 31
0.0
  0
LINE
  5
395
330
1F
100
AcDbEntity
  8
0
 62
     2
100
AcDbLine
 10
100.8037207234439
 20
165.0529582165515
 30
0.0
 11
100.0537207530344
 21
165.0529582165515
 31
0.0
  0
LINE
  5
396
330
1F
100
AcDbEntity
  8
0
 62
     2
100
AcDbLine
 10
93.63495461082138
 20
165.0529582165513
 30
0.0
 11
99.55372049964876
 21
165.0529582165515
 31
0.0
  0
LINE
  5
397
330
1F
100
AcDbEntity
  8
0
 62
     2
100
AcDbLine
 10
90.20372431039168
 20
165.0529582165512
 30
0.0
 11
93.63495461082138
 21
165.0529582165513
 31
0.0
  0
LINE
  5
398
330
1F
100
AcDbEntity
  8
0
 62
     2
100
AcDbLine
 10
119.974187843001
 20
165.0529582165521
 30
0.0
 11
123.4037243103933
 21
165.0529582165522
 31
0.0
  0
LINE
  5
399
330
1F
100
AcDbEntity
  8
0
 62
     2
100
AcDbLine
 10
113.5537278479962
 20
165.5029582165519
 30
0.0
 11
113.5537278479962
 21
165.0529582165519
 31
0.0
  0
LINE
  5
39A
330
1F
100
AcDbEntity
  8
0
 62
     2
100
AcDbLine
 10
114.0538127411604
 20
165.5029582165519
 30
0.0
 11
114.0538127411604
 21
165.0529582165519
 31
0.0
  0
LINE
  5
39B
330
1F
100
AcDbEntity
  8
0
 62
     2
100
AcDbLine
 10
99.55372049964873
 20
165.5029582165515
 30
0.0
 11
99.55372049964873
 21
165.0529582165515
 31
0.0
  0
LINE
  5
39C
330
1F
100
AcDbEntity
  8
0
 62
     2
100
AcDbLine
 10
100.0537207484816
 20
165.5029582165515
 30
0.0
 11
100.0537207484816
 21
165.0529582165515
 31
0.0
  0
LINE
  5
39D
330
1F
100
AcDbEntity
  8
0
 62
     2
100
AcDbLine
 10
93.63495461082141
 20
165.5029582165513
 30
0.0
 11
93.63495461082138
 21
165.0529582165513
 31
0.0
  0
LINE
  5
39E
330
1F
100
AcDbEntity
  8
0
 62
     2
100
AcDbLine
 10
100.8037207234437
 20
165.5029582165515
 30
0.0
 11
100.8037207234437
 21
165.0529582165515
 31
0.0
  0
LINE
  5
39F
330
1F
100
AcDbEntity
  8
0
 62
     2
100
AcDbLine
 10
112.8037278183326
 20
165.5029582165519
 30
0.0
 11
112.8037278183326
 21
165.0529582165519
 31
0.0
  0
LINE
  5
3A0
330
1F
100
AcDbEntity
  8
0
 62
     2
100
AcDbLine
 10
119.9741878430015
 20
165.502958216552
 30
0.0
 11
119.9741878430014
 21
165.0529582165521
 31
0.0
  0
LINE
  5
3A1
330
1F
100
AcDbEntity
  8
0
 62
     2
100
AcDbLine
 10
122.4219392348543
 20
166.5029582165521
 30
0.0
 11
122.4724938677882
 21
166.5029582165521
 31
0.0
  0
LINE
  5
3A2
330
1F
100
AcDbEntity
  8
0
 62
     2
100
AcDbLine
 10
117.7137048756441
 20
166.5029582165519
 30
0.0
 11
122.4219392348543
 21
166.5029582165521
 31
0.0
  0
LINE
  5
3A3
330
1F
100
AcDbEntity
  8
0
 62
     2
100
AcDbLine
 10
117.7137048756441
 20
166.5029582165519
 30
0.0
 11
116.810238127809
 21
166.5029582165519
 31
0.0
  0
LINE
  5
3A4
330
1F
100
AcDbEntity
  8
0
 62
     2
100
AcDbLine
 10
96.79616295573447
 20
166.5029582165514
 30
0.0
 11
116.8102381278081
 21
166.5029582165519
 31
0.0
  0
LINE
  5
3A5
330
1F
100
AcDbEntity
  8
0
 62
     2
100
AcDbLine
 10
96.79616295573442
 20
166.5029582165514
 30
0.0
 11
95.89261389824222
 21
166.5029582165513
 31
0.0
  0
LINE
  5
3A6
330
1F
100
AcDbEntity
  8
0
 62
     2
100
AcDbLine
 10
93.13364602525897
 20
166.5029582165513
 30
0.0
 11
95.89261389824242
 21
166.5029582165513
 31
0.0
  0
LINE
  5
3A7
330
1F
100
AcDbEntity
  8
0
 62
     2
100
AcDbLine
 10
91.13386337870409
 20
166.5029582165512
 30
0.0
 11
93.13364602525897
 21
166.5029582165513
 31
0.0
  0
LINE
  5
3A8
330
1F
100
AcDbEntity
  8
0
 62
     2
100
AcDbLine
 10
122.4724938691465
 20
166.5029582165521
 30
0.0
 11
122.4735851012637
 21
166.5029582165521
 31
0.0
  0
LINE
  5
3A9
330
1F
100
AcDbEntity
  8
0
 62
     2
100
AcDbLine
 10
116.8102869773734
 20
168.0029582165519
 30
0.0
 11
96.79621180530125
 21
168.0029582165513
 31
0.0
  0
LINE
  5
3AA
330
1F
100
AcDbEntity
  8
0
 62
     2
100
AcDbLine
 10
116.8102381278082
 20
167.0029582165519
 30
0.0
 11
96.79616295573447
 21
167.0029582165514
 31
0.0
  0
LINE
  5
3AB
330
1F
100
AcDbEntity
  8
0
 62
     2
100
AcDbLine
 10
118.6172204730449
 20
168.0029582165519
 30
0.0
 11
116.8102869773735
 21
168.0029582165519
 31
0.0
  0
LINE
  5
3AC
330
1F
100
AcDbEntity
  8
0
 62
     2
100
AcDbLine
 10
117.7137048756441
 20
167.0029582165519
 30
0.0
 11
116.8102381278085
 21
167.0029582165519
 31
0.0
  0
LINE
  5
3AD
330
1F
100
AcDbEntity
  8
0
 62
     2
100
AcDbLine
 10
118.617220473045
 20
168.0029582165519
 30
0.0
 11
121.4724938688069
 21
168.002958216552
 31
0.0
  0
LINE
  5
3AE
330
1F
100
AcDbEntity
  8
0
 62
     2
100
AcDbLine
 10
117.7137048756441
 20
167.0029582165519
 30
0.0
 11
122.4724938680778
 21
167.0029582165521
 31
0.0
  0
LINE
  5
3AF
330
1F
100
AcDbEntity
  8
0
 62
     2
100
AcDbLine
 10
121.4464824673904
 20
168.002958216552
 30
0.0
 11
121.4667971304741
 21
168.002958216552
 31
0.0
  0
LINE
  5
3B0
330
1F
100
AcDbEntity
  8
0
 62
     2
100
AcDbLine
 10
121.3057470421289
 20
168.002958216552
 30
0.0
 11
121.3661300344558
 21
168.002958216552
 31
0.0
  0
LINE
  5
3B1
330
1F
100
AcDbEntity
  8
0
 62
     2
100
AcDbLine
 10
92.13495461116091
 20
168.0029582165512
 30
0.0
 11
92.16206281195238
 21
168.0029582165512
 31
0.0
  0
LINE
  5
3B2
330
1F
100
AcDbEntity
  8
0
 62
     2
100
AcDbLine
 10
92.1338633798114
 20
168.0029582165512
 30
0.0
 11
94.98911369031708
 21
168.0029582165513
 31
0.0
  0
LINE
  5
3B3
330
1F
100
AcDbEntity
  8
0
 62
     2
100
AcDbLine
 10
91.13386337848453
 20
167.0029582165512
 30
0.0
 11
95.89261389824239
 21
167.0029582165513
 31
0.0
  0
LINE
  5
3B4
330
1F
100
AcDbEntity
  8
0
 62
     2
100
AcDbLine
 10
96.79621180530125
 20
168.0029582165513
 30
0.0
 11
94.98911369031697
 21
168.0029582165513
 31
0.0
  0
LINE
  5
3B5
330
1F
100
AcDbEntity
  8
0
 62
     2
100
AcDbLine
 10
96.79616295573442
 20
167.0029582165513
 30
0.0
 11
95.89261389824225
 21
167.0029582165513
 31
0.0
  0
LINE
  5
3B6
330
1F
100
AcDbEntity
  8
0
 62
     2
100
AcDbLine
 10
95.89261389824233
 20
166.5029582165513
 30
0.0
 11
95.8926138982423
 21
167.0029582165513
 31
0.0
  0
LINE
  5
3B7
330
1F
100
AcDbEntity
  8
0
 62
     2
100
AcDbLine
 10
96.79616295573442
 20
166.5029582165514
 30
0.0
 11
96.79616295573442
 21
167.0029582165513
 31
0.0
  0
LINE
  5
3B8
330
1F
100
AcDbEntity
  8
0
 62
     2
100
AcDbLine
 10
116.8102381278081
 20
166.5029582165519
 30
0.0
 11
116.8102381278082
 21
167.0029582165519
 31
0.0
  0
LINE
  5
3B9
330
1F
100
AcDbEntity
  8
0
 62
     2
100
AcDbLine
 10
117.7137048756441
 20
166.5029582165519
 30
0.0
 11
117.7137048756441
 21
167.0029582165519
 31
0.0
  0
LINE
  5
3BA
330
1F
100
AcDbEntity
  8
0
 62
     2
100
AcDbLine
 10
97.303724310392
 20
169.6529582165514
 30
0.0
 11
99.30372431039203
 21
169.6529582165515
 31
0.0
  0
LINE
  5
3BB
330
1F
100
AcDbEntity
  8
0
 62
     2
100
AcDbLine
 10
114.303724310393
 20
169.6529582165517
 30
0.0
 11
116.303724310393
 21
169.6529582165518
 31
0.0
  0
LINE
  5
3BC
330
1F
100
AcDbEntity
  8
0
 62
     2
100
AcDbLine
 10
114.303724310393
 20
170.6529582165518
 30
0.0
 11
99.3037243103922
 21
170.6529582165513
 31
0.0
  0
LINE
  5
3BD
330
1F
100
AcDbEntity
  8
0
 62
     2
100
AcDbLine
 10
114.303724310393
 20
169.6529582165518
 30
0.0
 11
99.303724310392
 21
169.6529582165514
 31
0.0
  0
LINE
  5
3BE
330
1F
100
AcDbEntity
  8
0
 62
     2
100
AcDbLine
 10
114.3037243103929
 20
170.6529582165518
 30
0.0
 11
115.303724310393
 21
170.6529582165518
 31
0.0
  0
LINE
  5
3BF
330
1F
100
AcDbEntity
  8
0
 62
     2
100
AcDbLine
 10
98.30372431039206
 20
170.6529582165513
 30
0.0
 11
99.30372431039211
 21
170.6529582165513
 31
0.0
  0
LINE
  5
3C0
330
1F
100
AcDbEntity
  8
0
 62
     2
100
AcDbLine
 10
114.303724310393
 20
168.0029582165518
 30
0.0
 11
114.303724310393
 21
169.6529582165518
 31
0.0
  0
LINE
  5
3C1
330
1F
100
AcDbEntity
  8
0
 62
     2
100
AcDbLine
 10
116.3037243103931
 20
168.0029582165518
 30
0.0
 11
116.303724310393
 21
169.6529582165518
 31
0.0
  0
LINE
  5
3C2
330
1F
100
AcDbEntity
  8
0
 62
     2
100
AcDbLine
 10
97.303724310392
 20
168.0029582165513
 30
0.0
 11
97.30372431039197
 21
169.6529582165513
 31
0.0
  0
LINE
  5
3C3
330
1F
100
AcDbEntity
  8
0
 62
     2
100
AcDbLine
 10
99.3037243103922
 20
168.0029582165516
 30
0.0
 11
99.30372431039217
 21
169.6529582165515
 31
0.0
  0
ARC
  5
3C4
330
1F
100
AcDbEntity
  8
0
 62
     2
100
AcDbCircle
 10
98.30372431039206
 20
169.6529582165513
 30
0.0
 40
0.9999999999999716
100
AcDbArc
 50
90.0
 51
180.0
  0
ARC
  5
3C5
330
1F
100
AcDbEntity
  8
0
 62
     2
100
AcDbCircle
 10
115.3037243103931
 20
169.6529582165518
 30
0.0
 40
1.000000000000057
100
AcDbArc
 50
0.0
 51
90.0
  0
LINE
  5
3C6
330
1F
100
AcDbEntity
  8
0
 62
     2
100
AcDbLine
 10
99.3037243103922
 20
169.6529582165514
 30
0.0
 11
99.3037243103922
 21
170.6529582165513
 31
0.0
  0
LINE
  5
3C7
330
1F
100
AcDbEntity
  8
0
 62
     2
100
AcDbLine
 10
114.3037243103931
 20
169.6529582165518
 30
0.0
 11
114.303724310393
 21
170.6529582165518
 31
0.0
  0
LWPOLYLINE
  5
3C8
330
1F
100
AcDbEntity
  8
0
 62
     2
100
AcDbPolyline
 90
       17
 70
     0
 43
0.0
 10
94.98911369031697
 20
168.0029582165513
 10
95.07767219698502
 20
167.9981429432235
 10
95.16537783682278
 20
167.9837434969545
 10
95.25138595657398
 20
167.9598985522835
 10
95.33486825102844
 20
167.9268377490626
 10
95.41502074005459
 20
167.8848794808997
 10
95.4910715113673
 20
167.8344278288538
 10
95.5622881544653
 20
167.7759686699141
 10
95.62798481414444
 20
167.7100649977378
 10
95.68752879565864
 20
167.6373515007149
 10
95.74034665791592
 20
167.5585284495709
 10
95.78592973602949
 20
167.4743549533773
 10
95.82383904003888
 20
167.3856416489164
 10
95.85370948262315
 20
167.2932428938058
 10
95.87525339509136
 20
167.1980485385675
 10
95.8882632977894
 20
167.1009753568809
 10
95.8926138982423
 20
167.0029582165513
  0
LWPOLYLINE
  5
3C9
330
1F
100
AcDbEntity
  8
0
 62
     2
100
AcDbPolyline
 90
       17
 70
     0
 43
0.0
 10
117.7137048756441
 20
167.0029582165519
 10
117.7180555502016
 20
167.1009753568815
 10
117.7310656744995
 20
167.1980485385681
 10
117.7526099539289
 20
167.2932428938064
 10
117.7824809053017
 20
167.385641648917
 10
117.8203908550267
 20
167.4743549533779
 10
117.8659747095648
 20
167.5585284495715
 10
117.9187934714779
 20
167.6373515007156
 10
117.978338467215
 20
167.7100649977385
 10
118.0440362459168
 20
167.7759686699147
 10
118.1152541020602
 20
167.8344278288545
 10
118.1913061687588
 20
167.8848794809003
 10
118.2714600230362
 20
167.9268377490632
 10
118.3549437394591
 20
167.9598985522842
 10
118.4409533242015
 20
167.9837434969552
 10
118.5286604579446
 20
167.9981429432242
 10
118.617220473045
 20
168.0029582165519
  0
LINE
  5
3CA
330
1F
100
AcDbEntity
  8
0
 62
     2
100
AcDbLine
 10
96.79621180530128
 20
168.0029582165513
 30
0.0
 11
96.79616295573442
 21
167.0029582165513
 31
0.0
  0
LINE
  5
3CB
330
1F
100
AcDbEntity
  8
0
 62
     2
100
AcDbLine
 10
116.8102869773734
 20
168.0029582165519
 30
0.0
 11
116.8102381278083
 21
167.0029582165519
 31
0.0
  0
LWPOLYLINE
  5
3CC
330
1F
100
AcDbEntity
  8
0
 62
     2
100
AcDbPolyline
 90
       17
 70
     0
 43
0.0
 10
95.89261389824233
 20
166.5029582165513
 10
95.89478919846877
 20
166.4539496463866
 10
95.90129414981777
 20
166.4054130555433
 10
95.9120661060519
 20
166.3578158779241
 10
95.92700132734404
 20
166.3116165003688
 10
95.9459559793487
 20
166.2672598481384
 10
95.96874751840548
 20
166.2251731000416
 10
95.99515644953414
 20
166.1857615744696
 10
96.02492844029126
 20
166.1494048259581
 10
96.05777677013086
 20
166.11645298987
 10
96.09338509167983
 20
166.0872234104001
 10
96.13141047733617
 20
166.0619975843772
 10
96.17148672184925
 20
166.0410184502957
 10
96.21322786907652
 20
166.0244880486853
 10
96.25623192895205
 20
166.0125655763498
 10
96.30008474887097
 20
166.0053658532153
 10
96.34436400220494
 20
166.0029582165514
  0
LINE
  5
3CD
330
1F
100
AcDbEntity
  8
0
 62
     2
100
AcDbLine
 10
96.796138530951
 20
166.0029582165514
 30
0.0
 11
96.79616295573442
 21
166.5029582165514
 31
0.0
  0
LINE
  5
3CE
330
1F
100
AcDbEntity
  8
0
 62
     2
100
AcDbLine
 10
116.8102137030255
 20
166.0029582165519
 30
0.0
 11
116.8102381278083
 21
166.5029582165519
 31
0.0
  0
LWPOLYLINE
  5
3CF
330
1F
100
AcDbEntity
  8
0
 62
     2
100
AcDbPolyline
 90
       17
 70
     0
 43
0.0
 10
117.2619470769436
 20
166.0029582165519
 10
117.3062270844939
 20
166.0053658532159
 10
117.3500806513654
 20
166.0125655763504
 10
117.3930854437366
 20
166.0244880486859
 10
117.434827301948
 20
166.0410184502963
 10
117.4749042290867
 20
166.0619975843778
 10
117.5129302624361
 20
166.0872234104007
 10
117.5485391905078
 20
166.1164529898706
 10
117.5813880798587
 20
166.1494048259587
 10
117.6111605777272
 20
166.1857615744701
 10
117.6375699586838
 20
166.2251731000422
 10
117.6603618859528
 20
166.267259848139
 10
117.6793168608154
 20
166.3116165003694
 10
117.6942523365018
 20
166.3578158779247
 10
117.7050244762164
 20
166.4054130555439
 10
117.7115295383654
 20
166.4539496463872
 10
117.7137048756441
 20
166.5029582165519
  0
LINE
  5
3D0
330
1F
100
AcDbEntity
  8
0
 62
     2
100
AcDbLine
 10
99.55372049964873
 20
165.5029582165515
 30
0.0
 11
100.0537206655372
 21
165.5029583824401
 31
0.0
  0
LINE
  5
3D1
330
1F
100
AcDbEntity
  8
0
 62
     2
100
AcDbLine
 10
99.55372049964873
 20
165.0529582165515
 30
0.0
 11
100.0537207484816
 21
165.0529582165515
 31
0.0
  0
LINE
  5
3D2
330
1F
100
AcDbEntity
  8
0
 62
     2
100
AcDbLine
 10
113.5537278479957
 20
165.5029582165524
 30
0.0
 11
114.0538127411604
 21
165.5029582165519
 31
0.0
  0
LINE
  5
3D3
330
1F
100
AcDbEntity
  8
0
 62
     2
100
AcDbLine
 10
113.5537278479952
 20
165.0529582165518
 30
0.0
 11
114.0538127411604
 21
165.0529582165519
 31
0.0
  0
ARC
  5
3D4
330
1F
100
AcDbEntity
  8
0
 62
     2
100
AcDbCircle
 10
90.95372447671679
 20
165.0529582165512
 30
0.0
 40
0.4000000000000341
100
AcDbArc
 50
270.0000000000081
 51
275.6250000000064
  0
LINE
  5
3D5
330
1F
100
AcDbEntity
  8
0
 62
     2
100
AcDbLine
 10
93.63495461082138
 20
165.0529582165513
 30
0.0
 11
93.63495461082144
 21
164.6529582165513
 31
0.0
  0
LINE
  5
3D6
330
1F
100
AcDbEntity
  8
0
 62
     2
100
AcDbLine
 10
99.55372030058257
 20
164.6529582165515
 30
0.0
 11
99.5537203005826
 21
165.0529582165515
 31
0.0
  0
ARC
  5
3D7
330
1F
100
AcDbEntity
  8
0
 62
     2
100
AcDbCircle
 10
100.4537207484815
 20
165.0529582165515
 30
0.0
 40
0.4000000000000057
100
AcDbArc
 50
180.0
 51
270.0
  0
LINE
  5
3D8
330
1F
100
AcDbEntity
  8
0
 62
     2
100
AcDbLine
 10
100.8037207392254
 20
164.6529582165515
 30
0.0
 11
100.8037207234437
 21
165.0529582165515
 31
0.0
  0
LINE
  5
3D9
330
1F
100
AcDbEntity
  8
0
 62
     2
100
AcDbLine
 10
112.8037278341146
 20
164.6529582165519
 30
0.0
 11
112.8037278341145
 21
165.0529582165519
 31
0.0
  0
ARC
  5
3DA
330
1F
100
AcDbEntity
  8
0
 62
     2
100
AcDbCircle
 10
113.1537278479962
 20
165.0529582165518
 30
0.0
 40
0.3999999999999773
100
AcDbArc
 50
270.0000000000081
 51
0.0000000000081422
  0
LWPOLYLINE
  5
3DB
330
1F
100
AcDbEntity
  8
0
 62
     2
100
AcDbPolyline
 90
       17
 70
     0
 43
0.0
 10
119.9741878430015
 20
165.052958216552
 10
119.9741881700285
 20
165.0137513604202
 10
119.9741891479601
 20
164.9749220877456
 10
119.9741907673784
 20
164.9368443456503
 10
119.9741930126873
 20
164.899884843606
 10
119.9741958622634
 20
164.8643995218216
 10
119.9741992886637
 20
164.8307301233442
 10
119.9742032588901
 20
164.7992009028866
 10
119.9742077347071
 20
164.7701155040774
 10
119.9742126730101
 20
164.743754035207
 10
119.9742180262407
 20
164.720370371631
 10
119.9742237428442
 20
164.7001897108127
 10
119.9742297677667
 20
164.6834064035475
 10
119.9742360429848
 20
164.6701820822592
 10
119.9742425080647
 20
164.6606441043907
 10
119.9742491007444
 20
164.6548843258832
 10
119.9742557575325
 20
164.652958216552
  0
LWPOLYLINE
  5
3DC
330
1F
100
AcDbEntity
  8
0
 62
     2
100
AcDbPolyline
 90
       17
 70
     0
 43
0.0
 10
114.0538127411604
 20
165.0529582165519
 10
114.0538130681875
 20
165.0137513604201
 10
114.0538140461191
 20
164.9749220877454
 10
114.0538156655373
 20
164.9368443456501
 10
114.0538179108463
 20
164.8998848436059
 10
114.0538207604224
 20
164.8643995218215
 10
114.0538241868227
 20
164.8307301233441
 10
114.0538281570491
 20
164.7992009028864
 10
114.0538326328661
 20
164.7701155040773
 10
114.0538375711692
 20
164.7437540352068
 10
114.0538429243998
 20
164.7203703716309
 10
114.0538486410034
 20
164.7001897108126
 10
114.0538546659258
 20
164.6834064035475
 10
114.053860941144
 20
164.6701820822591
 10
114.053867406224
 20
164.6606441043907
 10
114.0538739989037
 20
164.6548843258832
 10
114.0538806556918
 20
164.652958216552
  0
ARC
  5
3DD
330
1F
100
AcDbEntity
  8
0
 62
     2
100
AcDbCircle
 10
123.0235851015388
 20
165.5029582165521
 30
0.0
 40
0.500000000000057
100
AcDbArc
 50
40.4608381434338
 51
90.00000000000244
  0
LWPOLYLINE
  5
3DE
330
1F
100
AcDbEntity
  8
0
 62
     2
100
AcDbPolyline
 90
       17
 70
     0
 43
0.0
 10
114.0537278479961
 20
166.0029582165519
 10
114.0537361689813
 20
166.000550579888
 10
114.0537444098309
 20
165.9933508567535
 10
114.0537524911809
 20
165.981428384418
 10
114.0537603352037
 20
165.9648979828075
 10
114.0537678663568
 20
165.9439188487261
 10
114.0537750121112
 20
165.9186930227032
 10
114.0537817036495
 20
165.8894634432332
 10
114.0537878765283
 20
165.8565116071451
 10
114.0537934712996
 20
165.8201548586337
 10
114.0537984340825
 20
165.7807433330617
 10
114.0538027170829
 20
165.7386565849649
 10
114.0538062790531
 20
165.6942999327344
 10
114.0538090856893
 20
165.6481005551791
 10
114.0538111099621
 20
165.60050337756
 10
114.0538123323766
 20
165.5519667867167
 10
114.0538127411604
 20
165.5029582165519
  0
LWPOLYLINE
  5
3DF
330
1F
100
AcDbEntity
  8
0
 62
     2
100
AcDbPolyline
 90
       17
 70
     0
 43
0.0
 10
119.9741878430015
 20
165.502958216552
 10
119.9741874342177
 20
165.5519667867168
 10
119.9741862118032
 20
165.6005033775601
 10
119.9741841875304
 20
165.6481005551793
 10
119.9741813808942
 20
165.6942999327346
 10
119.974177818924
 20
165.738656584965
 10
119.9741735359237
 20
165.7807433330618
 10
119.9741685731408
 20
165.8201548586339
 10
119.9741629783695
 20
165.8565116071453
 10
119.9741568054907
 20
165.8894634432334
 10
119.9741501139525
 20
165.9186930227033
 10
119.9741429681981
 20
165.9439188487262
 10
119.974135437045
 20
165.9648979828077
 10
119.9741275930224
 20
165.9814283844182
 10
119.9741195116723
 20
165.9933508567537
 10
119.9741112708229
 20
166.0005505798881
 10
119.9741029498377
 20
166.002958216552
  0
ARC
  5
3E0
330
1F
100
AcDbEntity
  8
0
 62
     2
100
AcDbCircle
 10
99.55372074848162
 20
165.5029582165515
 30
0.0
 40
0.5000000000000275
100
AcDbArc
 50
0.0000190144419261
 51
90.00002851916157
  0
ARC
  5
3E1
330
1F
100
AcDbEntity
  8
0
 62
     2
100
AcDbCircle
 10
114.0537278479962
 20
165.5029582165519
 30
0.0
 40
0.5
100
AcDbArc
 50
90.00000000001303
 51
179.999999999943
  0
LINE
  5
3E2
330
1F
100
AcDbEntity
  8
0
 62
     2
100
AcDbLine
 10
112.8037277986046
 20
166.0029582165518
 30
0.0
 11
112.8037278183326
 21
165.5029582165518
 31
0.0
  0
LINE
  5
3E3
330
1F
100
AcDbEntity
  8
0
 62
     2
100
AcDbLine
 10
100.8037207234437
 20
165.5029582165515
 30
0.0
 11
100.8037207234437
 21
166.0029582165513
 31
0.0
  0
LINE
  5
3E4
330
1F
100
AcDbEntity
  8
0
 62
     2
100
AcDbLine
 10
99.55372049964873
 20
165.5029582165515
 30
0.0
 11
99.55372049964873
 21
166.0029582165515
 31
0.0
  0
LINE
  5
3E5
330
1F
100
AcDbEntity
  8
0
 62
     2
100
AcDbLine
 10
93.63495461082061
 20
165.5029582165513
 30
0.0
 11
93.63495461082061
 21
166.0029582165411
 31
0.0
  0
ARC
  5
3E6
330
1F
100
AcDbEntity
  8
0
 62
     2
100
AcDbCircle
 10
90.58495465478306
 20
165.5029582165512
 30
0.0
 40
0.5
100
AcDbArc
 50
90.00000000000162
 51
139.7253848509141
  0
LINE
  5
3E7
330
1F
100
AcDbEntity
  8
0
 62
     2
100
AcDbLine
 10
86.55372431039137
 20
159.6529582165512
 30
0.0
 11
88.80372431039149
 21
159.6529582165513
 31
0.0
  0
LINE
  5
3E8
330
1F
100
AcDbEntity
  8
0
 62
     2
100
AcDbLine
 10
88.80372431039146
 20
157.6529582165513
 30
0.0
 11
86.55372431039135
 21
157.6529582165513
 31
0.0
  0
LINE
  5
3E9
330
1F
100
AcDbEntity
  8
0
 62
     2
100
AcDbLine
 10
88.80372431039146
 20
159.6529582165513
 30
0.0
 11
88.80372431039146
 21
157.6529582165513
 31
0.0
  0
LINE
  5
3EA
330
1F
100
AcDbEntity
  8
0
 62
     2
100
AcDbLine
 10
86.55372431039137
 20
159.6529582165512
 30
0.0
 11
86.55372431039135
 21
157.6529582165513
 31
0.0
  0
LINE
  5
3EB
330
1F
100
AcDbEntity
  8
0
 62
     2
100
AcDbLine
 10
124.8037243103935
 20
159.6529582165523
 30
0.0
 11
127.0537243103936
 21
159.6529582165524
 31
0.0
  0
LINE
  5
3EC
330
1F
100
AcDbEntity
  8
0
 62
     2
100
AcDbLine
 10
127.0537243103937
 20
157.6529582165524
 30
0.0
 11
124.8037243103935
 21
157.6529582165524
 31
0.0
  0
LINE
  5
3ED
330
1F
100
AcDbEntity
  8
0
 62
     2
100
AcDbLine
 10
127.0537243103936
 20
159.6529582165524
 30
0.0
 11
127.0537243103937
 21
157.6529582165524
 31
0.0
  0
LINE
  5
3EE
330
1F
100
AcDbEntity
  8
0
 62
     2
100
AcDbLine
 10
124.8037243103935
 20
159.6529582165523
 30
0.0
 11
124.8037243103935
 21
157.6529582165524
 31
0.0
  0
LINE
  5
3EF
330
1F
100
AcDbEntity
  8
0
 62
     2
100
AcDbLine
 10
88.80372431039146
 20
157.6529582165513
 30
0.0
 11
124.8037243103935
 21
157.6529582165524
 31
0.0
  0
LINE
  5
3F0
330
1F
100
AcDbEntity
  8
0
 62
     2
100
AcDbLine
 10
88.80372431039146
 20
159.6529582165513
 30
0.0
 11
124.8037243103935
 21
159.6529582165523
 31
0.0
  0
LINE
  5
3F1
330
1F
100
AcDbEntity
  8
0
 62
     2
100
AcDbLine
 10
90.55372431039164
 20
166.6529582165517
 30
0.0
 11
88.80372431039143
 21
166.6529582165514
 31
0.0
  0
LINE
  5
3F2
330
1F
100
AcDbEntity
  8
0
 62
     2
100
AcDbLine
 10
88.80372431039143
 20
166.6529582165514
 30
0.0
 11
87.05372431039132
 21
166.6529582165516
 31
0.0
  0
LINE
  5
3F3
330
1F
100
AcDbEntity
  8
0
 62
     2
100
AcDbLine
 10
87.05372431039133
 20
172.6529582165512
 30
0.0
 11
90.55372431039164
 21
172.6529582165513
 31
0.0
  0
LINE
  5
3F4
330
1F
100
AcDbEntity
  8
0
 62
     2
100
AcDbLine
 10
86.80372431039126
 20
172.9029582165512
 30
0.0
 11
90.8037243103916
 21
172.9029582165513
 31
0.0
  0
LINE
  5
3F5
330
1F
100
AcDbEntity
  8
0
 62
     2
100
AcDbLine
 10
86.80372431039133
 20
268.0655331283437
 30
0.0
 11
90.80372431039163
 21
268.0655331283438
 31
0.0
  0
LINE
  5
3F6
330
1F
100
AcDbEntity
  8
0
 62
     2
100
AcDbLine
 10
126.5537243103937
 20
166.6529582165528
 30
0.0
 11
124.8037243103935
 21
166.6529582165524
 31
0.0
  0
LINE
  5
3F7
330
1F
100
AcDbEntity
  8
0
 62
     2
100
AcDbLine
 10
124.8037243103935
 20
166.6529582165524
 30
0.0
 11
123.0537243103934
 21
166.6529582165527
 31
0.0
  0
LINE
  5
3F8
330
1F
100
AcDbEntity
  8
0
 62
     2
100
AcDbLine
 10
123.0537243103933
 20
172.6529582165522
 30
0.0
 11
126.5537243103936
 21
172.6529582165523
 31
0.0
  0
LINE
  5
3F9
330
1F
100
AcDbEntity
  8
0
 62
     2
100
AcDbLine
 10
122.8037243103933
 20
172.9029582165522
 30
0.0
 11
126.8037243103936
 21
172.9029582165523
 31
0.0
  0
LINE
  5
3FA
330
1F
100
AcDbEntity
  8
0
 62
     2
100
AcDbLine
 10
122.8037243103934
 20
268.0655331283447
 30
0.0
 11
126.8037243103936
 21
268.0655331283448
 31
0.0
  0
ARC
  5
3FB
330
1F
100
AcDbEntity
  8
0
 62
     2
100
AcDbCircle
 10
125.8537176986601
 20
164.2529582165523
 30
0.0
 40
0.4000000000000341
100
AcDbArc
 50
0.0
 51
28.89405340809288
  0
LINE
  5
3FC
330
1F
100
AcDbEntity
  8
0
 62
     2
100
AcDbLine
 10
122.7251141382086
 20
164.2529582165522
 30
0.0
 11
122.7251141382086
 21
164.6529582165521
 31
0.0
  0
LINE
  5
3FD
330
1F
100
AcDbEntity
  8
0
 62
     2
100
AcDbLine
 10
111.6537241172213
 20
164.6529582165518
 30
0.0
 11
111.6537241172213
 21
164.2529582165519
 31
0.0
  0
ARC
  5
3FE
330
1F
100
AcDbEntity
  8
0
 62
     2
100
AcDbCircle
 10
111.5537241839797
 20
164.2529582165519
 30
0.0
 40
0.3999999999999518
100
AcDbArc
 50
95.62500000001123
 51
180.000000000013
  0
LINE
  5
3FF
330
1F
100
AcDbEntity
  8
0
 62
     2
100
AcDbLine
 10
110.6537241839768
 20
164.6529582165518
 30
0.0
 11
110.6537241839778
 21
164.2529582165519
 31
0.0
  0
LINE
  5
400
330
1F
100
AcDbEntity
  8
0
 62
     2
100
AcDbLine
 10
110.0037243103956
 20
164.6529582165518
 30
0.0
 11
110.0037243103956
 21
164.2529582165518
 31
0.0
  0
ARC
  5
401
330
1F
100
AcDbEntity
  8
0
 62
     2
100
AcDbCircle
 10
109.1037243103979
 20
164.2529582165518
 30
0.0
 40
0.4000000000000057
100
AcDbArc
 50
0.0
 51
50.62500000001092
  0
ARC
  5
402
330
1F
100
AcDbEntity
  8
0
 62
     2
100
AcDbCircle
 10
109.1037243103979
 20
164.2529582165518
 30
0.0
 40
0.3999999999999951
100
AcDbArc
 50
61.87499999999892
 51
78.75000000000067
  0
ARC
  5
403
330
1F
100
AcDbEntity
  8
0
 62
     2
100
AcDbCircle
 10
109.1037243103979
 20
164.2529582165518
 30
0.0
 40
0.3999999999999483
100
AcDbArc
 50
80.7602791483954
 51
84.37500000000036
  0
ARC
  5
404
330
1F
100
AcDbEntity
  8
0
 62
     2
100
AcDbCircle
 10
109.1037243103979
 20
164.2529582165518
 30
0.0
 40
0.3999999999999617
100
AcDbArc
 50
86.34743739574532
 51
90.00000000000149
  0
LINE
  5
405
330
1F
100
AcDbEntity
  8
0
 62
     2
100
AcDbLine
 10
109.0037243103978
 20
164.2529582165518
 30
0.0
 11
109.003724310398
 21
164.6529582165517
 31
0.0
  0
LINE
  5
406
330
1F
100
AcDbEntity
  8
0
 62
     2
100
AcDbLine
 10
104.6037243030124
 20
164.6529582165516
 30
0.0
 11
104.6037243030123
 21
164.2529582165516
 31
0.0
  0
ARC
  5
407
330
1F
100
AcDbEntity
  8
0
 62
     2
100
AcDbCircle
 10
104.5037243103978
 20
164.2529582165517
 30
0.0
 40
0.3999999999999463
100
AcDbArc
 50
95.62499999999908
 51
180.0000000000008
  0
LINE
  5
408
330
1F
100
AcDbEntity
  8
0
 62
     2
100
AcDbLine
 10
102.9537244368364
 20
164.6529582165516
 30
0.0
 11
102.9537244368364
 21
164.2529582165516
 31
0.0
  0
ARC
  5
409
330
1F
100
AcDbEntity
  8
0
 62
     2
100
AcDbCircle
 10
102.0537244368392
 20
164.2529582165516
 30
0.0
 40
0.4000000000000057
100
AcDbArc
 50
0.0
 51
50.62500000000327
  0
ARC
  5
40A
330
1F
100
AcDbEntity
  8
0
 62
     2
100
AcDbCircle
 10
102.0537244368392
 20
164.2529582165516
 30
0.0
 40
0.39999999999997
100
AcDbArc
 50
61.87500000000059
 51
78.75000000000178
  0
ARC
  5
40B
330
1F
100
AcDbEntity
  8
0
 62
     2
100
AcDbCircle
 10
102.0537244368392
 20
164.2529582165516
 30
0.0
 40
0.3999999999999724
100
AcDbArc
 50
80.76027914842483
 51
84.37499999999919
  0
ARC
  5
40C
330
1F
100
AcDbEntity
  8
0
 62
     2
100
AcDbCircle
 10
102.0537244368392
 20
164.2529582165516
 30
0.0
 40
0.3999999999999563
100
AcDbArc
 50
86.34743739574964
 51
89.99999999999409
  0
LINE
  5
40D
330
1F
100
AcDbEntity
  8
0
 62
     2
100
AcDbLine
 10
101.9537244368393
 20
164.2529582165516
 30
0.0
 11
101.9537244368392
 21
164.6529582165515
 31
0.0
  0
LINE
  5
40E
330
1F
100
AcDbEntity
  8
0
 62
     2
100
AcDbLine
 10
90.88232699778499
 20
164.6529582165512
 30
0.0
 11
90.88232699778499
 21
164.2529582165513
 31
0.0
  0
ARC
  5
40F
330
1F
100
AcDbEntity
  8
0
 62
     2
100
AcDbCircle
 10
87.75372286112918
 20
164.2529582165512
 30
0.0
 40
0.4000000000000133
100
AcDbArc
 50
151.1037007823602
 51
180.0000000000003
  0
LINE
  5
410
330
1F
100
AcDbEntity
  8
0
 62
     2
100
AcDbLine
 10
103.6037243103954
 20
164.6529582165516
 30
0.0
 11
103.6037243103954
 21
164.2529582165516
 31
0.0
  0
INSERT
  5
413
330
1F
100
AcDbEntity
  8
Outline
100
AcDbBlockReference
  2
$AttrValue elphel_parts
 10
47.37899999999999
 20
22.801
 30
0.0
  0
INSERT
  5
418
330
1F
100
AcDbEntity
  8
Outline
100
AcDbBlockReference
  2
$AttrValue elphel_parts(1)
 10
125.5787
 20
12.54951
 30
0.0
  0
INSERT
  5
41D
330
1F
100
AcDbEntity
  8
Outline
100
AcDbBlockReference
  2
$AttrValue elphel_parts(2)
 10
125.5787
 20
16.91462
 30
0.0
  0
INSERT
  5
422
330
1F
100
AcDbEntity
  8
Outline
100
AcDbBlockReference
  2
$AttrValue elphel_parts(3)
 10
125.5787
 20
21.3666
 30
0.0
  0
INSERT
  5
427
330
1F
100
AcDbEntity
  8
Outline
100
AcDbBlockReference
  2
$AttrValue elphel_parts(4)
 10
119.3813
 20
49.8706
 30
0.0
  0
INSERT
  5
42C
330
1F
100
AcDbEntity
  8
Outline
100
AcDbBlockReference
  2
$AttrValue elphel_parts(5)
 10
44.767
 20
44.7335
 30
0.0
  0
INSERT
  5
45D
330
1F
100
AcDbEntity
  8
Outline
100
AcDbBlockReference
  2
$TitleBlock elphel_parts
 10
200.0
 20
10.0
 30
0.0
  0
INSERT
  5
463
330
1F
100
AcDbEntity
  8
Outline
100
AcDbBlockReference
  2
Sheet Border
 10
0.0
 20
0.0
 30
0.0
  0
ENDSEC
  0
SECTION
  2
OBJECTS
  0
DICTIONARY
  5
C
330
0
100
AcDbDictionary
281
     1
  3
ACAD_DETAILVIEWSTYLE
350
46D
  3
ACAD_GROUP
350
D
  3
ACAD_LAYOUT
350
1A
  3
ACAD_MATERIAL
350
43
  3
ACAD_MLEADERSTYLE
350
6B
  3
ACAD_MLINESTYLE
350
17
  3
ACAD_PLOTSETTINGS
350
19
  3
ACAD_PLOTSTYLENAME
350
E
  3
ACAD_SCALELIST
350
47
  3
ACAD_SECTIONVIEWSTYLE
350
46E
  3
ACAD_TABLESTYLE
350
69
  3
ACAD_VISUALSTYLE
350
2A
  3
ACDB_RECOMPOSE_DATA
350
46A
  3
AcDbVariableDictionary
350
466
  0
SUN
  5
6D
330
29
100
AcDbSun
 90
        1
290
     0
 63
     7
421
 16777215
 40
1.0
291
     1
 91
  2455826
 92
 54000000
292
     0
 70
     2
 71
   256
280
     1
  0
DICTIONARY
  5
46D
102
{ACAD_REACTORS
330
C
102
}
330
C
100
AcDbDictionary
281
     1
  0
DICTIONARY
  5
D
102
{ACAD_REACTORS
330
C
102
}
330
C
100
AcDbDictionary
281
     1
  0
DICTIONARY
  5
1A
102
{ACAD_REACTORS
330
C
102
}
330
C
100
AcDbDictionary
281
     1
  3
Layout1
350
1E
  3
Layout2
350
26
  3
Model
350
22
  0
DICTIONARY
  5
43
102
{ACAD_REACTORS
330
C
102
}
330
C
100
AcDbDictionary
281
     1
  3
ByBlock
350
45
  3
ByLayer
350
44
  3
Global
350
46
  0
DICTIONARY
  5
6B
102
{ACAD_REACTORS
330
C
102
}
330
C
100
AcDbDictionary
281
     1
  3
Standard
350
6C
  0
DICTIONARY
  5
17
102
{ACAD_REACTORS
330
C
102
}
330
C
100
AcDbDictionary
281
     1
  3
Standard
350
18
  0
DICTIONARY
  5
19
102
{ACAD_REACTORS
330
C
102
}
330
C
100
AcDbDictionary
281
     1
  0
ACDBDICTIONARYWDFLT
  5
E
102
{ACAD_REACTORS
330
C
102
}
330
C
100
AcDbDictionary
281
     1
  3
Normal
350
F
100
AcDbDictionaryWithDefault
340
F
  0
DICTIONARY
  5
47
102
{ACAD_REACTORS
330
C
102
}
330
C
100
AcDbDictionary
281
     1
  3
A0
350
48
  3
A1
350
49
  3
A2
350
4A
  3
A3
350
4B
  3
A4
350
4C
  3
A5
350
4D
  3
A6
350
4E
  3
A7
350
4F
  3
A8
350
50
  3
A9
350
51
  3
B0
350
52
  3
B1
350
53
  3
B2
350
54
  3
B3
350
55
  3
B4
350
56
  3
B5
350
57
  3
B6
350
58
  3
B7
350
59
  3
B8
350
5A
  3
B9
350
5B
  3
C0
350
5C
  3
C1
350
5D
  3
C2
350
5E
  3
C3
350
5F
  3
C4
350
60
  3
C5
350
61
  3
C6
350
62
  3
C7
350
63
  3
C8
350
64
  3
C9
350
65
  3
D0
350
66
  3
D1
350
67
  3
D2
350
68
  0
DICTIONARY
  5
46E
102
{ACAD_REACTORS
330
C
102
}
330
C
100
AcDbDictionary
281
     1
  0
DICTIONARY
  5
69
102
{ACAD_REACTORS
330
C
102
}
330
C
100
AcDbDictionary
281
     1
  3
Standard
350
6A
  0
DICTIONARY
  5
2A
102
{ACAD_REACTORS
330
C
102
}
330
C
100
AcDbDictionary
281
     1
  3
2dWireframe
350
2F
  3
Basic
350
32
  3
Brighten
350
36
  3
ColorChange
350
3A
  3
Conceptual
350
34
  3
Dim
350
35
  3
EdgeColorOff
350
3D
  3
Facepattern
350
39
  3
Flat
350
2B
  3
FlatWithEdges
350
2C
  3
Gouraud
350
2D
  3
GouraudWithEdges
350
2E
  3
Hidden
350
31
  3
JitterOff
350
3B
  3
Linepattern
350
38
  3
OverhangOff
350
3C
  3
Realistic
350
33
  3
Shaded
350
42
  3
Shaded with edges
350
41
  3
Shades of Gray
350
3E
  3
Sketchy
350
3F
  3
Thicken
350
37
  3
Wireframe
350
30
  3
X-Ray
350
40
  0
XRECORD
  5
46A
102
{ACAD_REACTORS
330
C
102
}
330
C
100
AcDbXrecord
280
     1
 90
        1
330
6A
  0
DICTIONARY
  5
466
102
{ACAD_REACTORS
330
C
102
}
330
C
100
AcDbDictionary
281
     1
  3
CANNOSCALE
350
467
  3
CMLEADERSTYLE
350
46C
  3
CTABLESTYLE
350
46B
  0
LAYOUT
  5
1E
102
{ACAD_REACTORS
330
1A
102
}
330
1A
100
AcDbPlotSettings
  1

  2
none_device
  4

  6

 40
0.0
 41
0.0
 42
0.0
 43
0.0
 44
0.0
 45
0.0
 46
0.0
 47
0.0
 48
0.0
 49
0.0
140
0.0
141
0.0
142
1.0
143
1.0
 70
   688
 72
     1
 73
     0
 74
     5
  7

 75
    16
 76
     0
 77
     2
 78
   300
147
1.0
148
0.0
149
0.0
100
AcDbLayout
  1
Layout1
 70
     1
 71
     1
 10
0.0
 20
0.0
 11
420.0
 21
297.0
 12
0.0
 22
0.0
 32
0.0
 14
1.000000000000000E+20
 24
1.000000000000000E+20
 34
1.000000000000000E+20
 15
-1.000000000000000E+20
 25
-1.000000000000000E+20
 35
-1.000000000000000E+20
146
0.0
 13
0.0
 23
0.0
 33
0.0
 16
1.0
 26
0.0
 36
0.0
 17
0.0
 27
1.0
 37
0.0
 76
     0
330
1B
  0
LAYOUT
  5
26
102
{ACAD_REACTORS
330
1A
102
}
330
1A
100
AcDbPlotSettings
  1

  2
none_device
  4

  6

 40
0.0
 41
0.0
 42
0.0
 43
0.0
 44
0.0
 45
0.0
 46
0.0
 47
0.0
 48
0.0
 49
0.0
140
0.0
141
0.0
142
1.0
143
1.0
 70
   688
 72
     1
 73
     0
 74
     5
  7

 75
    16
 76
     0
 77
     2
 78
   300
147
1.0
148
0.0
149
0.0
100
AcDbLayout
  1
Layout2
 70
     1
 71
     2
 10
0.0
 20
0.0
 11
0.0
 21
0.0
 12
0.0
 22
0.0
 32
0.0
 14
0.0
 24
0.0
 34
0.0
 15
0.0
 25
0.0
 35
0.0
146
0.0
 13
0.0
 23
0.0
 33
0.0
 16
1.0
 26
0.0
 36
0.0
 17
0.0
 27
1.0
 37
0.0
 76
     0
330
23
  0
LAYOUT
  5
22
102
{ACAD_REACTORS
330
1A
102
}
330
1A
100
AcDbPlotSettings
  1

  2
none_device
  4
Letter_(8.50_x_11.00_Inches)
  6

 40
6.35
 41
6.35
 42
6.35000508
 43
6.35000508
 44
215.9
 45
279.4
 46
0.0
 47
0.0
 48
0.0
 49
0.0
140
0.0
141
0.0
142
1.0
143
1.0
 70
  1712
 72
     1
 73
     0
 74
     0
  7

 75
     0
 76
     0
 77
     2
 78
   300
147
1.0
148
0.0
149
0.0
100
AcDbLayout
  1
Model
 70
     1
 71
     0
 10
0.0
 20
0.0
 11
210.0
 21
297.0
 12
0.0
 22
0.0
 32
0.0
 14
0.0
 24
0.0
 34
0.0
 15
210.0
 25
297.0
 35
0.0
146
0.0
 13
0.0
 23
0.0
 33
0.0
 16
1.0
 26
0.0
 36
0.0
 17
0.0
 27
1.0
 37
0.0
 76
     0
330
1F
331
29
  0
MATERIAL
  5
45
102
{ACAD_REACTORS
330
43
102
}
330
43
100
AcDbMaterial
  1
ByBlock
 72
     1
 94
      127
  0
MATERIAL
  5
44
102
{ACAD_REACTORS
330
43
102
}
330
43
100
AcDbMaterial
  1
ByLayer
 72
     1
 94
      127
  0
MATERIAL
  5
46
102
{ACAD_REACTORS
330
43
102
}
330
43
100
AcDbMaterial
  1
Global
 72
     1
 94
      127
  0
MLEADERSTYLE
  5
6C
102
{ACAD_REACTORS
330
6B
102
}
330
6B
100
AcDbMLeaderStyle
179
     2
170
     2
171
     1
172
     0
 90
        2
 40
0.0
 41
0.0
173
     1
 91
-1056964608
340
14
 92
       -2
290
     1
 42
2.0
291
     1
 43
8.0
  3
Standard
341
0
 44
4.0
300

342
11
174
     1
178
     6
175
     1
176
     0
 93
-1056964608
 45
4.0
292
     0
297
     0
 46
4.0
343
0
 94
-1056964608
 47
1.0
 49
1.0
140
1.0
293
     1
141
0.0
294
     1
177
     0
142
1.0
295
     0
296
     0
143
3.75
271
     0
272
     9
273
     9
298
     0
  0
MLINESTYLE
  5
18
102
{ACAD_REACTORS
330
17
102
}
330
17
100
AcDbMlineStyle
  2
Standard
 70
     0
  3

 62
   256
 51
90.0
 52
90.0
 71
     2
 49
0.5
 62
   256
  6
BYLAYER
 49
-0.5
 62
   256
  6
BYLAYER
  0
ACDBPLACEHOLDER
  5
F
102
{ACAD_REACTORS
330
E
102
}
330
E
  0
SCALE
  5
48
102
{ACAD_REACTORS
330
47
102
}
330
47
100
AcDbScale
 70
     0
300
1:1
140
1.0
141
1.0
290
     1
  0
SCALE
  5
49
102
{ACAD_REACTORS
330
47
102
}
330
47
100
AcDbScale
 70
     0
300
1:2
140
1.0
141
2.0
290
     0
  0
SCALE
  5
4A
102
{ACAD_REACTORS
330
47
102
}
330
47
100
AcDbScale
 70
     0
300
1:4
140
1.0
141
4.0
290
     0
  0
SCALE
  5
4B
102
{ACAD_REACTORS
330
47
102
}
330
47
100
AcDbScale
 70
     0
300
1:5
140
1.0
141
5.0
290
     0
  0
SCALE
  5
4C
102
{ACAD_REACTORS
330
47
102
}
330
47
100
AcDbScale
 70
     0
300
1:8
140
1.0
141
8.0
290
     0
  0
SCALE
  5
4D
102
{ACAD_REACTORS
330
47
102
}
330
47
100
AcDbScale
 70
     0
300
1:10
140
1.0
141
10.0
290
     0
  0
SCALE
  5
4E
102
{ACAD_REACTORS
330
47
102
}
330
47
100
AcDbScale
 70
     0
300
1:16
140
1.0
141
16.0
290
     0
  0
SCALE
  5
4F
102
{ACAD_REACTORS
330
47
102
}
330
47
100
AcDbScale
 70
     0
300
1:20
140
1.0
141
20.0
290
     0
  0
SCALE
  5
50
102
{ACAD_REACTORS
330
47
102
}
330
47
100
AcDbScale
 70
     0
300
1:30
140
1.0
141
30.0
290
     0
  0
SCALE
  5
51
102
{ACAD_REACTORS
330
47
102
}
330
47
100
AcDbScale
 70
     0
300
1:40
140
1.0
141
40.0
290
     0
  0
SCALE
  5
52
102
{ACAD_REACTORS
330
47
102
}
330
47
100
AcDbScale
 70
     0
300
1:50
140
1.0
141
50.0
290
     0
  0
SCALE
  5
53
102
{ACAD_REACTORS
330
47
102
}
330
47
100
AcDbScale
 70
     0
300
1:100
140
1.0
141
100.0
290
     0
  0
SCALE
  5
54
102
{ACAD_REACTORS
330
47
102
}
330
47
100
AcDbScale
 70
     0
300
2:1
140
2.0
141
1.0
290
     0
  0
SCALE
  5
55
102
{ACAD_REACTORS
330
47
102
}
330
47
100
AcDbScale
 70
     0
300
4:1
140
4.0
141
1.0
290
     0
  0
SCALE
  5
56
102
{ACAD_REACTORS
330
47
102
}
330
47
100
AcDbScale
 70
     0
300
8:1
140
8.0
141
1.0
290
     0
  0
SCALE
  5
57
102
{ACAD_REACTORS
330
47
102
}
330
47
100
AcDbScale
 70
     0
300
10:1
140
10.0
141
1.0
290
     0
  0
SCALE
  5
58
102
{ACAD_REACTORS
330
47
102
}
330
47
100
AcDbScale
 70
     0
300
100:1
140
100.0
141
1.0
290
     0
  0
SCALE
  5
59
102
{ACAD_REACTORS
330
47
102
}
330
47
100
AcDbScale
 70
     0
300
1/128" = 1'-0"
140
0.0078125
141
12.0
290
     0
  0
SCALE
  5
5A
102
{ACAD_REACTORS
330
47
102
}
330
47
100
AcDbScale
 70
     0
300
1/64" = 1'-0"
140
0.015625
141
12.0
290
     0
  0
SCALE
  5
5B
102
{ACAD_REACTORS
330
47
102
}
330
47
100
AcDbScale
 70
     0
300
1/32" = 1'-0"
140
0.03125
141
12.0
290
     0
  0
SCALE
  5
5C
102
{ACAD_REACTORS
330
47
102
}
330
47
100
AcDbScale
 70
     0
300
1/16" = 1'-0"
140
0.0625
141
12.0
290
     0
  0
SCALE
  5
5D
102
{ACAD_REACTORS
330
47
102
}
330
47
100
AcDbScale
 70
     0
300
3/32" = 1'-0"
140
0.09375
141
12.0
290
     0
  0
SCALE
  5
5E
102
{ACAD_REACTORS
330
47
102
}
330
47
100
AcDbScale
 70
     0
300
1/8" = 1'-0"
140
0.125
141
12.0
290
     0
  0
SCALE
  5
5F
102
{ACAD_REACTORS
330
47
102
}
330
47
100
AcDbScale
 70
     0
300
3/16" = 1'-0"
140
0.1875
141
12.0
290
     0
  0
SCALE
  5
60
102
{ACAD_REACTORS
330
47
102
}
330
47
100
AcDbScale
 70
     0
300
1/4" = 1'-0"
140
0.25
141
12.0
290
     0
  0
SCALE
  5
61
102
{ACAD_REACTORS
330
47
102
}
330
47
100
AcDbScale
 70
     0
300
3/8" = 1'-0"
140
0.375
141
12.0
290
     0
  0
SCALE
  5
62
102
{ACAD_REACTORS
330
47
102
}
330
47
100
AcDbScale
 70
     0
300
1/2" = 1'-0"
140
0.5
141
12.0
290
     0
  0
SCALE
  5
63
102
{ACAD_REACTORS
330
47
102
}
330
47
100
AcDbScale
 70
     0
300
3/4" = 1'-0"
140
0.75
141
12.0
290
     0
  0
SCALE
  5
64
102
{ACAD_REACTORS
330
47
102
}
330
47
100
AcDbScale
 70
     0
300
1" = 1'-0"
140
1.0
141
12.0
290
     0
  0
SCALE
  5
65
102
{ACAD_REACTORS
330
47
102
}
330
47
100
AcDbScale
 70
     0
300
1-1/2" = 1'-0"
140
1.5
141
12.0
290
     0
  0
SCALE
  5
66
102
{ACAD_REACTORS
330
47
102
}
330
47
100
AcDbScale
 70
     0
300
3" = 1'-0"
140
3.0
141
12.0
290
     0
  0
SCALE
  5
67
102
{ACAD_REACTORS
330
47
102
}
330
47
100
AcDbScale
 70
     0
300
6" = 1'-0"
140
6.0
141
12.0
290
     0
  0
SCALE
  5
68
102
{ACAD_REACTORS
330
47
102
}
330
47
100
AcDbScale
 70
     0
300
1'-0" = 1'-0"
140
12.0
141
12.0
290
     0
  0
TABLESTYLE
  5
6A
102
{ACAD_REACTORS
330
69
102
}
102
{ACAD_XDICTIONARY
360
468
102
}
330
69
100
AcDbTableStyle
  3
Standard
 70
     0
 71
     0
 40
0.06
 41
0.06
280
     0
281
     0
  7
Standard
140
4.5
170
     2
 62
     0
 63
   257
283
     0
 90
        4
 91
        0
  1

274
    -2
284
     1
 64
     0
275
    -2
285
     1
 65
     0
276
    -2
286
     1
 66
     0
277
    -2
287
     1
 67
     0
278
    -2
288
     1
 68
     0
279
    -2
289
     1
 69
     0
  7
Standard
140
6.0
170
     5
 62
     0
 63
   257
283
     0
 90
        4
 91
        0
  1

274
    -2
284
     1
 64
     0
275
    -2
285
     1
 65
     0
276
    -2
286
     1
 66
     0
277
    -2
287
     1
 67
     0
278
    -2
288
     1
 68
     0
279
    -2
289
     1
 69
     0
  7
Standard
140
4.5
170
     5
 62
     0
 63
   257
283
     0
 90
        4
 91
        0
  1

274
    -2
284
     1
 64
     0
275
    -2
285
     1
 65
     0
276
    -2
286
     1
 66
     0
277
    -2
287
     1
 67
     0
278
    -2
288
     1
 68
     0
279
    -2
289
     1
 69
     0
  0
VISUALSTYLE
  5
2F
102
{ACAD_REACTORS
330
2A
102
}
330
2A
100
AcDbVisualStyle
  2
2dWireframe
 70
     4
177
     3
291
     0
 70
    58
 90
        0
176
     1
 90
        2
176
     1
 90
        0
176
     1
 90
        0
176
     1
 40
0.6
176
     1
 40
30.0
176
     1
 62
     7
420
 16777215
176
     1
 90
        1
176
     1
 90
        4
176
     1
 62
     7
176
     1
 62
   257
176
     1
 90
        1
176
     1
 90
        1
176
     1
 40
1.0
176
     1
 90
        0
176
     1
 62
   257
176
     1
 40
1.0
176
     1
 90
        1
176
     1
 90
        6
176
     1
 90
        2
176
     1
 62
     7
176
     1
 90
        5
176
     1
 90
        0
176
     1
 90
        0
176
     1
290
     0
176
     1
 90
        1
176
     1
 40
0.0
176
     1
 90
        0
176
     1
290
     1
176
     1
290
     1
176
     1
290
     0
176
     1
290
     0
176
     1
290
     0
176
     1
290
     0
176
     1
290
     0
176
     1
290
     0
176
     1
290
     0
176
     1
 90
       50
176
     1
 40
0.0
176
     1
 40
1.0
176
     1
 90
        0
176
     1
 62
   178
420
        0
176
     1
 90
       50
176
     1
 90
        3
176
     1
 62
     5
420
      255
176
     1
290
     0
176
     1
 90
       50
176
     1
 90
       50
176
     1
 90
       50
176
     1
290
     0
176
     1
 90
       50
176
     1
 62
   256
176
     0
 40
1.0
176
     0
 90
        2
176
     1
  1
strokes_ogs.tif
176
     1
290
     0
176
     1
 40
1.0
176
     1
 40
1.0
176
     1
  0
VISUALSTYLE
  5
32
102
{ACAD_REACTORS
330
2A
102
}
330
2A
100
AcDbVisualStyle
  2
Basic
 70
     7
177
     3
291
     1
 70
    58
 90
        1
176
     1
 90
        0
176
     1
 90
        1
176
     1
 90
        0
176
     1
 40
0.6
176
     1
 40
30.0
176
     1
 62
     7
420
 16777215
176
     1
 90
        0
176
     1
 90
        4
176
     1
 62
     7
176
     1
 62
   257
176
     1
 90
        1
176
     1
 90
        1
176
     1
 40
1.0
176
     1
 90
        8
176
     1
 62
     7
176
     1
 40
1.0
176
     1
 90
        1
176
     1
 90
        6
176
     1
 90
        2
176
     1
 62
     7
176
     1
 90
        5
176
     1
 90
        0
176
     1
 90
        0
176
     1
290
     0
176
     1
 90
        1
176
     1
 40
0.0
176
     1
 90
        0
176
     1
290
     0
176
     1
290
     1
176
     1
290
     1
176
     1
290
     0
176
     1
290
     0
176
     1
290
     0
176
     1
290
     0
176
     1
290
     0
176
     1
290
     0
176
     1
 90
       50
176
     1
 40
0.0
176
     1
 40
1.0
176
     1
 90
        0
176
     1
 62
   178
420
        0
176
     1
 90
       50
176
     1
 90
        3
176
     1
 62
     5
420
      255
176
     1
290
     0
176
     1
 90
       50
176
     1
 90
       50
176
     1
 90
       50
176
     1
290
     0
176
     1
 90
       50
176
     1
 62
   256
176
     0
 40
1.0
176
     0
 90
        2
176
     1
  1
strokes_ogs.tif
176
     1
290
     0
176
     1
 40
1.0
176
     1
 40
1.0
176
     1
  0
VISUALSTYLE
  5
36
102
{ACAD_REACTORS
330
2A
102
}
330
2A
100
AcDbVisualStyle
  2
Brighten
 70
    12
177
     3
291
     1
 70
    58
 90
        2
176
     1
 90
        2
176
     1
 90
        0
176
     1
 90
        0
176
     1
 40
0.6
176
     1
 40
30.0
176
     1
 62
     7
420
 16777215
176
     1
 90
        1
176
     1
 90
        4
176
     1
 62
     7
176
     1
 62
   257
176
     1
 90
        1
176
     1
 90
        1
176
     1
 40
1.0
176
     1
 90
        8
176
     1
 62
     7
176
     1
 40
1.0
176
     1
 90
        1
176
     1
 90
        6
176
     1
 90
        2
176
     1
 62
     7
176
     1
 90
        5
176
     1
 90
        0
176
     1
 90
        0
176
     1
290
     0
176
     1
 90
        1
176
     1
 40
50.0
176
     1
 90
        0
176
     1
290
     0
176
     1
290
     1
176
     1
290
     1
176
     1
290
     0
176
     1
290
     0
176
     1
290
     0
176
     1
290
     0
176
     1
290
     0
176
     1
290
     0
176
     1
 90
       50
176
     1
 40
0.0
176
     1
 40
1.0
176
     1
 90
        0
176
     1
 62
   178
420
        0
176
     1
 90
       50
176
     1
 90
        3
176
     1
 62
     5
420
      255
176
     1
290
     0
176
     1
 90
       50
176
     1
 90
       50
176
     1
 90
       50
176
     1
290
     0
176
     1
 90
       50
176
     1
 62
   256
176
     0
 40
1.0
176
     0
 90
        2
176
     1
  1
strokes_ogs.tif
176
     1
290
     0
176
     1
 40
1.0
176
     1
 40
1.0
176
     1
  0
VISUALSTYLE
  5
3A
102
{ACAD_REACTORS
330
2A
102
}
330
2A
100
AcDbVisualStyle
  2
ColorChange
 70
    16
177
     3
291
     1
 70
    58
 90
        2
176
     1
 90
        2
176
     1
 90
        3
176
     1
 90
        0
176
     1
 40
0.6
176
     1
 40
30.0
176
     1
 62
     8
420
  8421504
176
     1
 90
        1
176
     1
 90
        4
176
     1
 62
     7
176
     1
 62
   257
176
     1
 90
        1
176
     1
 90
        1
176
     1
 40
1.0
176
     1
 90
        8
176
     1
 62
     8
420
  8421504
176
     1
 40
1.0
176
     1
 90
        1
176
     1
 90
        6
176
     1
 90
        2
176
     1
 62
     7
176
     1
 90
        5
176
     1
 90
        0
176
     1
 90
        0
176
     1
290
     0
176
     1
 90
        1
176
     1
 40
0.0
176
     1
 90
        0
176
     1
290
     0
176
     1
290
     1
176
     1
290
     1
176
     1
290
     0
176
     1
290
     0
176
     1
290
     0
176
     1
290
     0
176
     1
290
     0
176
     1
290
     0
176
     1
 90
       50
176
     1
 40
0.0
176
     1
 40
1.0
176
     1
 90
        0
176
     1
 62
   178
420
        0
176
     1
 90
       50
176
     1
 90
        3
176
     1
 62
     5
420
      255
176
     1
290
     0
176
     1
 90
       50
176
     1
 90
       50
176
     1
 90
       50
176
     1
290
     0
176
     1
 90
       50
176
     1
 62
   256
176
     0
 40
1.0
176
     0
 90
        2
176
     1
  1
strokes_ogs.tif
176
     1
290
     0
176
     1
 40
1.0
176
     1
 40
1.0
176
     1
  0
VISUALSTYLE
  5
34
102
{ACAD_REACTORS
330
2A
102
}
330
2A
100
AcDbVisualStyle
  2
Conceptual
 70
     9
177
     3
291
     0
 70
    58
 90
        3
176
     1
 90
        2
176
     1
 90
        0
176
     1
 90
        0
176
     1
 40
0.6
176
     1
 40
30.0
176
     1
 62
     7
420
 16777215
176
     1
 90
        2
176
     1
 90
        2
176
     1
 62
     7
176
     1
 62
   257
176
     1
 90
        1
176
     1
 90
        1
176
     1
 40
179.0
176
     1
 90
        8
176
     1
 62
     7
176
     1
 40
1.0
176
     1
 90
        1
176
     1
 90
        6
176
     1
 90
        2
176
     1
 62
     7
176
     1
 90
        3
176
     1
 90
        0
176
     1
 90
        0
176
     1
290
     0
176
     1
 90
        1
176
     1
 40
0.0
176
     1
 90
        0
176
     1
290
     0
176
     1
290
     1
176
     1
290
     1
176
     1
290
     0
176
     1
290
     0
176
     1
290
     0
176
     1
290
     0
176
     1
290
     0
176
     1
290
     0
176
     1
 90
       50
176
     1
 40
0.0
176
     1
 40
1.0
176
     1
 90
        0
176
     1
 62
   178
420
        0
176
     1
 90
       50
176
     1
 90
        3
176
     1
 62
     5
420
      255
176
     1
290
     0
176
     1
 90
       50
176
     1
 90
       50
176
     1
 90
       50
176
     1
290
     0
176
     1
 90
       50
176
     1
 62
   256
176
     0
 40
1.0
176
     0
 90
        2
176
     1
  1
strokes_ogs.tif
176
     1
290
     0
176
     1
 40
1.0
176
     1
 40
1.0
176
     1
  0
VISUALSTYLE
  5
35
102
{ACAD_REACTORS
330
2A
102
}
330
2A
100
AcDbVisualStyle
  2
Dim
 70
    11
177
     3
291
     1
 70
    58
 90
        2
176
     1
 90
        2
176
     1
 90
        0
176
     1
 90
        0
176
     1
 40
0.6
176
     1
 40
30.0
176
     1
 62
     7
420
 16777215
176
     1
 90
        1
176
     1
 90
        4
176
     1
 62
     7
176
     1
 62
   257
176
     1
 90
        1
176
     1
 90
        1
176
     1
 40
1.0
176
     1
 90
        8
176
     1
 62
     7
176
     1
 40
1.0
176
     1
 90
        1
176
     1
 90
        6
176
     1
 90
        2
176
     1
 62
     7
176
     1
 90
        5
176
     1
 90
        0
176
     1
 90
        0
176
     1
290
     0
176
     1
 90
        1
176
     1
 40
-50.0
176
     1
 90
        0
176
     1
290
     0
176
     1
290
     1
176
     1
290
     1
176
     1
290
     0
176
     1
290
     0
176
     1
290
     0
176
     1
290
     0
176
     1
290
     0
176
     1
290
     0
176
     1
 90
       50
176
     1
 40
0.0
176
     1
 40
1.0
176
     1
 90
        0
176
     1
 62
   178
420
        0
176
     1
 90
       50
176
     1
 90
        3
176
     1
 62
     5
420
      255
176
     1
290
     0
176
     1
 90
       50
176
     1
 90
       50
176
     1
 90
       50
176
     1
290
     0
176
     1
 90
       50
176
     1
 62
   256
176
     0
 40
1.0
176
     0
 90
        2
176
     1
  1
strokes_ogs.tif
176
     1
290
     0
176
     1
 40
1.0
176
     1
 40
1.0
176
     1
  0
VISUALSTYLE
  5
3D
102
{ACAD_REACTORS
330
2A
102
}
330
2A
100
AcDbVisualStyle
  2
EdgeColorOff
 70
    22
177
     3
291
     1
 70
    58
 90
        2
176
     0
 90
        2
176
     0
 90
        0
176
     0
 90
        0
176
     0
 40
0.6
176
     0
 40
30.0
176
     0
 62
     7
420
 16777215
176
     0
 90
        1
176
     0
 90
        4
176
     0
 62
     7
176
     0
 62
   257
176
     0
 90
        1
176
     0
 90
        1
176
     0
 40
1.0
176
     0
 90
        8
176
     2
 62
     7
176
     0
 40
1.0
176
     0
 90
        1
176
     0
 90
        6
176
     0
 90
        2
176
     0
 62
     7
176
     0
 90
        5
176
     0
 90
        0
176
     0
 90
        0
176
     0
290
     0
176
     0
 90
        1
176
     0
 40
0.0
176
     0
 90
        0
176
     0
290
     0
176
     0
290
     1
176
     0
290
     1
176
     0
290
     0
176
     0
290
     0
176
     0
290
     0
176
     0
290
     0
176
     0
290
     0
176
     0
290
     0
176
     0
 90
       50
176
     0
 40
0.0
176
     0
 40
1.0
176
     0
 90
        0
176
     0
 62
   178
420
        0
176
     0
 90
       50
176
     0
 90
        3
176
     0
 62
     5
420
      255
176
     0
290
     0
176
     0
 90
       50
176
     0
 90
       50
176
     0
 90
       50
176
     0
290
     0
176
     0
 90
       50
176
     0
 62
   256
176
     0
 40
1.0
176
     0
 90
        2
176
     0
  1
strokes_ogs.tif
176
     0
290
     0
176
     0
 40
1.0
176
     0
 40
1.0
176
     0
  0
VISUALSTYLE
  5
39
102
{ACAD_REACTORS
330
2A
102
}
330
2A
100
AcDbVisualStyle
  2
Facepattern
 70
    15
177
     3
291
     1
 70
    58
 90
        2
176
     1
 90
        2
176
     1
 90
        0
176
     1
 90
        0
176
     1
 40
0.6
176
     1
 40
30.0
176
     1
 62
     7
420
 16777215
176
     1
 90
        1
176
     1
 90
        4
176
     1
 62
     7
176
     1
 62
   257
176
     1
 90
        1
176
     1
 90
        1
176
     1
 40
1.0
176
     1
 90
        8
176
     1
 62
     7
176
     1
 40
1.0
176
     1
 90
        1
176
     1
 90
        6
176
     1
 90
        2
176
     1
 62
     7
176
     1
 90
        5
176
     1
 90
        0
176
     1
 90
        0
176
     1
290
     0
176
     1
 90
        1
176
     1
 40
0.0
176
     1
 90
        0
176
     1
290
     0
176
     1
290
     1
176
     1
290
     1
176
     1
290
     0
176
     1
290
     0
176
     1
290
     0
176
     1
290
     0
176
     1
290
     0
176
     1
290
     0
176
     1
 90
       50
176
     1
 40
0.0
176
     1
 40
1.0
176
     1
 90
        0
176
     1
 62
   178
420
        0
176
     1
 90
       50
176
     1
 90
        3
176
     1
 62
     5
420
      255
176
     1
290
     0
176
     1
 90
       50
176
     1
 90
       50
176
     1
 90
       50
176
     1
290
     0
176
     1
 90
       50
176
     1
 62
   256
176
     0
 40
1.0
176
     0
 90
        2
176
     1
  1
strokes_ogs.tif
176
     1
290
     0
176
     1
 40
1.0
176
     1
 40
1.0
176
     1
  0
VISUALSTYLE
  5
2B
102
{ACAD_REACTORS
330
2A
102
}
330
2A
100
AcDbVisualStyle
  2
Flat
 70
     0
177
     3
291
     1
 70
    58
 90
        2
176
     1
 90
        1
176
     1
 90
        1
176
     1
 90
        2
176
     1
 40
0.6
176
     1
 40
30.0
176
     1
 62
     7
420
 16777215
176
     1
 90
        0
176
     1
 90
        0
176
     1
 62
     7
176
     1
 62
   257
176
     1
 90
        1
176
     1
 90
        1
176
     1
 40
1.0
176
     1
 90
        8
176
     1
 62
     7
176
     1
 40
1.0
176
     1
 90
        1
176
     1
 90
        6
176
     1
 90
        2
176
     1
 62
     7
176
     1
 90
        5
176
     1
 90
        0
176
     1
 90
        0
176
     1
290
     0
176
     1
 90
       13
176
     1
 40
0.0
176
     1
 90
        0
176
     1
290
     0
176
     1
290
     1
176
     1
290
     1
176
     1
290
     0
176
     1
290
     0
176
     1
290
     0
176
     1
290
     0
176
     1
290
     0
176
     1
290
     0
176
     1
 90
       50
176
     1
 40
0.0
176
     1
 40
1.0
176
     1
 90
        0
176
     1
 62
   178
420
        0
176
     1
 90
       50
176
     1
 90
        3
176
     1
 62
     5
420
      255
176
     1
290
     0
176
     1
 90
       50
176
     1
 90
       50
176
     1
 90
       50
176
     1
290
     0
176
     1
 90
       50
176
     1
 62
   256
176
     0
 40
1.0
176
     0
 90
        2
176
     1
  1
strokes_ogs.tif
176
     1
290
     0
176
     1
 40
1.0
176
     1
 40
1.0
176
     1
  0
VISUALSTYLE
  5
2C
102
{ACAD_REACTORS
330
2A
102
}
330
2A
100
AcDbVisualStyle
  2
FlatWithEdges
 70
     1
177
     3
291
     1
 70
    58
 90
        2
176
     1
 90
        1
176
     1
 90
        1
176
     1
 90
        2
176
     1
 40
0.6
176
     1
 40
30.0
176
     1
 62
     7
420
 16777215
176
     1
 90
        1
176
     1
 90
        0
176
     1
 62
     7
176
     1
 62
   257
176
     1
 90
        1
176
     1
 90
        1
176
     1
 40
1.0
176
     1
 90
        0
176
     1
 62
   257
176
     1
 40
1.0
176
     1
 90
        1
176
     1
 90
        6
176
     1
 90
        2
176
     1
 62
     7
176
     1
 90
        5
176
     1
 90
        0
176
     1
 90
        0
176
     1
290
     0
176
     1
 90
       13
176
     1
 40
0.0
176
     1
 90
        0
176
     1
290
     0
176
     1
290
     1
176
     1
290
     1
176
     1
290
     0
176
     1
290
     0
176
     1
290
     0
176
     1
290
     0
176
     1
290
     0
176
     1
290
     0
176
     1
 90
       50
176
     1
 40
0.0
176
     1
 40
1.0
176
     1
 90
        0
176
     1
 62
   178
420
        0
176
     1
 90
       50
176
     1
 90
        3
176
     1
 62
     5
420
      255
176
     1
290
     0
176
     1
 90
       50
176
     1
 90
       50
176
     1
 90
       50
176
     1
290
     0
176
     1
 90
       50
176
     1
 62
   256
176
     0
 40
1.0
176
     0
 90
        2
176
     1
  1
strokes_ogs.tif
176
     1
290
     0
176
     1
 40
1.0
176
     1
 40
1.0
176
     1
  0
VISUALSTYLE
  5
2D
102
{ACAD_REACTORS
330
2A
102
}
330
2A
100
AcDbVisualStyle
  2
Gouraud
 70
     2
177
     3
291
     1
 70
    58
 90
        2
176
     1
 90
        2
176
     1
 90
        1
176
     1
 90
        2
176
     1
 40
0.6
176
     1
 40
30.0
176
     1
 62
     7
420
 16777215
176
     1
 90
        0
176
     1
 90
        0
176
     1
 62
     7
176
     1
 62
   257
176
     1
 90
        1
176
     1
 90
        1
176
     1
 40
1.0
176
     1
 90
        0
176
     1
 62
     7
176
     1
 40
1.0
176
     1
 90
        1
176
     1
 90
        6
176
     1
 90
        2
176
     1
 62
     7
176
     1
 90
        5
176
     1
 90
        0
176
     1
 90
        0
176
     1
290
     0
176
     1
 90
       13
176
     1
 40
0.0
176
     1
 90
        0
176
     1
290
     0
176
     1
290
     1
176
     1
290
     1
176
     1
290
     0
176
     1
290
     0
176
     1
290
     0
176
     1
290
     0
176
     1
290
     0
176
     1
290
     0
176
     1
 90
       50
176
     1
 40
0.0
176
     1
 40
1.0
176
     1
 90
        0
176
     1
 62
   178
420
        0
176
     1
 90
       50
176
     1
 90
        3
176
     1
 62
     5
420
      255
176
     1
290
     0
176
     1
 90
       50
176
     1
 90
       50
176
     1
 90
       50
176
     1
290
     0
176
     1
 90
       50
176
     1
 62
   256
176
     0
 40
1.0
176
     0
 90
        2
176
     1
  1
strokes_ogs.tif
176
     1
290
     0
176
     1
 40
1.0
176
     1
 40
1.0
176
     1
  0
VISUALSTYLE
  5
2E
102
{ACAD_REACTORS
330
2A
102
}
330
2A
100
AcDbVisualStyle
  2
GouraudWithEdges
 70
     3
177
     3
291
     1
 70
    58
 90
        2
176
     1
 90
        2
176
     1
 90
        1
176
     1
 90
        2
176
     1
 40
0.6
176
     1
 40
30.0
176
     1
 62
     7
420
 16777215
176
     1
 90
        1
176
     1
 90
        0
176
     1
 62
     7
176
     1
 62
   257
176
     1
 90
        1
176
     1
 90
        1
176
     1
 40
1.0
176
     1
 90
        0
176
     1
 62
   257
176
     1
 40
1.0
176
     1
 90
        1
176
     1
 90
        6
176
     1
 90
        2
176
     1
 62
     7
176
     1
 90
        5
176
     1
 90
        0
176
     1
 90
        0
176
     1
290
     0
176
     1
 90
       13
176
     1
 40
0.0
176
     1
 90
        0
176
     1
290
     0
176
     1
290
     1
176
     1
290
     1
176
     1
290
     0
176
     1
290
     0
176
     1
290
     0
176
     1
290
     0
176
     1
290
     0
176
     1
290
     0
176
     1
 90
       50
176
     1
 40
0.0
176
     1
 40
1.0
176
     1
 90
        0
176
     1
 62
   178
420
        0
176
     1
 90
       50
176
     1
 90
        3
176
     1
 62
     5
420
      255
176
     1
290
     0
176
     1
 90
       50
176
     1
 90
       50
176
     1
 90
       50
176
     1
290
     0
176
     1
 90
       50
176
     1
 62
   256
176
     0
 40
1.0
176
     0
 90
        2
176
     1
  1
strokes_ogs.tif
176
     1
290
     0
176
     1
 40
1.0
176
     1
 40
1.0
176
     1
  0
VISUALSTYLE
  5
31
102
{ACAD_REACTORS
330
2A
102
}
330
2A
100
AcDbVisualStyle
  2
Hidden
 70
     6
177
     3
291
     0
 70
    58
 90
        1
176
     1
 90
        2
176
     1
 90
        2
176
     1
 90
        0
176
     1
 40
0.6
176
     1
 40
30.0
176
     1
 62
     7
420
 16777215
176
     1
 90
        2
176
     1
 90
        2
176
     1
 62
     7
176
     1
 62
   257
176
     1
 90
        2
176
     1
 90
        1
176
     1
 40
40.0
176
     1
 90
        0
176
     1
 62
   257
176
     1
 40
1.0
176
     1
 90
        1
176
     1
 90
        6
176
     1
 90
        2
176
     1
 62
     7
176
     1
 90
        3
176
     1
 90
        0
176
     1
 90
        0
176
     1
290
     0
176
     1
 90
        1
176
     1
 40
0.0
176
     1
 90
        0
176
     1
290
     0
176
     1
290
     1
176
     1
290
     1
176
     1
290
     0
176
     1
290
     0
176
     1
290
     0
176
     1
290
     0
176
     1
290
     0
176
     1
290
     0
176
     1
 90
       50
176
     1
 40
0.0
176
     1
 40
1.0
176
     1
 90
        0
176
     1
 62
   178
420
        0
176
     1
 90
       50
176
     1
 90
        3
176
     1
 62
     5
420
      255
176
     1
290
     0
176
     1
 90
       50
176
     1
 90
       50
176
     1
 90
       50
176
     1
290
     0
176
     1
 90
       50
176
     1
 62
   256
176
     0
 40
1.0
176
     0
 90
        2
176
     1
  1
strokes_ogs.tif
176
     1
290
     0
176
     1
 40
1.0
176
     1
 40
1.0
176
     1
  0
VISUALSTYLE
  5
3B
102
{ACAD_REACTORS
330
2A
102
}
330
2A
100
AcDbVisualStyle
  2
JitterOff
 70
    20
177
     3
291
     1
 70
    58
 90
        2
176
     0
 90
        2
176
     0
 90
        0
176
     0
 90
        0
176
     0
 40
0.6
176
     0
 40
30.0
176
     0
 62
     7
420
 16777215
176
     0
 90
        1
176
     0
 90
        4
176
     0
 62
     7
176
     0
 62
   257
176
     0
 90
        1
176
     0
 90
        1
176
     0
 40
1.0
176
     0
 90
       10
176
     2
 62
     7
176
     0
 40
1.0
176
     0
 90
        1
176
     0
 90
        6
176
     0
 90
        2
176
     0
 62
     7
176
     0
 90
        5
176
     0
 90
        0
176
     0
 90
        0
176
     0
290
     0
176
     0
 90
        1
176
     0
 40
0.0
176
     0
 90
        0
176
     0
290
     0
176
     0
290
     1
176
     0
290
     1
176
     0
290
     0
176
     0
290
     0
176
     0
290
     0
176
     0
290
     0
176
     0
290
     0
176
     0
290
     0
176
     0
 90
       50
176
     0
 40
0.0
176
     0
 40
1.0
176
     0
 90
        0
176
     0
 62
   178
420
        0
176
     0
 90
       50
176
     0
 90
        3
176
     0
 62
     5
420
      255
176
     0
290
     0
176
     0
 90
       50
176
     0
 90
       50
176
     0
 90
       50
176
     0
290
     0
176
     0
 90
       50
176
     0
 62
   256
176
     0
 40
1.0
176
     0
 90
        2
176
     0
  1
strokes_ogs.tif
176
     0
290
     0
176
     0
 40
1.0
176
     0
 40
1.0
176
     0
  0
VISUALSTYLE
  5
38
102
{ACAD_REACTORS
330
2A
102
}
330
2A
100
AcDbVisualStyle
  2
Linepattern
 70
    14
177
     3
291
     1
 70
    58
 90
        2
176
     1
 90
        2
176
     1
 90
        0
176
     1
 90
        0
176
     1
 40
0.6
176
     1
 40
30.0
176
     1
 62
     7
420
 16777215
176
     1
 90
        1
176
     1
 90
        4
176
     1
 62
     7
176
     1
 62
   257
176
     1
 90
        7
176
     1
 90
        7
176
     1
 40
1.0
176
     1
 90
        8
176
     1
 62
     7
176
     1
 40
1.0
176
     1
 90
        1
176
     1
 90
        6
176
     1
 90
        2
176
     1
 62
     7
176
     1
 90
        5
176
     1
 90
        0
176
     1
 90
        0
176
     1
290
     0
176
     1
 90
        1
176
     1
 40
0.0
176
     1
 90
        0
176
     1
290
     0
176
     1
290
     1
176
     1
290
     1
176
     1
290
     0
176
     1
290
     0
176
     1
290
     0
176
     1
290
     0
176
     1
290
     0
176
     1
290
     0
176
     1
 90
       50
176
     1
 40
0.0
176
     1
 40
1.0
176
     1
 90
        0
176
     1
 62
   178
420
        0
176
     1
 90
       50
176
     1
 90
        3
176
     1
 62
     5
420
      255
176
     1
290
     0
176
     1
 90
       50
176
     1
 90
       50
176
     1
 90
       50
176
     1
290
     0
176
     1
 90
       50
176
     1
 62
   256
176
     0
 40
1.0
176
     0
 90
        2
176
     1
  1
strokes_ogs.tif
176
     1
290
     0
176
     1
 40
1.0
176
     1
 40
1.0
176
     1
  0
VISUALSTYLE
  5
3C
102
{ACAD_REACTORS
330
2A
102
}
330
2A
100
AcDbVisualStyle
  2
OverhangOff
 70
    21
177
     3
291
     1
 70
    58
 90
        2
176
     0
 90
        2
176
     0
 90
        0
176
     0
 90
        0
176
     0
 40
0.6
176
     0
 40
30.0
176
     0
 62
     7
420
 16777215
176
     0
 90
        1
176
     0
 90
        4
176
     0
 62
     7
176
     0
 62
   257
176
     0
 90
        1
176
     0
 90
        1
176
     0
 40
1.0
176
     0
 90
        9
176
     2
 62
     7
176
     0
 40
1.0
176
     0
 90
        1
176
     0
 90
        6
176
     0
 90
        2
176
     0
 62
     7
176
     0
 90
        5
176
     0
 90
        0
176
     0
 90
        0
176
     0
290
     0
176
     0
 90
        1
176
     0
 40
0.0
176
     0
 90
        0
176
     0
290
     0
176
     0
290
     1
176
     0
290
     1
176
     0
290
     0
176
     0
290
     0
176
     0
290
     0
176
     0
290
     0
176
     0
290
     0
176
     0
290
     0
176
     0
 90
       50
176
     0
 40
0.0
176
     0
 40
1.0
176
     0
 90
        0
176
     0
 62
   178
420
        0
176
     0
 90
       50
176
     0
 90
        3
176
     0
 62
     5
420
      255
176
     0
290
     0
176
     0
 90
       50
176
     0
 90
       50
176
     0
 90
       50
176
     0
290
     0
176
     0
 90
       50
176
     0
 62
   256
176
     0
 40
1.0
176
     0
 90
        2
176
     0
  1
strokes_ogs.tif
176
     0
290
     0
176
     0
 40
1.0
176
     0
 40
1.0
176
     0
  0
VISUALSTYLE
  5
33
102
{ACAD_REACTORS
330
2A
102
}
330
2A
100
AcDbVisualStyle
  2
Realistic
 70
     8
177
     3
291
     0
 70
    58
 90
        2
176
     1
 90
        3
176
     1
 90
        0
176
     1
 90
        2
176
     1
 40
0.6
176
     1
 40
30.0
176
     1
 62
     7
420
 16777215
176
     1
 90
        0
176
     1
 90
        0
176
     1
 62
     7
176
     1
 62
   257
176
     1
 90
        1
176
     1
 90
        1
176
     1
 40
1.0
176
     1
 90
        8
176
     1
 62
   257
176
     1
 40
1.0
176
     1
 90
        1
176
     1
 90
        6
176
     1
 90
        2
176
     1
 62
     7
176
     1
 90
        3
176
     1
 90
        0
176
     1
 90
        0
176
     1
290
     0
176
     1
 90
       13
176
     1
 40
0.0
176
     1
 90
        0
176
     1
290
     0
176
     1
290
     1
176
     1
290
     1
176
     1
290
     0
176
     1
290
     0
176
     1
290
     0
176
     1
290
     0
176
     1
290
     0
176
     1
290
     0
176
     1
 90
       50
176
     1
 40
0.0
176
     1
 40
1.0
176
     1
 90
        0
176
     1
 62
   178
420
        0
176
     1
 90
       50
176
     1
 90
        3
176
     1
 62
     5
420
      255
176
     1
290
     0
176
     1
 90
       50
176
     1
 90
       50
176
     1
 90
       50
176
     1
290
     0
176
     1
 90
       50
176
     1
 62
   256
176
     0
 40
1.0
176
     0
 90
        2
176
     1
  1
strokes_ogs.tif
176
     1
290
     0
176
     1
 40
1.0
176
     1
 40
1.0
176
     1
  0
VISUALSTYLE
  5
42
102
{ACAD_REACTORS
330
2A
102
}
330
2A
100
AcDbVisualStyle
  2
Shaded
 70
    27
177
     3
291
     0
 70
    58
 90
        2
176
     1
 90
        2
176
     1
 90
        1
176
     1
 90
        2
176
     1
 40
0.6
176
     1
 40
30.0
176
     1
 62
     7
420
 16777215
176
     1
 90
        0
176
     1
 90
        4
176
     1
 62
     7
176
     1
 62
   257
176
     1
 90
        1
176
     1
 90
        1
176
     1
 40
1.0
176
     1
 90
        8
176
     1
 62
   257
176
     1
 40
1.0
176
     1
 90
        1
176
     1
 90
        6
176
     1
 90
        2
176
     1
 62
     8
420
  7895160
176
     1
 90
        3
176
     1
 90
        0
176
     1
 90
        0
176
     1
290
     0
176
     1
 90
        5
176
     1
 40
0.0
176
     1
 90
        0
176
     1
290
     0
176
     1
290
     1
176
     1
290
     1
176
     1
290
     0
176
     1
290
     0
176
     1
290
     0
176
     1
290
     0
176
     1
290
     0
176
     1
290
     0
176
     1
 90
       50
176
     1
 40
0.0
176
     1
 40
1.0
176
     1
 90
        0
176
     1
 62
   178
420
        0
176
     1
 90
       50
176
     1
 90
        3
176
     1
 62
     5
420
      255
176
     1
290
     0
176
     1
 90
       50
176
     1
 90
       50
176
     1
 90
       50
176
     1
290
     0
176
     1
 90
       50
176
     1
 62
   256
176
     0
 40
1.0
176
     0
 90
        2
176
     1
  1
strokes_ogs.tif
176
     1
290
     0
176
     1
 40
1.0
176
     1
 40
1.0
176
     1
  0
VISUALSTYLE
  5
41
102
{ACAD_REACTORS
330
2A
102
}
330
2A
100
AcDbVisualStyle
  2
Shaded with edges
 70
    26
177
     3
291
     0
 70
    58
 90
        2
176
     1
 90
        2
176
     1
 90
        1
176
     1
 90
        2
176
     1
 40
0.6
176
     1
 40
30.0
176
     1
 62
     7
420
 16777215
176
     1
 90
        1
176
     1
 90
       10
176
     1
 62
     7
176
     1
 62
   257
176
     1
 90
        2
176
     1
 90
        1
176
     1
 40
1.0
176
     1
 90
        8
176
     1
 62
   257
176
     1
 40
1.0
176
     1
 90
        1
176
     1
 90
        6
176
     1
 90
        2
176
     1
 62
     7
176
     1
 90
        3
176
     1
 90
        0
176
     1
 90
        0
176
     1
290
     0
176
     1
 90
        5
176
     1
 40
0.0
176
     1
 90
        0
176
     1
290
     0
176
     1
290
     1
176
     1
290
     1
176
     1
290
     0
176
     1
290
     0
176
     1
290
     0
176
     1
290
     0
176
     1
290
     0
176
     1
290
     0
176
     1
 90
       50
176
     1
 40
0.0
176
     1
 40
1.0
176
     1
 90
        0
176
     1
 62
   178
420
        0
176
     1
 90
       50
176
     1
 90
        3
176
     1
 62
     5
420
      255
176
     1
290
     0
176
     1
 90
       50
176
     1
 90
       50
176
     1
 90
       50
176
     1
290
     0
176
     1
 90
       50
176
     1
 62
   256
176
     0
 40
1.0
176
     0
 90
        2
176
     1
  1
strokes_ogs.tif
176
     1
290
     0
176
     1
 40
1.0
176
     1
 40
1.0
176
     1
  0
VISUALSTYLE
  5
3E
102
{ACAD_REACTORS
330
2A
102
}
330
2A
100
AcDbVisualStyle
  2
Shades of Gray
 70
    23
177
     3
291
     0
 70
    58
 90
        2
176
     1
 90
        2
176
     1
 90
        3
176
     1
 90
        0
176
     1
 40
0.6
176
     1
 40
30.0
176
     1
 62
     7
420
 16777215
176
     1
 90
        2
176
     1
 90
        2
176
     1
 62
     7
176
     1
 62
     7
176
     1
 90
        1
176
     1
 90
        1
176
     1
 40
40.0
176
     1
 90
        8
176
     1
 62
     7
176
     1
 40
1.0
176
     1
 90
        1
176
     1
 90
        6
176
     1
 90
        2
176
     1
 62
     7
176
     1
 90
        3
176
     1
 90
        0
176
     1
 90
        0
176
     1
290
     0
176
     1
 90
        1
176
     1
 40
0.0
176
     1
 90
        0
176
     1
290
     0
176
     1
290
     1
176
     1
290
     1
176
     1
290
     0
176
     1
290
     0
176
     1
290
     0
176
     1
290
     0
176
     1
290
     0
176
     1
290
     0
176
     1
 90
       50
176
     1
 40
0.0
176
     1
 40
1.0
176
     1
 90
        0
176
     1
 62
   178
420
        0
176
     1
 90
       50
176
     1
 90
        3
176
     1
 62
     5
420
      255
176
     1
290
     0
176
     1
 90
       50
176
     1
 90
       50
176
     1
 90
       50
176
     1
290
     0
176
     1
 90
       50
176
     1
 62
   256
176
     0
 40
1.0
176
     0
 90
        2
176
     1
  1
strokes_ogs.tif
176
     1
290
     0
176
     1
 40
1.0
176
     1
 40
1.0
176
     1
  0
VISUALSTYLE
  5
3F
102
{ACAD_REACTORS
330
2A
102
}
330
2A
100
AcDbVisualStyle
  2
Sketchy
 70
    24
177
     3
291
     0
 70
    58
 90
        1
176
     1
 90
        2
176
     1
 90
        2
176
     1
 90
        0
176
     1
 40
0.6
176
     1
 40
30.0
176
     1
 62
     7
420
 16777215
176
     1
 90
        2
176
     1
 90
        2
176
     1
 62
     7
176
     1
 62
     7
176
     1
 90
        1
176
     1
 90
        1
176
     1
 40
40.0
176
     1
 90
       11
176
     1
 62
     7
176
     1
 40
1.0
176
     1
 90
        1
176
     1
 90
        6
176
     1
 90
        2
176
     1
 62
     7
176
     1
 90
        6
176
     1
 90
        0
176
     1
 90
        0
176
     1
290
     0
176
     1
 90
        1
176
     1
 40
0.0
176
     1
 90
        0
176
     1
290
     0
176
     1
290
     1
176
     1
290
     1
176
     1
290
     0
176
     1
290
     0
176
     1
290
     0
176
     1
290
     0
176
     1
290
     0
176
     1
290
     0
176
     1
 90
       50
176
     1
 40
0.0
176
     1
 40
1.0
176
     1
 90
        0
176
     1
 62
   178
420
        0
176
     1
 90
       50
176
     1
 90
        3
176
     1
 62
     5
420
      255
176
     1
290
     0
176
     1
 90
       50
176
     1
 90
       50
176
     1
 90
       50
176
     1
290
     0
176
     1
 90
       50
176
     1
 62
   256
176
     0
 40
1.0
176
     0
 90
        2
176
     1
  1
strokes_ogs.tif
176
     1
290
     0
176
     1
 40
1.0
176
     1
 40
1.0
176
     1
  0
VISUALSTYLE
  5
37
102
{ACAD_REACTORS
330
2A
102
}
330
2A
100
AcDbVisualStyle
  2
Thicken
 70
    13
177
     3
291
     1
 70
    58
 90
        2
176
     1
 90
        2
176
     1
 90
        0
176
     1
 90
        0
176
     1
 40
0.6
176
     1
 40
30.0
176
     1
 62
     7
420
 16777215
176
     1
 90
        1
176
     1
 90
        4
176
     1
 62
     7
176
     1
 62
   257
176
     1
 90
        1
176
     1
 90
        1
176
     1
 40
1.0
176
     1
 90
       12
176
     1
 62
     7
176
     1
 40
1.0
176
     1
 90
        1
176
     1
 90
        6
176
     1
 90
        2
176
     1
 62
     7
176
     1
 90
        5
176
     1
 90
        0
176
     1
 90
        0
176
     1
290
     0
176
     1
 90
        1
176
     1
 40
0.0
176
     1
 90
        0
176
     1
290
     0
176
     1
290
     1
176
     1
290
     1
176
     1
290
     0
176
     1
290
     0
176
     1
290
     0
176
     1
290
     0
176
     1
290
     0
176
     1
290
     0
176
     1
 90
       50
176
     1
 40
0.0
176
     1
 40
1.0
176
     1
 90
        0
176
     1
 62
   178
420
        0
176
     1
 90
       50
176
     1
 90
        3
176
     1
 62
     5
420
      255
176
     1
290
     0
176
     1
 90
       50
176
     1
 90
       50
176
     1
 90
       50
176
     1
290
     0
176
     1
 90
       50
176
     1
 62
   256
176
     0
 40
1.0
176
     0
 90
        2
176
     1
  1
strokes_ogs.tif
176
     1
290
     0
176
     1
 40
1.0
176
     1
 40
1.0
176
     1
  0
VISUALSTYLE
  5
30
102
{ACAD_REACTORS
330
2A
102
}
330
2A
100
AcDbVisualStyle
  2
Wireframe
 70
     5
177
     3
291
     0
 70
    58
 90
        0
176
     1
 90
        2
176
     1
 90
        0
176
     1
 90
        0
176
     1
 40
0.6
176
     1
 40
30.0
176
     1
 62
     7
420
 16777215
176
     1
 90
        1
176
     1
 90
        4
176
     1
 62
     7
176
     1
 62
   257
176
     1
 90
        1
176
     1
 90
        1
176
     1
 40
1.0
176
     1
 90
        0
176
     1
 62
   257
176
     1
 40
1.0
176
     1
 90
        1
176
     1
 90
        6
176
     1
 90
        2
176
     1
 62
     7
176
     1
 90
        3
176
     1
 90
        0
176
     1
 90
        0
176
     1
290
     0
176
     1
 90
        1
176
     1
 40
0.0
176
     1
 90
        0
176
     1
290
     0
176
     1
290
     1
176
     1
290
     1
176
     1
290
     0
176
     1
290
     0
176
     1
290
     0
176
     1
290
     0
176
     1
290
     0
176
     1
290
     0
176
     1
 90
       50
176
     1
 40
0.0
176
     1
 40
1.0
176
     1
 90
        0
176
     1
 62
   178
420
        0
176
     1
 90
       50
176
     1
 90
        3
176
     1
 62
     5
420
      255
176
     1
290
     0
176
     1
 90
       50
176
     1
 90
       50
176
     1
 90
       50
176
     1
290
     0
176
     1
 90
       50
176
     1
 62
   256
176
     0
 40
1.0
176
     0
 90
        2
176
     1
  1
strokes_ogs.tif
176
     1
290
     0
176
     1
 40
1.0
176
     1
 40
1.0
176
     1
  0
VISUALSTYLE
  5
40
102
{ACAD_REACTORS
330
2A
102
}
330
2A
100
AcDbVisualStyle
  2
X-Ray
 70
    25
177
     3
291
     0
 70
    58
 90
        2
176
     1
 90
        2
176
     1
 90
        1
176
     1
 90
        1
176
     1
 40
0.5
176
     1
 40
30.0
176
     1
 62
     7
420
 16777215
176
     1
 90
        1
176
     1
 90
        0
176
     1
 62
     7
176
     1
 62
   257
176
     1
 90
        1
176
     1
 90
        1
176
     1
 40
1.0
176
     1
 90
        8
176
     1
 62
     7
176
     1
 40
1.0
176
     1
 90
        1
176
     1
 90
        6
176
     1
 90
        2
176
     1
 62
     7
176
     1
 90
        3
176
     1
 90
        0
176
     1
 90
        0
176
     1
290
     0
176
     1
 90
       13
176
     1
 40
0.0
176
     1
 90
        0
176
     1
290
     0
176
     1
290
     1
176
     1
290
     1
176
     1
290
     0
176
     1
290
     0
176
     1
290
     0
176
     1
290
     0
176
     1
290
     0
176
     1
290
     0
176
     1
 90
       50
176
     1
 40
0.0
176
     1
 40
1.0
176
     1
 90
        0
176
     1
 62
   178
420
        0
176
     1
 90
       50
176
     1
 90
        3
176
     1
 62
     5
420
      255
176
     1
290
     0
176
     1
 90
       50
176
     1
 90
       50
176
     1
 90
       50
176
     1
290
     0
176
     1
 90
       50
176
     1
 62
   256
176
     0
 40
1.0
176
     0
 90
        2
176
     1
  1
strokes_ogs.tif
176
     1
290
     0
176
     1
 40
1.0
176
     1
 40
1.0
176
     1
  0
DICTIONARYVAR
  5
467
102
{ACAD_REACTORS
330
466
102
}
330
466
100
DictionaryVariables
280
     0
  1
1:1
  0
DICTIONARYVAR
  5
46C
102
{ACAD_REACTORS
330
466
102
}
330
466
100
DictionaryVariables
280
     0
  1
Standard
  0
DICTIONARYVAR
  5
46B
102
{ACAD_REACTORS
330
466
102
}
330
466
100
DictionaryVariables
280
     0
  1
Standard
  0
DICTIONARY
  5
468
330
6A
100
AcDbDictionary
280
     1
281
     1
  3
ACAD_ROUNDTRIP_2008_TABLESTYLE_CELLSTYLEMAP
360
469
  0
CELLSTYLEMAP
  5
469
102
{ACAD_REACTORS
330
468
102
}
330
468
100
AcDbCellStyleMap
 90
        3
300
CELLSTYLE
  1
TABLEFORMAT_BEGIN
 90
        5
170
     1
 91
        0
 92
    32768
 62
   257
 93
        1
300
CONTENTFORMAT
  1
CONTENTFORMAT_BEGIN
 90
        0
 91
        0
 92
        4
 93
        0
300

 40
0.0
140
1.0
 94
        5
 62
     0
340
11
144
6.0
309
CONTENTFORMAT_END
171
     1
301
MARGIN
  1
CELLMARGIN_BEGIN
 40
1.5
 40
1.5
 40
1.5
 40
1.5
 40
1.5
 40
1.5
309
CELLMARGIN_END
 94
        6
 95
        1
302
GRIDFORMAT
  1
GRIDFORMAT_BEGIN
 90
        0
 91
        1
 62
     0
 92
       -2
340
14
 93
        0
 40
0.045
309
GRIDFORMAT_END
 95
        2
302
GRIDFORMAT
  1
GRIDFORMAT_BEGIN
 90
        0
 91
        1
 62
     0
 92
       -2
340
14
 93
        0
 40
0.045
309
GRIDFORMAT_END
 95
        4
302
GRIDFORMAT
  1
GRIDFORMAT_BEGIN
 90
        0
 91
        1
 62
     0
 92
       -2
340
14
 93
        0
 40
0.045
309
GRIDFORMAT_END
 95
        8
302
GRIDFORMAT
  1
GRIDFORMAT_BEGIN
 90
        0
 91
        1
 62
     0
 92
       -2
340
14
 93
        0
 40
0.045
309
GRIDFORMAT_END
 95
       16
302
GRIDFORMAT
  1
GRIDFORMAT_BEGIN
 90
        0
 91
        1
 62
     0
 92
       -2
340
14
 93
        0
 40
0.045
309
GRIDFORMAT_END
 95
       32
302
GRIDFORMAT
  1
GRIDFORMAT_BEGIN
 90
        0
 91
        1
 62
     0
 92
       -2
340
14
 93
        0
 40
0.045
309
GRIDFORMAT_END
309
TABLEFORMAT_END
  1
CELLSTYLE_BEGIN
 90
        1
 91
        1
300
_TITLE
309
CELLSTYLE_END
300
CELLSTYLE
  1
TABLEFORMAT_BEGIN
 90
        5
170
     1
 91
        0
 92
        0
 62
   257
 93
        1
300
CONTENTFORMAT
  1
CONTENTFORMAT_BEGIN
 90
        0
 91
        0
 92
        4
 93
        0
300

 40
0.0
140
1.0
 94
        5
 62
     0
340
11
144
4.5
309
CONTENTFORMAT_END
171
     1
301
MARGIN
  1
CELLMARGIN_BEGIN
 40
1.5
 40
1.5
 40
1.5
 40
1.5
 40
1.5
 40
1.5
309
CELLMARGIN_END
 94
        6
 95
        1
302
GRIDFORMAT
  1
GRIDFORMAT_BEGIN
 90
        0
 91
        1
 62
     0
 92
       -2
340
14
 93
        0
 40
0.045
309
GRIDFORMAT_END
 95
        2
302
GRIDFORMAT
  1
GRIDFORMAT_BEGIN
 90
        0
 91
        1
 62
     0
 92
       -2
340
14
 93
        0
 40
0.045
309
GRIDFORMAT_END
 95
        4
302
GRIDFORMAT
  1
GRIDFORMAT_BEGIN
 90
        0
 91
        1
 62
     0
 92
       -2
340
14
 93
        0
 40
0.045
309
GRIDFORMAT_END
 95
        8
302
GRIDFORMAT
  1
GRIDFORMAT_BEGIN
 90
        0
 91
        1
 62
     0
 92
       -2
340
14
 93
        0
 40
0.045
309
GRIDFORMAT_END
 95
       16
302
GRIDFORMAT
  1
GRIDFORMAT_BEGIN
 90
        0
 91
        1
 62
     0
 92
       -2
340
14
 93
        0
 40
0.045
309
GRIDFORMAT_END
 95
       32
302
GRIDFORMAT
  1
GRIDFORMAT_BEGIN
 90
        0
 91
        1
 62
     0
 92
       -2
340
14
 93
        0
 40
0.045
309
GRIDFORMAT_END
309
TABLEFORMAT_END
  1
CELLSTYLE_BEGIN
 90
        2
 91
        1
300
_HEADER
309
CELLSTYLE_END
300
CELLSTYLE
  1
TABLEFORMAT_BEGIN
 90
        5
170
     1
 91
        0
 92
        0
 62
   257
 93
        1
300
CONTENTFORMAT
  1
CONTENTFORMAT_BEGIN
 90
        0
 91
        0
 92
        4
 93
        0
300

 40
0.0
140
1.0
 94
        2
 62
     0
340
11
144
4.5
309
CONTENTFORMAT_END
171
     1
301
MARGIN
  1
CELLMARGIN_BEGIN
 40
1.5
 40
1.5
 40
1.5
 40
1.5
 40
1.5
 40
1.5
309
CELLMARGIN_END
 94
        6
 95
        1
302
GRIDFORMAT
  1
GRIDFORMAT_BEGIN
 90
        0
 91
        1
 62
     0
 92
       -2
340
14
 93
        0
 40
0.045
309
GRIDFORMAT_END
 95
        2
302
GRIDFORMAT
  1
GRIDFORMAT_BEGIN
 90
        0
 91
        1
 62
     0
 92
       -2
340
14
 93
        0
 40
0.045
309
GRIDFORMAT_END
 95
        4
302
GRIDFORMAT
  1
GRIDFORMAT_BEGIN
 90
        0
 91
        1
 62
     0
 92
       -2
340
14
 93
        0
 40
0.045
309
GRIDFORMAT_END
 95
        8
302
GRIDFORMAT
  1
GRIDFORMAT_BEGIN
 90
        0
 91
        1
 62
     0
 92
       -2
340
14
 93
        0
 40
0.045
309
GRIDFORMAT_END
 95
       16
302
GRIDFORMAT
  1
GRIDFORMAT_BEGIN
 90
        0
 91
        1
 62
     0
 92
       -2
340
14
 93
        0
 40
0.045
309
GRIDFORMAT_END
 95
       32
302
GRIDFORMAT
  1
GRIDFORMAT_BEGIN
 90
        0
 91
        1
 62
     0
 92
       -2
340
14
 93
        0
 40
0.045
309
GRIDFORMAT_END
309
TABLEFORMAT_END
  1
CELLSTYLE_BEGIN
 90
        3
 91
        2
300
_DATA
309
CELLSTYLE_END
  0
ENDSEC
  0
EOF
